osu file format v14

[General]
AudioFilename: audio.mp3
AudioLeadIn: 0
PreviewTime: 106
Countdown: 1
SampleSet: Normal
StackLeniency: 0.7
Mode: 0
LetterboxInBreaks: 0
WidescreenStoryboard: 0

[Editor]
Bookmarks: 17994,29919,41845,53770
DistanceSpacing: 1
BeatDivisor: 2
GridSize: 4
TimelineZoom: 1

[Metadata]
Title:Bring The Heat
TitleUnicode:Bring The Heat
Artist:Filmon Asmelash
ArtistUnicode:Filmon Asmelash
Creator:Arphimigon
Version:Playmaker
Source:Heat: Soul Cards
Tags:
BeatmapID:1711792
BeatmapSetID:816244

[Difficulty]
HPDrainRate:5
CircleSize:4
OverallDifficulty:8
ApproachRate:8.5
SliderMultiplier:1.8
SliderTickRate:1

[Events]
//Background and Video events
0,0,"fire.png",0,0
//Break Periods
//Storyboard Layer 0 (Background)
//Storyboard Layer 1 (Fail)
//Storyboard Layer 2 (Pass)
//Storyboard Layer 3 (Foreground)
//Storyboard Sound Samples

[TimingPoints]
106,372.670807453416,4,1,0,40,1,0
106,-133.333333333333,4,1,0,40,0,0
5975,-133.333333333333,4,1,0,5,0,0
6068,-100,4,1,0,70,0,0
17994,-111.111111111111,4,1,0,40,0,0
53770,-83.3333333333333,4,1,0,70,0,1
71658,-100,4,1,0,70,0,0

[HitObjects]
170,223,106,5,0,0:0:0:0:
170,102,292,1,0,0:0:0:0:
97,199,478,1,0,0:0:0:0:
212,161,665,1,0,0:0:0:0:
97,125,851,1,0,0:0:0:0:
342,223,1596,5,0,0:0:0:0:
342,102,1782,1,0,0:0:0:0:
415,199,1968,1,0,0:0:0:0:
300,161,2155,1,0,0:0:0:0:
415,125,2341,1,0,0:0:0:0:
202,340,3087,5,0,0:0:0:0:
256,174,3273,1,0,0:0:0:0:
310,340,3460,1,0,0:0:0:0:
169,236,3646,1,0,0:0:0:0:
344,236,3832,1,0,0:0:0:0:
222,314,4019,5,0,0:0:0:0:
257,208,4205,1,0,0:0:0:0:
291,314,4392,1,0,0:0:0:0:
201,248,4578,1,0,0:0:0:0:
344,236,4764,5,0,0:0:0:0:
202,340,4950,1,0,0:0:0:0:
256,174,5137,1,0,0:0:0:0:
310,340,5323,1,0,0:0:0:0:
161,63,5696,6,0,P|111:58|65:78,1,101.250003862381
19,136,6068,6,0,L|25:234,1,90,4|0,0:0|0:0,0:0:0:0:
215,176,6441,1,8,0:0:0:0:
135,321,6627,1,4,0:3:0:0:
300,145,6814,1,2,0:2:0:0:
380,290,7000,1,4,0:3:0:0:
126,193,7186,2,0,P|129:148|152:110,1,90,8|0,0:0|0:0,0:0:0:0:
354,90,7559,6,0,L|456:97,1,90,4|0,0:3|0:0,0:0:0:0:
506,254,7932,1,8,0:0:0:0:
441,364,8118,1,4,0:3:0:0:
240,190,8304,1,2,0:2:0:0:
305,300,8490,1,4,0:3:0:0:
353,89,8677,2,0,P|320:60|279:43,1,90,8|0,0:0|0:0,0:0:0:0:
110,267,9050,6,0,L|15:297,1,90,4|0,0:3|0:0,0:0:0:0:
185,122,9422,1,8,0:0:0:0:
229,279,9609,1,4,0:3:0:0:
90,33,9795,1,2,0:2:0:0:
46,190,9982,1,4,0:3:0:0:
289,51,10168,2,0,P|333:45|377:52,1,90,8|0,0:0|0:0,0:0:0:0:
483,254,10540,6,4,L|483:349,1,90,4|4,0:3|0:3,0:3:0:0:
320,199,10913,1,8,0:0:0:0:
344,339,11099,1,4,0:3:0:0:
242,123,11286,1,2,0:2:0:0:
218,263,11472,1,4,0:3:0:0:
38,145,11658,1,8,0:0:0:0:
84,363,11844,1,8,0:0:0:0:
145,81,12031,6,0,L|56:63,1,90,4|0,0:0|0:0,0:0:0:0:
249,40,12404,1,8,0:0:0:0:
396,61,12590,1,4,0:3:0:0:
215,195,12776,1,2,0:2:0:0:
68,174,12962,1,4,0:3:0:0:
302,293,13149,2,0,P|342:287|396:290,1,90,8|0,0:0|0:0,0:0:0:0:
200,345,13522,6,4,L|87:355,1,90,4|4,0:3|0:3,0:3:0:0:
9,163,13894,1,8,0:0:0:0:
186,128,14081,1,4,0:3:0:0:
424,232,14267,1,2,0:2:0:0:
247,267,14454,1,4,0:3:0:0:
152,33,14640,2,0,P|197:28|240:41,1,90,8|0,0:0|0:0,0:0:0:0:
446,165,15012,6,0,L|447:258,1,90,4|0,0:3|0:0,0:0:0:0:
287,341,15385,1,8,0:0:0:0:
133,353,15571,1,4,0:3:0:0:
20,214,15758,1,2,0:2:0:0:
174,202,15944,1,4,0:3:0:0:
244,39,16130,2,0,P|162:34|127:43,1,90,8|0,0:0|0:0,0:0:0:0:
52,214,16503,6,0,L|51:305,1,90,4|0,0:3|0:0,0:0:0:0:
242,341,16876,1,8,0:0:0:0:
292,196,17062,1,4,0:3:0:0:
248,186,17155,1,4,0:3:0:0:
204,192,17248,1,2,0:2:0:0:
384,290,17435,1,4,0:3:0:0:
387,245,17528,1,4,0:3:0:0:
391,200,17621,1,8,0:0:0:0:
395,155,17714,1,4,0:3:0:0:
399,110,17807,1,4,0:3:0:0:
181,256,17994,6,0,L|174:336,1,80.9999975280763,4|0,0:0|0:0,0:0:0:0:
136,172,18366,2,0,L|129:91,1,80.9999975280763,0|0,0:0|0:0,0:0:0:0:
92,256,18739,2,0,L|85:336,1,80.9999975280763,0|0,0:0|0:0,0:0:0:0:
33,177,19111,2,0,L|26:96,1,80.9999975280763,0|0,0:0|0:0,0:0:0:0:
243,186,19484,5,0,0:0:0:0:
243,186,19671,1,0,0:0:0:0:
376,167,19857,2,0,P|420:145|446:116,1,80.9999975280763,0|0,0:0|0:0,0:0:0:0:
243,186,20230,2,0,L|249:266,1,80.9999975280763,0|0,0:0|0:0,0:0:0:0:
287,101,20602,2,0,L|293:20,1,80.9999975280763,0|0,0:0|0:0,0:0:0:0:
123,215,20975,5,0,0:0:0:0:
123,215,21161,1,0,0:0:0:0:
30,130,21348,2,0,P|17:176|23:219,1,80.9999975280763,0|0,0:0|0:0,0:0:0:0:
99,333,21720,1,0,0:0:0:0:
229,302,21907,1,0,0:0:0:0:
302,352,22093,1,0,0:0:0:0:
411,238,22279,1,0,0:0:0:0:
485,323,22466,5,0,0:0:0:0:
485,323,22652,1,0,0:0:0:0:
485,323,22838,1,0,0:0:0:0:
236,166,23211,1,0,0:0:0:0:
236,166,23397,1,0,0:0:0:0:
236,166,23583,2,0,P|284:170|319:187,1,80.9999975280763,0|0,0:0|0:0,0:0:0:0:
76,235,23956,5,0,0:0:0:0:
101,104,24143,1,2,0:2:0:0:
76,235,24329,1,2,0:2:0:0:
101,104,24515,2,0,P|136:85|190:78,1,80.9999975280763,2|0,0:2|0:0,0:0:0:0:
345,62,24888,1,2,0:2:0:0:
379,216,25074,1,2,0:2:0:0:
345,62,25260,2,0,P|310:43|255:36,1,80.9999975280763,2|0,0:2|0:0,0:0:0:0:
192,156,25633,5,2,0:2:0:0:
169,274,25819,1,2,0:2:0:0:
192,156,26005,2,0,P|227:137|267:132,1,80.9999975280763,2|0,0:2|0:0,0:0:0:0:
377,233,26379,1,2,0:2:0:0:
398,312,26565,1,2,0:2:0:0:
377,233,26751,2,0,P|341:214|301:209,1,80.9999975280763,2|0,0:2|0:0,0:0:0:0:
206,314,27124,5,0,0:0:0:0:
206,314,27310,2,0,L|122:322,1,80.9999975280763
55,222,27683,2,0,L|139:230,1,80.9999975280763
193,127,28056,2,0,L|109:135,1,80.9999975280763
409,156,28428,5,0,0:0:0:0:
409,156,28615,1,0,0:0:0:0:
409,156,28801,1,0,0:0:0:0:
289,343,29174,6,0,P|220:329|193:330,1,80.9999975280763,8|0,0:2|0:0,0:0:0:0:
167,341,29453,2,0,L|78:328,1,80.9999975280763,8|0,0:2|0:0,0:0:0:0:
40,320,29733,1,8,0:2:0:0:
197,112,29919,6,0,P|139:71|114:137,1,161.999995056153,4|0,0:0|0:0,0:0:0:0:
379,257,30665,1,0,0:0:0:0:
437,199,30851,1,2,0:2:0:0:
379,142,31038,1,2,0:2:0:0:
322,199,31224,2,0,P|280:221|241:223,1,80.9999975280763,2|0,0:2|0:0,0:0:0:0:
29,279,31596,1,2,0:2:0:0:
87,222,31783,1,2,0:2:0:0:
144,279,31969,2,0,P|186:301|225:303,1,80.9999975280763,2|0,0:2|0:0,0:0:0:0:
491,329,32342,1,2,0:2:0:0:
430,200,32529,1,2,0:2:0:0:
373,329,32715,6,0,P|331:351|325:265,1,161.999995056153,2|0,0:2|0:0,0:0:0:0:
436,276,33273,1,2,0:2:0:0:
371,139,33460,2,0,P|413:117|419:203,1,161.999995056153,2|0,0:2|0:0,0:0:0:0:
307,59,34019,1,2,0:2:0:0:
197,172,34205,2,0,B|139:152|102:199|37:176,1,161.999995056153,2|0,0:2|0:0,0:0:0:0:
19,16,34764,1,2,0:2:0:0:
117,96,34950,2,0,B|93:161|141:197|121:255,1,161.999995056153,2|0,0:2|0:0,0:0:0:0:
236,341,35509,2,0,L|316:346,1,80.9999975280763,2|0,0:2|0:0,0:0:0:0:
472,247,35882,6,0,P|453:171|456:80,2,161.999995056153
367,272,36814,2,0,L|271:259,1,80.9999975280763
210,116,37186,2,0,P|142:79|73:116,1,161.999995056153
142,192,37745,1,0,0:0:0:0:
73,268,37932,2,0,P|141:305|210:268,1,161.999995056153
142,192,38491,1,0,0:0:0:0:
142,192,38677,1,0,0:0:0:0:
293,192,38863,6,0,L|472:200,1,161.999995056153
310,289,39422,1,0,0:0:0:0:
310,289,39609,2,0,L|471:296,1,161.999995056153
228,236,40168,1,0,0:0:0:0:
141,324,40354,2,0,L|52:330,1,80.9999975280763
0,204,40727,2,0,L|80:198,1,80.9999975280763
124,85,41099,6,0,P|162:90|222:87,1,80.9999975280763,8|0,0:2|0:0,0:0:0:0:
279,60,41379,1,8,0:2:0:0:
352,94,41472,2,0,P|374:67|378:96,1,80.9999975280763,2|0,0:3|0:0,0:0:0:0:
448,276,41845,6,0,B|383:225|383:225|349:299,1,161.999995056153,4|0,0:0|0:0,0:0:0:0:
129,336,42590,1,0,0:0:0:0:
71,278,42776,1,2,0:2:0:0:
129,221,42963,1,2,0:2:0:0:
186,278,43149,2,0,L|284:278,1,80.9999975280763,2|0,0:2|0:0,0:0:0:0:
476,183,43522,1,2,0:2:0:0:
418,126,43709,1,2,0:2:0:0:
361,183,43894,2,0,L|263:183,1,80.9999975280763,2|0,0:2|0:0,0:0:0:0:
14,91,44267,1,2,0:2:0:0:
72,34,44454,1,2,0:2:0:0:
129,90,44640,6,0,P|207:90|256:151,1,161.999995056153,2|0,0:2|0:0,0:0:0:0:
269,265,45199,1,2,0:2:0:0:
467,143,45385,2,0,P|388:142|339:203,1,161.999995056153,2|0,0:2|0:0,0:0:0:0:
339,326,45944,1,2,0:2:0:0:
141,204,46130,2,0,P|219:203|268:264,1,161.999995056153,2|0,0:2|0:0,0:0:0:0:
276,358,46689,1,2,0:2:0:0:
101,282,46876,2,0,B|73:270|64:252|64:252|41:304|73:372,1,161.999995056153,2|0,0:2|0:0,0:0:0:0:
195,355,47435,2,0,L|282:358,1,80.9999975280763,2|0,0:2|0:0,0:0:0:0:
395,220,47807,6,0,P|390:160|332:61,2,161.999995056153
296,275,48739,2,0,L|213:282,1,80.9999975280763
103,344,49112,2,0,P|83:268|122:199,1,161.999995056153
156,96,49671,1,0,0:0:0:0:
256,143,49857,2,0,P|200:199|121:199,1,161.999995056153
156,96,50416,1,0,0:0:0:0:
156,96,50602,1,0,0:0:0:0:
349,119,50789,6,0,B|402:136|455:124|455:124|436:148|438:174,1,161.999995056153
477,303,51348,1,0,0:0:0:0:
297,287,51534,6,0,P|228:273|201:274,1,80.9999975280763,8|0,0:2|0:0,0:0:0:0:
175,285,51813,2,0,L|86:272,1,80.9999975280763,8|0,0:2|0:0,0:0:0:0:
47,263,52093,6,0,P|147:77|308:215,1,485.999985168458,8|0,0:2|0:0,0:0:0:0:
139,219,53397,2,0,P|163:172|204:206,1,121.499996292114
184,281,53770,6,0,L|324:294,1,107.999996704102,4|0,0:0|0:0,0:0:0:0:
399,121,54143,1,8,0:0:0:0:
473,289,54329,1,4,0:3:0:0:
294,58,54515,1,2,0:2:0:0:
264,251,54702,1,4,0:3:0:0:
135,92,54888,2,0,P|63:90|28:108,1,107.999996704102,8|0,0:0|0:0,0:0:0:0:
398,357,55261,6,0,L|523:362,1,107.999996704102,4|0,0:0|0:0,0:0:0:0:
273,221,55633,1,8,0:0:0:0:
220,351,55820,1,4,0:3:0:0:
414,124,56006,1,2,0:2:0:0:
213,130,56192,1,4,0:3:0:0:
491,275,56379,2,0,P|504:205|496:168,1,107.999996704102,8|0,0:0|0:0,0:0:0:0:
111,33,56751,6,0,L|3:41,1,107.999996704102,4|0,0:0|0:0,0:0:0:0:
235,170,57124,1,8,0:0:0:0:
155,326,57310,1,4,0:3:0:0:
275,85,57497,1,2,0:2:0:0:
369,213,57683,1,4,0:3:0:0:
220,10,57869,1,8,0:0:0:0:
342,25,58056,1,4,0:3:0:0:
230,350,58242,6,0,L|119:352,1,107.999996704102,4|0,0:0|0:0,0:0:0:0:
356,346,58615,1,8,0:0:0:0:
134,249,58801,1,4,0:3:0:0:
282,34,58987,6,0,L|400:28,1,107.999996704102,4|0,0:0|0:0,0:0:0:0:
156,38,59360,1,8,0:0:0:0:
378,135,59546,1,4,0:3:0:0:
16,334,59733,6,0,L|154:340,1,107.999996704102,4|0,0:0|0:0,0:0:0:0:
204,123,60105,1,8,0:0:0:0:
118,233,60292,1,4,0:3:0:0:
309,75,60478,1,2,0:2:0:0:
393,185,60665,1,4,0:3:0:0:
248,332,60851,2,0,P|164:331|133:336,1,107.999996704102,8|0,0:0|0:0,0:0:0:0:
398,97,61224,6,0,L|505:104,1,107.999996704102,4|0,0:0|0:0,0:0:0:0:
244,166,61596,1,8,0:0:0:0:
365,262,61783,1,4,0:3:0:0:
164,32,61969,6,0,L|31:41,1,107.999996704102,4|0,0:0|0:0,0:0:0:0:
348,352,62342,6,0,L|481:359,1,107.999996704102,4|0,0:0|0:0,0:0:0:0:
143,17,62714,6,0,L|7:24,1,107.999996704102,4|0,0:0|0:0,0:0:0:0:
118,128,63087,1,8,0:0:0:0:
64,303,63273,1,4,0:3:0:0:
193,129,63460,1,2,0:2:0:0:
203,265,63646,1,4,0:3:0:0:
261,100,63832,1,8,0:0:0:0:
314,173,64019,1,0,0:0:0:0:
4,93,64205,6,0,L|118:102,1,107.999996704102,4|0,0:0|0:0,0:0:0:0:
140,354,64578,1,8,0:0:0:0:
372,354,64764,1,4,0:3:0:0:
508,93,64950,6,0,L|394:102,1,107.999996704102,4|0,0:0|0:0,0:0:0:0:
0,66,65323,6,0,L|114:75,1,107.999996704102,4|0,0:0|0:0,0:0:0:0:
512,66,65696,6,0,L|398:75,1,107.999996704102,4|0,0:0|0:0,0:0:0:0:
303,172,66068,1,8,0:0:0:0:
407,330,66255,1,4,0:3:0:0:
107,233,66441,6,0,L|-7:242,1,107.999996704102,4|0,0:0|0:0,0:0:0:0:
209,166,66814,1,8,0:0:0:0:
105,330,67000,1,4,0:3:0:0:
405,233,67187,6,0,L|519:242,1,107.999996704102,4|0,0:0|0:0,0:0:0:0:
303,166,67559,1,8,0:0:0:0:
407,330,67745,1,4,0:3:0:0:
108,156,67932,6,0,L|-6:165,1,107.999996704102,4|0,0:0|0:0,0:0:0:0:
404,156,68304,6,0,L|518:165,1,107.999996704102,4|0,0:0|0:0,0:0:0:0:
107,286,68677,6,0,L|-7:295,1,107.999996704102,4|0,0:0|0:0,0:0:0:0:
405,286,69050,6,0,L|519:295,1,107.999996704102,4|0,0:0|0:0,0:0:0:0:
107,23,69422,6,0,L|-7:32,1,107.999996704102,4|0,0:0|0:0,0:0:0:0:
405,23,69795,6,0,L|519:32,1,107.999996704102,4|0,0:0|0:0,0:0:0:0:
157,121,70168,5,4,0:0:0:0:
358,157,70354,5,4,0:0:0:0:
98,251,70540,5,4,0:0:0:0:
360,301,70727,5,4,0:0:0:0:
116,101,70913,5,4,0:0:0:0:
371,53,71099,5,4,0:0:0:0:
108,323,71286,5,4,0:0:0:0:
438,279,71472,5,4,0:0:0:0:
256,192,71658,5,4,0:0:0:0:
