osu file format v14

[General]
AudioFilename: audio.mp3
AudioLeadIn: 0
PreviewTime: 106
Countdown: 1
SampleSet: None
StackLeniency: 0.7
Mode: 0
LetterboxInBreaks: 0
WidescreenStoryboard: 1

[Editor]
Bookmarks: 17994,29919,41845,53770
DistanceSpacing: 1.1
BeatDivisor: 4
GridSize: 4
TimelineZoom: 1

[Metadata]
Title:Bring The Heat
TitleUnicode:Bring The Heat
Artist:Filmon Asmelash
ArtistUnicode:Filmon Asmelash
Creator:Arphimigon
Version:Necromancer
Source:Heat: Soul Cards
Tags:menu
BeatmapID:1711791
BeatmapSetID:816244

[Difficulty]
HPDrainRate:4
CircleSize:3.5
OverallDifficulty:5
ApproachRate:5.5
SliderMultiplier:1.6
SliderTickRate:1

[Events]
//Background and Video events
0,0,"fire.png",0,0
//Break Periods
//Storyboard Layer 0 (Background)
//Storyboard Layer 1 (Fail)
//Storyboard Layer 2 (Pass)
//Storyboard Layer 3 (Foreground)
//Storyboard Sound Samples

[TimingPoints]
106,372.670807453416,4,1,0,40,1,0
106,-133.333333333333,4,1,0,40,0,0
6068,-100,4,1,0,70,0,0
17994,-111.111111111111,4,1,0,40,0,0
53770,-83.3333333333333,4,1,0,70,0,1
71658,-100,4,1,0,70,0,0

[HitObjects]
100,136,106,6,0,L|94:209,1,60.0000022888184,0|0,0:0|0:0,0:0:0:0:
126,246,478,2,0,L|121:319,1,60.0000022888184,0|0,0:0|0:0,0:0:0:0:
116,365,851,1,0,0:0:0:0:
355,356,1596,6,0,L|361:296,1,60.0000022888184,0|0,0:0|0:0,0:0:0:0:
399,252,1968,2,0,L|405:192,1,60.0000022888184,0|0,0:0|0:0,0:0:0:0:
411,133,2341,1,0,0:0:0:0:
197,22,3087,6,0,L|134:30,1,60.0000022888184,0|0,0:0|0:0,0:0:0:0:
97,74,3460,2,0,L|85:136,1,60.0000022888184,0|0,0:0|0:0,0:0:0:0:
112,186,3832,6,0,L|167:216,1,60.0000022888184,0|0,0:0|0:0,0:0:0:0:
222,203,4205,2,0,L|268:160,1,60.0000022888184,0|0,0:0|0:0,0:0:0:0:
325,161,4578,6,0,L|378:190,1,60.0000022888184,0|0,0:0|0:0,0:0:0:0:
407,241,4951,2,0,L|396:300,1,60.0000022888184,0|0,0:0|0:0,0:0:0:0:
377,356,5323,1,0,0:0:0:0:
203,383,5696,5,0,0:0:0:0:
219,184,6068,6,0,P|162:238|84:248,1,160,4|8,0:0|0:0,0:0:0:0:
9,220,6627,1,4,0:3:0:0:
5,139,6814,2,0,L|15:59,2,80,2|4|8,0:2|0:3|0:0,0:0:0:0:
23,298,7559,6,0,P|79:352|157:362,1,160,4|8,0:3|0:0,0:0:0:0:
233,334,8118,1,4,0:3:0:0:
237,253,8305,2,0,L|226:173,2,80,2|0|8,0:2|0:0|0:0,0:0:0:0:
351,140,9050,6,0,P|418:200|427:275,1,160,4|8,0:3|0:0,0:0:0:0:
394,338,9609,1,4,0:3:0:0:
320,369,9795,2,0,L|230:363,2,80,2|4|8,0:2|0:3|0:0,0:0:0:0:
185,282,10540,6,0,P|118:222|109:147,1,160,4|8,0:3|0:0,0:0:0:0:
142,84,11099,1,4,0:3:0:0:
216,53,11285,2,0,L|306:59,1,80,2|4,0:2|0:3,0:0:0:0:
383,66,11658,5,8,0:0:0:0:
369,153,11845,1,8,0:0:0:0:
455,170,12031,6,0,P|426:243|357:282,1,160,4|8,0:0|0:0,0:0:0:0:
270,294,12590,1,4,0:3:0:0:
182,291,12776,2,0,L|93:280,2,80,2|4|8,0:2|0:3|0:0,0:0:0:0:
133,111,13522,6,0,P|162:183|231:222,1,160,4|8,0:3|0:0,0:0:0:0:
310,231,14081,1,4,0:3:0:0:
390,227,14267,2,0,L|479:216,2,80,2|4|8,0:2|0:3|0:0,0:0:0:0:
431,72,15012,6,0,P|341:50|263:70,1,160,4|8,0:3|0:0,0:0:0:0:
205,100,15571,1,4,0:3:0:0:
168,171,15758,2,0,L|169:252,2,80,2|4|8,0:2|0:3|0:0,0:0:0:0:
326,190,16503,6,0,P|416:168|494:188,1,160,4|8,0:3|0:0,0:0:0:0:
497,260,17062,2,0,L|497:301,2,40,4|4|2,0:3|0:3|0:2,0:0:0:0:
419,279,17435,2,0,L|419:320,4,40,4|4|8|4|4,0:3|0:3|0:0|0:3|0:3,0:0:0:0:
336,279,17994,6,0,P|245:308|188:292,3,143.999995605469,4|0|0|0,0:0|0:0|0:0|0:0,0:0:0:0:
101,203,19484,1,0,0:0:0:0:
144,65,19857,1,0,0:0:0:0:
101,203,20230,1,0,0:0:0:0:
144,65,20603,1,0,0:0:0:0:
281,108,20975,6,0,P|351:98|417:126,3,143.999995605469,0|0|0|0,0:0|0:0|0:0|0:0,0:0:0:0:
457,264,22466,1,0,0:0:0:0:
457,264,22652,1,0,0:0:0:0:
457,264,22838,1,0,0:0:0:0:
332,337,23211,1,0,0:0:0:0:
332,337,23397,1,0,0:0:0:0:
332,337,23584,1,0,0:0:0:0:
211,259,23956,5,0,0:0:0:0:
211,259,24143,2,0,L|136:259,2,71.9999978027344,2|2|2,0:2|0:2|0:2,0:0:0:0:
301,125,24888,2,0,L|376:125,2,71.9999978027344,2|2|2,0:2|0:2|0:2,0:0:0:0:
189,147,25633,2,0,L|189:72,2,71.9999978027344,2|2|2,0:2|0:2|0:2,0:0:0:0:
323,237,26379,2,0,L|323:312,2,71.9999978027344,2|2|2,0:2|0:2|0:2,0:0:0:0:
370,182,26938,1,0,0:0:0:0:
416,127,27124,6,0,L|416:52,2,71.9999978027344,0|0|0,0:0|0:0|0:0,0:0:0:0:
278,84,27869,2,0,L|278:9,2,71.9999978027344,0|0|0,0:0|0:0|0:0,0:0:0:0:
234,141,28428,5,0,0:0:0:0:
234,141,28615,1,0,0:0:0:0:
234,141,28801,1,0,0:0:0:0:
140,251,29174,1,8,0:2:0:0:
85,204,29360,2,0,L|85:161,2,35.9999989013672,0|8|0,0:0|0:2|0:0,0:0:0:0:
30,251,29733,1,8,0:2:0:0:
69,310,29919,6,0,L|214:330,1,143.999995605469,4|0,0:0|0:0,0:0:0:0:
354,309,30665,1,0,0:0:0:0:
354,237,30851,2,0,L|354:156,2,71.9999978027344,2|2|2,0:2|0:2|0:2,0:0:0:0:
256,131,31596,2,0,L|256:50,2,71.9999978027344,2|2|2,0:2|0:2|0:2,0:0:0:0:
158,237,32342,2,0,L|158:156,1,71.9999978027344,2|2,0:2|0:2,0:0:0:0:
158,93,32714,6,0,P|106:99|35:183,1,143.999995605469,2|0,0:2|0:0,0:0:0:0:
28,234,33273,1,2,0:2:0:0:
40,308,33460,2,0,P|86:361|156:375,1,143.999995605469,2|0,0:2|0:0,0:0:0:0:
227,350,34019,1,2,0:2:0:0:
299,322,34205,2,0,L|424:238,1,143.999995605469,2|0,0:2|0:0,0:0:0:0:
472,188,34764,1,2,0:2:0:0:
441,119,34950,2,0,P|330:47|244:53,1,215.999993408203,2|2,0:2|0:2,0:0:0:0:
141,166,35882,6,0,P|89:101|88:34,2,143.999995605469,0|0|0,0:0|0:0|0:0,0:0:0:0:
220,173,36814,2,0,L|219:251,2,71.9999978027344,0|0|0,0:0|0:0|0:0,0:0:0:0:
350,263,37559,2,0,L|349:341,2,71.9999978027344,0|0|0,0:0|0:0|0:0,0:0:0:0:
492,192,38304,2,0,L|491:270,2,71.9999978027344,0|0|0,0:0|0:0|0:0,0:0:0:0:
470,115,38863,6,0,P|418:67|331:76,1,143.999995605469,0|0,0:0|0:0,0:0:0:0:
285,115,39422,1,0,0:0:0:0:
225,62,39609,2,0,P|154:61|103:109,1,143.999995605469,0|0,0:0|0:0,0:0:0:0:
97,189,40168,1,0,0:0:0:0:
125,273,40354,5,0,0:0:0:0:
125,273,40540,1,0,0:0:0:0:
125,273,40727,1,0,0:0:0:0:
278,237,41099,1,8,0:2:0:0:
313,165,41286,2,0,L|359:165,2,35.9999989013672,0|8|2,0:0|0:2|0:3,0:0:0:0:
280,93,41658,1,0,0:0:0:0:
203,114,41845,6,0,P|152:122|56:109,1,143.999995605469,4|0,0:0|0:0,0:0:0:0:
22,264,42590,1,0,0:0:0:0:
101,264,42776,2,0,L|177:264,2,71.9999978027344,2|2|2,0:2|0:2|0:2,0:0:0:0:
228,358,43522,2,0,L|304:358,2,71.9999978027344,2|2|2,0:2|0:2|0:2,0:0:0:0:
352,256,44267,2,0,L|428:256,1,71.9999978027344,2|2,0:2|0:2,0:0:0:0:
475,197,44640,6,0,P|484:145|422:61,1,143.999995605469,2|0,0:2|0:0,0:0:0:0:
370,111,45199,1,2,0:2:0:0:
330,179,45385,2,0,L|184:178,1,143.999995605469,2|0,0:2|0:0,0:0:0:0:
142,111,45944,1,2,0:2:0:0:
73,69,46130,2,0,P|31:126|37:197,1,143.999995605469,2|0,0:2|0:0,0:0:0:0:
104,245,46689,1,2,0:2:0:0:
182,257,46876,2,0,P|253:257|339:365,1,215.999993408203,2|2,0:2|0:2,0:0:0:0:
427,232,47807,6,0,L|440:69,2,143.999995605469,0|0|0,0:0|0:0|0:0,0:0:0:0:
350,209,48739,2,0,L|357:125,2,71.9999978027344,0|0|0,0:0|0:0|0:0,0:0:0:0:
203,270,49484,2,0,L|197:341,2,71.9999978027344,0|0|0,0:0|0:0|0:0,0:0:0:0:
131,127,50230,2,0,L|138:43,2,71.9999978027344,0|0|0,0:0|0:0|0:0,0:0:0:0:
74,182,50789,6,0,P|49:241|78:326,1,143.999995605469,0|0,0:0|0:0,0:0:0:0:
141,348,51348,1,0,0:0:0:0:
212,314,51534,1,8,0:2:0:0:
285,343,51720,2,0,L|284:378,2,35.9999989013672,0|8|0,0:0|0:2|0:0,0:0:0:0:
355,305,52093,6,0,P|480:164|315:71,1,431.999986816407,8|0,0:2|0:0,0:0:0:0:
355,154,53397,2,0,P|395:178|364:213,1,107.999996704102,0|0,0:0|0:0,0:0:0:0:
311,221,53770,6,0,L|105:198,1,191.999994140625,4|8,0:0|0:0,0:0:0:0:
83,100,54329,1,4,0:3:0:0:
187,112,54515,2,0,L|282:122,1,95.9999970703126,2|4,0:2|0:3,0:0:0:0:
386,137,54888,1,8,0:0:0:0:
244,308,55261,6,0,L|38:285,1,191.999994140625,4|8,0:0|0:0,0:0:0:0:
16,187,55820,1,4,0:3:0:0:
120,200,56006,2,0,L|215:210,1,95.9999970703126,2|4,0:2|0:3,0:0:0:0:
319,224,56379,1,8,0:0:0:0:
477,85,56751,6,0,L|508:278,1,191.999994140625,4|8,0:0|0:0,0:0:0:0:
428,344,57310,1,4,0:3:0:0:
405,240,57497,2,0,L|389:140,1,95.9999970703126,2|4,0:2|0:3,0:0:0:0:
314,218,57869,2,0,L|330:318,1,95.9999970703126,8|4,0:0|0:3,0:0:0:0:
240,371,58242,6,0,L|209:178,1,191.999994140625,4|8,0:0|0:0,0:0:0:0:
115,132,58801,1,4,0:3:0:0:
138,236,58988,2,0,L|154:336,1,95.9999970703126,4|0,0:0|0:0,0:0:0:0:
50,307,59360,1,8,0:0:0:0:
16,107,59733,6,0,P|133:47|198:76,1,191.999994140625,4|8,0:0|0:0,0:0:0:0:
269,124,60292,1,4,0:3:0:0:
365,166,60478,2,0,L|465:167,1,95.9999970703126,2|4,0:2|0:3,0:0:0:0:
504,263,60851,1,8,0:0:0:0:
509,62,61224,6,0,P|435:4|342:19,1,191.999994140625,4|8,0:0|0:0,0:0:0:0:
257,80,61783,1,4,0:3:0:0:
160,121,61969,2,0,L|60:122,1,95.9999970703126,4|0,0:0|0:0,0:0:0:0:
113,217,62342,2,0,L|18:217,1,95.9999970703126,4|0,0:0|0:0,0:0:0:0:
62,312,62714,2,0,L|157:312,1,95.9999970703126,4|0,0:0|0:0,0:0:0:0:
206,218,63087,2,0,L|301:218,1,95.9999970703126,8|4,0:0|0:3,0:0:0:0:
258,315,63460,2,0,L|353:315,1,95.9999970703126,2|4,0:2|0:3,0:0:0:0:
392,217,63832,2,0,L|487:217,1,95.9999970703126,8|0,0:0|0:0,0:0:0:0:
508,112,64205,6,0,P|437:49|336:52,1,191.999994140625,4|8,0:0|0:0,0:0:0:0:
256,108,64764,1,4,0:3:0:0:
167,48,64950,2,0,P|74:49|3:112,1,191.999994140625,4|4,0:0|0:0,0:0:0:0:
0,217,65509,1,0,0:0:0:0:
20,320,65696,6,0,L|219:306,1,191.999994140625,4|8,0:0|0:0,0:0:0:0:
150,219,66255,1,4,0:3:0:0:
170,116,66442,2,0,L|369:130,1,191.999994140625,4|8,0:0|0:0,0:0:0:0:
442,196,67000,1,4,0:3:0:0:
436,301,67187,2,0,L|236:314,1,191.999994140625,4|8,0:0|0:0,0:0:0:0:
150,265,67745,1,4,0:3:0:0:
156,160,67932,6,0,L|251:153,1,95.9999970703126,4|0,0:0|0:0,0:0:0:0:
341,98,68304,2,0,L|347:193,1,95.9999970703126,4|0,0:0|0:0,0:0:0:0:
400,285,68677,2,0,L|304:291,1,95.9999970703126,4|0,0:0|0:0,0:0:0:0:
215,347,69049,2,0,L|208:251,1,95.9999970703126,4|0,0:0|0:0,0:0:0:0:
156,160,69422,2,0,L|251:153,1,95.9999970703126,4|0,0:0|0:0,0:0:0:0:
341,98,69794,2,0,L|347:193,1,95.9999970703126,4|0,0:0|0:0,0:0:0:0:
256,277,70168,5,4,0:0:0:0:
256,277,70354,5,4,0:0:0:0:
256,277,70540,5,4,0:0:0:0:
256,277,70727,5,4,0:0:0:0:
256,277,70913,5,4,0:0:0:0:
256,277,71099,5,4,0:0:0:0:
256,277,71286,5,4,0:0:0:0:
256,277,71472,5,4,0:0:0:0:
256,364,71658,5,4,0:0:0:0:
