osu file format v14

[General]
AudioFilename: audio.mp3
AudioLeadIn: 0
PreviewTime: 36132
Countdown: 0
SampleSet: Soft
StackLeniency: 0.7
Mode: 2
LetterboxInBreaks: 0
WidescreenStoryboard: 1

[Editor]
DistanceSpacing: 0.3
BeatDivisor: 8
GridSize: 8
TimelineZoom: 1.2

[Metadata]
Title:from the edge (TV Size)
TitleUnicode:from the edge (TV Size)
Artist:FictionJunction feat. LiSA
ArtistUnicode:FictionJunction feat. LiSA
Creator:rew0825
Version:Rain
Source:鬼滅の刃
Tags:[_-Kukkai-_] kukkai kimetsu no yaiba demon slayer 梶浦由記 kajiura yuki ed ending ufotable anime japanese jpop
BeatmapID:2158794
BeatmapSetID:1032193

[Difficulty]
HPDrainRate:5
CircleSize:3.6
OverallDifficulty:9
ApproachRate:9
SliderMultiplier:1.98
SliderTickRate:2

[Events]
//Background and Video events
0,0,"BG.jpg",0,0
//Break Periods
//Storyboard Layer 0 (Background)
//Storyboard Layer 1 (Fail)
//Storyboard Layer 2 (Pass)
//Storyboard Layer 3 (Foreground)
//Storyboard Layer 4 (Overlay)
//Storyboard Sound Samples

[TimingPoints]
672,370.37037037037,4,2,1,40,1,0
14005,-100,4,2,1,45,0,0
15486,-100,4,2,1,50,0,0
16968,-100,4,2,1,60,0,0
37338,-100,4,2,52,60,0,0
37523,-100,4,2,53,60,0,0
37709,-100,4,2,54,70,0,1
38820,-100,4,2,55,70,0,1
39005,-100,4,2,54,70,0,1
40116,-100,4,2,52,70,0,1
40486,-100,4,2,53,70,0,1
40671,-100,4,2,54,70,0,1
41968,-100,4,2,57,70,0,1
42153,-100,4,2,56,70,0,1
42338,-100,4,2,57,70,0,1
42523,-100,4,2,56,70,0,1
42709,-100,4,2,53,70,0,1
43449,-100,4,2,54,70,0,1
43634,-100,4,2,55,70,0,1
44931,-100,4,2,57,70,0,1
45116,-100,4,2,54,70,0,1
45301,-100,4,2,55,70,0,1
45486,-100,4,2,54,70,0,1
45671,-100,4,2,53,70,0,1
46042,-100,4,2,52,70,0,1
46597,-100,4,2,53,70,0,1
46968,-100,4,2,52,70,0,1
47338,-100,4,2,51,70,0,1
47709,-100,4,2,50,70,0,1
48079,-100,4,2,51,70,0,1
48820,-100,4,2,52,70,0,1
49190,-100,4,2,53,70,0,1
49560,-100,4,2,54,70,0,1
50671,-100,4,2,55,70,0,1
50857,-100,4,2,54,70,0,1
51968,-100,4,2,52,70,0,1
52338,-100,4,2,53,70,0,1
52523,-100,4,2,54,70,0,1
53634,-100,4,2,57,70,0,1
54005,-100,4,2,56,70,0,1
54190,-100,4,2,57,70,0,1
54560,-100,4,2,56,70,0,1
54931,-100,4,2,53,70,0,1
55301,-100,4,2,54,70,0,1
55486,-100,4,2,55,70,0,1
56227,-100,4,2,1,70,0,1
56597,-100,4,2,55,70,0,1
56968,-100,4,2,54,70,0,1
57153,-100,4,2,55,70,0,1
57338,-100,4,2,54,70,0,1
57523,-100,4,2,53,70,0,1
57894,-100,4,2,52,70,0,1
58449,-100,4,2,53,70,0,1
59560,-100,4,2,52,70,0,1
59931,-100,4,2,51,70,0,1
60486,-100,4,2,52,70,0,1
61042,-100,4,2,53,70,0,1
61412,-100,4,2,52,60,0,0
61505,-100,4,2,1,60,0,0
74928,-100,4,2,1,40,0,0

[Colours]
Combo1 : 37,72,80
Combo2 : 118,68,94
Combo3 : 70,198,179

[HitObjects]
256,192,2153,12,2,4375,0:0:0:0:
128,296,5116,6,0,P|64:264|128:192,1,198,0|2,1:0|1:2,0:0:0:0:
424,192,5857,2,0,L|432:88,1,99,0|0,1:0|1:0,0:0:0:0:
256,96,6227,1,2,1:2:0:0:
152,96,6412,6,0,L|360:96,1,198,0|0,1:0|1:0,0:0:0:0:
456,96,6968,1,2,1:2:0:0:
352,96,7153,1,2,1:2:0:0:
176,96,7338,2,0,P|80:96|56:184,1,198,2|2,1:2|1:2,0:0:0:0:
488,184,8079,6,0,P|464:272|368:272,1,198,2|2,1:2|1:2,0:0:0:0:
200,272,8634,2,0,P|136:240|200:168,1,198,2|0,1:2|1:0,0:0:0:0:
368,168,9190,1,2,1:2:0:0:
472,168,9375,6,0,L|256:168,1,198,0|0,1:0|1:0,0:0:0:0:
168,168,9931,1,2,1:2:0:0:
272,168,10116,1,2,0:0:0:0:
448,168,10301,2,0,P|512:200|448:272,1,198,2|2,1:2|1:2,0:0:0:0:
16,272,11042,6,0,P|40:184|136:184,1,198,2|2,1:2|1:2,0:0:0:0:
432,184,11783,2,0,L|440:80,1,99,2|0,1:2|1:0,0:0:0:0:
272,88,12153,1,2,1:2:0:0:
176,88,12338,6,0,L|376:88,1,198,0|2,1:0|1:2,0:0:0:0:
472,88,12894,1,0,1:0:0:0:
376,88,13079,1,0,1:0:0:0:
200,88,13264,2,0,P|104:88|80:176,1,198,2|2,1:2|1:2,0:0:0:0:
184,176,13820,1,2,0:0:0:0:
432,176,14005,6,0,P|496:208|432:280,1,198,2|2,1:2|1:2,0:0:0:0:
256,280,14560,2,0,L|144:280,1,99,2|0,1:2|0:0,0:0:0:0:
336,280,14931,2,0,P|432:280|456:192,1,198,2|2,1:2|1:2,0:0:0:0:
184,192,15486,6,0,L|176:88,1,99,6|0,1:2|0:0,0:0:0:0:
344,96,15857,2,0,L|352:200,1,99,2|0,1:2|0:0,0:0:0:0:
80,200,16227,2,0,L|72:304,1,99,6|0,1:2|0:0,0:0:0:0:
240,304,16597,2,0,L|136:304,1,99,2|0,1:2|0:0,0:0:0:0:
416,304,16968,6,0,P|480:272|416:200,1,198,4|0,1:2|1:0,0:0:0:0:
248,200,17523,1,2,0:0:0:0:
416,200,17709,2,0,L|424:96,1,99,10|0,1:2|0:0,0:0:0:0:
256,104,18079,2,0,L|248:208,1,99,0|0,1:0|0:0,0:0:0:0:
496,200,18449,5,0,1:0:0:0:
328,200,18634,2,0,P|352:288|448:288,1,198,0|0,0:0|0:0,0:0:0:0:
280,288,19190,2,0,L|272:184,1,99,10|0,1:2|0:0,0:0:0:0:
440,184,19560,1,2,1:2:0:0:
448,88,19746,1,2,0:0:0:0:
176,88,19931,6,0,L|168:192,1,99,2|0,1:2|0:0,0:0:0:0:
336,192,20301,1,2,1:2:0:0:
168,192,20486,2,0,L|48:192,1,99,2|8,0:0|1:2,0:0:0:0:
240,192,20857,2,0,L|344:192,1,99,2|0,0:0|1:0,0:0:0:0:
88,192,21227,6,0,L|80:296,1,99,2|0,0:0|1:0,0:0:0:0:
256,296,21597,1,2,0:0:0:0:
424,296,21783,2,0,L|432:192,1,99,0|0,1:0|0:0,0:0:0:0:
264,192,22153,2,0,P|200:160|264:88,1,198,8|2,1:2|1:2,0:0:0:0:
432,88,22709,1,2,0:0:0:0:
160,88,22894,6,0,L|152:192,1,99,6|2,1:2|0:0,0:0:0:0:
320,184,23264,2,0,L|328:288,1,99,0|2,1:0|0:0,0:0:0:0:
160,288,23634,2,0,L|56:288,1,99,0|8,1:0|0:0,0:0:0:0:
232,288,24005,1,0,1:0:0:0:
480,288,24190,6,0,L|488:184,1,99,8|0,0:0|1:0,0:0:0:0:
320,192,24560,1,2,0:0:0:0:
152,192,24746,2,0,L|144:88,1,99,0|0,1:0|0:0,0:0:0:0:
312,88,25116,2,0,L|432:88,1,99,8|0,1:2|0:0,0:0:0:0:
240,88,25486,1,2,1:2:0:0:
136,88,25671,1,2,0:0:0:0:
416,88,25857,5,6,1:2:0:0:
424,192,26042,1,2,0:0:0:0:
248,184,26227,1,2,1:2:0:0:
240,288,26412,1,2,0:0:0:0:
416,288,26597,1,2,1:2:0:0:
312,288,26783,1,10,0:0:0:0:
480,288,26968,1,2,1:2:0:0:
232,288,27153,6,0,L|224:184,1,99,10|0,0:0|1:0,0:0:0:0:
392,192,27523,1,2,0:0:0:0:
224,192,27709,2,0,L|112:192,1,99,0|0,1:0|0:0,0:0:0:0:
304,192,28079,2,0,L|312:88,1,99,8|0,1:2|0:0,0:0:0:0:
136,88,28449,1,2,1:2:0:0:
128,192,28634,1,2,0:0:0:0:
400,192,28820,6,0,P|464:224|400:296,1,198,6|2,1:2|1:2,0:0:0:0:
224,296,29375,2,0,L|112:296,1,99,2|0,0:0|1:0,0:0:0:0:
296,296,29746,2,0,L|288:192,1,99,10|0,0:0|1:0,0:0:0:0:
120,192,30116,1,10,0:0:0:0:
368,192,30301,6,0,L|376:88,1,99,2|0,1:2|0:0,0:0:0:0:
208,88,30671,2,0,L|328:88,1,99,2|0,1:2|0:0,0:0:0:0:
136,88,31042,2,0,L|128:192,1,99,10|0,1:2|0:0,0:0:0:0:
296,192,31412,2,0,L|176:192,1,99,2|8,1:2|0:0,0:0:0:0:
472,192,31783,6,0,L|480:296,1,99,4|0,1:2|0:0,0:0:0:0:
312,296,32153,2,0,L|192:296,1,99,2|0,1:2|0:0,0:0:0:0:
40,296,32523,2,0,L|32:192,1,99,2|0,1:2|0:0,0:0:0:0:
208,192,32894,2,0,L|320:192,1,99,2|0,1:2|0:0,0:0:0:0:
56,192,33264,6,0,L|48:88,1,99,2|0,1:2|0:0,0:0:0:0:
224,88,33634,2,0,L|112:88,1,99,2|0,1:2|0:0,0:0:0:0:
400,88,34005,2,0,L|408:192,1,99,6|0,1:2|0:0,0:0:0:0:
232,192,34375,2,0,L|224:296,1,99,2|0,1:2|0:0,0:0:0:0:
472,296,34746,6,0,L|480:192,1,99,2|0,1:2|0:0,0:0:0:0:
304,192,35116,2,0,L|192:192,1,99,2|0,1:2|0:0,0:0:0:0:
32,192,35486,2,0,L|24:88,1,99,2|0,1:2|0:0,0:0:0:0:
200,88,35857,2,0,L|96:88,1,99,2|0,1:2|0:0,0:0:0:0:
352,88,36227,6,0,L|360:192,1,99,2|2,1:2|0:0,0:0:0:0:
272,192,36505,1,2,0:0:0:0:
184,192,36597,2,0,L|176:296,1,99,2|2,1:2|0:0,0:0:0:0:
424,296,36968,2,0,L|432:192,1,99,10|0,1:2|0:0,0:0:0:0:
264,192,37338,1,2,1:2:0:0:
432,192,37523,1,10,0:0:0:0:
144,192,37709,6,0,L|136:88,1,99,6|0,1:2|0:0,0:0:0:0:
304,88,38079,2,0,L|312:192,1,99,10|0,1:2|0:0,0:0:0:0:
64,192,38449,2,0,L|56:296,1,99,2|0,1:2|0:0,0:0:0:0:
224,296,38820,1,10,1:2:0:0:
496,296,39005,6,0,L|384:296,1,99,2|0,0:0|1:0,0:0:0:0:
224,296,39375,2,0,L|112:296,1,99,2|8,0:0|1:2,0:0:0:0:
376,296,39746,2,0,L|384:192,1,99,2|0,0:0|1:0,0:0:0:0:
216,192,40116,1,2,0:0:0:0:
384,192,40301,2,0,L|496:192,1,99,10|2,1:2|0:0,0:0:0:0:
216,192,40671,6,0,P|152:168|216:96,1,198,2|8,1:2|1:2,0:0:0:0:
384,96,41227,1,2,0:0:0:0:
136,96,41412,2,0,L|336:96,1,198,2|8,1:2|1:2,0:0:0:0:
160,96,41968,1,2,0:0:0:0:
432,96,42153,6,0,L|440:200,1,99,2|2,1:2|0:0,0:0:0:0:
272,200,42523,1,10,1:2:0:0:
24,200,42709,2,0,L|16:304,1,99,2|0,0:0|1:0,0:0:0:0:
192,304,43079,2,0,L|200:200,1,99,2|8,0:0|1:2,0:0:0:0:
24,200,43449,1,2,0:0:0:0:
296,200,43634,6,0,P|360:168|296:96,1,198,6|8,1:2|1:2,0:0:0:0:
128,96,44190,1,2,0:0:0:0:
376,96,44375,2,0,L|168:96,1,198,2|8,1:2|1:2,0:0:0:0:
352,96,44931,1,2,0:0:0:0:
80,96,45116,6,0,L|72:200,1,99,2|2,1:2|0:0,0:0:0:0:
240,200,45486,1,10,1:2:0:0:
488,200,45671,2,0,L|496:304,1,99,2|0,0:0|1:0,0:0:0:0:
328,304,46042,2,0,L|448:304,2,99,2|8|0,0:0|1:2|0:0,0:0:0:0:
56,304,46597,6,0,L|48:200,1,99,2|0,1:2|0:0,0:0:0:0:
216,200,46968,2,0,L|96:200,1,99,10|0,1:2|0:0,0:0:0:0:
368,200,47338,2,0,L|376:96,1,99,2|0,1:2|0:0,0:0:0:0:
208,104,47709,2,0,L|320:104,1,99,10|0,1:2|0:0,0:0:0:0:
32,104,48079,6,0,P|56:192|152:192,1,198,2|8,1:2|1:2,0:0:0:0:
320,192,48634,1,2,0:0:0:0:
72,192,48820,2,0,L|64:296,1,99,2|8,1:2|0:0,0:0:0:0:
224,296,49190,2,0,L|232:240,1,49.5,10|8,1:2|0:0,0:0:0:0:
128,248,49375,2,0,L|120:192,1,49.5,8|0,0:0|0:0,0:0:0:0:
304,200,49560,6,0,P|368:168|304:96,1,198,6|8,1:2|1:2,0:0:0:0:
128,96,50116,1,2,0:0:0:0:
376,96,50301,2,0,L|480:96,1,99,2|0,1:2|0:0,0:0:0:0:
311,200,50671,1,10,1:2:0:0:
64,200,50857,6,0,L|168:200,1,99,2|0,0:0|1:0,0:0:0:0:
336,200,51227,2,0,L|344:304,1,99,2|8,0:0|1:2,0:0:0:0:
96,304,51597,2,0,L|88:200,1,99,2|0,0:0|1:0,0:0:0:0:
256,200,51968,1,2,0:0:0:0:
432,200,52153,2,0,L|440:96,1,99,10|2,1:2|0:0,0:0:0:0:
168,96,52523,6,0,L|48:96,1,99,2|0,1:2|0:0,0:0:0:0:
240,96,52894,2,0,L|360:96,1,99,8|0,1:2|0:0,0:0:0:0:
88,96,53264,2,0,L|80:200,1,99,0|0,1:0|0:0,0:0:0:0:
248,200,53634,2,0,L|128:200,1,99,10|0,1:2|0:0,0:0:0:0:
416,200,54005,5,2,1:2:0:0:
248,200,54190,2,0,L|240:304,1,99,2|8,0:0|1:2,0:0:0:0:
488,296,54560,2,0,L|496:192,1,99,2|0,0:0|1:0,0:0:0:0:
328,200,54931,2,0,L|320:96,1,99,2|8,0:0|1:2,0:0:0:0:
488,104,55301,1,2,0:0:0:0:
216,104,55486,6,0,L|104:104,1,99,6|0,1:2|0:0,0:0:0:0:
296,104,55857,2,0,L|400:104,1,99,8|0,1:2|0:0,0:0:0:0:
144,104,56227,2,0,L|136:208,1,99,2|0,1:2|0:0,0:0:0:0:
312,200,56597,2,0,L|192:200,1,99,10|0,1:2|0:0,0:0:0:0:
488,200,56968,6,0,L|496:304,1,99,2|2,1:2|0:0,0:0:0:0:
328,304,57338,1,10,1:2:0:0:
80,304,57523,2,0,L|72:192,1,99,2|0,0:0|1:0,0:0:0:0:
248,208,57894,2,0,L|256:104,1,99,2|8,0:0|1:2,0:0:0:0:
80,112,58264,1,2,0:0:0:0:
352,104,58449,6,0,L|360:208,1,99,2|0,1:2|0:0,0:0:0:0:
184,208,58820,2,0,L|176:312,1,99,8|0,1:2|0:0,0:0:0:0:
424,312,59190,2,0,L|432:208,1,99,0|0,1:0|0:0,0:0:0:0:
264,208,59560,2,0,L|376:208,1,99,10|0,1:2|0:0,0:0:0:0:
96,208,59931,6,0,P|32:176|96:104,1,198,2|8,1:2|1:2,0:0:0:0:
344,104,60486,1,2,0:0:0:0:
176,104,60671,2,0,L|184:208,1,99,0|0,1:0|1:0,0:0:0:0:
352,208,61042,1,10,0:0:0:0:
400,216,61134,1,0,1:0:0:0:
424,256,61227,1,0,1:0:0:0:
152,256,61412,6,0,P|88:224|152:152,1,198,6|8,1:2|0:0,0:0:0:0:
256,152,61968,1,0,0:0:0:0:
360,152,62153,2,0,L|368:48,1,99,0|0,1:0|0:0,0:0:0:0:
192,56,62523,2,0,L|184:160,1,99,8|0,0:0|0:0,0:0:0:0:
432,152,62894,6,0,P|496:184|432:256,1,198,0|0,1:0|1:0,0:0:0:0:
136,256,63634,1,8,0:0:0:0:
432,256,64005,2,0,L|440:152,1,99,2|0,1:2|0:0,0:0:0:0:
168,160,64375,6,0,P|104:128|168:56,1,198,2|0,1:2|1:0,0:0:0:0:
464,56,65116,1,8,0:0:0:0:
168,56,65486,2,0,L|64:56,1,99,2|0,1:2|0:0,0:0:0:0:
320,56,65857,6,0,L|328:160,1,99,2|0,1:2|0:0,0:0:0:0:
160,160,66227,2,0,L|152:264,1,99,2|0,1:2|0:0,0:0:0:0:
320,264,66597,2,0,L|208:264,1,99,10|0,0:0|0:0,0:0:0:0:
392,264,66968,2,0,L|400:160,1,99,2|0,1:2|0:0,0:0:0:0:
128,168,67338,6,0,P|64:136|128:64,1,198,6|0,1:2|1:0,0:0:0:0:
304,64,67894,1,2,0:0:0:0:
128,64,68079,2,0,L|120:168,1,99,0|8,1:0|0:0,0:0:0:0:
296,168,68449,2,0,L|192:168,1,99,2|8,1:2|0:0,0:0:0:0:
456,168,68820,6,0,L|464:272,1,99,0|2,1:0|0:0,0:0:0:0:
296,272,69190,2,0,L|184:272,1,99,0|0,1:0|0:0,0:0:0:0:
24,272,69560,2,0,L|16:168,1,99,8|0,0:0|0:0,0:0:0:0:
192,168,69931,2,0,L|88:168,1,99,0|0,1:0|0:0,0:0:0:0:
368,168,70301,6,0,P|432:136|368:64,1,198,0|0,1:0|1:0,0:0:0:0:
72,64,71042,2,0,L|64:168,1,99,0|8,1:0|0:0,0:0:0:0:
232,168,71412,2,0,L|120:168,1,99,2|8,1:2|0:0,0:0:0:0:
384,168,71783,6,0,L|392:272,1,99,2|0,1:2|0:0,0:0:0:0:
224,272,72153,2,0,L|216:168,1,99,2|8,1:2|0:0,0:0:0:0:
384,168,72523,2,0,L|392:64,1,99,2|0,1:2|1:0,0:0:0:0:
224,64,72894,2,0,L|336:64,1,99,10|8,0:0|0:0,0:0:0:0:
48,64,73264,6,0,P|72:152|168:152,1,198,2|0,1:2|0:0,0:0:0:0:
336,152,73820,2,0,P|400:184|336:256,1,198,2|0,0:0|0:0,0:0:0:0:
160,248,74375,1,2,0:0:0:0:
256,192,74931,12,2,84375,0:0:0:0:
