osu file format v14

[General]
AudioFilename: audio.mp3
AudioLeadIn: 0
PreviewTime: 36132
Countdown: 0
SampleSet: Soft
StackLeniency: 0.7
Mode: 2
LetterboxInBreaks: 0
WidescreenStoryboard: 0

[Editor]
DistanceSpacing: 0.3
BeatDivisor: 8
GridSize: 8
TimelineZoom: 1.2

[Metadata]
Title:from the edge (TV Size)
TitleUnicode:from the edge (TV Size)
Artist:FictionJunction feat. LiSA
ArtistUnicode:FictionJunction feat. LiSA
Creator:rew0825
Version:Platter
Source:鬼滅の刃
Tags:[_-Kukkai-_] kukkai kimetsu no yaiba demon slayer 梶浦由記 kajiura yuki ed ending ufotable anime japanese jpop
BeatmapID:2158373
BeatmapSetID:1032193

[Difficulty]
HPDrainRate:4
CircleSize:3.2
OverallDifficulty:8
ApproachRate:8
SliderMultiplier:1.65
SliderTickRate:2

[Events]
//Background and Video events
0,0,"BG.jpg",0,0
//Break Periods
//Storyboard Layer 0 (Background)
//Storyboard Layer 1 (Fail)
//Storyboard Layer 2 (Pass)
//Storyboard Layer 3 (Foreground)
//Storyboard Layer 4 (Overlay)
//Storyboard Sound Samples

[TimingPoints]
672,370.37037037037,4,2,1,40,1,0
14005,-100,4,2,1,45,0,0
15486,-100,4,2,1,50,0,0
16968,-100,4,2,1,60,0,0
37338,-100,4,2,52,60,0,0
37523,-100,4,2,53,60,0,0
37709,-100,4,2,54,70,0,1
38820,-100,4,2,55,70,0,1
39005,-100,4,2,54,70,0,1
40116,-100,4,2,52,70,0,1
40486,-100,4,2,53,70,0,1
40671,-100,4,2,54,70,0,1
41968,-100,4,2,57,70,0,1
42153,-100,4,2,56,70,0,1
42338,-100,4,2,57,70,0,1
42523,-100,4,2,56,70,0,1
42709,-100,4,2,53,70,0,1
43449,-100,4,2,54,70,0,1
43634,-100,4,2,55,70,0,1
44931,-100,4,2,57,70,0,1
45116,-100,4,2,54,70,0,1
45301,-100,4,2,55,70,0,1
45486,-100,4,2,54,70,0,1
45671,-100,4,2,53,70,0,1
46042,-100,4,2,52,70,0,1
46597,-100,4,2,53,70,0,1
46968,-100,4,2,52,70,0,1
47338,-100,4,2,51,70,0,1
47709,-100,4,2,50,70,0,1
48079,-100,4,2,51,70,0,1
48820,-100,4,2,52,70,0,1
49190,-100,4,2,53,70,0,1
49560,-100,4,2,54,70,0,1
50671,-100,4,2,55,70,0,1
50857,-100,4,2,54,70,0,1
51968,-100,4,2,52,70,0,1
52338,-100,4,2,53,70,0,1
52523,-100,4,2,54,70,0,1
53634,-100,4,2,57,70,0,1
54005,-100,4,2,56,70,0,1
54190,-100,4,2,57,70,0,1
54560,-100,4,2,56,70,0,1
54931,-100,4,2,53,70,0,1
55301,-100,4,2,54,70,0,1
55486,-100,4,2,55,70,0,1
56227,-100,4,2,1,70,0,1
56597,-100,4,2,55,70,0,1
56968,-100,4,2,54,70,0,1
57153,-100,4,2,55,70,0,1
57338,-100,4,2,54,70,0,1
57523,-100,4,2,53,70,0,1
57894,-100,4,2,52,70,0,1
58449,-100,4,2,53,70,0,1
59560,-100,4,2,52,70,0,1
59931,-100,4,2,51,70,0,1
60486,-100,4,2,52,70,0,1
61042,-100,4,2,53,70,0,1
61412,-100,4,2,52,60,0,0
61505,-100,4,2,1,60,0,0
74928,-100,4,2,1,40,0,0

[Colours]
Combo1 : 37,72,80
Combo2 : 118,68,94
Combo3 : 70,198,179

[HitObjects]
256,192,2153,12,2,4375,0:0:0:0:
152,280,5116,6,0,P|96:240|152:192,1,165,0|2,1:0|1:2,0:0:0:0:
336,192,5857,2,0,L|424:192,1,82.5,0|0,1:0|1:0,0:0:0:0:
232,192,6227,1,2,1:2:0:0:
128,192,6412,6,0,L|296:192,1,165,0|0,1:0|1:0,0:0:0:0:
400,192,6968,1,2,1:2:0:0:
296,192,7153,1,2,1:2:0:0:
192,192,7338,2,0,P|112:192|88:120,1,165,2|2,1:2|1:2,0:0:0:0:
376,120,8079,6,0,P|432:160|376:208,1,165,2|2,1:2|1:2,0:0:0:0:
272,208,8634,2,0,L|104:208,1,165,2|0,1:2|1:0,0:0:0:0:
296,208,9190,1,2,1:2:0:0:
400,208,9375,6,0,L|232:208,1,165,0|0,1:0|1:0,0:0:0:0:
128,208,9931,1,2,1:2:0:0:
232,208,10116,1,2,0:0:0:0:
336,208,10301,2,0,P|416:208|440:136,1,165,2|2,1:2|1:2,0:0:0:0:
152,136,11042,6,0,L|328:136,1,165,2|2,1:2|1:2,0:0:0:0:
128,136,11783,2,0,L|120:224,1,82.5,2|0,1:2|1:0,0:0:0:0:
304,224,12153,1,2,1:2:0:0:
408,224,12338,6,0,L|232:224,1,165,0|2,1:0|1:2,0:0:0:0:
136,224,12894,1,0,1:0:0:0:
240,224,13079,1,0,1:0:0:0:
344,224,13264,1,2,1:2:0:0:
160,224,13634,2,0,L|152:136,1,82.5,2|2,1:2|0:0,0:0:0:0:
336,144,14005,6,0,P|416:144|440:72,1,165,2|2,1:2|1:2,0:0:0:0:
256,72,14560,2,0,P|200:112|256:160,1,165,2|2,1:2|1:2,0:0:0:0:
440,160,15301,1,2,1:2:0:0:
192,160,15486,6,0,P|112:160|88:232,1,165,6|2,1:2|1:2,0:0:0:0:
376,232,16227,2,0,P|456:232|480:160,1,165,6|2,1:2|1:2,0:0:0:0:
40,160,16968,6,0,L|32:328,1,165,4|0,1:2|1:0,0:0:0:0:
136,328,17523,1,2,0:0:0:0:
320,328,17709,2,0,L|328:240,1,82.5,10|0,1:2|0:0,0:0:0:0:
224,248,18079,2,0,L|216:160,1,82.5,0|0,1:0|0:0,0:0:0:0:
400,168,18449,5,0,1:0:0:0:
504,168,18634,2,0,L|344:128,1,165,0|0,0:0|0:0,0:0:0:0:
152,96,19190,2,0,P|72:96|48:168,1,165,10|2,1:2|1:2,0:0:0:0:
152,168,19746,1,2,0:0:0:0:
400,168,19931,6,0,P|456:208|400:256,1,165,2|2,1:2|1:2,0:0:0:0:
296,256,20486,1,2,0:0:0:0:
400,256,20671,1,8,1:2:0:0:
216,256,20857,2,0,L|120:256,1,82.5,2|0,0:0|1:0,0:0:0:0:
320,176,21227,1,2,0:0:0:0:
416,176,21412,5,0,1:0:0:0:
464,144,21597,1,2,0:0:0:0:
480,96,21783,1,0,1:0:0:0:
312,96,22153,1,8,1:2:0:0:
24,96,22523,2,0,L|112:96,1,82.5,2|2,1:2|0:0,0:0:0:0:
360,96,22894,5,6,1:2:0:0:
464,96,23079,1,2,0:0:0:0:
456,184,23264,1,0,1:0:0:0:
352,184,23449,1,2,0:0:0:0:
168,184,23634,1,0,1:0:0:0:
72,184,23820,1,8,0:0:0:0:
168,184,24005,1,0,1:0:0:0:
352,184,24190,6,0,P|408:224|352:272,1,165,8|2,0:0|0:0,0:0:0:0:
256,272,24746,1,0,1:0:0:0:
352,272,24931,1,0,0:0:0:0:
456,272,25116,1,8,1:2:0:0:
168,272,25486,2,0,L|72:272,1,82.5,2|2,1:2|0:0,0:0:0:0:
336,272,25857,6,0,L|344:184,1,82.5,6|2,1:2|0:0,0:0:0:0:
240,192,26227,2,0,L|232:104,1,82.5,2|2,1:2|0:0,0:0:0:0:
416,112,26597,1,2,1:2:0:0:
504,112,26783,1,10,0:0:0:0:
416,112,26968,1,2,1:2:0:0:
232,112,27153,6,0,P|176:152|232:200,1,165,10|2,0:0|0:0,0:0:0:0:
336,200,27709,1,0,1:0:0:0:
232,200,27894,1,0,0:0:0:0:
128,200,28079,1,8,1:2:0:0:
416,200,28449,2,0,L|424:288,1,82.5,2|2,1:2|0:0,0:0:0:0:
168,280,28820,6,0,P|112:240|168:192,1,165,6|2,1:2|1:2,0:0:0:0:
272,192,29375,1,2,0:0:0:0:
168,192,29560,1,0,1:0:0:0:
352,192,29746,2,0,P|408:152|352:104,1,165,10|10,0:0|0:0,0:0:0:0:
168,104,30301,6,0,P|88:104|64:176,1,165,2|2,1:2|1:2,0:0:0:0:
360,176,31042,2,0,P|440:176|464:248,1,165,10|2,1:2|1:2,0:0:0:0:
360,248,31597,1,8,0:0:0:0:
104,248,31783,6,0,L|16:248,1,82.5,4|0,1:2|0:0,0:0:0:0:
208,248,32153,1,2,1:2:0:0:
400,248,32523,1,2,1:2:0:0:
496,248,32709,1,0,0:0:0:0:
400,248,32894,1,2,1:2:0:0:
112,248,33264,6,0,P|32:248|8:176,1,165,2|2,1:2|1:2,0:0:0:0:
448,176,34005,2,0,P|504:136|448:88,1,165,6|2,1:2|1:2,0:0:0:0:
160,88,34746,6,0,P|80:88|56:160,1,165,2|2,1:2|1:2,0:0:0:0:
344,160,35486,1,2,1:2:0:0:
448,160,35671,1,0,0:0:0:0:
488,240,35857,1,2,1:2:0:0:
200,240,36227,5,2,1:2:0:0:
96,240,36412,1,2,0:0:0:0:
104,152,36597,1,2,1:2:0:0:
208,152,36783,1,2,0:0:0:0:
464,152,36968,2,0,L|472:64,1,82.5,10|0,1:2|0:0,0:0:0:0:
368,64,37338,1,2,1:2:0:0:
472,64,37523,1,10,0:0:0:0:
216,64,37709,6,0,L|208:152,1,82.5,6|0,1:2|0:0,0:0:0:0:
312,144,38079,2,0,L|320:232,1,82.5,10|0,1:2|0:0,0:0:0:0:
136,224,38449,2,0,P|80:256|136:312,1,165,2|10,1:2|1:2,0:0:0:0:
384,312,39005,6,0,L|472:312,1,82.5,2|0,0:0|1:0,0:0:0:0:
360,312,39375,2,0,L|272:312,1,82.5,2|8,0:0|1:2,0:0:0:0:
88,312,39746,2,0,P|32:272|88:224,1,165,2|2,0:0|0:0,0:0:0:0:
280,224,40301,2,0,L|368:224,1,82.5,10|2,1:2|0:0,0:0:0:0:
112,224,40671,6,0,P|56:184|112:136,1,165,2|8,1:2|1:2,0:0:0:0:
216,136,41227,1,2,0:0:0:0:
400,136,41412,2,0,P|456:96|400:48,1,165,2|8,1:2|1:2,0:0:0:0:
144,48,41968,5,2,0:0:0:0:
40,48,42153,1,2,1:2:0:0:
47,130,42338,1,2,0:0:0:0:
152,128,42523,1,10,1:2:0:0:
336,128,42709,2,0,L|344:216,1,82.5,2|0,0:0|1:0,0:0:0:0:
240,208,43079,2,0,L|232:296,1,82.5,2|8,0:0|1:2,0:0:0:0:
128,288,43449,1,2,0:0:0:0:
376,288,43634,6,0,P|456:288|480:216,1,165,6|8,1:2|1:2,0:0:0:0:
376,216,44190,1,2,0:0:0:0:
192,216,44375,2,0,P|112:216|88:144,1,165,2|8,1:2|1:2,0:0:0:0:
344,144,44931,1,2,0:0:0:0:
448,144,45116,5,2,1:2:0:0:
440,56,45301,1,2,0:0:0:0:
336,56,45486,1,10,1:2:0:0:
152,56,45671,2,0,L|144:144,1,82.5,2|0,0:0|1:0,0:0:0:0:
48,136,46042,1,2,0:0:0:0:
144,136,46227,1,8,1:2:0:0:
248,136,46412,1,0,0:0:0:0:
496,136,46597,6,0,P|472:208|392:208,1,165,2|10,1:2|1:2,0:0:0:0:
96,208,47338,1,2,1:2:0:0:
192,208,47523,1,0,0:0:0:0:
96,208,47709,2,0,L|88:296,1,82.5,10|0,1:2|0:0,0:0:0:0:
344,288,48079,6,0,P|400:248|344:200,1,165,2|8,1:2|1:2,0:0:0:0:
240,200,48634,1,2,0:0:0:0:
56,200,48820,2,0,L|48:112,1,82.5,2|8,1:2|0:0,0:0:0:0:
152,120,49190,1,10,1:2:0:0:
104,120,49283,1,8,0:0:0:0:
48,120,49375,1,8,0:0:0:0:
296,120,49560,6,0,P|352:152|296:208,1,165,6|8,1:2|1:2,0:0:0:0:
192,208,50116,1,2,0:0:0:0:
376,208,50301,2,0,P|456:208|480:280,1,165,2|10,1:2|1:2,0:0:0:0:
224,280,50857,6,0,L|216:192,1,82.5,2|0,0:0|1:0,0:0:0:0:
320,192,51227,2,0,L|328:104,1,82.5,2|8,0:0|1:2,0:0:0:0:
144,112,51597,2,0,P|88:152|144:200,1,165,2|2,0:0|0:0,0:0:0:0:
328,200,52153,2,0,L|416:200,1,82.5,10|2,1:2|0:0,0:0:0:0:
160,200,52523,6,0,P|80:200|56:128,1,165,2|8,1:2|1:2,0:0:0:0:
240,128,53264,1,0,1:0:0:0:
336,128,53449,1,0,0:0:0:0:
152,128,53634,2,0,L|144:216,1,82.5,10|0,1:2|0:0,0:0:0:0:
408,208,54005,5,2,1:2:0:0:
496,208,54190,1,2,0:0:0:0:
408,208,54375,1,8,1:2:0:0:
224,208,54560,2,0,L|216:120,1,82.5,2|0,0:0|1:0,0:0:0:0:
320,128,54931,2,0,L|328:40,1,82.5,2|8,0:0|1:2,0:0:0:0:
432,48,55301,1,2,0:0:0:0:
184,48,55486,6,0,P|128:80|184:136,1,165,6|8,1:2|1:2,0:0:0:0:
368,136,56227,1,2,1:2:0:0:
80,136,56597,2,0,L|72:224,1,82.5,10|0,1:2|0:0,0:0:0:0:
328,224,56968,5,2,1:2:0:0:
424,224,57153,1,2,0:0:0:0:
328,224,57338,1,10,1:2:0:0:
144,224,57523,2,0,L|136:136,1,82.5,2|0,0:0|1:0,0:0:0:0:
240,144,57894,2,0,L|232:56,1,82.5,2|8,0:0|1:2,0:0:0:0:
128,64,58264,1,2,0:0:0:0:
376,64,58449,6,0,P|456:64|480:136,1,165,2|8,1:2|1:2,0:0:0:0:
296,136,59190,1,0,1:0:0:0:
200,136,59375,1,0,0:0:0:0:
384,136,59560,2,0,L|392:224,1,82.5,10|0,1:2|0:0,0:0:0:0:
136,216,59931,6,0,P|80:184|136:128,1,165,2|8,1:2|1:2,0:0:0:0:
312,128,60486,2,0,P|368:80|312:40,1,165,2|0,0:0|1:0,0:0:0:0:
136,40,61042,1,10,0:0:0:0:
128,88,61134,1,0,1:0:0:0:
120,136,61227,1,0,1:0:0:0:
368,136,61412,6,0,P|448:136|472:208,1,165,6|8,1:2|0:0,0:0:0:0:
288,208,62153,2,0,L|280:296,1,82.5,0|0,1:0|0:0,0:0:0:0:
384,288,62523,2,0,L|392:200,1,82.5,8|0,0:0|0:0,0:0:0:0:
208,208,62894,6,0,P|128:208|104:136,1,165,0|0,1:0|1:0,0:0:0:0:
136,80,63634,1,8,0:0:0:0:
424,80,64005,2,0,L|432:168,1,82.5,2|0,1:2|0:0,0:0:0:0:
176,160,64375,6,0,P|120:200|176:248,1,165,2|0,1:2|1:0,0:0:0:0:
360,248,65116,1,8,0:0:0:0:
72,248,65486,2,0,L|64:160,1,82.5,2|0,1:2|0:0,0:0:0:0:
248,168,65857,6,0,L|432:168,1,165,2|2,1:2|1:2,0:0:0:0:
128,168,66597,2,0,P|48:168|24:96,1,165,10|2,0:0|1:2,0:0:0:0:
464,96,67338,6,0,P|440:168|360:168,1,165,6|0,1:2|1:0,0:0:0:0:
256,168,67894,2,0,P|280:240|360:240,1,165,2|8,0:0|0:0,0:0:0:0:
176,240,68449,2,0,L|168:328,1,82.5,2|8,1:2|0:0,0:0:0:0:
352,320,68820,5,0,1:0:0:0:
448,320,69005,1,2,0:0:0:0:
472,232,69190,1,0,1:0:0:0:
184,232,69560,2,0,P|96:232|32:192,1,165,8|0,0:0|1:0,0:0:0:0:
472,192,70301,5,0,1:0:0:0:
288,192,70671,1,0,1:0:0:0:
472,192,71042,2,0,L|480:104,1,82.5,0|8,1:0|0:0,0:0:0:0:
296,104,71412,2,0,L|288:192,1,82.5,2|8,1:2|0:0,0:0:0:0:
472,192,71783,6,0,P|448:264|368:264,1,165,2|2,1:2|1:2,0:0:0:0:
80,264,72523,2,0,P|24:224|80:176,1,165,2|10,1:2|0:0,0:0:0:0:
184,176,73079,1,8,0:0:0:0:
440,176,73264,6,0,P|312:176|216:112,2,247.5,2|2|2,1:2|0:0|0:0,0:0:0:0:
256,192,74931,12,2,84375,0:0:0:0:
