osu file format v14

[General]
AudioFilename: audio.mp3
AudioLeadIn: 0
PreviewTime: 36225
Countdown: 0
SampleSet: Soft
StackLeniency: 0.7
Mode: 0
LetterboxInBreaks: 0
WidescreenStoryboard: 1

[Editor]
Bookmarks: 16966,36225
DistanceSpacing: 1.3
BeatDivisor: 4
GridSize: 4
TimelineZoom: 2.7

[Metadata]
Title:from the edge (TV Size)
TitleUnicode:from the edge (TV Size)
Artist:FictionJunction feat. LiSA
ArtistUnicode:FictionJunction feat. LiSA
Creator:Flask
Version:Hard
Source:鬼滅の刃
Tags:ending 梶浦由記 kajiura yuki Kimetsu no Yaiba anime jpop japanese toybot GfMRT
BeatmapID:2079144
BeatmapSetID:991222

[Difficulty]
HPDrainRate:4
CircleSize:4
OverallDifficulty:6
ApproachRate:8
SliderMultiplier:1.4
SliderTickRate:1

[Events]
//Background and Video events
Video,0,"FictionJunction feat. LiSA - from the edge.avi"
0,0,"bg.png",0,0
//Break Periods
//Storyboard Layer 0 (Background)
//Storyboard Layer 1 (Fail)
//Storyboard Layer 2 (Pass)
//Storyboard Layer 3 (Foreground)
//Storyboard Layer 4 (Overlay)
//Storyboard Sound Samples

[TimingPoints]
670,370.37037037037,4,2,4,30,1,0
5114,-133.333333333333,4,2,4,30,0,0
14003,-133.333333333333,4,2,1,30,0,0
16225,-133.333333333333,4,2,1,50,0,0
16966,-100,4,2,1,50,0,0
33262,-100,4,2,1,50,0,0
34003,-100,4,2,1,50,0,0
34744,-100,4,2,1,50,0,0
35855,-100,4,2,1,50,0,0
36225,-100,4,2,4,50,0,0
36966,-100,4,2,1,50,0,0
37244,-100,4,2,1,50,0,0
37707,-100,4,2,19,50,0,1
37799,-100,4,2,1,50,0,1
48447,-100,4,2,1,50,0,1
49188,-100,4,2,1,50,0,1
49558,-100,4,2,19,50,0,1
49651,-100,4,2,1,50,0,1
56225,-100,4,2,3,50,0,1
56318,-100,4,2,1,50,0,1
60855,-100,4,2,2,50,0,1
61410,-100,4,2,19,50,0,0
61503,-100,4,2,1,50,0,0
64373,-100,4,2,3,50,0,0
64466,-100,4,2,1,50,0,0
67336,-100,4,2,19,50,0,0
67429,-100,4,2,1,50,0,0
70299,-100,4,2,3,50,0,0
70392,-100,4,2,1,50,0,0
72707,-100,4,2,1,50,0,0
72892,-100,4,2,2,50,0,0
73077,-100,4,2,2,50,0,0
73262,-100,4,2,1,50,0,0
84373,-100,4,2,7,50,0,0

[Colours]
Combo1 : 0,85,170
Combo2 : 101,50,50
Combo3 : 255,104,180
Combo4 : 255,255,15
Combo5 : 173,173,173
Combo6 : 0,153,77

[HitObjects]
42,44,5114,6,0,L|32:154,1,105.000004005432,8|0,0:0|0:0,0:0:0:0:
32,148,5855,1,0,0:0:0:0:
92,205,6040,2,0,L|156:197,2,52.5000020027161,0|8|0,0:0|0:0|0:0,0:0:0:0:
58,281,6595,1,0,0:0:0:0:
58,281,6966,5,0,0:0:0:0:
114,343,7151,1,0,0:0:0:0:
195,323,7336,2,0,L|266:318,1,52.5000020027161,0|0,0:0|0:0,0:0:0:0:
322,357,7707,2,0,P|380:366|420:328,1,105.000004005432,0|8,0:0|0:0,0:0:0:0:
446,174,8447,5,0,0:0:0:0:
278,153,8818,2,0,L|289:204,1,52.5000020027161,0|0,0:0|0:0,0:0:0:0:
252,279,9188,1,8,0:0:0:0:
252,279,9373,2,0,P|226:291|193:290,1,52.5000020027161,0|0,0:0|0:0,0:0:0:0:
62,198,9929,6,0,L|117:203,2,52.5000020027161,8|0|0,0:0|0:0|0:0,0:0:0:0:
5,40,10669,1,0,0:0:0:0:
169,75,11040,6,0,L|289:64,1,105.000004005432,0|0,0:0|0:0,0:0:0:0:
273,65,11781,1,0,0:0:0:0:
320,134,11966,1,8,0:0:0:0:
397,100,12151,1,0,0:0:0:0:
433,175,12336,1,8,0:0:0:0:
356,210,12521,6,0,L|361:267,1,52.5000020027161,0|8,0:0|0:0,0:0:0:0:
424,317,12892,2,0,P|457:319|485:308,2,52.5000020027161,0|0|8,0:0|0:0|0:0,0:0:0:0:
358,369,13447,1,0,0:0:0:0:
281,334,13632,1,0,0:0:0:0:
281,334,13818,1,0,0:0:0:0:
281,334,14003,6,0,B|214:322|238:353|170:340,1,105.000004005432,2|0,0:0|0:0,0:0:0:0:
97,365,14558,2,0,L|77:260,2,105.000004005432,2|0|0,0:0|0:0|0:0,0:0:0:0:
13,353,15484,1,4,1:0:0:0:
71,195,15855,1,0,0:0:0:0:
8,39,16225,1,4,1:0:0:0:
85,187,16595,2,0,P|133:189|166:160,1,78.7500030040742,0|0,0:0|0:0,0:0:0:0:
170,154,16966,6,0,L|150:13,1,140,4|0,1:2|1:0,0:0:0:0:
235,48,17521,1,0,0:0:0:0:
319,82,17707,2,0,L|403:71,2,70,8|0|0,1:0|0:0|1:0,0:0:0:0:
266,156,18262,1,2,0:0:0:0:
266,156,18355,1,2,0:0:0:0:
266,156,18447,6,0,P|255:204|308:273,1,140,0|0,1:0|1:0,0:0:0:0:
395,252,19003,1,0,0:0:0:0:
474,296,19188,2,0,B|479:243|479:243|467:208|467:208|473:149,1,140,8|0,1:0|1:0,0:0:0:0:
512,77,19744,1,2,0:0:0:0:
512,77,19836,1,2,0:0:0:0:
512,77,19929,6,0,P|433:72|383:131,1,140,0|0,1:0|1:0,0:0:0:0:
324,49,20484,2,0,L|245:39,1,70,0|8,0:0|1:0,0:0:0:0:
229,128,20855,2,0,L|308:138,1,70,0|0,0:0|1:0,0:0:0:0:
173,211,21225,1,2,0:0:0:0:
173,211,21318,1,2,0:0:0:0:
173,211,21410,6,0,P|137:173|130:119,1,105,0|0,1:0|0:0,0:0:0:0:
133,115,21781,2,0,L|50:104,1,70,0|0,1:0|0:0,0:0:0:0:
19,185,22151,2,0,L|34:263,1,70,8|0,1:0|0:0,0:0:0:0:
117,284,22521,1,0,1:0:0:0:
47,343,22707,1,10,0:0:0:0:
47,343,22799,1,10,0:0:0:0:
47,343,22892,6,0,B|104:335|104:335|125:347|125:347|187:338,1,140,4|0,1:2|1:0,0:0:0:0:
269,366,23447,1,0,0:0:0:0:
320,290,23632,2,0,L|329:208,1,70,0|8,1:0|0:0,0:0:0:0:
240,191,24003,2,0,L|231:273,1,70,0|10,1:0|0:0,0:0:0:0:
379,360,24373,6,0,B|409:330|409:330|415:216,2,140,0|0|8,1:0|1:0|1:0,0:0:0:0:
337,182,25484,1,0,1:0:0:0:
395,112,25669,1,0,0:0:0:0:
334,43,25855,6,0,L|257:33,1,70,4|0,1:2|0:0,0:0:0:0:
205,102,26225,2,0,L|128:92,1,70,0|0,1:0|0:0,0:0:0:0:
64,150,26595,1,0,1:0:0:0:
38,63,26781,1,8,0:0:0:0:
64,150,26966,1,0,1:0:0:0:
135,92,27151,1,10,0:0:0:0:
3,226,27336,6,0,B|82:216|50:254|152:236,2,140,0|0|8,1:0|1:0|1:0,0:0:0:0:
153,328,28447,1,0,1:0:0:0:
238,358,28632,1,0,0:0:0:0:
305,296,28818,6,0,P|326:232|292:166,1,140,4|0,1:2|1:0,0:0:0:0:
262,85,29373,1,0,0:0:0:0:
202,153,29558,2,0,L|112:140,1,70,0|8,1:0|0:0,0:0:0:0:
126,234,29929,2,0,L|216:247,1,70,0|10,1:0|0:0,0:0:0:0:
247,318,30299,5,0,1:0:0:0:
399,218,30669,1,0,1:0:0:0:
299,66,31040,1,8,1:0:0:0:
147,166,31410,1,0,1:0:0:0:
79,226,31595,2,0,L|33:221,2,35,8|8|4,0:0|0:0|1:2,0:0:0:0:
79,226,32151,6,0,L|49:157,1,70,8|0,1:0|0:0,0:0:0:0:
107,90,32521,2,0,L|181:98,1,70,0|0,1:0|0:0,0:0:0:0:
210,182,32892,2,0,L|165:242,1,70,8|0,1:0|0:0,0:0:0:0:
220,312,33262,6,0,P|217:354|239:386,1,70,12|0,1:2|0:0,0:0:0:0:
318,356,33632,2,0,P|321:314|299:282,1,70,12|0,1:2|0:0,0:0:0:0:
385,241,34003,6,0,L|477:248,1,70,4|0,1:2|0:0,0:0:0:0:
468,156,34373,2,0,L|376:149,1,70,12|0,1:2|0:0,0:0:0:0:
335,83,34744,6,0,P|343:49|330:13,1,70,12|0,1:2|0:0,0:0:0:0:
241,24,35114,2,0,P|233:58|246:94,1,70,4|0,1:2|0:0,0:0:0:0:
292,166,35484,5,8,1:0:0:0:
223,225,35669,1,8,1:0:0:0:
155,286,35855,2,0,L|70:273,1,70,12|0,1:2|0:0,0:0:0:0:
256,192,36225,12,8,37336,0:0:0:0:
115,28,37707,6,0,L|99:109,1,70,12|0,0:0|0:0,0:0:0:0:
158,167,38077,2,0,P|97:188|26:155,2,140,8|2|8,1:0|1:0|1:2,0:0:0:0:
196,84,39003,2,0,L|269:79,1,70,2|0,0:0|0:0,0:0:0:0:
330,143,39373,2,0,L|403:138,1,70,2|8,0:0|0:0,0:0:0:0:
465,201,39744,2,0,P|477:236|469:273,1,70,2|0,0:0|0:0,0:0:0:0:
484,357,40114,1,0,0:0:0:0:
400,321,40299,1,8,0:0:0:0:
324,371,40484,1,2,0:0:0:0:
307,200,40669,6,0,B|337:181|337:181|317:304,1,140,2|8,1:2|1:0,0:0:0:0:
243,333,41225,1,0,0:0:0:0:
162,289,41410,2,0,L|89:283,2,70,2|0|8,1:0|1:0|1:0,0:0:0:0:
123,371,41966,1,0,0:0:0:0:
35,221,42151,6,0,P|30:179|39:153,1,70,2|0,1:0|0:0,0:0:0:0:
114,102,42521,1,8,1:0:0:0:
190,151,42707,2,0,L|346:141,1,140,2|2,0:0|0:0,0:0:0:0:
409,99,43262,2,0,P|421:133|415:172,1,70,8|2,1:0|0:0,0:0:0:0:
490,311,43632,6,0,B|467:278|465:231|465:231|441:248|407:246,1,140,4|8,1:2|1:0,0:0:0:0:
349,311,44188,1,0,0:0:0:0:
349,311,44373,2,0,P|328:281|323:246,1,70,2|0,1:0|0:0,0:0:0:0:
373,172,44744,2,0,P|394:142|399:107,1,70,8|0,1:0|0:0,0:0:0:0:
229,70,45114,5,2,1:0:0:0:
311,108,45299,1,0,0:0:0:0:
304,17,45484,1,8,1:0:0:0:
229,70,45669,2,0,L|152:60,1,70,2|0,0:0|1:0,0:0:0:0:
97,127,46040,1,2,0:0:0:0:
18,81,46225,2,0,P|2:140|36:190,1,105,8|0,1:0|0:0,0:0:0:0:
7,220,46595,6,0,L|90:215,1,70,2|0,1:0|0:0,0:0:0:0:
187,318,46966,2,0,L|104:323,1,70,10|0,1:0|0:0,0:0:0:0:
49,375,47336,2,0,P|31:346|32:298,1,70,2|0,1:0|0:0,0:0:0:0:
139,160,47707,2,0,P|157:189|156:237,1,70,8|0,1:0|0:0,0:0:0:0:
288,362,48077,6,0,B|348:353|348:353|365:364|365:364|435:355,1,140,2|4,1:0|1:2,0:0:0:0:
499,297,48632,1,8,0:0:0:0:
499,297,48725,1,8,0:0:0:0:
499,297,48818,2,0,L|485:225,1,70,8|8,1:0|1:0,0:0:0:0:
503,114,49188,1,8,0:0:0:0:
466,141,49281,1,8,0:0:0:0:
421,145,49373,1,8,0:0:0:0:
382,119,49466,1,8,0:0:0:0:
370,75,49558,6,0,B|310:38|310:38|241:57,1,140,12|8,0:2|1:0,0:0:0:0:
296,130,50114,1,0,0:0:0:0:
296,130,50299,2,0,L|281:209,1,70,2|0,1:0|0:0,0:0:0:0:
259,286,50669,1,8,1:0:0:0:
317,356,50855,6,0,P|343:330|349:292,1,70,2|0,0:0|1:0,0:0:0:0:
223,374,51225,2,0,L|146:362,1,70,2|8,0:0|1:0,0:0:0:0:
189,275,51595,2,0,L|266:287,1,70,2|0,0:0|1:0,0:0:0:0:
53,370,51966,1,0,0:0:0:0:
95,288,52151,1,8,1:0:0:0:
39,136,52336,1,2,0:0:0:0:
12,225,52521,6,0,L|157:203,2,140,2|8|0,1:0|1:0|1:0,0:0:0:0:
39,136,53447,1,2,0:0:0:0:
50,45,53632,2,0,P|94:61|124:124,1,105,10|0,1:0|0:0,0:0:0:0:
123,115,54003,6,0,L|204:98,1,70,0|2,1:0|0:0,0:0:0:0:
252,167,54373,1,8,1:0:0:0:
321,108,54558,2,0,P|336:71|331:35,1,70,2|0,0:0|1:0,0:0:0:0:
168,189,54929,2,0,P|183:231|214:253,1,70,2|8,0:0|1:0,0:0:0:0:
369,318,55299,1,8,0:0:0:0:
369,318,55392,1,8,0:0:0:0:
369,318,55484,6,0,B|399:333|432:317|432:317|454:322|454:322|481:306|514:324,2,140,4|8|2,1:2|1:0|0:2,0:0:0:0:
295,371,56410,1,0,1:0:0:0:
218,321,56595,2,0,L|146:317,1,70,8|0,1:0|0:0,0:0:0:0:
6,300,56966,5,2,1:0:0:0:
70,365,57151,1,0,0:0:0:0:
47,219,57336,1,8,1:0:0:0:
135,240,57521,2,0,P|138:198|127:169,1,70,2|0,0:0|1:0,0:0:0:0:
263,156,57892,2,0,P|228:132|197:127,1,70,2|8,0:0|1:0,0:0:0:0:
292,4,58262,1,0,0:0:0:0:
292,4,58447,6,0,P|226:4|166:47,1,140,2|8,1:0|1:0,0:0:0:0:
99,107,59003,1,0,0:0:0:0:
152,180,59188,2,0,L|143:255,1,70,0|0,1:0|0:0,0:0:0:0:
130,339,59558,6,0,P|88:321|61:229,2,140,8|2|8,1:0|1:0|1:0,0:0:0:0:
249,361,60484,1,8,0:0:0:0:
249,361,60577,1,8,0:0:0:0:
249,361,60669,2,0,L|327:350,1,70,8|8,1:0|0:2,0:0:0:0:
430,303,61040,2,0,L|477:315,2,35,8|8|8,0:2|0:2|0:0,0:0:0:0:
363,200,61410,6,0,B|354:151|354:151|360:118|360:118|350:58,2,140,12|0|8,0:2|1:0|1:0,0:0:0:0:
437,253,62336,1,10,0:0:0:0:
355,294,62521,2,0,L|272:286,1,70,0|10,1:0|0:0,0:0:0:0:
234,363,62892,6,0,P|190:326|112:334,1,140,0|0,1:0|1:0,0:0:0:0:
36,283,63447,1,0,0:0:0:0:
24,373,63632,2,0,L|34:295,1,70,8|0,1:0|0:0,0:0:0:0:
99,240,64003,2,0,L|89:162,1,70,0|0,1:0|0:0,0:0:0:0:
16,117,64373,6,0,P|76:131|147:78,2,140,2|0|8,0:2|1:0|1:0,0:0:0:0:
64,39,65299,1,0,0:0:0:0:
139,91,65484,2,0,L|250:99,1,105,0|2,1:0|0:0,0:0:0:0:
264,99,65855,6,0,B|288:71|288:71|285:30,1,70,0|0,1:0|0:0,0:0:0:0:
333,169,66225,2,0,B|367:183|367:183|405:167,1,70,0|0,1:0|0:0,0:0:0:0:
287,256,66595,2,0,B|284:292|284:292|310:324,1,70,8|0,1:0|0:0,0:0:0:0:
190,239,66966,2,0,B|154:247|154:247|132:282,1,70,0|0,1:0|0:0,0:0:0:0:
176,142,67336,6,0,B|156:110|156:110|44:94,1,140,12|0,0:2|1:0,0:0:0:0:
12,176,67892,1,0,0:0:0:0:
66,249,68077,2,0,L|146:240,1,70,8|10,1:0|0:0,0:0:0:0:
190,313,68447,2,0,L|270:304,1,70,0|10,1:0|0:0,0:0:0:0:
327,366,68818,6,0,P|346:331|319:235,1,140,0|0,1:0|1:0,0:0:0:0:
227,83,69558,2,0,P|208:118|235:214,1,140,8|0,1:0|1:0,0:0:0:0:
413,223,70299,5,2,0:2:0:0:
413,223,70669,2,0,L|499:215,1,70,0|0,1:0|0:0,0:0:0:0:
501,126,71040,1,8,1:0:0:0:
509,35,71225,1,8,0:0:0:0:
418,26,71410,1,0,1:0:0:0:
407,116,71595,1,8,0:0:0:0:
326,160,71781,6,0,L|181:147,1,140,2|0,1:0|1:0,0:0:0:0:
127,216,72336,1,0,0:0:0:0:
135,74,72521,2,0,P|139:38|130:1,1,70,8|0,1:0|1:0,0:0:0:0:
40,14,72892,2,0,P|36:50|45:87,1,70,8|8,0:0|0:0,0:0:0:0:
186,147,73262,6,0,B|319:185|261:91|395:125,2,210,2|2|2,0:0|0:0|0:0,0:0:0:0:
256,192,74929,12,4,84373,0:0:0:0:
