osu file format v14

[General]
AudioFilename: audio.mp3
AudioLeadIn: 0
PreviewTime: 36770
Countdown: 0
SampleSet: Normal
StackLeniency: 0.7
Mode: 1
LetterboxInBreaks: 0
WidescreenStoryboard: 1

[Editor]
DistanceSpacing: 0.9
BeatDivisor: 4
GridSize: 32
TimelineZoom: 1

[Metadata]
Title:from the edge (TV Size)
TitleUnicode:from the edge (TV Size)
Artist:FictionJunction feat. LiSA
ArtistUnicode:FictionJunction feat. LiSA
Creator:BinFhone
Version:Muzukashii
Source:鬼滅の刃
Tags:Japanese Kimetsu no Yaiba ending ed anime blade of demon slayer
BeatmapID:2161430
BeatmapSetID:1033761

[Difficulty]
HPDrainRate:6
CircleSize:2
OverallDifficulty:5
ApproachRate:5
SliderMultiplier:1.4
SliderTickRate:1

[Events]
//Background and Video events
0,0,"BG.jpg",0,0
//Break Periods
//Storyboard Layer 0 (Background)
//Storyboard Layer 1 (Fail)
//Storyboard Layer 2 (Pass)
//Storyboard Layer 3 (Foreground)
//Storyboard Layer 4 (Overlay)
//Storyboard Sound Samples

[TimingPoints]
1628,370.37037037037,4,1,0,60,1,0
14962,-100,4,1,0,70,0,0
37183,-100,4,1,0,80,0,1
60887,-100,4,1,0,80,0,0

[HitObjects]
256,192,4590,5,0,0:0:0:0:
256,192,4961,1,0,0:0:0:0:
256,192,5331,1,8,0:0:0:0:
256,192,5516,1,8,0:0:0:0:
256,192,5702,1,8,0:0:0:0:
256,192,7553,1,8,0:0:0:0:
256,192,7924,1,8,0:0:0:0:
256,192,8294,1,0,0:0:0:0:
256,192,8479,1,0,0:0:0:0:
256,192,8664,1,8,0:0:0:0:
256,192,10516,1,8,0:0:0:0:
256,192,10887,1,8,0:0:0:0:
256,192,11257,1,0,0:0:0:0:
256,192,11442,1,8,0:0:0:0:
256,192,11627,1,8,0:0:0:0:
256,192,11813,1,0,0:0:0:0:
256,192,12183,1,8,0:0:0:0:
256,192,12368,1,0,0:0:0:0:
256,192,12553,1,0,0:0:0:0:
256,192,12739,1,8,0:0:0:0:
256,192,13479,1,0,0:0:0:0:
256,192,14961,1,12,0:0:0:0:
256,192,15331,1,8,0:0:0:0:
256,192,15516,1,0,0:0:0:0:
256,192,15702,1,4,0:0:0:0:
256,192,16072,1,8,0:0:0:0:
256,192,16257,1,0,0:0:0:0:
256,192,16350,1,0,0:0:0:0:
256,192,16442,1,0,0:0:0:0:
256,192,17183,1,8,0:0:0:0:
256,192,17368,1,8,0:0:0:0:
256,192,17553,1,0,0:0:0:0:
256,192,17739,1,8,0:0:0:0:
256,192,17924,1,0,0:0:0:0:
256,192,18294,1,0,0:0:0:0:
256,192,18664,1,8,0:0:0:0:
256,192,19035,1,0,0:0:0:0:
256,192,19220,1,8,0:0:0:0:
256,192,19313,1,8,0:0:0:0:
256,192,19405,1,8,0:0:0:0:
256,192,19776,1,8,0:0:0:0:
256,192,20146,1,0,0:0:0:0:
256,192,20331,1,8,0:0:0:0:
256,192,20516,1,8,0:0:0:0:
256,192,21257,1,0,0:0:0:0:
256,192,21627,1,8,0:0:0:0:
256,192,21998,1,8,0:0:0:0:
256,192,22183,1,0,0:0:0:0:
256,192,22276,1,0,0:0:0:0:
256,192,22368,1,0,0:0:0:0:
256,192,22739,1,0,0:0:0:0:
256,192,23109,1,8,0:0:0:0:
256,192,23294,1,0,0:0:0:0:
256,192,23479,1,8,0:0:0:0:
256,192,23664,1,0,0:0:0:0:
256,192,23850,1,0,0:0:0:0:
256,192,24035,1,8,0:0:0:0:
256,192,24220,1,8,0:0:0:0:
256,192,24405,1,0,0:0:0:0:
256,192,24498,1,0,0:0:0:0:
256,192,24590,1,0,0:0:0:0:
256,192,25331,1,12,0:0:0:0:
256,192,25702,1,0,0:0:0:0:
256,192,26072,1,8,0:0:0:0:
256,192,26257,1,8,0:0:0:0:
256,192,26442,1,0,0:0:0:0:
256,192,26627,1,8,0:0:0:0:
256,192,26813,1,0,0:0:0:0:
256,192,27183,1,0,0:0:0:0:
256,192,27368,1,0,0:0:0:0:
256,192,27553,1,8,0:0:0:0:
256,192,27924,1,0,0:0:0:0:
256,192,28109,1,8,0:0:0:0:
256,192,28202,1,8,0:0:0:0:
256,192,28294,1,8,0:0:0:0:
256,192,28664,1,0,0:0:0:0:
256,192,29035,1,0,0:0:0:0:
256,192,29220,1,8,0:0:0:0:
256,192,29405,1,8,0:0:0:0:
256,192,29590,1,8,0:0:0:0:
256,192,29776,1,0,0:0:0:0:
256,192,30146,1,0,0:0:0:0:
256,192,30516,1,8,0:0:0:0:
256,192,30887,1,8,0:0:0:0:
256,192,31072,1,0,0:0:0:0:
256,192,31165,1,0,0:0:0:0:
256,192,31257,1,0,0:0:0:0:
256,192,31998,1,0,0:0:0:0:
256,192,32368,1,0,0:0:0:0:
256,192,32739,1,12,0:0:0:0:
256,192,33109,1,4,0:0:0:0:
256,192,33479,1,12,0:0:0:0:
256,192,33850,1,12,0:0:0:0:
256,192,34220,1,4,0:0:0:0:
256,192,34590,1,4,0:0:0:0:
256,192,34961,1,0,0:0:0:0:
256,192,35146,1,0,0:0:0:0:
256,192,35331,1,0,0:0:0:0:
256,192,35702,1,4,0:0:0:0:
256,192,36442,1,8,0:0:0:0:
256,192,36813,1,0,0:0:0:0:
256,192,36998,1,0,0:0:0:0:
256,192,37183,1,12,0:0:0:0:
256,192,37553,1,0,0:0:0:0:
256,192,37739,1,8,0:0:0:0:
256,192,37924,1,8,0:0:0:0:
256,192,38109,1,0,0:0:0:0:
256,192,38294,1,8,0:0:0:0:
256,192,38664,1,0,0:0:0:0:
256,192,39035,1,0,0:0:0:0:
256,192,39405,1,8,0:0:0:0:
256,192,39590,1,0,0:0:0:0:
256,192,39776,1,0,0:0:0:0:
256,192,39961,1,8,0:0:0:0:
256,192,40053,1,8,0:0:0:0:
256,192,40146,1,8,0:0:0:0:
256,192,40516,1,0,0:0:0:0:
256,192,40702,1,8,0:0:0:0:
256,192,40887,1,8,0:0:0:0:
256,192,41072,1,8,0:0:0:0:
256,192,41257,1,0,0:0:0:0:
256,192,41442,1,8,0:0:0:0:
256,192,41627,1,0,0:0:0:0:
256,192,42368,1,0,0:0:0:0:
256,192,42739,1,8,0:0:0:0:
256,192,42924,1,8,0:0:0:0:
256,192,43109,1,0,0:0:0:0:
256,192,43479,1,0,0:0:0:0:
256,192,43665,1,8,0:0:0:0:
256,192,43850,1,8,0:0:0:0:
256,192,44035,1,8,0:0:0:0:
256,192,44220,1,0,0:0:0:0:
256,192,44590,1,0,0:0:0:0:
256,192,44776,1,8,0:0:0:0:
256,192,44961,1,0,0:0:0:0:
256,192,45146,1,8,0:0:0:0:
256,192,45331,1,0,0:0:0:0:
256,192,45516,1,0,0:0:0:0:
256,192,45702,1,0,0:0:0:0:
256,192,46072,1,8,0:0:0:0:
256,192,46442,1,0,0:0:0:0:
256,192,46627,1,0,0:0:0:0:
256,192,46813,1,8,0:0:0:0:
256,192,46998,1,0,0:0:0:0:
256,192,47183,1,0,0:0:0:0:
256,192,47553,1,8,0:0:0:0:
256,192,47924,1,0,0:0:0:0:
256,192,48109,1,8,0:0:0:0:
256,192,48202,1,8,0:0:0:0:
256,192,48294,1,8,0:0:0:0:
256,192,49035,1,12,0:0:0:0:
256,192,49405,1,0,0:0:0:0:
256,192,49590,1,8,0:0:0:0:
256,192,49776,1,8,0:0:0:0:
256,192,49961,1,0,0:0:0:0:
256,192,50146,1,8,0:0:0:0:
256,192,50331,1,0,0:0:0:0:
256,192,50516,1,0,0:0:0:0:
256,192,50887,1,0,0:0:0:0:
256,192,51257,1,0,0:0:0:0:
256,192,51442,1,8,0:0:0:0:
256,192,51627,1,0,0:0:0:0:
256,192,51813,1,8,0:0:0:0:
256,192,51905,1,8,0:0:0:0:
256,192,51998,1,8,0:0:0:0:
256,192,52368,1,8,0:0:0:0:
256,192,52553,1,8,0:0:0:0:
256,192,52739,1,8,0:0:0:0:
256,192,52924,1,8,0:0:0:0:
256,192,53109,1,8,0:0:0:0:
256,192,53479,1,0,0:0:0:0:
256,192,53665,1,8,0:0:0:0:
256,192,53850,1,0,0:0:0:0:
256,192,54035,1,8,0:0:0:0:
256,192,54220,1,0,0:0:0:0:
256,192,54590,1,8,0:0:0:0:
256,192,54776,1,8,0:0:0:0:
256,192,54961,1,0,0:0:0:0:
256,192,55702,1,8,0:0:0:0:
256,192,55887,1,8,0:0:0:0:
256,192,56072,1,0,0:0:0:0:
256,192,56257,1,8,0:0:0:0:
256,192,56442,1,0,0:0:0:0:
256,192,56813,1,8,0:0:0:0:
256,192,56998,1,0,0:0:0:0:
256,192,57183,1,8,0:0:0:0:
256,192,57553,1,0,0:0:0:0:
256,192,57739,1,8,0:0:0:0:
256,192,57924,1,8,0:0:0:0:
256,192,58294,1,0,0:0:0:0:
256,192,58479,1,8,0:0:0:0:
256,192,58664,1,8,0:0:0:0:
256,192,58850,1,8,0:0:0:0:
256,192,59035,1,0,0:0:0:0:
256,192,59405,1,0,0:0:0:0:
256,192,59590,1,0,0:0:0:0:
256,192,59776,1,0,0:0:0:0:
256,192,59961,1,8,0:0:0:0:
256,192,60146,1,8,0:0:0:0:
256,192,60516,1,8,0:0:0:0:
256,192,60609,1,8,0:0:0:0:
256,192,60702,1,8,0:0:0:0:
256,192,60887,1,4,0:0:0:0:
256,192,61627,1,8,0:0:0:0:
256,192,61813,1,8,0:0:0:0:
256,192,61998,1,0,0:0:0:0:
256,192,62183,1,8,0:0:0:0:
256,192,62368,1,8,0:0:0:0:
256,192,62739,1,8,0:0:0:0:
256,192,63109,1,0,0:0:0:0:
256,192,63479,1,0,0:0:0:0:
256,192,63664,1,0,0:0:0:0:
256,192,63850,1,8,0:0:0:0:
256,192,64220,1,8,0:0:0:0:
256,192,64405,1,8,0:0:0:0:
256,192,64590,1,0,0:0:0:0:
256,192,64776,1,0,0:0:0:0:
256,192,64961,1,8,0:0:0:0:
256,192,65146,1,8,0:0:0:0:
256,192,65239,1,8,0:0:0:0:
256,192,65331,1,8,0:0:0:0:
256,192,65702,1,8,0:0:0:0:
256,192,66072,1,0,0:0:0:0:
256,192,66257,1,0,0:0:0:0:
256,192,66442,1,0,0:0:0:0:
256,192,66813,1,12,0:0:0:0:
256,192,67553,1,8,0:0:0:0:
256,192,67739,1,8,0:0:0:0:
256,192,67924,1,0,0:0:0:0:
256,192,68109,1,8,0:0:0:0:
256,192,68294,1,0,0:0:0:0:
256,192,68479,1,8,0:0:0:0:
256,192,68664,1,0,0:0:0:0:
256,192,69035,1,8,0:0:0:0:
256,192,69405,1,8,0:0:0:0:
256,192,69776,1,4,0:0:0:0:
256,192,70146,1,0,0:0:0:0:
256,192,70331,1,0,0:0:0:0:
256,192,70516,1,8,0:0:0:0:
256,192,70702,1,0,0:0:0:0:
256,192,70887,1,8,0:0:0:0:
256,192,71072,1,8,0:0:0:0:
256,192,71257,1,0,0:0:0:0:
256,192,71627,1,0,0:0:0:0:
256,192,71813,1,8,0:0:0:0:
256,192,71998,1,0,0:0:0:0:
256,192,72183,1,0,0:0:0:0:
256,192,72276,1,0,0:0:0:0:
256,192,72368,1,0,0:0:0:0:
256,192,72553,1,0,0:0:0:0:
256,192,72739,12,0,83850,0:0:0:0:
