osu file format v14

[General]
AudioFilename: audio.mp3
AudioLeadIn: 0
PreviewTime: 36770
Countdown: 0
SampleSet: Normal
StackLeniency: 0.7
Mode: 1
LetterboxInBreaks: 0
WidescreenStoryboard: 1

[Editor]
DistanceSpacing: 0.9
BeatDivisor: 4
GridSize: 32
TimelineZoom: 1

[Metadata]
Title:from the edge (TV Size)
TitleUnicode:from the edge (TV Size)
Artist:FictionJunction feat. LiSA
ArtistUnicode:FictionJunction feat. LiSA
Creator:BinFhone
Version:Kantan
Source:鬼滅の刃
Tags:Japanese Kimetsu no Yaiba ending ed anime blade of demon slayer
BeatmapID:2161429
BeatmapSetID:1033761

[Difficulty]
HPDrainRate:8
CircleSize:2
OverallDifficulty:3
ApproachRate:5
SliderMultiplier:1.4
SliderTickRate:1

[Events]
//Background and Video events
0,0,"BG.jpg",0,0
//Break Periods
//Storyboard Layer 0 (Background)
//Storyboard Layer 1 (Fail)
//Storyboard Layer 2 (Pass)
//Storyboard Layer 3 (Foreground)
//Storyboard Layer 4 (Overlay)
//Storyboard Sound Samples

[TimingPoints]
1628,370.37037037037,4,1,0,60,1,0
14962,-100,4,1,0,70,0,0
37183,-100,4,1,0,80,0,1
60887,-100,4,1,0,80,0,0

[HitObjects]
256,192,4590,5,0,0:0:0:0:
256,192,5331,1,0,0:0:0:0:
256,192,7553,1,8,0:0:0:0:
256,192,8294,1,8,0:0:0:0:
256,192,10516,1,0,0:0:0:0:
256,192,11257,1,0,0:0:0:0:
256,192,11998,1,8,0:0:0:0:
256,192,12739,1,8,0:0:0:0:
256,192,13479,1,0,0:0:0:0:
256,192,14961,1,4,0:0:0:0:
256,192,15702,1,12,0:0:0:0:
256,192,16442,1,4,0:0:0:0:
256,192,17553,1,8,0:0:0:0:
256,192,17924,1,8,0:0:0:0:
256,192,18664,1,0,0:0:0:0:
256,192,19405,1,8,0:0:0:0:
256,192,20516,1,0,0:0:0:0:
256,192,20887,1,0,0:0:0:0:
256,192,21627,1,8,0:0:0:0:
256,192,22368,1,4,0:0:0:0:
256,192,23109,1,0,0:0:0:0:
256,192,23850,1,8,0:0:0:0:
256,192,25331,1,4,0:0:0:0:
256,192,26072,1,8,0:0:0:0:
256,192,26813,1,0,0:0:0:0:
256,192,27183,1,0,0:0:0:0:
256,192,27553,1,0,0:0:0:0:
256,192,28294,1,8,0:0:0:0:
256,192,29776,1,0,0:0:0:0:
256,192,30516,1,8,0:0:0:0:
256,192,31257,1,12,0:0:0:0:
256,192,32739,1,12,0:0:0:0:
256,192,33479,1,12,0:0:0:0:
256,192,34220,1,4,0:0:0:0:
256,192,34961,1,4,0:0:0:0:
256,192,35702,1,12,0:0:0:0:
256,192,37182,1,4,0:0:0:0:
256,192,37923,1,8,0:0:0:0:
256,192,38664,1,0,0:0:0:0:
256,192,39035,1,0,0:0:0:0:
256,192,39405,1,8,0:0:0:0:
256,192,40146,1,0,0:0:0:0:
256,192,40886,1,0,0:0:0:0:
256,192,41626,1,8,0:0:0:0:
256,192,42738,1,8,0:0:0:0:
256,192,43109,1,0,0:0:0:0:
256,192,43849,1,8,0:0:0:0:
256,192,44589,1,0,0:0:0:0:
256,192,44960,1,0,0:0:0:0:
256,192,45330,1,8,0:0:0:0:
256,192,46071,1,0,0:0:0:0:
256,192,46812,1,0,0:0:0:0:
256,192,47552,1,8,0:0:0:0:
256,192,48665,1,8,0:0:0:0:
256,192,49035,1,4,0:0:0:0:
256,192,49776,1,8,0:0:0:0:
256,192,50516,1,0,0:0:0:0:
256,192,50887,1,0,0:0:0:0:
256,192,51257,1,8,0:0:0:0:
256,192,51998,1,0,0:0:0:0:
256,192,52739,1,0,0:0:0:0:
256,192,53479,1,8,0:0:0:0:
256,192,54590,1,8,0:0:0:0:
256,192,54961,1,0,0:0:0:0:
256,192,55702,1,0,0:0:0:0:
256,192,56442,1,0,0:0:0:0:
256,192,56812,1,8,0:0:0:0:
256,192,57183,1,0,0:0:0:0:
256,192,57924,1,8,0:0:0:0:
256,192,58665,1,8,0:0:0:0:
256,192,59405,1,0,0:0:0:0:
256,192,60887,1,4,0:0:0:0:
256,192,61627,1,0,0:0:0:0:
256,192,62368,1,8,0:0:0:0:
256,192,63109,1,8,0:0:0:0:
256,192,63850,1,0,0:0:0:0:
256,192,64590,1,8,0:0:0:0:
256,192,65331,1,0,0:0:0:0:
256,192,66813,1,12,0:0:0:0:
256,192,67553,1,8,0:0:0:0:
256,192,68294,1,0,0:0:0:0:
256,192,69035,1,8,0:0:0:0:
256,192,69776,1,0,0:0:0:0:
256,192,70146,1,0,0:0:0:0:
256,192,70516,1,0,0:0:0:0:
256,192,71257,1,8,0:0:0:0:
256,192,71998,1,8,0:0:0:0:
256,192,72739,12,8,83850,0:0:0:0:
