osu file format v14

[General]
AudioFilename: audio.mp3
AudioLeadIn: 0
PreviewTime: 222877
Countdown: 0
SampleSet: Soft
StackLeniency: 0.5
Mode: 0
LetterboxInBreaks: 0
WidescreenStoryboard: 1

[Editor]
DistanceSpacing: 1.3
BeatDivisor: 4
GridSize: 4
TimelineZoom: 1

[Metadata]
Title:aikoi
TitleUnicode:aikoi
Artist:FictionJunction YUUKA
ArtistUnicode:FictionJunction YUUKA
Creator:Reiji Maigo
Version:hard
Source:ツバサ-RESERVoir CHRoNiCLE-
Tags:梶浦 由記 Yuki Kajiura フィクションジャンクション・ユウカ Tsubasa: Reservoir Chronicle of the Wings ウィキペディア フィクションジャンクション ユウカ Future Soundscape IV Clamp Nanri 南里 侑香 xxxholic anime japanese pop j-pop jpop Mariko Sakuragi
BeatmapID:2646714
BeatmapSetID:1196096

[Difficulty]
HPDrainRate:4
CircleSize:4
OverallDifficulty:5
ApproachRate:6
SliderMultiplier:1.4
SliderTickRate:2

[Events]
//Background and Video events
0,0,"aikoi.jpg",0,0
//Break Periods
2,99141,101827
2,175863,178548
2,179798,182482
//Storyboard Layer 0 (Background)
//Storyboard Layer 1 (Fail)
//Storyboard Layer 2 (Pass)
//Storyboard Layer 3 (Foreground)
//Storyboard Layer 4 (Overlay)
//Storyboard Sound Samples

[TimingPoints]
582,491.803278688524,4,1,2,70,1,0
582,-125,4,1,2,70,0,0
1073,-125,4,1,2,40,0,0
4516,-125,4,1,2,70,0,0
5008,-125,4,1,2,40,0,0
8450,-125,4,1,2,70,0,0
8696,-125,4,1,2,40,0,0
15090,-125,4,2,2,40,0,0
15827,-125,4,2,2,50,0,0
16319,-90.9090909090909,4,2,1,70,0,0
32057,-111.111111111111,4,2,1,50,0,0
51729,-111.111111111111,4,1,1,50,0,0
66483,-111.111111111111,4,2,2,50,0,0
67467,-90.9090909090909,4,2,1,70,0,1
69064,-90.9090909090909,4,2,1,5,0,1
69188,-90.9090909090909,4,2,1,70,0,1
70048,-90.9090909090909,4,2,1,5,0,1
70172,-90.9090909090909,4,2,1,70,0,1
72999,-90.9090909090909,4,2,1,5,0,1
73122,-90.9090909090909,4,2,1,70,0,1
73982,-90.9090909090909,4,2,1,5,0,1
74106,-90.9090909090909,4,2,1,70,0,1
98942,-111.111111111111,4,1,2,70,0,0
102877,-111.111111111111,4,2,1,50,0,0
126483,-111.111111111111,4,1,1,50,0,0
141237,-111.111111111111,4,2,2,50,0,0
142221,-90.9090909090909,4,2,1,70,0,1
143818,-90.9090909090909,4,2,1,5,0,1
143942,-90.9090909090909,4,2,1,70,0,1
144802,-90.9090909090909,4,2,1,5,0,1
144926,-90.9090909090909,4,2,1,70,0,1
147753,-90.9090909090909,4,2,1,5,0,1
147877,-90.9090909090909,4,2,1,70,0,1
148736,-90.9090909090909,4,2,1,5,0,1
148860,-90.9090909090909,4,2,1,70,0,1
171483,-100,4,2,1,40,0,0
171975,-133.333333333333,4,2,1,15,0,0
175663,-133.333333333333,4,2,1,40,0,0
179598,-133.333333333333,4,1,2,70,0,0
183532,-125,4,1,2,70,0,0
183778,-125,4,1,2,40,0,0
190418,-125,4,2,2,40,0,0
190909,-125,4,2,2,50,0,0
191401,-100,4,2,1,60,0,0
222877,-125,4,2,1,50,0,0
237385,-142.857142857143,4,2,1,50,0,0
237631,-142.857142857143,4,2,1,50,0,0
238614,-90.9090909090909,4,2,1,70,0,1
240212,-90.9090909090909,4,2,1,5,0,1
240336,-90.9090909090909,4,2,1,70,0,1
241195,-90.9090909090909,4,2,1,5,0,1
241319,-90.9090909090909,4,2,1,70,0,1
254352,-111.111111111111,4,2,1,60,0,0
267877,-111.111111111111,4,1,2,60,0,0
268122,500,4,2,1,40,1,0
268122,-117.647058823529,4,2,1,30,0,0
269122,-117.647058823529,4,2,1,30,0,0
269393,508.474576271186,4,2,1,25,1,0
269393,-119.047619047619,4,2,1,25,0,0
269901,-119.047619047619,4,2,1,15,0,0
273460,-133.333333333333,4,2,1,5,0,0

[Colours]
Combo1 : 32,223,181
Combo2 : 18,207,248
Combo3 : 163,157,234

[HitObjects]
196,136,582,5,12,0:1:0:0:
196,136,1073,2,0,P|188:196|200:260,2,112,8|8|8,0:1|0:1|0:1,0:0:0:0:
316,136,2549,2,0,P|324:196|312:260,3,112,8|8|8|8,0:1|0:1|0:1|0:1,0:0:0:0:
256,356,4516,5,12,0:1:0:0:
256,356,5008,2,0,P|208:324|144:320,2,112,8|8|8,0:1|0:1|0:1,0:0:0:0:
256,240,6483,1,8,0:1:0:0:
256,240,6729,2,0,P|288:220|324:216,2,56,0|8|0,0:0|0:1|0:0,0:0:0:0:
316,300,7467,1,8,0:1:0:0:
316,300,7713,2,0,P|349:281|385:279,2,56,0|8|0,0:0|0:1|0:0,0:0:0:0:
256,356,8450,5,12,0:1:0:0:
188,316,8696,1,2,0:0:0:0:
188,316,8819,1,2,0:0:0:0:
188,316,8942,2,0,L|188:252,1,56,10|0,0:0|0:0,0:0:0:0:
112,240,9434,2,0,L|112:172,1,56,8|2,0:0|0:0,0:0:0:0:
112,148,9803,1,2,0:0:0:0:
112,148,9926,2,0,P|148:152|188:144,1,56,10|0,0:0|0:0,0:0:0:0:
220,92,10418,6,0,P|280:80|340:96,1,112,10|10,0:0|0:0,0:0:0:0:
404,128,11155,1,2,0:0:0:0:
404,128,11401,2,0,L|404:200,2,56,10|0|8,0:0|0:0|0:0,0:0:0:0:
404,284,12385,5,14,0:0:0:0:
344,236,12631,1,2,0:0:0:0:
344,236,12754,1,2,0:0:0:0:
344,236,12877,2,0,P|304:232|268:236,1,56,10|0,0:0|0:0,0:0:0:0:
252,304,13368,2,0,P|212:308|176:304,1,56,10|0,0:0|0:0,0:0:0:0:
168,288,13737,1,2,0:0:0:0:
168,288,13860,2,0,L|168:212,1,56,10|0,0:0|0:0,0:0:0:0:
228,184,14352,6,0,P|232:124|228:56,1,112,10|10,0:0|0:0,0:0:0:0:
176,16,15090,1,2,0:0:0:0:
176,16,15213,1,2,0:0:0:0:
176,16,15336,2,0,P|144:32|124:36,1,56,8|2,0:0|0:0,0:0:0:0:
48,20,15827,2,0,L|43:63,3,28,12|2|2|2,0:0|0:0|0:0|0:0,0:0:0:0:
16,76,16319,6,0,P|84:100|108:196,1,154.000004699707,14|8,0:1|0:0,0:0:0:0:
104,264,17057,1,2,0:0:0:0:
104,264,17180,1,2,0:0:0:0:
104,264,17303,2,0,B|192:264|156:208|255:204,1,154.000004699707,10|8,0:1|0:0,0:0:0:0:
316,248,18041,1,2,0:0:0:0:
396,224,18286,6,0,P|424:152|392:80,3,154.000004699707,10|10|10|8,0:1|0:0|0:1|0:0,0:0:0:0:
332,36,20008,1,2,0:0:0:0:
332,36,20131,1,2,0:0:0:0:
332,36,20254,6,0,L|164:36,1,154.000004699707,6|8,0:0|0:0,0:0:0:0:
104,80,20991,1,2,0:0:0:0:
172,132,21237,2,0,L|344:132,1,154.000004699707,10|8,0:1|0:0,0:0:0:0:
380,200,21975,1,2,0:0:0:0:
452,152,22221,6,0,P|448:72|500:8,2,154.000004699707,10|8|10,0:1|0:0|0:1,0:0:0:0:
508,216,23450,1,2,0:0:0:0:
452,280,23696,2,0,P|408:272|368:280,1,77.0000023498536,10|2,0:0|0:0,0:0:0:0:
348,304,24065,1,2,0:0:0:0:
348,304,24188,6,0,B|348:276|340:252|340:252|356:232|356:232|336:196|348:144,1,154.000004699707,14|10,0:1|0:0,0:0:0:0:
400,96,24926,1,2,0:0:0:0:
336,40,25172,2,0,P|272:68|164:68,1,154.000004699707,10|10,0:1|0:0,0:0:0:0:
120,28,25909,1,2,0:0:0:0:
120,28,26032,1,2,0:0:0:0:
120,28,26155,6,0,P|52:60|60:152,1,154.000004699707,10|8,0:1|0:0,0:0:0:0:
132,172,26893,1,2,0:0:0:0:
132,172,27016,1,2,0:0:0:0:
132,172,27139,2,0,P|136:220|120:280,1,77.0000023498536,10|2,0:1|0:0,0:0:0:0:
176,320,27631,2,0,L|256:320,1,77.0000023498536,10|2,0:0|0:0,0:0:0:0:
292,320,28000,1,2,0:0:0:0:
292,320,28122,6,0,P|344:272|332:180,1,154.000004699707,12|8,0:1|0:0,0:0:0:0:
272,144,28860,1,2,0:0:0:0:
200,188,29106,2,0,P|128:204|28:172,2,154.000004699707,8|10|8,0:1|0:0|0:1,0:0:0:0:
272,144,30336,1,2,0:0:0:0:
200,100,30581,2,0,L|200:23,1,77.0000023498536,10|0,0:0|0:0,0:0:0:0:
284,0,31073,2,0,P|320:20|368:24,1,77.0000023498536,8|2,0:1|0:0,0:0:0:0:
396,24,31442,1,2,0:0:0:0:
396,24,31565,2,0,L|396:101,1,77.0000023498536,10|2,0:0|0:0,0:0:0:0:
396,140,31934,1,2,0:0:0:0:
396,140,32057,6,0,P|336:140|260:172,2,125.999996154785,14|8|10,0:1|0:0|0:1,0:0:0:0:
464,184,33286,1,2,0:0:0:0:
464,184,33532,2,0,L|464:260,1,62.9999980773926,10|2,0:0|0:0,0:0:0:0:
396,284,34024,2,0,P|336:284|260:316,2,125.999996154785,10|8|10,0:1|0:0|0:1,0:0:0:0:
464,247,35254,1,2,0:0:0:0:
464,247,35500,2,0,L|464:171,1,62.9999980773926,10|2,0:0|0:0,0:0:0:0:
464,108,35991,6,0,B|424:108|424:108|376:124|376:124|328:124,1,125.999996154785,14|8,0:1|0:0,0:0:0:0:
264,124,36729,1,2,0:0:0:0:
264,48,36975,2,0,B|224:48|224:48|176:64|176:64|128:64,1,125.999996154785,10|8,0:1|0:0,0:0:0:0:
64,64,37713,1,2,0:0:0:0:
8,116,37959,6,0,L|8:252,1,125.999996154785,10|8,0:1|0:0,0:0:0:0:
8,316,38696,1,2,0:0:0:0:
68,360,38942,2,0,P|120:336|196:336,1,125.999996154785,10|10,0:1|0:0,0:0:0:0:
264,376,39680,1,2,0:0:0:0:
264,376,39803,1,2,0:0:0:0:
264,376,39926,6,0,P|316:328|328:260,1,125.999996154785,14|10,0:1|0:0,0:0:0:0:
284,216,40663,1,2,0:0:0:0:
208,232,40909,1,10,0:1:0:0:
140,204,41155,1,2,0:0:0:0:
140,204,41401,2,0,L|140:132,1,62.9999980773926,10|2,0:0|0:0,0:0:0:0:
140,64,41893,6,0,P|76:64|12:32,2,125.999996154785,10|10|10,0:1|0:0|0:1,0:0:0:0:
200,16,43122,1,2,0:0:0:0:
200,16,43368,2,0,L|284:16,1,62.9999980773926,10|0,0:0|0:0,0:0:0:0:
340,16,43860,6,0,B|340:56|340:56|356:104|356:104|356:152,1,125.999996154785,14|8,0:1|0:0,0:0:0:0:
356,216,44598,1,2,0:0:0:0:
288,180,44844,2,0,B|248:180|248:180|200:196|200:196|152:196,1,125.999996154785,10|8,0:1|0:0,0:0:0:0:
88,196,45582,1,2,0:0:0:0:
20,164,45827,6,0,L|20:24,1,125.999996154785,10|8,0:1|0:0,0:0:0:0:
88,0,46565,1,2,0:0:0:0:
148,48,46811,2,0,P|192:52|216:48,1,62.9999980773926,10|2,0:1|0:0,0:0:0:0:
272,4,47303,2,0,P|316:0|340:4,1,62.9999980773926,10|2,0:0|0:0,0:0:0:0:
368,28,47672,1,2,0:0:0:0:
368,28,47795,6,0,B|352:76|352:76|368:180,1,125.999996154785,14|10,0:1|0:0,0:0:0:0:
428,192,48532,1,2,0:0:0:0:
488,240,48778,2,0,L|488:316,1,62.9999980773926,10|2,0:1|0:0,0:0:0:0:
488,340,49147,1,2,0:0:0:0:
488,340,49270,1,10,0:0:0:0:
420,376,49516,1,2,0:0:0:0:
356,336,49762,6,0,P|292:344|228:332,2,125.999996154785,10|10|10,0:1|0:0|0:1,0:0:0:0:
408,280,50991,1,2,0:0:0:0:
352,228,51237,2,0,P|348:192|360:152,1,62.9999980773926,10|2,0:0|0:0,0:0:0:0:
380,140,51606,1,2,0:0:0:0:
380,140,51729,5,6,0:3:0:0:
236,184,52221,1,10,0:2:0:0:
172,144,52467,1,2,0:0:0:0:
172,144,52713,2,0,L|172:72,1,62.9999980773926,6|0,0:3|0:0,0:0:0:0:
172,4,53204,1,8,0:0:0:0:
96,4,53450,1,2,0:0:0:0:
96,4,53696,6,0,L|96:96,2,62.9999980773926,6|2|8,0:3|0:0|0:1,0:0:0:0:
20,4,54434,2,0,L|20:156,1,125.999996154785,2|2,0:0|0:0,0:0:0:0:
20,204,55172,2,0,B|60:204|60:204|104:228,1,62.9999980773926,10|2,0:0|0:0,0:0:0:0:
128,272,55663,5,6,0:3:0:0:
256,352,56155,1,10,0:0:0:0:
383,272,56647,2,0,P|400:211|383:151,1,125.999996154785,6|10,0:3|0:0,0:0:0:0:
316,116,57385,2,0,P|255:132|195:115,1,125.999996154785,6|2,0:3|0:0,0:0:0:0:
128,151,58122,2,0,P|111:211|128:272,2,125.999996154785,10|10|10,0:0|0:0|0:0,0:0:0:0:
195,115,59352,1,2,0:0:0:0:
195,115,59475,1,0,0:0:0:0:
195,115,59598,6,0,L|195:43,2,62.9999980773926,6|2|10,0:3|0:0|0:2,0:0:0:0:
264,152,60336,1,2,0:0:0:0:
328,192,60581,2,0,L|328:255,2,62.9999980773926,6|2|10,0:3|0:0|0:0,0:0:0:0:
392,152,61319,1,2,0:0:0:0:
456,192,61565,6,0,L|456:340,1,125.999996154785,6|8,0:3|0:0,0:0:0:0:
392,360,62303,2,0,P|336:332|260:332,1,125.999996154785,2|2,0:0|0:0,0:0:0:0:
220,384,63041,2,0,L|148:384,1,62.9999980773926,10|2,0:0|0:0,0:0:0:0:
80,380,63532,6,0,P|68:328|88:240,1,125.999996154785,6|10,0:3|0:2,0:0:0:0:
156,240,64270,1,0,0:0:0:0:
156,240,64516,2,0,L|156:160,2,62.9999980773926,10|2|10,0:0|0:0|0:0,0:0:0:0:
208,292,65254,1,2,0:0:0:0:
264,240,65500,6,0,P|300:232|336:244,1,62.9999980773926,10|10,0:2|0:2,0:0:0:0:
376,292,65991,1,10,0:2:0:0:
444,260,66237,1,10,0:2:0:0:
420,188,66483,1,10,0:1:0:0:
420,172,66606,1,2,0:0:0:0:
420,156,66729,1,2,0:0:0:0:
420,140,66852,1,2,0:0:0:0:
420,124,66975,2,0,L|420:84,3,31.4999990386963,6|2|2|2,0:3|0:0|0:0|0:0,0:0:0:0:
420,52,67467,6,0,P|376:52|332:24,1,77.0000023498536,14|2,0:1|0:0,0:0:0:0:
268,4,67959,1,10,0:0:0:0:
184,20,68204,1,2,0:0:0:0:
140,92,68450,2,0,P|132:144|148:188,1,77.0000023498536,10|0,0:1|0:0,0:0:0:0:
124,204,68819,2,0,P|168:188|220:200,1,77.0000023498536,2|0,0:0|2:0,0:0:0:0:
232,208,69188,1,2,0:0:0:0:
304,256,69434,6,0,L|304:348,1,77.0000023498536,10|0,0:1|0:0,0:0:0:0:
304,372,69803,2,0,B|272:356|272:356|224:360,1,77.0000023498536,2|0,0:0|2:0,0:0:0:0:
192,368,70172,1,2,0:0:0:0:
116,328,70418,2,0,P|108:280|120:236,1,77.0000023498536,10|2,0:1|0:0,0:0:0:0:
196,236,70909,2,0,P|204:188|192:144,1,77.0000023498536,10|2,0:0|0:0,0:0:0:0:
124,120,71401,5,14,0:1:0:0:
156,40,71647,1,2,0:0:0:0:
240,24,71893,2,0,L|339:34,1,77.0000023498536,10|2,0:0|0:0,0:0:0:0:
388,80,72385,2,0,P|396:128|380:176,1,77.0000023498536,10|0,0:1|0:0,0:0:0:0:
352,168,72754,2,0,P|344:216|360:264,1,77.0000023498536,2|0,0:0|2:0,0:0:0:0:
380,268,73122,1,2,0:0:0:0:
324,332,73368,6,0,B|288:320|288:320|244:332,1,77.0000023498536,10|0,0:1|0:0,0:0:0:0:
224,360,73737,2,0,B|188:372|188:372|144:360,1,77.0000023498536,2|0,0:0|2:0,0:0:0:0:
124,332,74106,1,2,0:0:0:0:
188,280,74352,2,0,L|188:196,1,77.0000023498536,10|2,0:1|0:0,0:0:0:0:
136,136,74844,1,10,0:0:0:0:
60,156,75090,1,2,0:0:0:0:
60,156,75213,1,2,0:0:0:0:
60,156,75336,1,14,0:1:0:0:
12,320,75827,6,0,P|64:362|161:364,1,154.000004699707,10|10,0:0|0:1,0:0:0:0:
284,268,76811,1,10,0:0:0:0:
208,232,77057,2,0,P|196:164|212:68,1,154.000004699707,2|2,0:0|0:0,0:0:0:0:
272,24,77795,1,10,0:0:0:0:
356,44,78041,1,2,0:0:0:0:
480,172,78532,1,2,0:0:0:0:
480,172,78778,2,0,L|480:268,1,77.0000023498536,10|2,0:0|0:0,0:0:0:0:
412,300,79270,6,0,P|368:292|324:300,1,77.0000023498536,14|0,0:1|0:0,0:0:0:0:
288,364,79762,2,0,P|244:372|200:364,1,77.0000023498536,10|0,0:0|0:0,0:0:0:0:
140,320,80254,2,0,P|132:244|148:152,1,154.000004699707,10|10,0:1|0:0,0:0:0:0:
208,112,80991,6,0,B|264:132|264:132|372:108,1,154.000004699707,2|2,0:0|0:0,0:0:0:0:
440,88,81729,1,10,0:0:0:0:
504,144,81975,1,2,0:0:0:0:
452,212,82221,2,0,L|452:304,1,77.0000023498536,10|2,0:1|0:0,0:0:0:0:
388,344,82713,1,10,0:0:0:0:
388,344,82959,1,2,0:0:0:0:
316,300,83204,6,0,P|280:292|224:304,1,77.0000023498536,14|2,0:1|0:0,0:0:0:0:
176,352,83696,1,10,0:0:0:0:
100,312,83942,1,2,0:0:0:0:
144,240,84188,2,0,L|144:152,1,77.0000023498536,10|0,0:1|0:0,0:0:0:0:
144,128,84557,1,0,0:0:0:0:
144,128,84680,1,10,0:0:0:0:
212,76,84926,1,2,0:0:0:0:
248,152,85172,6,0,P|288:160|336:152,1,77.0000023498536,10|0,0:1|0:0,0:0:0:0:
356,132,85541,1,0,0:0:0:0:
356,132,85663,1,10,0:0:0:0:
428,180,85909,1,2,0:0:0:0:
396,260,86155,2,0,B|408:304|408:304|392:348,1,77.0000023498536,10|2,0:1|0:0,0:0:0:0:
320,372,86647,2,0,P|280:356|232:360,1,77.0000023498536,10|2,0:0|0:0,0:0:0:0:
164,376,87139,5,14,0:1:0:0:
84,352,87385,1,2,0:0:0:0:
48,276,87631,2,0,P|40:232|48:188,1,77.0000023498536,10|2,0:0|0:0,0:0:0:0:
116,156,88122,2,0,P|172:180|248:172,2,115.50000352478,10|2|2,0:1|0:0|0:0,0:0:0:0:
196,276,89106,2,0,P|256:268|318:223,2,115.50000352478,10|2|2,0:1|0:0|0:0,0:0:0:0:
112,264,90090,1,10,0:1:0:0:
44,216,90336,1,2,0:0:0:0:
32,132,90581,2,0,P|50:98|104:72,1,77.0000023498536,10|2,0:0|0:0,0:0:0:0:
125,74,90950,1,2,0:0:0:0:
125,74,91073,5,14,0:1:0:0:
256,192,91565,1,10,0:0:0:0:
176,160,91811,2,0,P|224:112|320:136,1,154.000004699707,2|2,0:0|0:0,0:0:0:0:
256,192,92549,1,10,0:0:0:0:
332,224,92795,2,0,P|284:272|188:248,1,154.000004699707,2|2,0:0|0:0,0:0:0:0:
256,192,93532,1,10,0:0:0:0:
176,160,93778,2,0,L|176:60,1,77.0000023498536,2|8,0:0|0:1,0:0:0:0:
96,84,94270,1,2,0:0:0:0:
96,84,94516,2,0,L|96:161,1,77.0000023498536,10|2,0:0|0:0,0:0:0:0:
96,248,95008,6,0,P|176:248|256:296,1,154.000004699707,14|10,0:1|0:0,0:0:0:0:
288,352,95745,1,2,0:0:0:0:
372,336,95991,2,0,P|396:308|404:244,2,77.0000023498536,10|0|10,0:1|0:0|0:0,0:0:0:0:
324,268,96729,6,0,L|324:104,1,154.000004699707,2|2,0:0|0:0,0:0:0:0:
268,48,97467,2,0,P|228:72|172:76,1,77.0000023498536,10|2,0:0|0:0,0:0:0:0:
124,40,97959,1,10,0:1:0:0:
60,92,98204,1,2,0:0:0:0:
60,92,98327,1,2,0:0:0:0:
60,92,98450,2,0,L|60:180,2,77.0000023498536,10|2|14,0:0|0:0|0:1,0:0:0:0:
136,128,102877,6,0,L|136:254,1,125.999996154785,14|10,0:1|0:0,0:0:0:0:
196,302,103614,1,2,0:0:0:0:
256,254,103860,2,0,L|256:106,1,125.999996154785,10|10,0:1|0:0,0:0:0:0:
196,82,104598,1,2,0:0:0:0:
236,18,104844,5,10,0:1:0:0:
312,58,105090,1,2,0:0:0:0:
312,58,105213,1,2,0:0:0:0:
312,58,105336,2,0,P|344:62|400:50,1,62.9999980773926,10|2,0:0|0:0,0:0:0:0:
440,24,105827,1,10,0:1:0:0:
504,76,106073,1,2,0:0:0:0:
504,76,106319,2,0,L|504:156,1,62.9999980773926,10|2,0:0|0:0,0:0:0:0:
504,180,106688,1,2,0:0:0:0:
504,180,106811,6,0,P|456:180|368:216,1,125.999996154785,14|10,0:1|0:0,0:0:0:0:
332,264,107549,1,2,0:0:0:0:
280,208,107795,2,0,P|221:184|159:182,1,125.999996154785,10|10,0:1|0:0,0:0:0:0:
100,228,108532,1,2,0:0:0:0:
36,188,108778,6,0,P|28:128|48:48,2,125.999996154785,10|10|10,0:1|0:0|0:1,0:0:0:0:
100,228,110008,1,2,0:0:0:0:
160,180,110254,2,0,L|240:180,1,62.9999980773926,10|2,0:0|0:0,0:0:0:0:
264,180,110622,1,2,0:0:0:0:
264,180,110745,6,0,B|264:220|264:220|248:268|248:268|248:316,1,125.999996154785,14|8,0:1|0:0,0:0:0:0:
312,344,111483,1,2,0:0:0:0:
372,300,111729,2,0,B|372:260|372:260|356:212|356:212|356:164,1,125.999996154785,10|8,0:1|0:0,0:0:0:0:
308,116,112467,1,2,0:0:0:0:
248,164,112713,6,0,P|184:172|108:156,2,125.999996154785,10|8|10,0:1|0:0|0:1,0:0:0:0:
308,116,113942,1,2,0:0:0:0:
372,156,114188,2,0,L|372:236,1,62.9999980773926,10|2,0:0|0:0,0:0:0:0:
372,260,114557,1,2,0:0:0:0:
372,260,114680,6,0,P|436:260|504:288,2,125.999996154785,14|10|10,0:1|0:0|0:1,0:0:0:0:
320,316,115909,1,2,0:0:0:0:
248,292,116155,2,0,P|240:252|248:216,1,62.9999980773926,10|2,0:0|0:0,0:0:0:0:
312,200,116647,6,0,P|320:136|304:56,1,125.999996154785,10|10,0:1|0:0,0:0:0:0:
260,20,117385,1,2,0:0:0:0:
260,20,117508,1,2,0:0:0:0:
260,20,117631,2,0,P|208:32|176:28,1,62.9999980773926,10|2,0:1|0:0,0:0:0:0:
172,12,118000,1,2,0:0:0:0:
172,12,118122,2,0,P|120:0|88:4,1,62.9999980773926,10|2,0:0|0:0,0:0:0:0:
40,28,118614,6,0,B|40:68|40:68|24:116|24:116|24:164,1,125.999996154785,14|8,0:1|0:0,0:0:0:0:
24,228,119352,1,2,0:0:0:0:
100,228,119598,2,0,B|100:188|100:188|116:140|116:140|116:92,1,125.999996154785,10|8,0:1|0:0,0:0:0:0:
116,28,120336,1,2,0:0:0:0:
184,64,120581,6,0,L|264:64,1,62.9999980773926,10|2,0:1|0:0,0:0:0:0:
288,64,120950,1,2,0:0:0:0:
288,64,121073,2,0,P|312:104|316:136,1,62.9999980773926,10|2,0:0|0:0,0:0:0:0:
272,184,121565,1,10,0:1:0:0:
200,160,121811,1,2,0:0:0:0:
148,216,122057,2,0,L|80:216,1,62.9999980773926,10|2,0:0|0:0,0:0:0:0:
48,216,122426,1,2,0:0:0:0:
48,216,122549,6,0,P|24:252|28:344,2,125.999996154785,14|10|10,0:1|0:0|0:1,0:0:0:0:
196,240,124024,2,0,P|200:301|170:356,2,125.999996154785,10|10|10,0:0|0:1|0:0,0:0:0:0:
124,212,125254,1,2,0:0:0:0:
184,164,125500,2,0,L|184:92,1,62.9999980773926,10|2,0:1|0:0,0:0:0:0:
232,44,125991,2,0,B|268:52|268:52|312:40,1,62.9999980773926,10|2,0:0|0:0,0:0:0:0:
324,24,126360,1,2,0:0:0:0:
324,24,126483,5,6,0:3:0:0:
456,100,126975,1,10,0:2:0:0:
400,152,127221,1,2,0:0:0:0:
400,152,127467,2,0,L|400:236,1,62.9999980773926,6|0,0:3|0:0,0:0:0:0:
400,292,127959,1,8,0:0:0:0:
324,292,128204,1,2,0:0:0:0:
324,292,128450,6,0,L|324:224,2,62.9999980773926,6|2|8,0:3|0:0|0:1,0:0:0:0:
248,292,129188,2,0,L|248:160,1,125.999996154785,2|2,0:0|0:0,0:0:0:0:
248,92,129926,1,10,0:0:0:0:
184,128,130172,1,2,0:0:0:0:
184,128,130295,1,2,0:0:0:0:
184,128,130418,5,6,0:3:0:0:
316,56,130909,1,10,0:0:0:0:
460,108,131401,2,0,P|472:172|460:248,1,125.999996154785,6|10,0:3|0:0,0:0:0:0:
392,212,132139,2,0,P|370:273|321:333,1,125.999996154785,6|2,0:3|0:0,0:0:0:0:
264,292,132877,2,0,P|204:280|136:292,2,125.999996154785,10|10|10,0:0|0:0|0:0,0:0:0:0:
308,232,134106,1,2,0:0:0:0:
308,232,134229,1,2,0:0:0:0:
308,232,134352,6,0,L|308:168,2,62.9999980773926,6|2|10,0:3|0:0|0:2,0:0:0:0:
372,272,135090,1,2,0:0:0:0:
436,232,135336,2,0,L|436:160,2,62.9999980773926,6|2|10,0:3|0:0|0:0,0:0:0:0:
500,272,136073,1,2,0:0:0:0:
436,312,136319,6,0,L|296:312,1,125.999996154785,6|8,0:3|0:0,0:0:0:0:
256,364,137057,2,0,P|227:310|254:255,1,125.999996154785,2|2,0:0|0:0,0:0:0:0:
328,236,137795,1,10,0:0:0:0:
400,204,138041,1,2,0:0:0:0:
400,204,138163,1,2,0:0:0:0:
400,204,138286,6,0,L|400:124,1,62.9999980773926,6|0,0:3|0:0,0:0:0:0:
324,124,138778,2,0,L|324:44,1,62.9999980773926,10|0,0:0|0:0,0:0:0:0:
384,12,139270,2,0,P|444:36|512:36,1,125.999996154785,10|10,0:0|0:2,0:0:0:0:
508,112,140008,1,2,0:0:0:0:
436,140,140254,6,0,L|436:216,1,62.9999980773926,10|10,0:2|0:2,0:0:0:0:
412,276,140745,1,10,0:2:0:0:
340,304,140991,1,10,0:2:0:0:
284,252,141237,1,10,0:1:0:0:
268,252,141360,1,2,0:0:0:0:
252,252,141483,1,2,0:0:0:0:
236,252,141606,1,2,0:0:0:0:
220,252,141729,2,0,L|168:252,3,31.4999990386963,6|2|2|2,0:3|0:0|0:0|0:0,0:0:0:0:
148,252,142221,6,0,P|128:212|132:168,1,77.0000023498536,14|2,0:1|0:0,0:0:0:0:
192,124,142713,1,10,0:0:0:0:
268,164,142959,1,2,0:0:0:0:
328,104,143204,2,0,P|380:96|420:112,1,77.0000023498536,10|0,0:1|0:0,0:0:0:0:
436,124,143573,2,0,L|436:204,1,77.0000023498536,2|0,0:0|2:0,0:0:0:0:
436,240,143942,1,2,0:0:0:0:
388,308,144188,6,0,B|348:296|348:296|308:308,1,77.0000023498536,10|0,0:1|0:0,0:0:0:0:
296,344,144557,2,0,B|256:356|256:356|216:344,1,77.0000023498536,2|0,0:0|2:0,0:0:0:0:
200,316,144926,1,2,0:0:0:0:
256,252,145172,2,0,P|264:204|252:156,1,77.0000023498536,10|2,0:1|0:0,0:0:0:0:
184,140,145663,2,0,P|176:92|188:44,1,77.0000023498536,10|2,0:0|0:0,0:0:0:0:
244,8,146155,5,14,0:1:0:0:
312,60,146401,1,2,0:0:0:0:
392,28,146647,2,0,L|484:28,1,77.0000023498536,10|2,0:0|0:0,0:0:0:0:
508,104,147139,2,0,P|480:140|484:196,1,77.0000023498536,10|0,0:1|0:0,0:0:0:0:
496,204,147508,2,0,P|456:196|400:216,1,77.0000023498536,2|0,0:0|2:0,0:0:0:0:
400,236,147877,1,2,0:0:0:0:
320,204,148122,6,0,B|312:160|312:160|328:116,1,77.0000023498536,10|0,0:1|0:0,0:0:0:0:
360,124,148491,2,0,B|368:80|368:80|352:36,1,77.0000023498536,2|0,0:0|2:0,0:0:0:0:
324,28,148860,1,2,0:0:0:0:
256,76,149106,2,0,L|168:76,1,77.0000023498536,10|2,0:1|0:0,0:0:0:0:
92,76,149598,2,0,P|80:124|96:168,1,77.0000023498536,10|2,0:0|0:0,0:0:0:0:
120,180,149967,1,2,0:0:0:0:
120,180,150090,1,14,0:1:0:0:
256,108,150581,6,0,P|336:92|432:124,1,154.000004699707,10|10,0:0|0:1,0:0:0:0:
472,264,151565,1,10,0:0:0:0:
404,312,151811,2,0,P|324:328|228:296,1,154.000004699707,2|2,0:0|0:0,0:0:0:0:
192,252,152549,1,10,0:0:0:0:
256,196,152795,1,2,0:0:0:0:
124,100,153286,1,2,0:0:0:0:
124,100,153532,2,0,L|124:180,1,77.0000023498536,10|2,0:0|0:0,0:0:0:0:
40,196,154024,6,0,B|32:240|32:240|48:292,1,77.0000023498536,14|0,0:1|0:0,0:0:0:0:
0,344,154516,2,0,B|34:372|34:372|87:385,1,77.0000023498536,10|0,0:0|0:0,0:0:0:0:
116,312,155008,2,0,L|272:312,1,154.000004699707,10|10,0:1|0:0,0:0:0:0:
332,256,155745,6,0,P|316:180|344:92,1,154.000004699707,2|2,0:0|0:0,0:0:0:0:
408,68,156483,1,10,0:0:0:0:
484,28,156729,1,2,0:0:0:0:
480,112,156975,2,0,L|480:208,1,77.0000023498536,10|2,0:1|0:0,0:0:0:0:
480,276,157467,1,10,0:0:0:0:
480,276,157713,1,2,0:0:0:0:
412,328,157959,6,0,P|368:308|320:308,1,77.0000023498536,14|2,0:1|0:0,0:0:0:0:
264,344,158450,1,10,0:0:0:0:
184,316,158696,1,2,0:0:0:0:
216,240,158942,2,0,P|224:188|216:152,1,77.0000023498536,10|0,0:1|0:0,0:0:0:0:
200,136,159311,1,0,0:0:0:0:
200,136,159434,1,10,0:0:0:0:
120,160,159680,1,2,0:0:0:0:
44,120,159926,6,0,P|36:68|44:32,1,77.0000023498536,10|0,0:1|0:0,0:0:0:0:
60,16,160295,1,0,0:0:0:0:
60,16,160418,1,10,0:0:0:0:
120,72,160663,1,2,0:0:0:0:
200,40,160909,2,0,L|292:40,1,77.0000023498536,10|2,0:1|0:0,0:0:0:0:
308,120,161401,2,0,L|400:120,1,77.0000023498536,10|2,0:0|0:0,0:0:0:0:
472,120,161893,5,14,0:1:0:0:
512,196,162139,1,2,0:0:0:0:
460,264,162385,2,0,P|448:312|460:352,1,77.0000023498536,10|2,0:0|0:0,0:0:0:0:
376,376,162877,2,0,P|328:344|244:344,2,115.50000352478,10|2|2,0:1|0:0|0:0,0:0:0:0:
308,248,163860,2,0,P|250:244|177:286,2,115.50000352478,10|2|2,0:1|0:0|0:0,0:0:0:0:
388,276,164844,1,10,0:1:0:0:
464,236,165090,1,2,0:0:0:0:
500,160,165336,2,0,L|500:79,1,77.0000023498536,10|2,0:0|0:0,0:0:0:0:
499,47,165704,1,2,0:0:0:0:
499,47,165827,5,14,0:1:0:0:
344,112,166319,1,10,0:0:0:0:
344,196,166565,2,0,B|258:188|293:134|205:115,1,154.000004699707,2|2,0:0|0:0,0:0:0:0:
176,192,167303,1,10,0:0:0:0:
216,273,167549,2,0,B|301:265|266:211|354:192,1,154.000004699707,2|2,0:0|0:0,0:0:0:0:
360,280,168286,1,10,0:0:0:0:
428,228,168532,2,0,P|436:184|420:144,1,77.0000023498536,2|0,0:0|0:0,0:0:0:0:
352,112,169024,1,2,0:0:0:0:
352,112,169270,2,0,P|344:68|360:28,1,77.0000023498536,10|2,0:0|0:0,0:0:0:0:
276,0,169762,6,0,P|256:72|284:164,1,154.000004699707,14|10,0:1|0:0,0:0:0:0:
348,192,170500,1,2,0:0:0:0:
424,156,170745,2,0,L|504:156,2,77.0000023498536,10|0|10,0:1|0:0|0:0,0:0:0:0:
348,192,171483,5,2,0:0:0:0:
348,192,171975,2,0,L|348:252,2,52.5000020027161,2|2|2,0:0|0:0|0:0,0:0:0:0:
276,192,172713,1,2,0:0:0:0:
276,192,172959,2,0,L|276:256,2,52.5000020027161,2|2|2,0:0|0:0|0:0,0:0:0:0:
256,192,173696,12,4,175663,0:0:0:0:
256,192,179598,5,14,0:0:0:0:
312,132,183532,5,12,0:1:0:0:
312,132,184024,2,0,P|252:124|188:136,2,112,10|8|10,0:0|0:0|0:0,0:0:0:0:
312,252,185500,2,0,P|252:260|188:248,3,112,10|10|10|8,0:0|0:0|0:0|0:0,0:0:0:0:
56,192,187467,5,14,0:0:0:0:
56,192,187959,2,0,P|48:136|64:68,2,112,10|10|10,0:0|0:0|0:0,0:0:0:0:
204,136,189434,2,0,L|276:136,1,56,10|0,0:0|0:0,0:0:0:0:
340,136,189926,1,10,0:0:0:0:
408,196,190172,1,2,0:0:0:0:
408,196,190295,1,2,0:0:0:0:
408,196,190418,6,0,L|408:240,3,28,8|2|2|2,0:0|0:0|0:0|0:0,0:0:0:0:
408,264,190909,2,0,P|360:272|336:288,1,56,12|2,0:0|0:0,0:0:0:0:
340,312,191278,1,2,0:0:0:0:
340,312,191401,6,0,L|200:312,1,140,14|8,0:1|0:0,0:0:0:0:
140,252,192139,1,2,0:0:0:0:
196,188,192385,2,0,L|336:188,1,140,10|10,0:1|0:0,0:0:0:0:
396,128,193122,1,2,0:0:0:0:
340,64,193368,6,0,L|256:64,1,70,10|2,0:1|0:0,0:0:0:0:
252,96,193737,1,2,0:0:0:0:
252,96,193860,2,0,L|168:96,1,70,10|2,0:0|0:0,0:0:0:0:
104,128,194352,1,10,0:1:0:0:
104,128,194598,1,2,0:0:0:0:
160,192,194844,2,0,L|160:272,1,70,10|2,0:0|0:0,0:0:0:0:
120,336,195336,6,0,B|192:364|192:308|276:340,1,140,14|10,0:1|0:0,0:0:0:0:
328,376,196073,1,2,0:0:0:0:
400,332,196319,2,0,B|428:260|372:260|404:176,1,140,10|10,0:1|0:0,0:0:0:0:
464,144,197057,1,2,0:0:0:0:
404,84,197303,6,0,P|360:76|316:92,1,70,10|2,0:1|0:0,0:0:0:0:
316,112,197672,1,2,0:0:0:0:
316,112,197795,2,0,P|272:120|228:104,1,70,10|2,0:0|0:0,0:0:0:0:
188,56,198286,1,10,0:1:0:0:
188,56,198532,1,2,0:0:0:0:
108,84,198778,2,0,P|88:124|92:168,1,70,10|2,0:0|0:0,0:0:0:0:
120,172,199147,1,2,0:0:0:0:
120,172,199270,6,0,P|132:236|116:320,1,140,14|10,0:1|0:0,0:0:0:0:
188,356,200008,1,2,0:0:0:0:
256,308,200254,2,0,P|244:244|260:160,1,140,10|10,0:1|0:0,0:0:0:0:
328,128,200991,1,2,0:0:0:0:
396,180,201237,6,0,L|472:180,1,70,10|2,0:1|0:0,0:0:0:0:
504,180,201606,1,2,0:0:0:0:
504,180,201729,2,0,P|512:144|500:104,1,70,8|2,0:0|0:0,0:0:0:0:
440,56,202221,1,10,0:1:0:0:
440,56,202467,1,2,0:0:0:0:
364,92,202713,2,0,B|324:84|324:84|272:96,1,70,10|2,0:0|0:0,0:0:0:0:
252,164,203204,6,0,B|208:180|208:180|92:156,1,140,14|10,0:1|0:0,0:0:0:0:
48,208,203942,1,2,0:0:0:0:
76,288,204188,2,0,B|120:272|120:272|211:290,1,140,10|10,0:1|0:0,0:0:0:0:
292,316,204926,1,2,0:0:0:0:
372,288,205172,6,0,L|372:208,1,70,10|2,0:1|0:0,0:0:0:0:
372,188,205541,1,2,0:0:0:0:
372,188,205663,2,0,P|320:192|280:184,1,70,10|2,0:0|0:0,0:0:0:0:
248,124,206155,2,0,P|180:112|84:132,1,140,6|10,0:3|0:0,0:0:0:0:
44,172,206893,1,2,0:0:0:0:
44,172,207016,1,2,0:0:0:0:
44,172,207139,6,0,L|44:252,1,70,14|2,0:1|0:0,0:0:0:0:
128,240,207631,2,0,L|168:309,1,70,10|2,0:0|0:0,0:0:0:0:
236,260,208122,2,0,L|305:300,1,70,10|2,0:1|0:0,0:0:0:0:
372,332,208614,1,10,0:0:0:0:
460,316,208860,1,2,0:0:0:0:
460,316,208983,1,2,0:0:0:0:
460,316,209106,6,0,P|480:260|456:184,2,140,10|10|10,0:1|0:0|0:1,0:0:0:0:
372,332,210336,1,2,0:0:0:0:
312,272,210581,2,0,P|272:264|236:272,1,70,10|2,0:0|0:0,0:0:0:0:
232,304,210950,1,2,0:0:0:0:
232,304,211073,6,0,B|160:272|156:320|88:296,1,140,14|10,0:1|0:0,0:0:0:0:
32,240,211811,1,2,0:0:0:0:
88,176,212057,2,0,B|160:144|164:192|232:168,1,140,10|10,0:1|0:0,0:0:0:0:
284,108,212795,1,2,0:0:0:0:
352,156,213041,6,0,P|360:196|348:240,1,70,10|2,0:1|0:0,0:0:0:0:
328,244,213409,1,2,0:0:0:0:
328,244,213532,2,0,P|320:284|332:328,1,70,10|2,0:0|0:0,0:0:0:0:
392,364,214024,1,10,0:1:0:0:
464,316,214270,2,0,P|472:276|460:232,2,70,2|10|2,0:0|0:0|0:0,0:0:0:0:
388,280,215008,6,0,L|312:280,1,70,14|2,0:1|0:0,0:0:0:0:
276,352,215500,2,0,L|210:314,1,70,10|2,0:0|0:0,0:0:0:0:
143,358,215991,2,0,L|104:292,1,70,10|2,0:1|0:0,0:0:0:0:
68,224,216483,1,10,0:0:0:0:
136,172,216729,1,2,0:0:0:0:
136,172,216852,1,2,0:0:0:0:
136,172,216975,6,0,P|204:184|284:168,2,140,10|8|10,0:1|0:0|0:1,0:0:0:0:
84,104,218204,1,2,0:0:0:0:
168,88,218450,2,0,L|168:12,1,70,10|2,0:0|0:0,0:0:0:0:
256,48,218942,6,0,B|292:48|304:56|304:56|336:44|336:44|364:56|408:52,1,140,14|10,0:1|0:0,0:0:0:0:
452,112,219680,1,2,0:0:0:0:
388,168,219926,2,0,B|352:168|340:176|340:176|308:164|308:164|280:176|236:172,1,140,10|10,0:1|0:0,0:0:0:0:
196,108,220663,1,2,0:0:0:0:
124,152,220909,6,0,P|116:192|124:232,1,70,10|2,0:1|0:0,0:0:0:0:
148,252,221278,1,2,0:0:0:0:
148,252,221401,2,0,P|188:248|228:252,1,70,10|2,0:0|0:0,0:0:0:0:
272,312,221893,1,10,0:1:0:0:
352,284,222139,1,2,0:0:0:0:
328,204,222385,2,0,L|328:120,1,70,10|2,0:0|0:0,0:0:0:0:
412,80,222877,5,14,0:1:0:0:
412,92,223368,1,10,0:0:0:0:
412,104,223860,1,10,0:1:0:0:
412,116,224352,1,10,0:0:0:0:
352,168,224844,1,10,0:1:0:0:
352,180,225336,1,10,0:0:0:0:
352,192,225827,1,10,0:1:0:0:
352,204,226319,1,10,0:0:0:0:
280,328,226811,5,14,0:1:0:0:
280,316,227302,1,10,0:0:0:0:
280,304,227794,1,10,0:1:0:0:
280,292,228286,1,10,0:0:0:0:
220,240,228778,1,10,0:1:0:0:
220,228,229270,1,10,0:0:0:0:
220,216,229761,1,10,0:1:0:0:
220,204,230253,1,10,0:0:0:0:
148,80,230745,5,14,0:1:0:0:
148,92,231236,1,10,0:0:0:0:
148,104,231728,1,10,0:1:0:0:
148,116,232220,1,10,0:0:0:0:
88,168,232712,1,10,0:1:0:0:
88,180,233204,1,10,0:0:0:0:
88,192,233695,1,10,0:1:0:0:
88,204,234187,1,10,0:0:0:0:
172,308,234680,5,14,0:1:0:0:
300,264,235172,1,10,0:0:0:0:
340,136,235663,1,10,0:1:0:0:
208,176,236155,1,10,0:0:0:0:
208,176,236401,1,2,0:0:0:0:
208,176,237631,6,0,P|168:204|108:208,1,97.9999970092774,8|10,0:1|0:0,0:0:0:0:
48,176,238368,1,2,0:0:0:0:
8,252,238614,6,0,P|48:264|84:304,1,77.0000023498536,14|2,0:1|0:0,0:0:0:0:
128,352,239106,1,10,0:0:0:0:
212,364,239352,1,2,0:0:0:0:
292,340,239598,2,0,P|300:296|288:248,1,77.0000023498536,10|0,0:1|0:0,0:0:0:0:
256,256,239967,2,0,P|248:212|260:164,1,77.0000023498536,2|0,0:0|2:0,0:0:0:0:
284,156,240336,1,2,0:0:0:0:
360,192,240581,6,0,B|400:184|400:184|456:196,1,77.0000023498536,10|0,0:1|0:0,0:0:0:0:
472,180,240950,2,0,B|480:140|480:140|468:84,1,77.0000023498536,2|0,0:0|2:0,0:0:0:0:
448,76,241319,1,2,0:0:0:0:
372,40,241565,2,0,L|292:40,1,77.0000023498536,10|2,0:1|0:0,0:0:0:0:
240,108,242057,2,0,L|144:108,1,77.0000023498536,10|2,0:0|0:0,0:0:0:0:
80,112,242549,5,14,0:1:0:0:
36,184,242795,1,2,0:0:0:0:
100,240,243041,2,0,L|90:331,1,77.0000023498536,10|2,0:0|0:0,0:0:0:0:
160,368,243532,2,0,P|204:352|280:356,2,115.50000352478,10|2|2,0:1|0:0|0:0,0:0:0:0:
248,256,244516,2,0,P|294:264|357:305,2,115.50000352478,10|2|2,0:1|0:0|0:0,0:0:0:0:
164,276,245500,1,10,0:1:0:0:
108,212,245745,1,2,0:0:0:0:
168,152,245991,2,0,P|176:108|164:68,1,77.0000023498536,10|2,0:0|0:0,0:0:0:0:
140,56,246360,1,2,0:0:0:0:
140,56,246483,5,14,0:1:0:0:
288,136,246975,1,10,0:0:0:0:
340,204,247221,2,0,P|372:136|340:68,1,154.000004699707,2|2,0:0|0:0,0:0:0:0:
288,136,247959,1,10,0:0:0:0:
236,204,248204,2,0,P|203:136|235:68,1,154.000004699707,2|2,0:0|0:0,0:0:0:0:
288,136,248942,1,10,0:0:0:0:
340,204,249188,2,0,L|424:204,1,77.0000023498536,2|10,0:0|0:1,0:0:0:0:
420,288,249680,1,2,0:0:0:0:
420,288,249926,2,0,L|340:288,1,77.0000023498536,10|2,0:0|0:0,0:0:0:0:
256,288,250418,6,0,B|216:316|216:352|216:352|184:332|132:340,1,154.000004699707,14|10,0:1|0:0,0:0:0:0:
64,368,251155,1,2,0:0:0:0:
16,300,251401,2,0,P|12:255|33:205,2,77.0000023498536,10|0|10,0:1|0:0|0:0,0:0:0:0:
96,268,252139,6,0,B|176:236|168:296|268:256,1,154.000004699707,2|2,0:0|0:0,0:0:0:0:
320,220,252877,2,0,P|328:176|316:132,1,77.0000023498536,10|2,0:0|0:0,0:0:0:0:
260,88,253368,1,10,0:1:0:0:
192,136,253614,1,2,0:0:0:0:
192,136,253737,1,2,0:0:0:0:
192,136,253860,2,0,L|112:136,2,77.0000023498536,10|2|14,0:0|0:0|0:1,0:0:0:0:
256,260,254844,5,10,0:0:0:0:
324,300,255090,1,2,0:0:0:0:
324,300,255336,2,0,P|364:296|404:304,1,62.9999980773926,10|0,0:1|0:0,0:0:0:0:
436,356,255827,2,0,P|476:360|516:352,1,62.9999980773926,10|0,0:0|0:0,0:0:0:0:
468,284,256319,5,10,0:1:0:0:
468,284,256565,2,0,L|468:212,1,62.9999980773926,2|10,0:0|0:0,0:0:0:0:
392,220,257057,2,0,L|392:148,1,62.9999980773926,2|8,0:0|0:1,0:0:0:0:
468,144,257549,2,0,L|468:72,1,62.9999980773926,2|10,0:0|0:0,0:0:0:0:
416,28,258041,1,2,0:0:0:0:
416,28,258163,1,2,0:0:0:0:
416,28,258286,6,0,P|368:48|272:48,1,125.999996154785,14|10,0:1|0:0,0:0:0:0:
232,12,259024,1,2,0:0:0:0:
232,12,259270,1,10,0:1:0:0:
84,48,259762,1,10,0:0:0:0:
84,48,260008,2,0,P|64:128|72:184,1,125.999996154785,2|2,0:0|0:0,0:0:0:0:
144,192,260745,1,10,0:0:0:0:
144,192,260991,2,0,P|164:272|156:328,1,125.999996154785,2|2,0:0|0:0,0:0:0:0:
96,360,261729,1,10,0:0:0:0:
248,372,262221,6,0,L|240:304,1,62.9999980773926,14|0,0:1|0:0,0:0:0:0:
316,300,262713,2,0,L|323:232,1,62.9999980773926,10|2,0:0|0:0,0:0:0:0:
248,236,263204,2,0,L|240:168,1,62.9999980773926,10|0,0:1|0:0,0:0:0:0:
316,164,263696,2,0,L|323:96,1,62.9999980773926,10|2,0:0|0:0,0:0:0:0:
332,28,264188,5,10,0:1:0:0:
332,28,264434,2,0,P|296:20|248:28,1,62.9999980773926,2|10,0:0|0:0,0:0:0:0:
248,92,264926,2,0,P|212:100|164:92,1,62.9999980773926,2|10,0:0|0:1,0:0:0:0:
144,36,265418,2,0,P|108:28|60:36,1,62.9999980773926,2|10,0:0|0:0,0:0:0:0:
24,80,265909,1,2,0:0:0:0:
24,80,266032,1,2,0:0:0:0:
24,80,266155,6,0,L|24:220,1,125.999996154785,14|10,0:1|0:0,0:0:0:0:
104,208,266893,1,2,0:0:0:0:
104,208,267139,2,0,L|104:132,2,62.9999980773926,10|0|10,0:1|0:0|0:0,0:0:0:0:
104,284,267877,6,0,P|164:284|220:320,1,126.700006154785,14|2,0:0|0:0,0:0:0:0:
276,368,268622,2,0,L|408:368,1,119.000002269745,2|2,0:0|0:0,0:0:0:0:
452,320,269393,1,2,0:0:0:0:
452,320,269647,2,0,L|452:261,1,58.7999982055665,2|2,0:0|0:0,0:0:0:0:
256,192,270155,12,0,273460,0:0:0:0:
