osu file format v14

[General]
AudioFilename: Yakusoku.mp3
AudioLeadIn: 2000
PreviewTime: 85587
Countdown: 0
SampleSet: Normal
StackLeniency: 0.5
Mode: 0
LetterboxInBreaks: 0
WidescreenStoryboard: 0

[Editor]
DistanceSpacing: 1.7
BeatDivisor: 4
GridSize: 4
TimelineZoom: 2.6

[Metadata]
Title:Yakusoku
TitleUnicode:約束
Artist:FictionJunction YUUKA
ArtistUnicode:FictionJunction YUUKA
Creator:Riven
Version:Promise
Source:
Tags:romanesque elemental ending EL CAZADOR DE LA BRUJA YUUKA Yuki Kajiura 梶浦 由記 南里 侑香 なんり ゆうか
BeatmapID:703177
BeatmapSetID:315375

[Difficulty]
HPDrainRate:6
CircleSize:4
OverallDifficulty:8.2
ApproachRate:8.5
SliderMultiplier:1.7
SliderTickRate:1

[Events]
//Background and Video events
0,0,"background.jpg",0,0
//Break Periods
2,233941,245989
//Storyboard Layer 0 (Background)
//Storyboard Layer 1 (Fail)
//Storyboard Layer 2 (Pass)
//Storyboard Layer 3 (Foreground)
//Storyboard Sound Samples

[TimingPoints]
1127,461.538461538462,4,2,1,35,1,0
19127,-100,4,2,1,40,0,0
19588,-100,4,2,1,40,0,0
39896,-80,4,1,1,50,0,0
40588,428.571428571429,4,1,1,50,1,0
40588,-80,4,1,1,50,0,0
41257,483.870967741935,4,1,1,50,1,0
41257,-80,4,1,1,50,0,0
41619,-80,4,1,1,35,0,0
41741,461.538461538462,4,1,2,55,1,0
41741,-80,4,1,2,55,0,0
56510,-100,4,2,1,50,0,0
82356,-80,4,2,1,60,0,0
84202,-80,4,1,1,60,0,0
86048,-66.6666666666667,4,1,1,60,0,1
98971,-66.6666666666667,4,1,1,60,0,0
100817,-66.6666666666667,4,1,1,60,0,1
115587,-80,4,1,2,55,0,0
137741,-100,4,2,1,50,0,0
152048,-125,4,2,1,50,0,0
152394,-125,4,2,1,20,0,0
152510,-100,4,2,1,50,0,0
163587,-80,4,2,1,60,0,0
164971,-80,4,1,1,60,0,0
167279,-66.6666666666667,4,1,1,60,0,1
180202,-66.6666666666667,4,1,1,60,0,0
182048,-66.6666666666667,4,1,1,60,0,1
196817,-80,4,1,1,60,0,0
197279,-80,4,1,2,60,0,0
251741,-80,4,2,1,5,0,0
252202,-100,4,2,1,40,0,0
265125,-100,4,2,1,40,0,0
266048,-100,4,2,1,45,0,0
266971,-100,4,2,1,50,0,0
267894,-100,4,2,1,55,0,0
268817,-100,4,2,1,60,0,0
269741,-100,4,2,1,60,0,0
271356,-100,4,1,2,60,0,0
272510,-66.6666666666667,4,1,1,60,0,1
284971,-80,4,1,1,60,0,1
285433,-80,4,1,2,60,0,0
300202,-100,4,2,1,36,0,0
313587,-111.111111111111,4,2,1,35,0,0
316587,750,4,1,1,35,1,0
317337,-100,4,1,1,35,0,0
318087,-100,4,1,1,25,0,0
318837,-100,4,1,1,15,0,0
319587,-111.111111111111,4,2,1,5,0,0

[Colours]
Combo1 : 142,150,187
Combo2 : 248,142,124
Combo3 : 157,138,138
Combo4 : 252,255,119

[HitObjects]
92,284,1127,6,0,B|124:288|148:264|148:264|180:320|220:232|220:232|332:356|428:304|420:160|276:172|288:260,1,510,2|0,2:0|2:0,2:0:0:0:
176,136,2973,6,0,B|168:200|80:200|52:148|68:80|120:52|168:76|208:124|252:160|252:160|284:88|320:72|392:64,1,510,2|0,2:0|2:0,2:0:0:0:
392,160,4819,6,0,B|340:172|320:204|336:280|336:280|288:240|236:228|212:276|208:340|208:340|152:264|120:252|60:268,1,510,2|0,2:0|2:0,2:0:0:0:
120,150,6665,6,0,B|128:190|184:206|184:206|212:172|268:172|268:172|308:62|284:-22|196:-22|132:42|172:126|236:122|268:70,1,510,2|0,2:0|2:0,2:0:0:0:
68,88,8511,6,0,P|156:76|20:196,1,510,2|0,2:0|2:0,2:0:0:0:
316,196,10357,6,0,P|125:235|299:322,1,510,2|0,2:0|2:0,2:0:0:0:
227,248,12203,6,0,B|211:200|227:164|227:164|203:132|203:132|219:88|187:36|187:36|275:20|343:68|343:68|315:132|239:164,1,510,2|0,2:0|2:0,2:0:0:0:
124,98,14050,1,2,2:0:0:0:
256,192,14280,12,0,19127,2:0:0:0:
400,276,19588,5,2,2:0:0:0:
308,176,19819,1,0,2:0:0:0:
412,108,20050,2,0,L|384:196,1,85,2|0,2:0|2:0,2:0:0:0:
348,60,20511,1,2,2:0:0:0:
468,184,20742,1,0,2:0:0:0:
320,272,20973,2,0,L|220:280,1,85,2|0,2:0|2:0,2:0:0:0:
60,292,21434,5,2,2:0:0:0:
220,360,21665,1,0,2:0:0:0:
192,184,21896,1,2,2:0:0:0:
492,248,22357,5,2,2:0:0:0:
345,159,22588,1,0,2:0:0:0:
484,64,22819,1,2,2:0:0:0:
356,312,23280,6,0,P|316:327|276:320,1,85,2|0,2:0|2:0,2:0:0:0:
212,200,23742,1,2,2:0:0:0:
152,364,23973,1,2,2:0:0:0:
52,240,24203,2,0,L|148:216,1,85,2|0,0:0|0:0,0:0:0:0:
292,180,24665,1,2,2:0:0:0:
184,64,24896,1,0,2:0:0:0:
238,248,25127,6,0,P|275:266|321:262,1,85,2|0,2:0|2:0,2:0:0:0:
512,116,25588,2,0,P|444:68|356:107,1,170,2|0,2:0|2:0,2:0:0:0:
208,195,26280,1,0,0:0:0:0:
328,312,26511,1,2,0:0:0:0:
347,163,26742,1,0,0:0:0:0:
128,236,26973,6,0,P|196:284|283:244,1,170,2|0,2:0|2:0,2:0:0:0:
347,163,27665,1,0,2:0:0:0:
257,64,27896,2,0,P|193:116|208:195,1,170,2|2,2:0|2:0,2:0:0:0:
429,133,28588,1,0,2:0:0:0:
329,301,28819,5,2,2:0:0:0:
364,80,29050,1,0,2:0:0:0:
465,241,29280,1,2,2:0:0:0:
188,76,29742,5,2,2:0:0:0:
265,238,29973,1,0,2:0:0:0:
104,312,30203,1,2,2:0:0:0:
328,172,30665,6,0,P|347:271|303:322,1,170,2|2,2:0|2:0,2:0:0:0:
220,216,31357,1,0,2:0:0:0:
280,96,31588,2,0,P|364:96|421:181,1,170,2|2,0:0|0:0,0:0:0:0:
307,319,32280,1,0,0:0:0:0:
307,319,32511,6,0,L|222:301,1,85,2|0,2:0|2:0,2:0:0:0:
44,204,32973,2,0,L|129:186,1,85,2|0,2:0|2:0,2:0:0:0:
208,40,33434,5,2,2:0:0:0:
272,168,33665,1,0,2:0:0:0:
396,92,33896,1,2,2:0:0:0:
372,244,34127,1,0,2:0:0:0:
180,224,34357,5,2,2:0:0:0:
384,168,34588,1,0,2:0:0:0:
284,308,34819,1,2,2:0:0:0:
168,132,35050,1,0,2:0:0:0:
192,316,35280,5,2,2:0:0:0:
344,92,35511,1,0,2:0:0:0:
357,359,35742,1,2,2:0:0:0:
152,228,35973,1,0,2:0:0:0:
347,235,36203,6,0,P|366:296|356:359,2,127.5,2|0|0,2:0|2:0|2:0,2:0:0:0:
230,43,37127,2,0,P|170:23|112:46,2,127.5,2|0|0,2:0|2:0|2:0,2:0:0:0:
203,243,38050,6,0,P|173:187|172:124,2,127.5,2|0|0,0:0|0:0|0:0,0:0:0:0:
396,148,38973,2,0,P|334:135|276:160,2,127.5,2|0|0,2:0|2:0|2:0,2:0:0:0:
154,224,39896,6,0,L|104:240,1,53.125,8|0,2:3|2:0,2:0:0:0:
256,288,40242,2,0,L|308:297,1,53.125,8|0,2:3|2:0,2:0:0:0:
142,172,40588,6,0,L|154:224,1,53.125,8|0,2:3|2:0,2:0:0:0:
288,108,40909,2,0,L|284:55,1,53.125,8|0,2:3|2:0,2:0:0:0:
203,122,41257,6,0,P|248:185|337:179,1,159.375,4|0,0:0|2:0,0:0:0:0:
346,178,41741,6,0,L|462:134,1,106.25
284,55,42202,1,8,1:0:0:0:
288,244,42433,1,0,1:0:0:0:
308,260,42548,1,0,0:0:0:0:
336,268,42664,1,0,0:0:0:0:
364,264,42779,1,0,0:0:0:0:
388,256,42894,1,0,0:0:0:0:
376,76,43125,1,8,1:0:0:0:
212,168,43356,1,0,0:0:0:0:
388,256,43587,6,0,P|382:309|348:348,1,106.25,0|0,1:0|1:0,1:0:0:0:
192,248,44048,1,8,1:0:0:0:
344,168,44279,1,0,1:0:0:0:
372,172,44394,1,0,1:0:0:0:
400,176,44510,1,0,1:0:0:0:
428,180,44625,1,0,1:0:0:0:
456,184,44741,1,0,0:0:0:0:
288,80,44971,2,8,L|182:95,1,106.25,8|0,1:0|1:0,1:0:0:0:
352,16,45433,5,4,1:0:0:0:
312,204,45664,1,0,1:0:0:0:
130,163,45894,2,0,P|98:118|103:64,1,106.25,8|0,1:0|1:0,1:0:0:0:
112,44,46241,1,0,1:0:0:0:
132,28,46356,1,0,1:0:0:0:
156,20,46471,1,0,1:0:0:0:
184,20,46587,1,0,1:0:0:0:
208,216,46817,1,8,0:0:0:0:
340,88,47048,1,0,1:0:0:0:
130,163,47279,6,0,P|118:219|138:287,1,106.25,4|0,1:0|1:0,1:0:0:0:
335,251,47741,2,0,P|386:226|412:181,1,106.25,8|0,1:0|1:0,1:0:0:0:
412,159,48087,1,0,1:0:0:0:
406,131,48202,1,0,1:0:0:0:
388,111,48317,1,0,1:0:0:0:
364,96,48433,1,0,1:0:0:0:
132,128,48664,2,0,L|153:232,1,106.25,8|0,1:0|1:0,1:0:0:0:
176,56,49125,5,0,1:0:0:0:
140,312,49356,1,0,1:0:0:0:
304,176,49587,1,12,1:0:0:0:
88,68,49817,1,0,1:0:0:0:
84,96,49933,1,0,1:0:0:0:
80,124,50048,1,0,1:0:0:0:
76,152,50164,1,0,1:0:0:0:
72,180,50279,1,0,1:0:0:0:
364,116,50510,2,0,P|316:93|264:100,1,106.25,8|0,1:0|1:0,1:0:0:0:
268,276,50971,6,0,L|303:175,1,106.25,0|0,1:0|1:0,1:0:0:0:
392,340,51433,1,12,1:0:0:0:
411,159,51664,1,0,0:0:0:0:
384,164,51779,1,0,1:0:0:0:
356,168,51894,1,0,1:0:0:0:
328,172,52010,1,0,1:0:0:0:
303,175,52125,1,0,1:0:0:0:
108,192,52356,2,0,P|123:138|149:94,1,106.25,8|0,1:0|1:0,1:0:0:0:
276,276,52817,6,0,P|260:327|234:373,1,106.25,4|0,1:0|1:0,1:0:0:0:
128,272,53279,1,8,0:0:0:0:
352,232,53510,1,0,0:0:0:0:
372,227,53625,1,0,1:0:0:0:
393,222,53741,1,0,1:0:0:0:
414,217,53856,1,0,1:0:0:0:
435,212,53971,1,0,1:0:0:0:
276,276,54202,1,8,1:0:0:0:
456,207,54433,1,0,1:0:0:0:
256,80,54664,6,0,L|272:219,1,106.25,0|0,1:0|1:0,1:0:0:0:
336,68,55125,1,8,0:0:0:0:
360,44,55241,1,0,0:0:0:0:
392,40,55356,1,0,0:0:0:0:
420,56,55471,1,8,0:0:0:0:
436,84,55587,5,8,0:0:0:0:
436,116,55702,1,0,0:0:0:0:
424,144,55817,1,8,0:0:0:0:
404,168,55933,1,0,0:0:0:0:
388,196,56048,1,8,0:0:0:0:
376,224,56164,1,0,0:0:0:0:
376,256,56279,1,0,0:0:0:0:
392,284,56394,1,0,0:0:0:0:
420,304,56510,6,0,P|460:272|472:208,1,85,4|0,2:0|2:0,2:0:0:0:
336,68,56971,2,0,P|296:100|284:164,1,85,8|0,2:0|2:0,2:0:0:0:
248,281,57433,2,0,B|216:261|144:265|172:277|120:289|75:266,1,170,0|8,2:0|2:0,2:0:0:0:
124,196,58125,1,0,2:0:0:0:
196,360,58356,5,0,2:0:0:0:
316,216,58587,1,0,2:0:0:0:
124,196,58817,2,0,L|32:184,1,85,8|0,2:0|2:0,2:0:0:0:
316,216,59279,2,0,L|400:208,1,85,0|0,2:0|2:0,2:0:0:0:
56,96,59741,5,8,2:0:0:0:
82,269,59971,1,0,2:0:0:0:
86,293,60087,1,0,2:0:0:0:
89,314,60202,1,0,2:0:0:0:
272,163,60433,1,0,2:0:0:0:
56,96,60664,2,0,L|68:184,1,85,8|0,2:0|2:0,2:0:0:0:
72,208,61010,1,0,2:0:0:0:
76,236,61125,2,0,P|116:256|176:256,1,85,0|0,2:0|2:0,2:0:0:0:
324,160,61587,2,0,P|284:140|224:140,1,85,8|0,2:0|2:0,2:0:0:0:
67,168,62048,5,0,2:0:0:0:
264,257,62279,1,0,2:0:0:0:
200,72,62510,1,8,2:0:0:0:
155,259,62741,1,0,2:0:0:0:
116,84,62971,2,0,P|122:42|144:6,1,85,0|0,2:0|2:0,2:0:0:0:
300,180,63433,2,0,P|294:222|270:256,1,85,8|0,2:0|2:0,2:0:0:0:
136,172,63894,5,0,2:0:0:0:
316,100,64125,1,0,2:0:0:0:
370,291,64356,1,8,2:0:0:0:
216,192,64587,1,0,2:0:0:0:
324,16,64817,2,0,P|363:31|391:62,1,85,0|0,2:0|2:0,2:0:0:0:
188,112,65279,1,8,2:0:0:0:
353,192,65510,1,0,2:0:0:0:
152,252,65741,6,0,P|136:291|137:333,1,85,0|0,2:0|2:0,2:0:0:0:
324,272,66202,2,0,L|364:164,1,85,8|0,2:0|2:0,2:0:0:0:
368,160,66548,1,0,2:0:0:0:
380,132,66664,1,0,2:0:0:0:
392,100,66779,1,0,2:0:0:0:
404,68,66894,1,0,2:0:0:0:
452,224,67125,1,8,2:0:0:0:
312,44,67356,5,0,2:0:0:0:
312,44,67471,1,0,2:0:0:0:
312,44,67587,2,0,P|264:24|212:28,1,85,0|0,2:0|2:0,2:0:0:0:
113,161,68048,1,8,2:0:0:0:
272,248,68279,1,0,2:0:0:0:
255,104,68510,1,0,2:0:0:0:
140,240,68741,1,0,2:0:0:0:
348,292,68971,2,0,P|356:251|349:210,1,85,8|0,2:0|2:0,2:0:0:0:
140,240,69433,6,0,P|132:281|140:322,1,85,0|0,2:0|2:0,2:0:0:0:
284,176,69894,1,8,2:0:0:0:
216,340,70125,1,0,2:0:0:0:
84,192,70356,2,0,P|85:128|104:84,1,85,0|0,2:0|2:0,2:0:0:0:
116,92,70702,1,0,2:0:0:0:
144,80,70817,2,0,P|180:88|252:84,1,85,12|0,2:0|2:0,2:0:0:0:
424,72,71279,6,0,L|444:160,1,85,4|0,2:0|2:0,2:0:0:0:
472,284,71741,2,0,P|440:316|392:332,1,85,8|0,2:0|2:0,2:0:0:0:
288,304,72202,1,0,2:0:0:0:
240,200,72433,1,0,2:0:0:0:
316,104,72664,1,8,2:0:0:0:
216,32,72894,1,0,2:0:0:0:
100,64,73125,6,0,L|60:176,1,85,0|0,2:0|2:0,2:0:0:0:
224,264,73587,2,0,L|198:183,1,85,8|0,2:0|2:0,2:0:0:0:
153,314,74048,2,0,P|184:342|239:351,1,85,0|0,2:0|2:0,2:0:0:0:
311,223,74510,1,8,2:0:0:0:
408,304,74741,1,0,2:0:0:0:
264,96,74971,6,0,P|196:92|144:104,1,85,0|0,2:0|2:0,2:0:0:0:
227,225,75433,2,0,P|269:229|335:217,1,85,8|0,2:0|2:0,2:0:0:0:
420,148,75894,1,0,2:0:0:0:
480,252,76125,1,0,2:0:0:0:
408,348,76356,1,8,2:0:0:0:
300,296,76587,1,0,2:0:0:0:
300,176,76817,6,0,P|288:132|256:96,1,85,0|0,2:0|2:0,2:0:0:0:
144,68,77279,1,8,2:0:0:0:
196,176,77510,1,0,2:0:0:0:
152,288,77741,2,0,L|182:382,1,85,0|0,2:0|2:0,2:0:0:0:
360,200,78202,2,0,L|330:106,1,85,8|0,2:0|2:0,2:0:0:0:
384,280,78664,5,0,2:0:0:0:
432,112,78894,1,0,2:0:0:0:
432,112,79010,1,0,2:0:0:0:
432,112,79125,1,8,2:0:0:0:
272,172,79356,1,0,2:0:0:0:
468,192,79587,5,0,2:0:0:0:
300,68,79817,1,0,2:0:0:0:
300,68,79933,1,0,2:0:0:0:
300,68,80048,1,8,2:0:0:0:
384,280,80279,1,0,2:0:0:0:
232,240,80510,5,0,2:0:0:0:
444,144,80741,1,0,2:0:0:0:
444,144,80856,1,0,2:0:0:0:
444,144,80971,2,0,P|396:116|336:116,1,85,8|0,2:0|2:0,2:0:0:0:
84,236,81433,2,0,P|132:264|192:264,1,85,0|0,2:0|2:0,2:0:0:0:
361,203,81894,1,8,2:0:0:0:
256,344,82125,1,0,2:0:0:0:
151,170,82356,6,0,P|75:130|11:130,1,106.25,0|0,2:0|2:0,2:0:0:0:
280,272,82817,2,0,L|384:184,1,106.25,8|0,2:0|2:0,2:0:0:0:
56,128,83279,2,0,L|100:248,1,106.25,0|0,2:0|2:0,2:0:0:0:
144,336,83741,1,8,2:0:0:0:
236,124,83971,1,0,2:0:0:0:
344,340,84202,5,0,1:0:0:0:
344,340,84317,1,0,1:0:0:0:
344,340,84433,1,0,1:0:0:0:
236,32,84664,1,4,1:0:0:0:
128,280,84894,1,0,1:0:0:0:
489,189,85125,5,0,1:0:0:0:
445,169,85241,1,0,1:0:0:0:
398,161,85356,1,0,1:0:0:0:
351,168,85471,1,0,1:0:0:0:
307,187,85587,1,0,1:0:0:0:
262,201,85702,1,0,1:0:0:0:
214,201,85817,1,0,1:0:0:0:
168,188,85933,1,0,1:0:0:0:
128,168,86048,6,0,B|96:176|67:193|67:193|96:212|144:224,1,127.500004863739,4|0,1:0|0:0,1:0:0:0:
344,340,86510,2,0,P|394:294|392:217,1,127.500004863739,8|0,1:0|1:0,1:0:0:0:
108,96,86971,1,0,1:0:0:0:
196,328,87202,1,0,1:0:0:0:
288,96,87433,1,8,1:0:0:0:
48,232,87664,1,0,1:0:0:0:
268,332,87894,6,0,P|333:338|385:300,1,127.500004863739
364,5,88356,1,8,1:0:0:0:
312,260,88587,1,0,1:0:0:0:
312,260,88702,1,0,1:0:0:0:
312,260,88817,1,0,1:0:0:0:
198,18,89048,1,0,1:0:0:0:
440,140,89279,1,8,1:0:0:0:
164,174,89510,1,0,1:0:0:0:
396,336,89741,6,0,P|422:271|414:212,1,127.500004863739,0|0,1:0|1:0,1:0:0:0:
200,296,90202,1,8,1:0:0:0:
152,96,90433,1,0,1:0:0:0:
152,96,90548,1,0,1:0:0:0:
152,96,90664,2,0,P|84:111|40:152,1,127.500004863739,0|0,1:0|1:0,1:0:0:0:
292,292,91125,1,8,1:0:0:0:
232,92,91356,1,0,1:0:0:0:
100,336,91587,6,0,P|164:344|252:312,1,127.500004863739
376,192,92048,1,8,0:0:0:0:
152,104,92279,1,0,1:0:0:0:
152,104,92394,1,0,1:0:0:0:
152,104,92510,2,0,P|171:45|236:12,1,127.500004863739,0|0,1:0|1:0,1:0:0:0:
292,292,92971,2,0,P|208:284|156:248,1,127.500004863739,8|0,1:0|1:0,1:0:0:0:
28,72,93433,5,0,1:0:0:0:
172,262,93664,1,0,1:0:0:0:
232,92,93894,1,8,1:0:0:0:
84,256,94125,1,0,1:0:0:0:
92,292,94241,1,0,1:0:0:0:
112,324,94356,1,0,1:0:0:0:
144,344,94471,1,0,1:0:0:0:
184,348,94587,1,0,1:0:0:0:
360,96,94817,5,8,1:0:0:0:
240,272,95048,1,0,1:0:0:0:
448,196,95279,1,0,1:0:0:0:
184,160,95510,1,0,1:0:0:0:
319,331,95741,1,8,1:0:0:0:
444,112,95971,1,0,1:0:0:0:
440,74,96087,1,0,1:0:0:0:
422,42,96202,1,0,1:0:0:0:
392,19,96317,1,0,1:0:0:0:
352,12,96433,1,0,1:0:0:0:
319,331,96664,2,0,P|380:320|420:272,1,127.500004863739,8|0,1:0|1:0,1:0:0:0:
72,208,97125,6,0,L|85:334,1,127.500004863739,0|0,1:0|1:0,1:0:0:0:
336,248,97587,1,8,1:0:0:0:
164,180,97817,1,0,1:0:0:0:
384,56,98048,1,0,1:0:0:0:
388,90,98164,1,0,1:0:0:0:
392,124,98279,1,0,1:0:0:0:
108,252,98510,6,0,P|168:268|226:244,1,127.500004863739,8|0,0:0|0:0,0:0:0:0:
248,220,98856,1,0,0:0:0:0:
260,192,98971,1,0,0:0:0:0:
264,160,99087,1,0,0:0:0:0:
260,128,99202,1,0,0:0:0:0:
168,344,99433,1,8,0:0:0:0:
128,352,99548,1,0,0:0:0:0:
92,332,99664,1,2,0:0:0:0:
70,297,99779,1,8,0:0:0:0:
74,255,99894,5,8,1:0:0:0:
100,225,100010,1,0,1:0:0:0:
138,216,100125,1,8,1:0:0:0:
177,229,100241,1,8,1:0:0:0:
211,255,100356,1,0,1:0:0:0:
244,272,100471,1,0,1:0:0:0:
288,272,100587,1,8,1:0:0:0:
326,263,100702,1,0,1:0:0:0:
356,238,100817,5,4,1:0:0:0:
168,344,101048,1,0,1:0:0:0:
440,192,101279,1,8,1:0:0:0:
164,100,101510,1,0,1:0:0:0:
132,88,101625,1,0,1:0:0:0:
100,76,101741,1,0,1:0:0:0:
288,336,101971,1,0,1:0:0:0:
384,60,102202,1,8,1:0:0:0:
112,212,102433,1,0,1:0:0:0:
440,192,102664,5,0,1:0:0:0:
220,44,102894,1,0,1:0:0:0:
184,308,103125,1,8,1:0:0:0:
440,192,103356,1,0,1:0:0:0:
446,162,103471,1,0,1:0:0:0:
447,130,103587,1,0,1:0:0:0:
434,99,103702,1,0,1:0:0:0:
415,74,103817,1,0,1:0:0:0:
136,240,104048,5,8,1:0:0:0:
188,44,104279,1,0,1:0:0:0:
312,212,104510,2,0,P|338:277|332:342,1,127.500004863739,0|0,1:0|1:0,1:0:0:0:
68,152,104971,2,0,B|149:160|149:160|193:148,1,127.500004863739,8|0,1:0|1:0,1:0:0:0:
224,136,105317,1,0,1:0:0:0:
252,124,105433,1,0,1:0:0:0:
280,112,105548,1,0,1:0:0:0:
312,100,105664,1,0,1:0:0:0:
392,256,105894,5,8,1:0:0:0:
236,336,106125,1,0,1:0:0:0:
156,180,106356,1,0,1:0:0:0:
140,152,106471,1,0,1:0:0:0:
124,124,106587,1,0,1:0:0:0:
428,176,106817,2,0,P|362:184|292:156,1,127.500004863739,8|0,1:0|1:0,1:0:0:0:
320,140,107164,1,0,1:0:0:0:
336,112,107279,1,0,1:0:0:0:
352,84,107394,1,0,1:0:0:0:
368,56,107510,1,0,1:0:0:0:
128,120,107741,1,8,1:0:0:0:
288,288,107971,1,0,1:0:0:0:
368,56,108202,6,0,P|272:48|212:80,1,127.500004863739,4|0,1:0|1:0,1:0:0:0:
64,212,108664,2,0,L|200:244,1,127.500004863739,8|0,1:0|1:0,1:0:0:0:
436,296,109125,1,0,1:0:0:0:
436,296,109241,1,0,1:0:0:0:
436,296,109356,1,0,1:0:0:0:
176,340,109587,1,8,1:0:0:0:
296,112,109817,1,0,1:0:0:0:
368,364,110048,5,0,1:0:0:0:
148,256,110279,1,0,1:0:0:0:
384,110,110510,1,8,1:0:0:0:
176,16,110741,1,0,1:0:0:0:
176,16,110856,1,0,1:0:0:0:
176,16,110971,1,0,0:0:0:0:
224,256,111202,1,0,0:0:0:0:
459,162,111433,2,0,P|471:102|443:38,1,127.500004863739,8|0,0:0|0:0,0:0:0:0:
97,267,111894,6,0,L|229:255,1,127.500004863739,0|0,1:0|1:0,1:0:0:0:
446,42,112356,2,0,P|387:63|314:54,1,127.500004863739,8|0,1:0|1:0,1:0:0:0:
295,43,112702,1,0,1:0:0:0:
263,30,112817,1,0,1:0:0:0:
231,30,112933,1,0,1:0:0:0:
199,42,113048,1,0,1:0:0:0:
451,284,113279,2,0,P|461:221|448:160,1,127.500004863739,8|0,0:0|0:0,0:0:0:0:
224,316,113741,5,0,1:0:0:0:
224,316,113856,1,0,1:0:0:0:
224,316,113971,1,0,1:0:0:0:
96,144,114202,2,0,B|84:112|64:84|24:80|24:80|52:56|80:44|118:40|148:56,1,191.250007295609,4|0,1:0|1:0,1:0:0:0:
136,52,114664,1,0,1:0:0:0:
168,56,114779,1,0,1:0:0:0:
200,56,114894,1,0,1:0:0:0:
232,52,115010,1,0,1:0:0:0:
264,44,115125,1,0,1:0:0:0:
296,40,115241,1,0,1:0:0:0:
328,40,115356,1,0,1:0:0:0:
360,48,115471,1,0,1:0:0:0:
388,56,115587,6,0,P|404:120|372:196,1,106.25,4|0,1:0|1:0,1:0:0:0:
291,275,116048,2,0,P|275:211|307:135,1,106.25,8|0,1:0|1:0,1:0:0:0:
283,172,116394,1,0,1:0:0:0:
283,172,116510,1,0,1:0:0:0:
392,296,116741,1,0,1:0:0:0:
412,204,116971,1,8,1:0:0:0:
392,296,117202,1,0,1:0:0:0:
432,112,117433,6,0,P|380:96|304:124,1,106.25,0|0,1:0|1:0,1:0:0:0:
196,204,117894,1,8,1:0:0:0:
52,84,118125,1,0,1:0:0:0:
80,80,118241,1,0,1:0:0:0:
108,76,118356,1,0,1:0:0:0:
136,72,118471,1,0,1:0:0:0:
164,68,118587,1,0,1:0:0:0:
280,284,118817,2,0,L|298:179,1,106.25,8|0,1:0|1:0,1:0:0:0:
464,40,119279,6,0,L|443:144,1,106.25,0|0,1:0|1:0,1:0:0:0:
408,276,119741,1,8,1:0:0:0:
212,132,119971,1,0,1:0:0:0:
236,120,120087,1,0,1:0:0:0:
260,108,120202,1,0,1:0:0:0:
284,96,120317,1,0,1:0:0:0:
308,84,120433,1,0,1:0:0:0:
64,76,120664,1,8,1:0:0:0:
172,232,120894,5,0,1:0:0:0:
172,232,121010,1,0,1:0:0:0:
172,232,121125,1,0,1:0:0:0:
220,36,121356,1,0,1:0:0:0:
356,216,121587,1,0,1:0:0:0:
356,260,121702,1,0,1:0:0:0:
340,300,121817,1,0,1:0:0:0:
304,324,121933,1,0,1:0:0:0:
260,324,122048,1,0,1:0:0:0:
224,300,122164,1,0,1:0:0:0:
184,288,122279,5,0,1:0:0:0:
140,288,122394,1,0,1:0:0:0:
100,304,122510,1,0,1:0:0:0:
68,328,122625,1,0,1:0:0:0:
44,364,122741,1,0,1:0:0:0:
20,328,122856,1,0,1:0:0:0:
4,288,122971,6,0,B|-8:248|8:208|8:208|24:228,1,106.25,4|0,1:0|1:0,1:0:0:0:
160,368,123433,1,8,1:0:0:0:
356,216,123664,1,0,1:0:0:0:
324,204,123779,1,0,1:0:0:0:
292,204,123894,1,0,1:0:0:0:
264,216,124010,1,0,1:0:0:0:
240,236,124125,1,0,1:0:0:0:
160,368,124356,2,0,L|152:244,1,106.25,8|0,1:0|1:0,1:0:0:0:
452,160,124817,6,0,L|445:266,1,106.25,0|0,1:0|1:0,1:0:0:0:
256,352,125279,1,8,1:0:0:0:
148,180,125510,1,0,1:0:0:0:
148,180,125625,1,0,1:0:0:0:
148,180,125741,2,0,P|100:204|64:256,1,106.25,0|0,1:0|1:0,1:0:0:0:
314,290,126202,1,8,1:0:0:0:
272,80,126433,1,0,1:0:0:0:
164,272,126664,6,0,P|160:325|187:382,1,106.25,0|0,1:0|1:0,1:0:0:0:
392,328,127125,2,0,P|396:275|369:218,1,106.25,8|0,1:0|1:0,1:0:0:0:
360,200,127471,1,0,1:0:0:0:
344,172,127587,1,0,1:0:0:0:
340,140,127702,1,0,1:0:0:0:
344,108,127817,1,0,1:0:0:0:
404,0,128048,1,8,1:0:0:0:
428,144,128279,1,0,1:0:0:0:
272,68,128510,5,0,1:0:0:0:
412,24,128741,1,0,1:0:0:0:
436,168,128971,1,8,1:0:0:0:
280,92,129202,1,0,1:0:0:0:
280,92,129317,1,0,1:0:0:0:
280,92,129433,1,0,1:0:0:0:
228,264,129664,1,0,1:0:0:0:
436,168,129894,1,8,1:0:0:0:
468,324,130125,1,0,1:0:0:0:
264,348,130356,6,0,P|200:344|156:324,1,106.25,0|0,1:0|1:0,1:0:0:0:
316,184,130817,1,8,1:0:0:0:
468,324,131048,1,0,1:0:0:0:
480,296,131164,1,0,1:0:0:0:
484,264,131279,1,0,1:0:0:0:
480,232,131394,1,0,1:0:0:0:
468,204,131510,1,0,1:0:0:0:
320,100,131741,1,8,1:0:0:0:
440,12,131971,1,0,1:0:0:0:
243,139,132202,6,0,P|183:139|135:111,1,106.25,0|0,1:0|1:0,1:0:0:0:
32,28,132664,2,0,L|13:144,1,106.25,8|0,1:0|1:0,1:0:0:0:
11,156,133010,1,0,1:0:0:0:
7,177,133125,1,0,1:0:0:0:
4,198,133241,1,0,1:0:0:0:
1,219,133356,1,0,1:0:0:0:
172,160,133587,1,8,1:0:0:0:
316,272,133817,1,0,1:0:0:0:
136,272,134048,6,0,L|39:316,1,106.25,0|0,1:0|1:0,1:0:0:0:
316,272,134510,2,0,L|432:220,1,106.25,8|0,1:0|1:0,1:0:0:0:
260,348,134971,2,0,B|212:308|224:240|224:240|204:196|132:176,1,212.5,0|8,1:0|1:0,1:0:0:0:
316,272,135664,1,0,1:0:0:0:
136,272,135894,5,0,1:0:0:0:
132,292,136010,1,0,1:0:0:0:
136,312,136125,1,0,1:0:0:0:
400,168,136356,1,8,1:0:0:0:
370,143,136471,1,0,1:0:0:0:
332,134,136587,1,0,1:0:0:0:
288,134,136702,1,0,1:0:0:0:
255,151,136817,1,0,1:0:0:0:
221,177,136933,1,0,1:0:0:0:
182,190,137048,5,0,1:0:0:0:
144,181,137164,1,0,1:0:0:0:
118,151,137279,1,0,1:0:0:0:
114,109,137394,1,0,1:0:0:0:
132,72,137510,1,0,1:0:0:0:
164,52,137625,1,0,1:0:0:0:
200,48,137741,6,0,L|308:24,1,85,6|0,2:0|2:0,2:0:0:0:
480,76,138202,2,0,L|376:104,1,85,8|0,2:0|2:0,2:0:0:0:
272,192,138664,2,0,P|272:236|300:296,1,85,8|0,2:0|2:0,2:0:0:0:
432,344,139125,2,0,P|432:300|404:240,1,85,8|0,2:0|2:0,2:0:0:0:
316,128,139587,5,0,2:0:0:0:
192,236,139817,1,0,2:0:0:0:
276,352,140048,2,0,P|317:342|351:318,1,85,8|0,2:0|2:0,2:0:0:0:
124,184,140510,2,0,P|111:224|115:266,1,85,8|0,2:0|2:0,2:0:0:0:
316,224,140971,1,8,2:0:0:0:
192,96,141202,1,0,2:0:0:0:
248,268,141433,6,0,L|275:350,1,85,0|0,2:0|2:0,2:0:0:0:
376,176,141894,2,0,L|349:94,1,85,8|0,2:0|2:0,2:0:0:0:
472,184,142356,1,0,2:0:0:0:
320,252,142587,1,0,2:0:0:0:
440,108,142817,1,8,2:0:0:0:
484,304,143048,1,0,2:0:0:0:
280,180,143279,5,0,2:0:0:0:
232,348,143510,1,0,2:0:0:0:
416,256,143741,1,8,2:0:0:0:
180,232,143971,1,0,2:0:0:0:
340,336,144202,1,0,2:0:0:0:
352,132,144433,1,0,2:0:0:0:
180,232,144664,2,0,L|96:276,1,85,8|0,2:0|2:0,2:0:0:0:
36,112,145125,6,0,P|84:88|128:84,1,85,0|0,2:0|2:0,2:0:0:0:
288,156,145587,2,0,P|332:164|380:148,1,85,8|0,2:0|2:0,2:0:0:0:
214,84,146048,2,0,L|186:168,1,85,0|0,2:0|2:0,2:0:0:0:
260,332,146510,1,8,2:0:0:0:
104,232,146741,1,0,2:0:0:0:
320,168,146971,6,0,L|292:252,1,85,0|0,2:0|2:0,2:0:0:0:
252,116,147433,1,8,2:0:0:0:
324,324,147664,1,0,2:0:0:0:
408,228,147894,1,0,2:0:0:0:
216,280,148125,1,0,2:0:0:0:
156,160,148356,1,8,2:0:0:0:
320,292,148587,1,0,2:0:0:0:
456,160,148817,6,0,L|432:76,1,85,0|0,2:0|2:0,2:0:0:0:
288,224,149279,1,8,2:0:0:0:
244,28,149510,1,0,2:0:0:0:
372,180,149741,1,0,2:0:0:0:
168,112,149971,1,0,2:0:0:0:
352,36,150202,1,8,2:0:0:0:
204,204,150433,1,0,2:0:0:0:
204,204,150664,6,0,L|184:296,1,85,0|0,2:0|2:0,2:0:0:0:
120,168,151125,1,8,2:0:0:0:
268,140,151356,1,0,2:0:0:0:
312,328,151587,1,0,2:0:0:0:
108,296,151817,1,8,2:0:0:0:
312,244,152048,6,0,P|276:252|232:308,1,102,4|0,2:0|2:0,2:0:0:0:
220,372,152510,6,0,L|188:294,1,85,4|0,2:0|2:0,2:0:0:0:
120,212,152971,1,8,2:0:0:0:
304,352,153202,1,0,2:0:0:0:
328,204,153433,2,0,P|324:148|292:92,1,85,0|0,2:0|2:0,2:0:0:0:
120,212,153894,2,0,P|124:268|156:324,1,85,8|0,2:0|2:0,2:0:0:0:
384,320,154356,5,0,2:0:0:0:
376,180,154587,1,0,2:0:0:0:
256,268,154817,1,8,2:0:0:0:
384,320,155048,1,0,2:0:0:0:
244,144,155279,2,0,P|202:135|162:147,1,85,0|0,2:0|2:0,2:0:0:0:
376,180,155741,2,0,P|388:139|385:97,1,85,8|0,2:0|2:0,2:0:0:0:
256,268,156202,6,0,P|247:313|256:352,1,85,0|0,2:0|2:0,2:0:0:0:
392,264,156664,1,8,2:0:0:0:
168,216,156894,1,0,2:0:0:0:
168,216,157125,2,0,L|98:264,1,85,0|0,2:0|2:0,2:0:0:0:
264,92,157587,2,0,L|257:7,1,85,8|0,2:0|2:0,2:0:0:0:
168,216,158048,6,0,P|126:207|95:178,1,85,0|0,2:0|2:0,2:0:0:0:
92,160,158394,1,0,2:0:0:0:
96,142,158510,1,8,2:0:0:0:
280,268,158741,1,0,2:0:0:0:
468,172,158971,2,0,P|475:220|460:279,1,85,0|0,2:0|2:0,2:0:0:0:
348,344,159433,1,8,2:0:0:0:
252,172,159664,1,0,2:0:0:0:
108,284,159894,6,0,L|25:301,1,85,0|0,2:0|2:0,2:0:0:0:
212,356,160356,1,8,2:0:0:0:
172,156,160587,1,0,2:0:0:0:
376,192,160817,1,0,2:0:0:0:
188,240,161048,1,0,2:0:0:0:
272,64,161279,1,8,2:0:0:0:
324,260,161510,1,0,2:0:0:0:
452,116,161741,5,0,2:0:0:0:
256,167,161971,1,0,2:0:0:0:
358,340,162202,2,0,P|394:309|410:270,1,85,8|0,2:0|2:0,2:0:0:0:
220,89,162664,2,0,P|187:119|171:158,1,85,0|0,2:0|2:0,2:0:0:0:
358,340,163125,2,0,P|418:356|466:336,1,85,8|0,2:0|2:0,2:0:0:0:
310,268,163587,6,0,P|275:325|294:400,1,106.25,0|0,2:0|2:0,2:0:0:0:
464,201,164048,1,8,2:0:0:0:
240,124,164279,1,8,0:0:0:0:
216,116,164394,1,8,0:0:0:0:
192,116,164510,2,0,P|132:128|56:184,1,106.25,8|0,2:0|2:0,2:0:0:0:
380,60,164971,5,0,1:0:0:0:
196,308,165202,1,0,1:0:0:0:
196,308,165317,1,0,1:0:0:0:
196,308,165433,1,0,1:0:0:0:
308,20,165664,5,0,1:0:0:0:
272,352,165894,1,0,1:0:0:0:
68,148,166125,5,0,1:0:0:0:
96,124,166241,1,0,1:0:0:0:
132,116,166356,1,0,1:0:0:0:
168,128,166471,1,0,1:0:0:0:
200,148,166587,1,0,1:0:0:0:
236,160,166702,1,0,1:0:0:0:
272,156,166817,1,0,1:0:0:0:
304,140,166933,1,0,1:0:0:0:
328,112,167048,1,0,1:0:0:0:
332,76,167164,1,0,1:0:0:0:
316,36,167279,5,4,0:0:0:0:
132,208,167510,1,0,0:0:0:0:
316,236,167741,1,8,0:0:0:0:
340,244,167856,1,0,1:0:0:0:
364,252,167971,2,0,L|425:268,1,63.7500024318696
257,292,168202,2,0,L|195:308,2,63.7500024318696
272,56,168664,1,8,1:0:0:0:
340,328,168894,1,0,1:0:0:0:
143,159,169125,5,0,1:0:0:0:
428,160,169356,1,0,0:0:0:0:
198,304,169587,1,8,0:0:0:0:
152,316,169702,1,0,0:0:0:0:
108,302,169817,1,0,0:0:0:0:
80,265,169933,1,0,0:0:0:0:
77,218,170048,1,0,0:0:0:0:
101,179,170164,1,0,0:0:0:0:
143,159,170279,1,0,0:0:0:0:
360,180,170510,2,0,P|376:112|344:52,1,127.500004863739,8|0,0:0|0:0,0:0:0:0:
96,64,170971,5,0,1:0:0:0:
288,124,171202,1,0,1:0:0:0:
152,238,171433,1,8,1:0:0:0:
340,336,171664,1,0,0:0:0:0:
332,304,171779,1,0,0:0:0:0:
324,272,171894,1,0,0:0:0:0:
316,240,172010,1,0,0:0:0:0:
309,207,172125,1,0,0:0:0:0:
452,320,172356,1,8,1:0:0:0:
224,356,172587,1,0,1:0:0:0:
237,162,172817,6,0,P|287:124|349:132,1,127.500004863739,0|0,1:0|1:0,1:0:0:0:
156,248,173279,2,0,P|99:221|78:162,1,127.500004863739,8|0,1:0|1:0,1:0:0:0:
88,132,173625,1,0,0:0:0:0:
108,108,173741,1,0,0:0:0:0:
136,92,173856,1,0,0:0:0:0:
168,92,173971,1,0,0:0:0:0:
440,264,174202,1,8,1:0:0:0:
156,248,174433,1,0,1:0:0:0:
392,112,174664,5,0,1:0:0:0:
284,364,174894,1,0,1:0:0:0:
224,100,175125,1,8,1:0:0:0:
476,136,175356,1,0,1:0:0:0:
476,136,175471,1,0,0:0:0:0:
476,136,175587,1,0,0:0:0:0:
272,244,175817,1,0,1:0:0:0:
356,40,176048,1,8,1:0:0:0:
412,272,176279,1,0,1:0:0:0:
192,176,176510,6,0,P|128:196|56:260,1,127.500004863739,0|0,1:0|1:0,1:0:0:0:
299,327,176971,2,0,P|363:307|435:243,1,127.500004863739,8|0,1:0|1:0,1:0:0:0:
424,252,177317,1,0,1:0:0:0:
432,228,177433,1,0,1:0:0:0:
432,204,177548,1,0,1:0:0:0:
424,180,177664,1,0,0:0:0:0:
222,226,177894,1,8,0:0:0:0:
222,226,178010,1,0,0:0:0:0:
222,226,178125,1,0,0:0:0:0:
352,128,178356,6,0,P|404:96|476:112,1,127.500004863739,4|0,1:0|1:0,1:0:0:0:
263,347,178817,2,0,P|237:289|221:205,1,127.500004863739,8|0,1:0|1:0,1:0:0:0:
221,201,179164,1,0,1:0:0:0:
221,177,179279,1,0,1:0:0:0:
227,151,179394,1,0,1:0:0:0:
235,127,179510,1,0,1:0:0:0:
152,320,179741,1,0,0:0:0:0:
344,180,179971,1,0,0:0:0:0:
108,212,180202,5,0,0:0:0:0:
376,296,180433,1,0,0:0:0:0:
376,296,180548,1,0,0:0:0:0:
376,296,180664,2,0,P|450:238|428:112,1,191.250007295609,4|0,2:0|0:0,0:0:0:0:
436,108,181125,5,8,0:0:0:0:
400,77,181241,1,0,0:0:0:0:
353,67,181356,1,0,0:0:0:0:
307,77,181471,1,0,0:0:0:0:
265,102,181587,1,8,0:0:0:0:
224,125,181702,1,0,0:0:0:0:
177,133,181817,1,8,0:0:0:0:
131,121,181933,1,0,0:0:0:0:
91,95,182048,5,12,0:0:0:0:
352,160,182279,1,0,0:0:0:0:
108,292,182510,1,8,1:0:0:0:
180,44,182741,1,0,1:0:0:0:
180,44,182856,1,0,1:0:0:0:
180,44,182971,1,0,0:0:0:0:
240,332,183202,1,0,0:0:0:0:
283,110,183433,2,0,P|336:76|401:89,1,127.500004863739,8|0,0:0|0:0,0:0:0:0:
424,364,183894,5,0,1:0:0:0:
208,148,184125,1,0,1:0:0:0:
512,184,184356,1,8,0:0:0:0:
240,348,184587,1,0,0:0:0:0:
201,349,184702,1,0,0:0:0:0:
166,338,184818,1,0,0:0:0:0:
136,317,184933,1,0,0:0:0:0:
115,286,185048,1,0,0:0:0:0:
310,127,185279,1,8,0:0:0:0:
80,36,185510,1,0,0:0:0:0:
248,188,185741,6,0,P|309:204|370:189,1,127.500004863739
241,28,186202,1,0,1:0:0:0:
444,96,186433,1,0,1:0:0:0:
472,128,186548,1,0,1:0:0:0:
484,172,186664,1,0,1:0:0:0:
480,216,186779,1,0,1:0:0:0:
456,252,186894,1,0,1:0:0:0:
256,152,187125,2,0,P|236:84|244:20,1,127.500004863739,8|0,1:0|1:0,1:0:0:0:
353,188,187587,6,0,P|273:244|157:204,1,191.250007295609,2|0,1:0|1:0,1:0:0:0:
186,229,188048,2,0,L|146:101,1,127.500004863739,8|0,1:0|1:0,1:0:0:0:
142,85,188394,1,0,1:0:0:0:
134,61,188510,2,0,P|190:25|269:40,1,127.500004863739,0|0,1:0|1:0,1:0:0:0:
416,244,188971,1,8,1:0:0:0:
180,332,189202,1,2,1:0:0:0:
296,88,189433,6,0,L|340:224,1,127.500004863739,4|0,1:0|1:0,1:0:0:0:
416,128,189894,1,8,0:0:0:0:
184,176,190125,1,0,0:0:0:0:
155,165,190241,1,0,0:0:0:0:
124,155,190356,1,0,0:0:0:0:
92,144,190471,1,0,0:0:0:0:
61,133,190587,1,0,0:0:0:0:
340,232,190817,1,8,1:0:0:0:
104,328,191048,1,0,1:0:0:0:
137,61,191279,5,0,1:0:0:0:
208,356,191510,1,0,1:0:0:0:
328,140,191741,1,8,1:0:0:0:
64,220,191971,1,0,1:0:0:0:
64,220,192087,1,0,1:0:0:0:
64,220,192202,1,0,1:0:0:0:
88,32,192433,1,0,1:0:0:0:
168,296,192664,1,8,1:0:0:0:
296,132,192894,1,0,1:0:0:0:
296,132,193010,1,0,1:0:0:0:
296,132,193125,6,0,P|368:104|444:124,1,127.500004863739,0|0,1:0|1:0,1:0:0:0:
264,208,193587,2,0,L|256:68,1,127.500004863739,8|0,0:0|0:0,0:0:0:0:
248,56,193933,1,0,1:0:0:0:
232,36,194048,1,0,1:0:0:0:
208,28,194164,1,0,1:0:0:0:
184,32,194279,1,0,1:0:0:0:
80,220,194510,1,8,1:0:0:0:
180,116,194741,1,0,1:0:0:0:
180,116,194856,1,0,1:0:0:0:
180,116,194971,6,0,L|204:272,1,127.500004863739,0|0,1:0|1:0,1:0:0:0:
276,316,195317,1,0,1:0:0:0:
276,316,195433,2,0,L|300:144,1,127.500004863739,8|0,1:0|1:0,1:0:0:0:
304,164,195779,1,0,1:0:0:0:
324,148,195894,1,0,1:0:0:0:
348,144,196010,1,0,1:0:0:0:
372,152,196125,1,0,1:0:0:0:
392,256,196356,5,0,0:0:0:0:
215,150,196587,1,0,0:0:0:0:
394,52,196817,1,6,0:0:0:0:
80,312,197279,6,0,L|92:184,1,106.25,8|0,1:0|1:0,1:0:0:0:
92,180,197625,1,0,1:0:0:0:
96,152,197741,1,0,1:0:0:0:
100,124,197856,1,0,1:0:0:0:
104,96,197971,1,0,1:0:0:0:
32,24,198202,1,8,1:0:0:0:
32,24,198433,1,0,1:0:0:0:
184,136,198664,6,0,P|244:148|296:136,1,106.25,0|0,1:0|1:0,1:0:0:0:
368,56,199125,2,0,P|420:47|471:59,1,106.25,8|0,1:0|1:0,1:0:0:0:
488,80,199471,1,0,1:0:0:0:
496,104,199587,1,0,1:0:0:0:
496,132,199702,1,0,1:0:0:0:
484,156,199817,1,0,1:0:0:0:
228,296,200048,1,8,1:0:0:0:
228,296,200279,1,0,1:0:0:0:
368,228,200510,6,0,L|344:348,1,106.25,0|0,1:0|1:0,1:0:0:0:
200,172,200971,2,0,L|224:52,1,106.25,8|0,1:0|1:0,1:0:0:0:
216,40,201317,1,0,1:0:0:0:
200,20,201433,1,0,1:0:0:0:
176,12,201548,1,0,1:0:0:0:
148,16,201664,1,0,1:0:0:0:
296,140,201894,1,8,1:0:0:0:
296,140,202125,1,0,1:0:0:0:
176,256,202356,6,0,P|124:268|56:244,1,106.25,0|0,1:0|1:0,1:0:0:0:
52,240,202702,1,0,1:0:0:0:
32,224,202817,1,0,1:0:0:0:
4,108,203048,1,0,1:0:0:0:
16,84,203164,1,0,1:0:0:0:
36,64,203279,1,0,1:0:0:0:
60,56,203394,1,0,1:0:0:0:
88,56,203510,1,0,1:0:0:0:
112,68,203625,1,0,1:0:0:0:
132,84,203741,1,0,1:0:0:0:
152,104,203856,1,0,1:0:0:0:
176,116,203971,1,0,1:0:0:0:
204,116,204087,1,0,1:0:0:0:
228,108,204202,6,0,P|268:60|272:16,2,106.25,4|0|12,1:0|1:0|1:0,1:0:0:0:
132,200,204894,1,0,1:0:0:0:
116,220,205010,1,0,1:0:0:0:
108,244,205125,1,0,1:0:0:0:
112,268,205241,1,0,1:0:0:0:
128,288,205356,1,0,1:0:0:0:
248,240,205587,2,0,P|300:232|376:252,1,106.25,8|0,1:0|1:0,1:0:0:0:
440,320,206048,6,0,L|464:204,1,106.25,0|0,1:0|1:0,1:0:0:0:
384,44,206510,2,0,L|357:160,1,106.25,8|0,1:0|1:0,1:0:0:0:
354,172,206856,1,0,1:0:0:0:
348,199,206971,1,0,1:0:0:0:
341,227,207087,1,0,1:0:0:0:
335,254,207202,1,0,1:0:0:0:
204,328,207433,2,0,P|152:340|72:308,1,106.25,8|0,1:0|1:0,1:0:0:0:
65,86,207894,6,0,P|115:71|168:80,1,106.25,0|0,1:0|1:0,1:0:0:0:
146,254,208356,2,0,L|120:152,1,106.25,8|0,1:0|1:0,1:0:0:0:
112,128,208702,1,0,1:0:0:0:
104,104,208817,1,0,1:0:0:0:
96,80,208933,1,0,1:0:0:0:
88,56,209048,1,0,1:0:0:0:
216,88,209279,1,8,1:0:0:0:
216,88,209394,1,0,1:0:0:0:
216,88,209510,1,0,1:0:0:0:
328,44,209741,6,0,P|336:95|318:153,1,106.25,0|0,1:0|1:0,1:0:0:0:
128,32,210202,1,8,1:0:0:0:
32,172,210433,1,0,1:0:0:0:
56,184,210548,1,0,1:0:0:0:
80,188,210664,1,0,1:0:0:0:
108,184,210779,1,0,1:0:0:0:
132,172,210894,1,0,1:0:0:0:
228,64,211125,1,8,1:0:0:0:
252,192,211356,1,0,1:0:0:0:
280,316,211587,6,0,P|336:316|388:288,1,106.25,0|0,1:0|1:0,1:0:0:0:
172,260,212048,2,0,P|116:260|64:288,1,106.25,8|0,1:0|1:0,1:0:0:0:
56,260,212394,1,0,1:0:0:0:
44,236,212510,1,0,1:0:0:0:
40,212,212625,1,0,1:0:0:0:
44,184,212741,1,0,1:0:0:0:
164,132,212971,2,0,L|224:112,2,53.125,8|0|0,1:0|1:0|1:0,1:0:0:0:
256,40,213433,5,0,1:0:0:0:
224,208,213664,1,0,1:0:0:0:
76,88,213894,1,8,1:0:0:0:
256,40,214125,1,0,1:0:0:0:
284,36,214241,1,0,1:0:0:0:
312,40,214356,1,0,1:0:0:0:
332,56,214471,1,0,1:0:0:0:
348,76,214587,1,0,1:0:0:0:
240,216,214817,2,0,L|284:100,1,106.25,8|0,1:0|1:0,1:0:0:0:
144,272,215279,5,0,1:0:0:0:
344,156,215510,1,0,1:0:0:0:
156,24,215741,1,0,1:0:0:0:
152,52,215857,1,0,1:0:0:0:
156,79,215972,1,0,1:0:0:0:
174,102,216087,1,0,1:0:0:0:
199,121,216203,1,0,1:0:0:0:
436,124,216433,1,0,1:0:0:0:
308,292,216664,1,8,1:0:0:0:
308,292,216779,1,0,1:0:0:0:
308,292,216894,1,4,1:0:0:0:
380,48,217125,5,4,1:0:0:0:
396,232,217356,1,0,1:0:0:0:
396,232,217471,1,0,1:0:0:0:
396,232,217587,1,12,1:0:0:0:
308,8,217817,1,0,1:0:0:0:
308,8,217933,1,0,1:0:0:0:
308,8,218048,1,0,1:0:0:0:
452,144,218279,1,4,1:0:0:0:
344,304,218510,1,8,1:0:0:0:
164,272,218741,1,0,1:0:0:0:
164,272,218856,1,0,1:0:0:0:
164,272,218971,6,0,B|148:268|144:228|144:228|96:260|96:260|80:224|40:236|40:236|-24:148|12:60|92:36|160:60,1,425,4|0,1:0|1:0,1:0:0:0:
136,56,220010,1,0,1:0:0:0:
156,64,220125,1,0,1:0:0:0:
376,192,220356,2,0,P|432:200|496:184,1,106.25,8|0,1:0|1:0,1:0:0:0:
160,216,220817,6,0,P|144:288|160:348,1,106.25,0|0,1:0|1:0,1:0:0:0:
372,312,221279,1,8,1:0:0:0:
340,144,221510,1,0,1:0:0:0:
352,120,221625,1,0,1:0:0:0:
372,104,221741,1,0,1:0:0:0:
396,92,221856,1,0,1:0:0:0:
424,92,221971,1,0,1:0:0:0:
220,232,222202,6,0,B|252:236|276:212|276:212|288:232|312:248|312:248|348:224|384:220|420:236,1,212.5,8|0,1:0|1:0,1:0:0:0:
428,240,222779,1,0,1:0:0:0:
444,252,222894,1,0,1:0:0:0:
340,144,223125,1,8,1:0:0:0:
232,296,223356,1,0,1:0:0:0:
222,272,223471,1,0,1:0:0:0:
222,246,223587,1,0,1:0:0:0:
227,221,223702,1,0,1:0:0:0:
237,197,223817,1,0,1:0:0:0:
256,176,223933,1,0,1:0:0:0:
280,161,224048,6,0,B|328:120|388:152|388:152|396:120|416:112|416:112|444:128|480:136,1,212.5,8|0,1:0|1:0,1:0:0:0:
260,76,224741,1,0,1:0:0:0:
200,336,224971,1,8,1:0:0:0:
140,176,225202,1,0,1:0:0:0:
129,151,225317,1,0,1:0:0:0:
129,125,225433,1,0,1:0:0:0:
136,99,225548,1,0,1:0:0:0:
154,78,225664,1,0,1:0:0:0:
392,184,225894,2,0,P|408:240|380:312,1,106.25,8|0,1:0|1:0,1:0:0:0:
112,268,226356,6,0,L|232:228,1,106.25,4|0,1:0|1:0,1:0:0:0:
468,160,226817,1,8,1:0:0:0:
228,124,227048,1,0,1:0:0:0:
200,120,227164,1,0,1:0:0:0:
172,116,227279,1,0,1:0:0:0:
144,112,227394,1,0,1:0:0:0:
116,108,227510,1,0,1:0:0:0:
352,36,227741,1,8,1:0:0:0:
424,256,227971,1,0,1:0:0:0:
260,208,228202,6,0,P|192:200|116:232,2,106.25,0|0|8,1:0|1:0|1:0,1:0:0:0:
64,288,228894,1,0,1:0:0:0:
44,268,229010,1,0,1:0:0:0:
32,244,229125,1,0,1:0:0:0:
32,216,229241,1,0,1:0:0:0:
40,192,229356,1,0,1:0:0:0:
272,76,229587,2,0,P|324:72|376:84,1,106.25,8|0,1:0|1:0,1:0:0:0:
180,244,230048,5,0,1:0:0:0:
180,244,230164,1,0,1:0:0:0:
180,244,230279,1,0,1:0:0:0:
432,296,230510,2,0,P|460:256|460:184,1,106.25,8|0,1:0|1:0,1:0:0:0:
460,172,230856,1,0,1:0:0:0:
450,147,230971,1,0,1:0:0:0:
435,125,231087,1,0,1:0:0:0:
417,106,231202,1,0,1:0:0:0:
152,180,231433,2,0,L|264:196,1,106.25,8|0,1:0|1:0,1:0:0:0:
284,200,231779,1,0,1:0:0:0:
308,204,231894,5,0,1:0:0:0:
336,208,232010,1,0,1:0:0:0:
364,212,232125,1,0,1:0:0:0:
140,100,232356,1,8,1:0:0:0:
128,124,232471,1,0,1:0:0:0:
124,152,232587,1,0,1:0:0:0:
124,176,232702,1,0,1:0:0:0:
132,200,232817,2,0,P|80:192|28:156,1,106.25,0|0,1:0|1:0,1:0:0:0:
0,96,233164,1,0,1:0:0:0:
0,96,233279,2,0,L|12:212,1,106.25,0|0,1:0|1:0,1:0:0:0:
88,340,233741,5,4,1:0:0:0:
256,192,246664,12,0,251741,2:0:0:0:
144,168,252202,6,0,P|136:256|232:308,1,170,2|0,2:0|2:0,2:0:0:0:
296,188,252894,1,0,2:0:0:0:
195,93,253125,2,0,P|107:85|55:181,1,170,2|0,2:0|2:0,2:0:0:0:
208,220,253817,1,0,0:0:0:0:
280,60,254048,5,2,2:0:0:0:
300,252,254279,1,0,2:0:0:0:
116,192,254510,1,2,2:0:0:0:
480,184,254971,5,2,2:0:0:0:
300,252,255202,1,0,2:0:0:0:
452,364,255433,1,2,2:0:0:0:
272,117,255894,6,0,P|232:135|202:187,1,85,2|0,2:0|2:0,2:0:0:0:
268,340,256356,1,2,2:0:0:0:
376,224,256587,1,0,2:0:0:0:
205,253,256817,2,0,P|164:239|134:207,1,85,2|0,2:0|2:0,2:0:0:0:
192,88,257279,1,2,2:0:0:0:
293,199,257510,1,0,2:0:0:0:
392,120,257741,6,0,P|324:168|236:128,1,170,2|0,2:0|2:0,2:0:0:0:
304,0,258433,1,0,2:0:0:0:
304,0,258664,2,0,P|318:50|312:88,1,85,2|0,2:0|2:0,2:0:0:0:
120,160,259125,1,2,2:0:0:0:
231,49,259356,1,2,2:0:0:0:
232,192,259587,6,0,P|320:204|404:168,1,170,2|0,2:0|2:0,2:0:0:0:
231,49,260279,1,0,2:0:0:0:
139,153,260510,2,0,P|143:241|207:293,1,170,2|2,2:0|2:0,2:0:0:0:
336,128,261202,1,0,2:0:0:0:
184,16,261433,5,2,2:0:0:0:
232,192,261664,1,0,2:0:0:0:
276,28,261894,1,2,2:0:0:0:
68,152,262356,5,2,2:0:0:0:
232,192,262587,1,0,2:0:0:0:
120,308,262817,1,2,2:0:0:0:
400,72,263279,6,0,B|336:76|336:76|292:65|292:65|232:69,1,170,2|0,2:0|2:0,2:0:0:0:
128,52,263971,1,0,2:0:0:0:
72,136,264202,2,0,P|109:152|164:145,1,85,0|0,2:0|2:0,2:0:0:0:
320,89,264664,2,0,P|357:70|400:72,1,85,4|0,3:0|2:0,2:0:0:0:
448,216,265125,5,12,1:2:0:0:
244,152,265356,1,0,1:0:0:0:
300,288,265587,2,0,P|329:253|342:212,1,85,0|0,1:0|1:0,1:0:0:0:
156,312,266048,1,8,1:2:0:0:
320,368,266279,1,0,1:0:0:0:
256,208,266510,1,0,1:0:0:0:
240,348,266741,1,12,1:0:0:0:
320,140,266971,5,8,1:2:0:0:
144,160,267202,1,0,1:0:0:0:
356,232,267433,1,0,1:2:0:0:
348,40,267664,1,0,1:0:0:0:
184,232,267894,1,8,1:0:0:0:
464,160,268125,1,0,1:0:0:0:
200,60,268356,1,0,1:0:0:0:
264,348,268587,1,0,1:0:0:0:
404,100,268817,5,12,1:2:0:0:
48,196,269164,1,2,1:2:0:0:
464,276,269510,1,0,1:0:0:0:
348,348,269741,5,8,0:0:0:0:
348,348,269856,1,0,0:0:0:0:
348,348,269971,2,0,P|336:329|329:310,2,42.5,0|0|0,1:0|1:0|1:0,1:0:0:0:
108,248,270433,1,0,1:0:0:0:
108,248,270548,1,0,1:0:0:0:
108,248,270664,1,0,1:0:0:0:
372,40,270894,1,0,1:0:0:0:
264,348,271125,1,8,1:0:0:0:
456,88,271356,5,4,1:0:0:0:
426,113,271471,1,0,1:0:0:0:
388,122,271587,1,0,1:0:0:0:
344,122,271702,1,0,1:0:0:0:
311,105,271817,1,0,1:0:0:0:
277,79,271933,1,0,1:0:0:0:
238,66,272048,1,0,1:0:0:0:
200,75,272164,1,0,1:0:0:0:
174,105,272279,1,0,1:0:0:0:
170,147,272394,1,0,1:0:0:0:
192,182,272510,5,4,1:0:0:0:
452,240,272741,1,0,1:0:0:0:
372,40,272971,1,8,1:0:0:0:
340,248,273202,2,0,L|332:311,1,63.7500024318696,0|0,1:0|1:0,1:0:0:0:
296,139,273433,2,0,L|276:78,2,63.7500024318696,0|0|0,1:0|1:0|1:0,1:0:0:0:
396,360,273894,1,8,1:0:0:0:
152,312,274125,1,0,1:0:0:0:
456,132,274356,5,0,1:0:0:0:
280,340,274587,1,0,1:0:0:0:
136,120,274817,2,0,P|76:160|52:216,1,127.500004863739,8|0,1:0|1:0,1:0:0:0:
48,232,275164,1,0,1:0:0:0:
48,256,275279,1,0,1:0:0:0:
52,280,275394,1,0,1:0:0:0:
60,304,275510,1,0,1:0:0:0:
320,260,275741,2,0,L|488:224,1,127.500004863739,8|0,0:0|0:0,0:0:0:0:
208,16,276202,6,0,P|170:66|166:129,1,127.500004863739
224,292,276664,1,8,1:0:0:0:
360,172,276894,1,0,0:0:0:0:
384,148,277010,1,0,0:0:0:0:
416,136,277125,1,0,0:0:0:0:
448,140,277241,1,0,0:0:0:0:
476,152,277356,1,0,0:0:0:0:
320,260,277587,2,0,P|276:200|272:140,1,127.500004863739,8|0,1:0|1:0,1:0:0:0:
428,216,278048,5,0,1:0:0:0:
192,308,278279,1,0,1:0:0:0:
280,120,278510,1,8,1:0:0:0:
388,332,278741,1,0,0:0:0:0:
416,313,278856,1,0,0:0:0:0:
434,283,278971,1,0,0:0:0:0:
440,248,279087,1,0,0:0:0:0:
428,216,279202,1,0,0:0:0:0:
152,96,279433,2,0,L|172:240,1,127.500004863739,8|0,1:0|1:0,1:0:0:0:
188,360,279894,5,0,1:0:0:0:
344,160,280125,1,0,1:0:0:0:
56,204,280356,1,8,1:0:0:0:
264,292,280587,1,0,1:0:0:0:
295,302,280702,1,0,1:0:0:0:
326,302,280817,1,0,1:0:0:0:
357,292,280933,1,0,1:0:0:0:
383,271,281048,1,0,1:0:0:0:
428,44,281279,1,8,1:0:0:0:
240,200,281510,1,0,1:0:0:0:
492,184,281741,5,0,1:0:0:0:
268,72,281971,1,0,1:0:0:0:
152,268,282202,2,0,P|84:288|28:264,1,127.500004863739,8|0,1:0|1:0,1:0:0:0:
16,248,282548,1,0,1:0:0:0:
4,224,282664,1,0,1:0:0:0:
0,200,282779,1,0,1:0:0:0:
0,175,282894,1,0,1:0:0:0:
132,84,283125,1,8,1:0:0:0:
296,168,283356,1,0,1:0:0:0:
318,178,283471,1,0,1:0:0:0:
339,189,283587,6,0,P|402:194|466:189,1,127.500004863739,0|0,1:0|1:0,1:0:0:0:
236,80,284048,2,0,P|200:136|193:200,1,127.500004863739,8|0,1:0|1:0,1:0:0:0:
195,222,284395,1,0,1:0:0:0:
202,249,284510,1,0,1:0:0:0:
217,273,284625,1,0,1:0:0:0:
237,291,284741,1,0,1:0:0:0:
312,125,284971,2,0,P|324:85|288:9,1,106.25,4|0,0:0|0:0,1:0:0:0:
48,136,285433,6,0,P|51:239|130:306,1,212.5,4|12,0:0|0:0,0:0:0:0:
260,192,286125,1,0,1:0:0:0:
236,180,286241,1,0,1:0:0:0:
208,176,286356,1,0,1:0:0:0:
180,180,286471,1,0,1:0:0:0:
156,192,286587,1,0,1:0:0:0:
336,304,286817,2,0,L|360:180,1,106.25,8|0,1:0|1:0,1:0:0:0:
292,64,287279,5,0,1:0:0:0:
208,264,287510,1,0,1:0:0:0:
136,104,287741,2,0,P|76:96|20:108,1,106.25,8|0,1:0|1:0,1:0:0:0:
16,124,288087,1,0,1:0:0:0:
8,148,288202,1,0,1:0:0:0:
8,176,288317,1,0,1:0:0:0:
16,200,288433,1,0,1:0:0:0:
328,288,288664,2,0,L|452:248,1,106.25,8|0,1:0|1:0,1:0:0:0:
192,120,289125,6,0,L|68:160,1,106.25,0|0,1:0|1:0,1:0:0:0:
280,136,289587,2,0,P|260:64|220:32,1,106.25,8|0,1:0|1:0,1:0:0:0:
212,36,289933,1,0,1:0:0:0:
184,32,290048,1,0,1:0:0:0:
156,36,290164,1,0,1:0:0:0:
132,48,290279,1,0,1:0:0:0:
284,224,290510,2,0,P|330:204|367:154,1,106.25,8|0,1:0|1:0,1:0:0:0:
120,224,290971,6,0,P|123:276|151:320,1,106.25,0|0,1:0|1:0,1:0:0:0:
200,100,291433,1,8,1:0:0:0:
328,248,291664,1,0,1:0:0:0:
352,259,291779,1,0,1:0:0:0:
380,262,291894,1,0,1:0:0:0:
408,257,292010,1,0,1:0:0:0:
431,244,292125,1,0,1:0:0:0:
376,156,292356,1,8,1:0:0:0:
232,316,292587,1,0,1:0:0:0:
92,212,292817,6,0,P|80:160|100:96,1,106.25,4|0,1:0|1:0,1:0:0:0:
332,72,293279,1,8,1:0:0:0:
388,188,293510,1,0,1:0:0:0:
384,216,293625,1,0,1:0:0:0:
380,244,293741,1,0,1:0:0:0:
376,272,293856,1,0,1:0:0:0:
372,300,293971,1,0,1:0:0:0:
192,252,294202,2,0,L|60:284,1,106.25,8|0,1:0|1:0,1:0:0:0:
244,144,294664,5,0,1:0:0:0:
296,344,294894,1,0,1:0:0:0:
408,216,295125,2,0,P|464:200|520:216,1,106.25,8|0,1:0|1:0,1:0:0:0:
508,236,295471,1,0,1:0:0:0:
504,264,295587,1,0,1:0:0:0:
500,292,295702,1,0,1:0:0:0:
496,320,295817,1,0,1:0:0:0:
345,149,296048,2,0,P|289:133|233:149,1,106.25,8|0,1:0|1:0,1:0:0:0:
92,316,296510,6,0,L|79:211,1,106.25,0|0,1:0|1:0,1:0:0:0:
168,112,296971,1,8,1:0:0:0:
324,296,297202,1,0,1:0:0:0:
292,304,297317,1,0,1:0:0:0:
260,308,297433,1,0,1:0:0:0:
228,304,297548,1,0,1:0:0:0:
200,292,297664,1,0,1:0:0:0:
314,115,297894,2,0,P|326:167|314:223,1,106.25,8|0,1:0|1:0,1:0:0:0:
268,48,298356,6,0,P|300:36|344:40,1,53.125,0|0,1:0|1:0,1:0:0:0:
324,296,298702,2,0,P|297:293|273:282,1,53.125,0|0,1:0|1:0,1:0:0:0:
100,204,299048,1,0,1:0:0:0:
76,184,299164,1,0,1:0:0:0:
64,152,299279,1,0,1:0:0:0:
68,120,299394,1,0,1:0:0:0:
88,96,299510,1,0,1:0:0:0:
116,84,299625,1,0,1:0:0:0:
148,88,299741,1,0,1:0:0:0:
176,108,299856,1,0,1:0:0:0:
204,120,299971,1,0,1:0:0:0:
236,120,300087,1,0,1:0:0:0:
264,108,300202,6,0,P|276:72|260:4,2,85,4|0|0,0:0|0:0|0:0,0:0:0:0:
412,132,300894,1,0,2:0:0:0:
412,132,301125,2,0,L|388:304,1,170,2|0,2:0|2:0,2:0:0:0:
388,300,301817,1,0,2:0:0:0:
316,232,302048,6,0,P|277:219|223:230,2,85,2|0|0,2:0|2:0|2:0,2:0:0:0:
156,284,302741,1,0,2:0:0:0:
156,284,302971,2,0,L|140:168,2,85,2|0|0,2:0|2:0|2:0,2:0:0:0:
128,108,303664,1,0,2:0:0:0:
284,148,303894,6,0,P|388:152|464:120,1,170,2|0,2:0|2:0,2:0:0:0:
448,129,304587,1,0,2:0:0:0:
236,88,304817,2,0,L|244:192,2,85,2|0|0,2:0|2:0|2:0,2:0:0:0:
236,88,305510,1,0,2:0:0:0:
124,144,305741,6,0,L|136:328,1,170,2|0,2:0|2:0,2:0:0:0:
135,313,306433,1,0,2:0:0:0:
228,232,306664,2,0,P|308:208|390:228,1,170,2|0,2:0|2:0,2:0:0:0:
390,228,307356,1,0,2:0:0:0:
416,320,307587,6,0,L|432:148,1,170,2|0,2:0|2:0,2:0:0:0:
340,92,308279,1,0,2:0:0:0:
240,136,308510,1,0,2:0:0:0:
328,200,308741,1,0,2:0:0:0:
220,324,308971,2,0,L|236:208,1,85,2|0,2:0|2:0,2:0:0:0:
140,140,309433,6,0,L|124:256,1,85,2|0,2:0|2:0,2:0:0:0:
24,316,309894,2,0,L|40:200,1,85,2|0,2:0|2:0,2:0:0:0:
139,313,310356,2,0,P|183:329|239:313,1,85,2|0,2:0|2:0,2:0:0:0:
360,264,310817,2,0,P|320:248|279:253,2,85,2|0|2,2:0|2:0|2:0,2:0:0:0:
439,339,311510,1,0,0:0:0:0:
439,339,311741,2,0,L|456:256,1,85,2|0,2:0|2:0,2:0:0:0:
144,92,312433,5,0,2:0:0:0:
144,92,312664,2,0,P|96:88|32:112,1,85,2|0,2:0|2:0,2:0:0:0:
140,192,313125,2,0,P|188:196|252:172,1,85,2|0,2:0|2:0,2:0:0:0:
304,108,313587,6,0,L|320:188,1,76.4999976654053,2|0,2:0|2:0,2:0:0:0:
424,256,314048,2,0,L|408:176,1,76.4999976654053,2|0,2:0|2:0,2:0:0:0:
340,288,314510,2,0,L|356:368,1,76.4999976654053,2|0,2:0|2:0,2:0:0:0:
240,304,314971,6,0,P|208:296|136:320,1,76.4999976654053,2|0,2:0|2:0,2:0:0:0:
80,364,315433,2,0,L|64:268,1,76.4999976654053,2|0,2:0|2:0,2:0:0:0:
52,192,315894,1,2,2:0:0:0:
368,92,316587,5,0,2:0:0:0:
452,244,316962,1,2,2:0:0:0:
256,192,317149,12,0,319587,2:0:0:0:
