osu file format v14

[General]
AudioFilename: audio.mp3
AudioLeadIn: 0
PreviewTime: -1
Countdown: 0
SampleSet: None
StackLeniency: 0.7
Mode: 0
LetterboxInBreaks: 0
EpilepsyWarning: 1
WidescreenStoryboard: 1

[Editor]
DistanceSpacing: 0.6
BeatDivisor: 4
GridSize: 8
TimelineZoom: 4.099998

[Metadata]
Title:Synchronicity
TitleUnicode:Synchronicity
Artist:FictionJunction KEIKO
ArtistUnicode:FictionJunction KEIKO
Creator:Living Flower
Version:Hard
Source:Tsubasa Chronicle
Tags:
BeatmapID:1428937
BeatmapSetID:675484

[Difficulty]
HPDrainRate:5
CircleSize:5
OverallDifficulty:5
ApproachRate:5
SliderMultiplier:2.4
SliderTickRate:1

[Events]
//Background and Video events
0,0,"tsubasaseason3.jpg",0,0
//Break Periods
2,35498,46013
2,101454,114949
2,176242,200906
//Storyboard Layer 0 (Background)
//Storyboard Layer 1 (Fail)
//Storyboard Layer 2 (Pass)
//Storyboard Layer 3 (Foreground)
//Storyboard Sound Samples

[TimingPoints]
7213,425.531914893617,4,2,0,70,1,0
20830,-133.333333333333,4,2,0,70,0,0
216149,-133.333333333333,4,2,0,5,0,0

[HitObjects]
143,147,7213,6,0,P|203:134|241:28,1,180,4|2,0:0|0:0,0:0:0:0:
150,61,7851,1,0,0:0:0:0:
50,161,8064,1,0,0:0:0:0:
52,184,8170,1,0,0:0:0:0:
55,204,8276,1,0,0:0:0:0:
126,336,8489,2,0,P|142:256|136:214,1,120,2|0,0:0|0:0,0:0:0:0:
248,193,8915,6,0,P|300:177|361:201,1,120
341,188,9234,1,0,0:0:0:0:
354,199,9340,1,2,0:0:0:0:
430,285,9553,2,0,P|462:227|429:115,1,180
365,46,10191,1,2,0:0:0:0:
192,157,10404,1,0,0:0:0:0:
203,168,10510,1,0,0:0:0:0:
217,178,10617,6,0,P|268:181|311:130,1,120,0|2,0:0|0:0,0:0:0:0:
298,151,10936,1,0,0:0:0:0:
303,136,11042,1,0,0:0:0:0:
465,242,11255,1,0,0:0:0:0:
454,231,11361,1,0,0:0:0:0:
418,232,11468,5,0,0:0:0:0:
406,244,11574,1,0,0:0:0:0:
394,256,11681,1,2,0:0:0:0:
382,267,11787,1,0,0:0:0:0:
371,278,11893,1,0,0:0:0:0:
217,320,12106,1,2,0:0:0:0:
224,301,12213,1,0,0:0:0:0:
230,282,12319,6,0,P|239:213|214:166,1,120,0|2,0:0|0:0,0:0:0:0:
236,204,12638,2,0,L|172:214,1,60
86,83,12957,2,0,L|151:71,1,60,2|0,0:0|0:0,0:0:0:0:
199,50,13170,2,0,P|239:84|304:74,1,120
284,80,13489,1,0,0:0:0:0:
304,66,13595,2,0,L|293:2,3,60,2|0|0|0,0:0|0:0|0:0|0:0,0:0:0:0:
379,76,14021,6,0,L|374:199,1,120,0|2,0:0|0:0,0:0:0:0:
346,223,14340,1,0,0:0:0:0:
346,223,14447,2,0,P|299:230|228:198,1,120,0|2,0:0|0:0,0:0:0:0:
216,64,14872,2,0,P|227:105|182:166,1,120,0|2,0:0|0:0,0:0:0:0:
152,184,15191,1,0,0:0:0:0:
140,184,15298,2,0,L|16:166,1,120,0|2,0:0|0:0,0:0:0:0:
0,77,15723,6,0,L|11:262,1,180,0|2,0:0|0:0,0:0:0:0:
42,238,16149,1,0,0:0:0:0:
174,141,16361,2,0,P|263:118|319:192,1,180
444,271,17000,2,0,P|391:287|319:263,1,120,2|0,0:0|0:0,0:0:0:0:
342,271,17319,1,0,0:0:0:0:
325,255,17425,5,0,0:0:0:0:
191,261,17638,1,0,0:0:0:0:
186,127,17851,1,2,0:0:0:0:
319,122,18064,1,0,0:0:0:0:
259,285,18276,5,0,0:0:0:0:
160,195,18489,1,0,0:0:0:0:
251,96,18702,1,2,0:0:0:0:
349,187,19021,1,0,0:0:0:0:
343,338,19127,6,0,B|263:360|263:360|166:338,1,180,0|10,0:0|0:0,0:0:0:0:
106,201,20830,5,0,0:0:0:0:
184,56,21042,1,0,0:0:0:0:
259,280,21255,1,8,0:0:0:0:
99,175,21468,1,0,0:0:0:0:
92,150,21574,1,0,0:0:0:0:
85,127,21681,1,4,0:3:0:0:
79,103,21787,1,0,0:0:0:0:
72,78,21893,1,0,0:0:0:0:
256,24,22106,2,0,L|354:32,1,90.0000034332277,8|0,0:0|0:0,0:0:0:0:
208,176,22532,5,4,0:3:0:0:
411,44,22744,1,0,0:0:0:0:
375,211,22957,1,8,0:0:0:0:
336,384,23170,2,0,L|384:375,1,45.0000017166138
252,352,23383,2,0,L|206:362,1,45.0000017166138,4|0,0:3|0:0,0:0:0:0:
128,320,23595,1,0,0:0:0:0:
80,104,23808,2,0,P|118:92|169:110,1,90.0000034332277,10|0,0:0|0:0,0:0:0:0:
224,145,24127,1,0,0:0:0:0:
224,145,24234,6,0,L|328:155,1,90.0000034332277,4|0,0:3|0:0,0:0:0:0:
439,251,24659,1,8,0:0:0:0:
384,74,24872,1,0,0:0:0:0:
395,36,24978,1,0,0:0:0:0:
428,14,25085,1,4,0:3:0:0:
467,17,25191,1,0,0:0:0:0:
495,46,25298,1,0,0:0:0:0:
498,86,25404,1,0,0:0:0:0:
474,118,25510,2,0,L|379:115,1,90.0000034332277,8|0,0:0|0:0,0:0:0:0:
196,169,25936,6,0,L|212:265,1,90.0000034332277,4|0,0:3|0:0,0:0:0:0:
112,144,26255,1,0,0:0:0:0:
112,144,26362,2,0,L|126:252,1,90.0000034332277,8|0,0:0|0:0,0:0:0:0:
214,333,26787,1,4,0:3:0:0:
377,251,27000,1,4,0:3:0:0:
196,169,27213,1,8,0:0:0:0:
359,87,27425,1,4,0:3:0:0:
416,310,27638,6,0,L|322:304,1,90.0000034332277,4|0,0:3|0:0,0:0:0:0:
157,257,28064,1,8,0:0:0:0:
236,82,28276,1,0,0:0:0:0:
268,107,28383,1,0,0:0:0:0:
286,141,28489,1,4,0:3:0:0:
289,181,28595,1,0,0:0:0:0:
274,217,28702,1,0,0:0:0:0:
381,56,28915,2,0,L|503:52,1,90.0000034332277,8|0,0:0|0:0,0:0:0:0:
246,182,29340,5,4,0:3:0:0:
114,85,29553,1,0,0:0:0:0:
98,245,29766,1,8,0:0:0:0:
285,251,29978,1,0,0:0:0:0:
314,224,30085,1,0,0:0:0:0:
325,186,30191,1,4,0:3:0:0:
316,147,30298,1,0,0:0:0:0:
290,118,30404,1,0,0:0:0:0:
247,108,30510,1,0,0:0:0:0:
212,116,30617,2,0,P|210:59|228:10,1,90.0000034332277,8|0,0:0|0:0,0:0:0:0:
325,186,31042,6,0,B|357:231|402:224|402:224|356:303,1,180.000006866455,4|10,0:3|0:0,0:0:0:0:
256,348,31681,1,0,0:0:0:0:
258,132,31893,2,0,P|344:103|405:166,1,180.000006866455,4|10,0:3|0:0,0:0:0:0:
369,284,32532,1,0,0:0:0:0:
255,217,32744,6,0,B|248:141|248:141|258:132|258:132|250:40,1,180.000006866455,4|10,0:3|0:0,0:0:0:0:
393,140,33383,1,0,0:0:0:0:
257,294,33595,2,0,P|213:282|185:231,1,90.0000034332277,4|0,0:3|0:0,0:0:0:0:
69,88,34021,2,0,P|25:100|-7:152,1,90.0000034332277,10|0,0:0|0:0,0:0:0:0:
85,192,34447,5,4,1:0:0:0:
85,192,34553,2,0,L|191:192,1,90.0000034332277,2|0,0:0|0:0,0:0:0:0:
261,141,34872,2,0,P|245:213|277:263,1,135.000005149841,2|0,0:3|0:0,0:0:0:0:
315,301,35298,1,0,0:0:0:0:
360,291,47213,6,0,L|382:286,7,22.5000008583069
425,316,47638,2,0,L|447:311,7,22.5000008583069,2|0|0|0|0|0|0|0,0:0|0:0|0:0|0:0|0:0|0:0|0:0|0:0,0:0:0:0:
502,272,48064,6,0,B|512:192|512:192|475:139|506:82,1,180.000006866455,4|2,0:3|0:0,0:0:0:0:
227,146,48702,2,0,P|288:190|370:178,1,157.500006008148
326,0,49340,2,0,L|316:99,1,90.0000034332277,2|0,0:0|0:0,0:0:0:0:
286,291,49766,5,4,0:3:0:0:
226,147,49978,1,0,0:0:0:0:
166,303,50191,1,2,0:0:0:0:
170,332,50298,1,0,0:0:0:0:
174,361,50404,1,0,0:0:0:0:
360,198,50617,6,0,L|454:188,1,90.0000034332277
495,139,50936,1,0,0:0:0:0:
494,139,51042,2,0,P|507:96|493:54,1,90.0000034332277,2|0,0:0|0:0,0:0:0:0:
251,96,51468,6,0,L|265:279,1,180.000006866455,4|2,0:3|0:0,0:0:0:0:
337,356,52106,1,0,0:0:0:0:
361,183,52319,1,0,0:0:0:0:
196,244,52532,1,0,0:0:0:0:
412,276,52744,1,2,0:0:0:0:
313,97,52957,1,0,0:0:0:0:
118,240,53170,6,0,P|161:250|204:239,1,90.0000034332277,4|0,0:3|0:0,0:0:0:0:
305,131,53595,1,2,0:0:0:0:
313,97,53702,1,0,0:0:0:0:
320,66,53808,1,0,0:0:0:0:
386,228,54021,1,0,0:0:0:0:
272,321,54234,2,0,L|172:325,1,90.0000034332277,0|2,0:0|0:0,0:0:0:0:
48,272,54659,1,4,0:3:0:0:
156,129,54872,6,0,P|229:179|315:164,1,180.000006866455,4|2,0:3|0:0,0:0:0:0:
376,80,55510,1,0,0:0:0:0:
423,216,55723,2,0,P|423:260|439:302,1,90.0000034332277
512,112,56149,1,2,0:0:0:0:
376,80,56361,1,0,0:0:0:0:
263,224,56574,6,0,P|177:229|126:160,1,180.000006866455,4|2,0:3|0:0,0:0:0:0:
121,133,57106,1,0,0:0:0:0:
121,133,57213,1,0,0:0:0:0:
232,107,57425,1,0,0:0:0:0:
184,256,57638,1,0,0:0:0:0:
351,208,57851,2,0,P|396:199|440:206,1,90.0000034332277,2|0,0:0|0:0,0:0:0:0:
336,40,58276,6,0,B|244:96|171:27,1,180.000006866455,4|2,0:3|0:0,0:0:0:0:
136,224,58915,1,0,0:0:0:0:
256,144,59127,1,0,0:0:0:0:
152,40,59340,1,0,0:0:0:0:
112,200,59553,1,2,0:0:0:0:
264,120,59766,1,0,0:0:0:0:
208,288,59978,5,2,0:0:0:0:
200,312,60085,1,0,0:0:0:0:
192,336,60191,1,0,0:0:0:0:
376,224,60404,1,2,0:0:0:0:
368,200,60510,1,0,0:0:0:0:
360,176,60617,1,0,0:0:0:0:
296,352,60830,1,2,0:0:0:0:
320,328,60936,1,0,0:0:0:0:
352,320,61042,1,0,0:0:0:0:
384,328,61149,1,0,0:0:0:0:
408,352,61255,2,0,P|451:359|494:345,1,90.0000034332277,2|0,0:0|0:0,0:0:0:0:
511,138,61681,6,0,L|331:154,1,180.000006866455,4|2,0:0|0:0,0:0:0:0:
127,191,62319,2,0,P|198:241|279:208,1,180.000006866455
320,64,62957,1,2,0:0:0:0:
207,156,63170,1,0,0:0:0:0:
360,256,63383,6,0,B|376:328|376:328|351:378,1,90.0000034332277,4|0,0:3|0:0,0:0:0:0:
352,384,63808,1,2,0:0:0:0:
424,176,64021,1,0,0:0:0:0:
256,272,64234,2,0,P|216:288|171:278,1,90.0000034332277
168,272,64553,1,0,0:0:0:0:
168,272,64660,1,2,0:0:0:0:
96,136,64872,1,0,0:0:0:0:
34,319,65085,6,0,P|106:327|182:250,1,180.000006866455,4|2,0:3|0:0,0:0:0:0:
232,96,65723,1,0,0:0:0:0:
272,248,65936,1,0,0:0:0:0:
364,116,66149,1,0,0:0:0:0:
280,272,66361,1,2,0:0:0:0:
140,180,66574,1,0,0:0:0:0:
277,371,66787,6,0,P|293:335|279:289,1,90.0000034332277,4|0,0:3|0:0,0:0:0:0:
280,272,67213,1,0,0:0:0:0:
272,248,67319,1,2,0:0:0:0:
200,112,67425,1,0,0:0:0:0:
32,192,67638,2,0,B|118:224|118:224|201:168,1,180.000006866455,4|2,0:3|0:0,0:0:0:0:
320,144,68275,1,4,0:3:0:0:
488,304,68489,6,0,P|432:288|340:358,1,180.000006866455,4|2,0:3|0:0,0:0:0:0:
232,264,69127,1,0,0:0:0:0:
320,144,69340,1,0,0:0:0:0:
384,272,69553,1,0,0:0:0:0:
176,152,69766,2,0,P|176:104|186:57,1,90.0000034332277,2|0,0:0|0:0,0:0:0:0:
96,256,70191,6,0,P|152:288|226:270,1,135.000005149841,4|0,0:3|0:0,0:0:0:0:
232,264,70617,1,2,0:0:0:0:
64,160,70830,1,0,0:0:0:0:
272,112,71042,2,0,B|346:69|360:144|456:101,1,180.000006866455,4|2,0:3|0:0,0:0:0:0:
352,360,71681,1,0,0:0:0:0:
336,344,71787,1,0,0:0:0:0:
320,328,71893,6,0,P|296:288|336:171,1,180.000006866455,4|2,3:0|0:0,0:0:0:0:
388,256,72532,1,0,0:0:0:0:
252,112,72744,1,0,0:0:0:0:
204,292,72957,1,0,0:0:0:0:
360,152,73170,1,2,0:0:0:0:
307,326,73383,1,0,0:0:0:0:
177,196,73595,6,0,P|112:205|71:189,1,90.0000034332277,2|0,0:0|0:0,0:0:0:0:
40,248,73914,1,0,0:0:0:0:
48,264,74021,2,0,P|48:320|26:362,1,90.0000034332277,2|0,0:0|0:0,0:0:0:0:
272,240,74447,2,0,P|264:176|273:151,1,90.0000034332277
264,183,74872,1,0,0:0:0:0:
226,191,74977,1,0,0:0:0:0:
193,213,75084,1,0,0:0:0:0:
171,245,75191,1,8,0:0:0:0:
165,271,75298,1,0,0:0:0:0:
288,320,75510,1,0,0:0:0:0:
288,320,75617,1,0,0:0:0:0:
288,320,75723,5,4,0:0:0:0:
384,160,75936,1,0,0:0:0:0:
224,64,76149,1,0,0:0:0:0:
128,224,76361,1,0,0:0:0:0:
392,247,76574,2,0,P|434:234|465:202,1,90.0000034332277
465,202,77000,1,0,0:0:0:0:
304,48,77213,1,0,0:0:0:0:
264,56,77319,1,0,0:0:0:0:
224,64,77425,6,0,L|134:64,1,90.0000034332277,4|0,0:0|0:0,0:0:0:0:
128,224,77851,2,0,L|217:220,1,90.0000034332277,8|0,0:0|0:0,0:0:0:0:
440,160,78276,2,0,P|455:201|441:243,1,90.0000034332277,2|0,0:0|0:0,0:0:0:0:
420,259,78595,1,0,0:0:0:0:
394,269,78702,1,0,0:0:0:0:
367,274,78808,1,0,0:0:0:0:
339,274,78915,1,0,0:0:0:0:
384,88,79127,5,2,0:0:0:0:
183,128,79340,2,0,P|139:128|98:110,1,90.0000034332277,0|8,0:0|0:0,0:0:0:0:
344,80,79766,1,0,0:0:0:0:
384,88,79872,1,0,0:0:0:0:
415,111,79978,2,0,P|422:156|408:198,1,90.0000034332277
262,294,80404,2,0,P|256:250|269:208,1,90.0000034332277,8|4,0:0|0:3,0:0:0:0:
424,272,80830,5,4,0:0:0:0:
296,384,81042,1,0,0:0:0:0:
272,208,81255,1,8,0:0:0:0:
128,320,81468,1,0,0:0:0:0:
112,304,81574,1,0,0:0:0:0:
95,287,81681,2,0,P|80:245|86:197,1,90.0000034332277,2|0,0:0|0:0,0:0:0:0:
235,136,82000,1,0,0:0:0:0:
208,137,82106,1,0,0:0:0:0:
180,137,82213,1,0,0:0:0:0:
62,118,82319,2,0,P|55:74|70:32,1,90.0000034332277,0|2,0:0|0:0,0:0:0:0:
216,256,82744,5,0,0:0:0:0:
328,152,82957,1,8,0:0:0:0:
360,336,83170,1,0,0:0:0:0:
360,336,83276,1,0,0:0:0:0:
360,336,83383,1,4,0:3:0:0:
240,176,83595,1,0,0:0:0:0:
408,240,83808,1,8,0:0:0:0:
264,336,84021,1,4,0:3:0:0:
416,151,84234,6,0,P|432:110|419:68,1,90.0000034332277,4|0,0:0|0:0,0:0:0:0:
352,104,84553,2,0,L|307:105,1,45.0000017166138,0|8,0:0|0:0,0:0:0:0:
120,56,84872,1,0,0:0:0:0:
128,80,84978,1,0,0:0:0:0:
136,104,85085,2,0,P|151:145|143:189,1,90.0000034332277,2|0,0:0|0:0,0:0:0:0:
129,213,85404,1,0,0:0:0:0:
110,231,85510,2,0,P|94:273|102:317,1,90.0000034332277,2|0,0:0|0:0,0:0:0:0:
175,278,85830,2,0,L|266:278,1,90.0000034332277,0|2,0:0|0:0,0:0:0:0:
400,192,86149,5,0,0:0:0:0:
352,336,86361,1,8,0:0:0:0:
264,160,86574,1,0,0:0:0:0:
264,160,86681,1,0,0:0:0:0:
264,160,86787,1,0,0:0:0:0:
464,136,87000,1,0,0:0:0:0:
336,240,87213,1,8,0:0:0:0:
368,40,87425,1,0,0:0:0:0:
471,264,87638,6,0,B|440:296|392:296|392:296|368:320|368:320|328:304|311:317,1,180.000006866455,4|8,0:0|0:0,0:0:0:0:
78,222,88276,2,0,B|109:192|157:192|157:192|181:168|181:168|221:184|237:168,1,180.000006866455
439,87,88915,2,0,P|455:130|452:174,1,90.0000034332277,10|0,0:0|0:0,0:0:0:0:
344,248,89340,5,0,0:0:0:0:
376,32,89553,1,0,0:0:0:0:
376,32,89659,1,0,0:0:0:0:
376,32,89766,1,8,0:0:0:0:
456,152,89978,1,0,0:0:0:0:
256,120,90191,2,0,B|216:112|216:112|192:112|192:112|167:106,1,90.0000034332277,4|0,0:0|0:0,0:0:0:0:
153,279,90617,2,0,B|192:272|192:272|216:272|216:272|241:264,1,90.0000034332277,4|0,0:0|0:0,0:0:0:0:
48,344,91042,5,4,0:0:0:0:
120,192,91255,1,0,0:0:0:0:
186,366,91468,1,8,0:0:0:0:
272,216,91681,1,0,0:0:0:0:
272,216,91787,1,0,0:0:0:0:
271,215,91893,2,0,P|306:272|295:338,2,135.000005149841,2|2|0,0:0|0:0|0:0,0:0:0:0:
128,144,92744,5,2,0:0:0:0:
216,296,92957,1,0,0:0:0:0:
320,136,93170,1,8,0:0:0:0:
144,247,93383,2,0,P|128:289|135:333,2,90.0000034332277
200,184,93915,1,0,0:0:0:0:
200,183,94021,2,0,P|210:140|199:97,1,90.0000034332277,8|4,0:0|0:3,0:0:0:0:
223,263,94447,6,0,P|308:286|377:233,1,180.000006866455,4|8,0:0|0:0,0:0:0:0:
288,144,95085,1,0,0:0:0:0:
288,144,95191,1,0,0:0:0:0:
288,144,95298,2,0,B|280:96|280:96|287:55,1,90.0000034332277,2|2,0:0|0:0,0:0:0:0:
224,240,95723,2,0,B|232:288|232:288|221:328,1,90.0000034332277,2|2,0:0|0:0,0:0:0:0:
376,340,96149,5,2,0:0:0:0:
384,159,96361,1,0,0:0:0:0:
274,304,96574,1,8,0:0:0:0:
446,260,96787,1,0,0:0:0:0:
446,260,96893,1,0,0:0:0:0:
446,260,97000,1,0,0:0:0:0:
279,190,97213,1,0,0:0:0:0:
376,340,97425,1,8,0:0:0:0:
279,190,97638,1,4,0:3:0:0:
123,92,97851,6,0,P|192:38|276:59,1,180.000006866455,4|8,0:0|0:0,0:0:0:0:
392,144,98489,1,0,0:0:0:0:
392,144,98595,1,0,0:0:0:0:
391,143,98702,2,0,P|436:143|475:122,1,90.0000034332277,2|0,0:0|0:0,0:0:0:0:
392,144,99127,1,0,0:0:0:0:
392,144,99233,1,0,0:0:0:0:
455,48,99340,2,0,P|411:49|371:68,1,90.0000034332277,2|0,0:0|0:0,0:0:0:0:
376,272,99659,5,2,0:0:0:0:
198,178,99766,1,0,0:0:0:0:
369,70,99978,1,8,0:0:0:0:
292,232,100191,1,0,0:0:0:0:
292,232,100298,1,0,0:0:0:0:
291,232,100404,2,0,P|287:276|294:320,1,90.0000034332277
464,164,100830,1,0,0:0:0:0:
463,163,101042,2,0,P|419:159|375:167,1,90.0000034332277,8|0,0:0|0:0,0:0:0:0:
184,228,116149,6,0,P|106:189|90:103,1,180.000006866455,4|8,0:0|0:0,0:0:0:0:
408,77,116787,2,0,P|418:164|355:224,1,180.000006866455
156,312,117425,2,0,L|66:299,1,90.0000034332277,10|0,0:0|0:0,0:0:0:0:
356,312,117851,6,0,B|400:304|432:320|432:320|440:296|440:296|488:296|501:258,1,180.000006866455,0|8,0:0|0:0,0:0:0:0:
408,128,118489,1,0,0:0:0:0:
408,128,118595,1,0,0:0:0:0:
408,128,118702,1,2,0:0:0:0:
356,312,118915,1,0,0:0:0:0:
288,128,119127,1,8,0:0:0:0:
448,240,119340,1,0,0:0:0:0:
256,240,119553,5,4,0:0:0:0:
256,192,119659,12,8,122532,0:0:0:0:
168,192,122957,5,0,0:0:0:0:
295,280,123170,1,0,0:0:0:0:
307,124,123383,1,8,0:0:0:0:
160,216,123595,1,0,0:0:0:0:
152,240,123702,1,0,0:0:0:0:
144,264,123808,1,0,0:0:0:0:
136,288,123915,1,0,0:0:0:0:
128,312,124021,1,0,0:0:0:0:
328,280,124234,2,0,L|417:272,1,90.0000034332277,8|0,0:0|0:0,0:0:0:0:
423,55,124659,6,0,P|379:54|341:77,1,90.0000034332277
328,112,124978,1,0,0:0:0:0:
328,112,125085,1,8,0:0:0:0:
328,280,125298,2,0,L|334:324,1,45.0000017166138
240,240,125510,2,0,L|232:195,1,45.0000017166138,4|0,0:0|0:0,0:0:0:0:
168,304,125723,1,0,0:0:0:0:
48,184,125936,1,8,0:0:0:0:
160,56,126149,1,4,0:3:0:0:
328,112,126361,6,0,P|372:112|415:99,1,90.0000034332277,4|0,0:0|0:0,0:0:0:0:
238,155,126787,1,8,0:0:0:0:
485,193,127000,1,0,0:0:0:0:
492,218,127106,1,0,0:0:0:0:
492,245,127213,1,0,0:0:0:0:
483,271,127319,1,0,0:0:0:0:
470,292,127425,1,0,0:0:0:0:
324,228,127638,2,0,P|368:225|413:233,1,90.0000034332277,8|0,0:0|0:0,0:0:0:0:
144,263,128064,6,0,P|101:255|71:223,1,90.0000034332277
65,215,128383,1,0,0:0:0:0:
57,199,128489,1,8,0:0:0:0:
208,44,128702,2,0,L|169:21,1,45.0000017166138
304,44,128915,2,0,L|339:16,1,45.0000017166138
304,147,129127,2,0,L|341:174,1,45.0000017166138,0|0,0:3|0:0,0:0:0:0:
208,147,129340,2,0,L|132:196,1,90.0000034332277,8|0,0:0|0:0,0:0:0:0:
256,288,129766,5,2,0:0:0:0:
256,192,129978,1,2,0:0:0:0:
256,96,130191,1,10,0:0:0:0:
256,192,130617,1,2,0:0:0:0:
256,288,130830,1,2,0:0:0:0:
256,96,131042,1,10,0:0:0:0:
256,288,131468,5,2,0:0:0:0:
336,240,131681,1,0,0:0:0:0:
176,240,131893,1,8,0:0:0:0:
340,336,132106,1,0,0:0:0:0:
340,336,132213,1,0,0:0:0:0:
340,336,132319,2,0,L|373:159,1,180.000006866455,6|8,0:0|0:0,0:0:0:0:
371,164,133170,6,0,P|284:173|212:122,1,180.000006866455,4|0,3:0|0:0,0:0:0:0:
412,87,133808,2,0,P|396:175|431:257,1,180.000006866455
256,252,134447,1,0,0:0:0:0:
156,240,134659,1,0,0:0:0:0:
68,280,134872,6,0,L|80:369,1,90.0000034332277,4|0,0:3|0:0,0:0:0:0:
156,240,135298,2,0,L|181:153,1,90.0000034332277
116,80,135723,2,0,P|64:82|11:142,2,120,2|0|0,0:0|0:0|0:0,0:0:0:0:
252,196,136574,5,4,0:3:0:0:
88,152,136787,1,0,0:0:0:0:
212,120,137000,1,0,0:0:0:0:
216,272,137213,1,0,0:0:0:0:
336,192,137425,1,0,0:0:0:0:
132,248,137638,1,0,0:0:0:0:
136,280,137744,1,0,0:0:0:0:
140,312,137851,1,0,0:0:0:0:
288,356,138064,1,0,0:0:0:0:
420,288,138276,6,0,P|432:240|433:197,1,90.0000034332277,4|0,0:3|0:0,0:0:0:0:
312,248,138702,1,0,0:0:0:0:
208,199,138915,2,0,P|266:134|353:136,1,180.000006866455,2|0,0:0|0:0,0:0:0:0:
344,344,139553,1,0,0:0:0:0:
312,248,139766,1,0,0:0:0:0:
435,87,139978,6,0,P|443:174|378:231,1,180.000006866455,4|0,0:3|0:0,0:0:0:0:
248,320,140617,2,0,L|160:305,1,90.0000034332277
312,248,141042,1,0,0:0:0:0:
404,328,141255,2,0,L|494:308,1,90.0000034332277
212,232,141681,6,0,B|168:228|136:212|136:212|96:208|39:237,1,180.000006866455,4|0,0:3|0:0,0:0:0:0:
203,128,142319,2,0,P|247:116|286:94,1,90.0000034332277
140,60,142744,1,0,0:0:0:0:
288,192,142957,2,0,P|328:196|383:190,1,90.0000034332277
464,64,143382,6,0,B|488:140|488:140|450:233,1,180.000006866455,4|0,0:3|0:0,0:0:0:0:
400,327,144021,2,0,P|312:337|239:288,1,180.000006866455
260,188,144659,1,0,0:0:0:0:
176,308,144872,1,0,0:0:0:0:
347,163,145085,6,0,P|325:125|287:101,1,90.0000034332277,2|0,0:0|0:0,0:0:0:0:
168,208,145510,1,2,0:0:0:0:
284,280,145723,1,0,0:0:0:0:
108,136,145936,2,0,P|84:168|78:222,1,90.0000034332277,2|0,0:0|0:0,0:0:0:0:
80,232,146255,1,0,0:0:0:0:
84,256,146361,1,2,0:0:0:0:
192,96,146574,1,0,0:0:0:0:
284,280,146787,6,0,B|364:292|364:292|446:237,1,180.000006866455,4|0,0:0|0:0,0:0:0:0:
316,184,147425,1,0,0:0:0:0:
216,332,147638,2,0,P|197:291|200:246,1,90.0000034332277
240,140,148064,1,0,0:0:0:0:
392,232,148276,1,0,0:0:0:0:
336,52,148489,6,0,L|326:141,1,90.0000034332277,4|0,0:3|0:0,0:0:0:0:
144,156,148915,2,0,L|168:255,1,90.0000034332277,2|0,0:0|0:0,0:0:0:0:
167,63,149340,2,0,P|123:59|63:120,2,135.000005149841
272,164,150191,5,4,0:3:0:0:
184,284,150404,1,0,0:0:0:0:
184,284,150510,1,0,0:0:0:0:
184,284,150617,1,0,0:0:0:0:
336,236,150830,1,0,0:0:0:0:
164,196,151042,2,0,L|78:223,1,90.0000034332277,0|2,0:0|0:0,0:0:0:0:
252,116,151468,1,0,0:0:0:0:
276,308,151681,1,2,0:0:0:0:
78,223,151893,6,0,P|68:134|111:57,1,180.000006866455,4|2,0:3|0:0,0:0:0:0:
236,44,152532,2,0,L|280:50,1,45.0000017166138
348,24,152744,2,0,P|350:68|334:110,1,90.0000034332277,2|0,0:0|0:0,0:0:0:0:
340,128,153170,1,0,0:0:0:0:
344,156,153383,1,2,0:0:0:0:
436,272,153595,1,0,0:0:0:0:
256,196,153808,6,0,P|167:184|84:217,1,180.000006866455,4|0,0:3|0:0,0:0:0:0:
272,320,154447,2,0,P|312:304|356:304,1,80
472,344,154872,1,0,0:0:0:0:
400,208,155085,2,0,L|396:120,1,80
236,36,155510,6,0,L|240:124,1,80,4|0,0:3|0:0,0:0:0:0:
328,256,155936,1,0,0:0:0:0:
432,128,156149,2,0,L|336:116,1,80
220,220,156573,1,0,0:0:0:0:
208,252,156680,1,0,0:0:0:0:
196,280,156787,1,0,0:0:0:0:
312,356,157000,1,0,0:0:0:0:
136,176,157213,6,0,B|104:248|104:248|88:288|112:336,1,160,4|0,0:3|0:0,0:0:0:0:
68,104,157850,1,0,0:0:0:0:
68,104,157957,1,0,0:0:0:0:
68,104,158064,2,0,P|108:80|148:76,1,80
256,128,158489,1,0,0:0:0:0:
236,248,158702,1,0,0:0:0:0:
340,80,158915,5,2,0:0:0:0:
412,244,159127,1,0,0:0:0:0:
380,68,159340,1,0,0:0:0:0:
168,160,159553,2,0,P|164:112|188:64,1,80,4|0,0:0|0:0,0:0:0:0:
324,284,159978,2,0,P|324:340|304:380,1,80,2|0,0:0|0:0,0:0:0:0:
324,284,160404,1,0,0:0:0:0:
452,148,160617,6,0,P|380:128|296:152,1,160,4|8,0:0|0:0,0:0:0:0:
208,344,161255,2,0,P|228:308|232:260,1,80
368,208,161681,2,0,P|356:168|352:120,1,80,8|0,0:0|0:0,0:0:0:0:
108,144,162106,6,0,P|188:128|259:161,1,160,0|8,0:0|0:0,0:0:0:0:
112,268,162638,1,0,0:0:0:0:
101,243,162744,1,0,0:0:0:0:
428,160,162957,2,0,L|412:248,1,80
328,344,163383,2,0,P|284:348|244:332,1,80,8|0,0:0|0:0,0:0:0:0:
196,280,163808,6,0,P|152:328|56:324,1,160,4|8,0:3|0:0,0:0:0:0:
336,36,164447,1,0,0:0:0:0:
196,280,164659,1,0,0:0:0:0:
160,196,164766,1,0,0:0:0:0:
292,100,164978,1,0,0:0:0:0:
292,100,165085,1,0,0:0:0:0:
292,100,165191,1,0,0:0:0:0:
276,264,165298,1,8,0:0:0:0:
188,92,165510,1,0,0:0:0:0:
52,216,165723,6,0,P|48:260|56:296,1,80
88,128,166149,1,0,0:0:0:0:
144,308,166361,2,0,P|204:308|236:290,1,80
240,176,166787,1,8,0:0:0:0:
370,205,167000,1,0,0:0:0:0:
364,128,167213,2,0,P|376:168|368:212,1,80,8|0,0:0|0:0,0:0:0:0:
370,205,167638,6,0,P|284:192|208:216,1,160,4|8,0:0|0:0,0:0:0:0:
344,60,168276,1,0,0:0:0:0:
168,60,168489,2,0,L|188:140,1,80
344,60,168915,2,0,L|324:140,1,80,8|0,0:0|0:0,0:0:0:0:
184,216,169340,6,0,P|256:252|324:216,1,160,0|8,0:0|0:0,0:0:0:0:
164,132,169978,1,0,0:0:0:0:
48,312,170191,2,0,P|28:272|28:228,1,80
184,216,170617,2,0,P|192:260|181:303,1,80,8|0,0:0|0:0,0:0:0:0:
132,96,171042,6,0,L|260:108,1,120,4|0,0:3|0:0,0:0:0:0:
288,76,171468,1,8,0:0:0:0:
264,244,171681,1,0,0:0:0:0:
376,128,171893,1,0,0:0:0:0:
376,128,172000,1,0,0:0:0:0:
376,128,172106,1,0,0:0:0:0:
444,288,172319,1,8,0:0:0:0:
312,336,172532,1,0,0:0:0:0:
176,296,172744,6,0,P|164:256|168:208,1,80
352,248,173170,1,8,0:0:0:0:
192,164,173383,2,0,L|104:172,1,80
124,92,173702,2,0,L|176:88,1,40
44,244,174021,1,8,0:0:0:0:
40,76,174234,1,0,0:0:0:0:
276,36,174447,5,2,0:0:0:0:
208,160,174659,1,0,0:0:0:0:
208,160,174766,1,0,0:0:0:0:
208,160,174872,2,0,P|196:204|196:244,1,80,8|0,0:0|0:0,0:0:0:0:
336,328,175298,1,0,0:0:0:0:
384,316,175404,1,0,0:0:0:0:
416,280,175510,1,0,0:0:0:0:
432,236,175617,1,0,0:0:0:0:
428,188,175723,1,8,0:0:0:0:
336,72,175936,1,0,0:0:0:0:
336,72,176042,1,0,0:0:0:0:
336,72,202106,5,4,1:2:0:0:
184,248,202319,1,0,1:0:0:0:
344,240,202532,1,0,1:0:0:0:
176,80,202745,1,0,1:0:0:0:
312,312,202957,2,0,B|356:324|384:304|384:304|396:316|396:316|424:296|468:312,1,160,2|2,0:0|0:0,0:0:0:0:
248,180,203596,1,0,0:0:0:0:
248,180,203702,1,0,0:0:0:0:
248,180,203808,6,0,P|228:140|224:88,1,95.9999970703126,4|0,0:0|0:0,0:0:0:0:
432,152,204234,2,0,P|436:196|420:248,1,95.9999970703126,8|0,0:0|0:0,0:0:0:0:
176,324,204660,2,0,L|152:224,1,95.9999970703126,2|0,0:0|0:0,0:0:0:0:
100,178,204979,2,0,P|60:162|0:176,1,95.9999970703126,2|0,0:0|0:0,0:0:0:0:
48,248,205298,1,0,0:0:0:0:
268,268,205511,6,0,P|300:228|432:228,1,191.999994140625,2|8,0:0|0:0,0:0:0:0:
352,328,206149,1,0,0:0:0:0:
288,148,206362,2,0,L|308:52,1,95.9999970703126
416,276,206787,1,8,0:0:0:0:
268,340,207000,1,4,0:3:0:0:
148,252,207213,6,0,P|128:216|120:160,1,95.9999970703126,4|0,0:0|0:0,0:0:0:0:
204,64,207638,1,8,0:0:0:0:
280,224,207851,1,0,0:0:0:0:
309,212,207957,1,0,0:0:0:0:
340,201,208064,2,0,P|384:212|424:248,1,95.9999970703126,2|0,0:0|0:0,0:0:0:0:
480,192,208383,2,0,P|468:148|480:96,1,95.9999970703126,2|0,0:0|0:0,0:0:0:0:
416,44,208702,1,0,0:0:0:0:
284,136,208915,6,0,L|195:129,1,90.0000034332277,2|0,0:0|0:0,0:0:0:0:
194,128,209234,1,0,0:0:0:0:
194,128,209340,1,8,0:0:0:0:
96,244,209553,1,0,0:0:0:0:
224,216,209766,1,0,0:0:0:0:
172,356,209979,1,0,0:0:0:0:
308,236,210191,1,8,0:0:0:0:
120,152,210404,1,4,0:3:0:0:
120,152,210511,1,0,0:0:0:0:
119,151,210617,6,0,P|114:108|138:70,1,90.0000034332277,4|0,0:0|0:0,0:0:0:0:
395,112,211042,2,0,P|331:131|265:120,1,135.000005149841,8|0,0:0|0:0,0:0:0:0:
256,192,211468,12,0,216149,0:0:0:0:
