osu file format v14

[General]
AudioFilename: Yume no Tsubasa.mp3
AudioLeadIn: 0
PreviewTime: 64218
Countdown: 0
SampleSet: Soft
StackLeniency: 0.7
Mode: 0
LetterboxInBreaks: 0
WidescreenStoryboard: 1

[Editor]
DistanceSpacing: 1.2
BeatDivisor: 4
GridSize: 4
TimelineZoom: 1

[Metadata]
Title:Yume no Tsubasa / tsubasa
TitleUnicode:ユメノツバサ/tsubasa
Artist:FictionJunction KAORI
ArtistUnicode:FictionJunction KAORI
Creator:Lanturn
Version:Soar
Source:ツバサ・クロニクル
Tags:Clamp 織田かおり Oda Resovoir Chronicle Chronicles Kajiura Yuki 梶浦由記 Everlasting Songs Best Vocal Collection Makino Yui 牧野由依 lost Wings of Dream Japanese English Anime J-Pop JPop Pop Insert Song Sakura サクラ Wakana Ootaki 大滝若奈 Keiko Kubota 窪田啓子 Yuriko Kaida 貝田由里子
BeatmapID:2130596
BeatmapSetID:1018076

[Difficulty]
HPDrainRate:4
CircleSize:5
OverallDifficulty:6
ApproachRate:7
SliderMultiplier:1.4
SliderTickRate:1

[Events]
//Background and Video events
0,0,"Yume no TsubasaBG.jpg",0,0
//Break Periods
2,96585,100818
//Storyboard Layer 0 (Background)
//Storyboard Layer 1 (Fail)
//Storyboard Layer 2 (Pass)
//Storyboard Layer 3 (Foreground)
//Storyboard Layer 4 (Overlay)
//Storyboard Sound Samples

[TimingPoints]
385,666.666666666667,4,2,1,60,1,0
16051,-100,4,2,1,40,0,0
16385,-100,4,2,1,60,0,0
37385,-100,4,2,1,50,0,0
37718,-100,4,2,1,60,0,0
58718,-100,4,2,1,30,0,0
59051,-100,4,2,1,60,0,0
63385,-100,4,2,1,50,0,0
64385,-100,4,2,1,70,0,1
74385,-100,4,2,1,40,0,1
74718,-100,4,2,1,70,0,1
84718,-100,4,2,1,50,0,1
85718,-100,4,2,1,60,0,0
90051,-100,4,2,1,50,0,0
91051,-100,4,2,1,50,0,0
101718,681.818181818182,4,2,1,50,1,0
122513,-100,4,2,1,40,0,0
122854,-100,4,2,1,50,0,0
150808,-100,4,2,1,70,0,1
151490,-100,4,2,1,50,0,1
151831,-100,4,2,1,70,0,1
159672,-100,4,2,1,50,0,1
160013,-100,4,2,1,70,0,1
161036,-100,4,2,1,50,0,1
161718,-100,4,2,1,70,0,1
170581,-100,4,2,1,50,0,1
170922,-100,4,2,1,70,0,1
172627,-100,4,2,1,50,0,0
176718,-100,4,2,1,30,0,0
177058,-100,4,2,1,50,0,0
178763,-100,4,2,1,40,0,0
178933,-100,4,2,1,50,0,0
194445,-100,4,2,1,30,0,0
194615,-100,4,2,1,50,0,0
197172,-100,4,2,1,40,0,0
197343,-100,4,2,1,50,0,0
199899,666.666666666667,4,2,1,80,1,1
209899,-100,4,2,1,70,0,1
210565,-100,4,2,1,80,0,1
221232,-100,4,2,1,70,0,0
225232,-100,4,2,1,50,0,0
225565,-100,4,2,1,70,0,0
226565,-100,4,2,1,60,0,0
237899,-100,4,2,1,50,0,0
238065,-100,4,2,1,60,0,0
241899,-100,4,2,1,50,0,0
242065,-100,4,2,1,60,0,0
245899,-100,4,2,1,40,0,0
246565,-100,4,2,1,60,0,0

[Colours]
Combo1 : 0,255,128
Combo2 : 128,255,255
Combo3 : 255,188,155
Combo4 : 255,128,192
SliderBorder : 255,255,255

[HitObjects]
228,288,11051,5,4,0:0:0:0:
238,208,11385,1,0,0:0:0:0:
300,260,11718,2,0,P|364:224|388:160,1,140,8|0,0:0|0:0,0:0:0:0:
332,104,12718,2,0,L|352:24,2,70,2|8|0,0:0|0:0|0:0,0:0:0:0:
268,248,13718,6,0,B|220:284|220:284|180:316|148:288,1,140,2|8,0:0|0:0,0:0:0:0:
188,208,14718,1,0,0:0:0:0:
288,324,15051,2,0,L|364:320,1,70
428,276,15718,1,8,0:0:0:0:
448,116,16051,1,8,0:0:0:0:
340,220,16385,6,0,P|276:264|208:252,1,140,4|8,0:0|0:0,0:0:0:0:
172,184,17385,1,0,0:0:0:0:
172,184,17551,1,0,0:0:0:0:
172,184,17718,1,2,0:0:0:0:
260,184,18051,1,0,0:0:0:0:
152,260,18385,1,8,0:0:0:0:
300,352,18718,6,0,L|372:324,1,70,2|0,0:0|0:0,0:0:0:0:
217,285,19385,2,0,L|145:257,1,70,2|8,0:0|0:0,0:0:0:0:
216,208,20051,1,0,0:0:0:0:
184,348,20385,1,2,0:0:0:0:
136,184,20718,1,0,0:0:0:0:
252,312,21051,1,8,0:0:0:0:
104,292,21385,1,0,0:0:0:0:
256,192,21718,5,2,0:0:0:0:
180,152,22051,1,0,0:0:0:0:
164,68,22385,1,8,0:0:0:0:
244,100,22718,1,0,0:0:0:0:
244,100,22885,1,0,0:0:0:0:
244,100,23051,2,0,P|256:172|212:232,1,140,2|8,0:0|0:0,0:0:0:0:
176,156,24051,1,0,0:0:0:0:
348,196,24385,6,0,L|448:96,1,140,2|8,0:0|0:0,0:0:0:0:
256,164,25385,2,0,P|264:236|328:288,1,140,2|0,0:0|0:0,0:0:0:0:
392,260,26385,1,8,0:0:0:0:
392,260,26551,1,2,0:0:0:0:
392,260,27051,6,0,B|339:316|320:277|264:317,1,140,2|8,0:0|0:0,0:0:0:0:
196,364,28051,1,0,0:0:0:0:
196,364,28218,1,0,0:0:0:0:
196,364,28385,2,0,L|64:304,1,140,2|8,0:0|0:0,0:0:0:0:
12,372,29385,1,0,0:0:0:0:
152,264,29718,6,0,L|228:264,1,70,2|0,0:0|0:0,0:0:0:0:
222,264,30218,1,0,0:0:0:0:
222,264,30385,1,8,0:0:0:0:
296,220,30718,1,0,0:0:0:0:
256,360,31051,1,2,0:0:0:0:
232,192,31385,1,0,0:0:0:0:
344,312,31718,1,8,0:0:0:0:
168,256,32051,1,0,0:0:0:0:
352,208,32385,6,0,P|376:140|344:56,1,140,2|8,0:0|0:0,0:0:0:0:
160,136,33385,2,0,B|226:157|226:157|296:137,1,140,2|0,0:0|0:0,0:0:0:0:
228,68,34385,1,8,0:0:0:0:
168,208,34718,1,0,0:0:0:0:
168,208,34885,1,0,0:0:0:0:
168,208,35051,6,0,B|144:260|200:288|168:352,1,140,2|8,0:0|0:0,0:0:0:0:
56,344,36051,2,0,B|80:292|24:264|56:200,1,140,2|4,0:0|0:3,0:0:0:0:
148,100,37051,1,8,0:0:0:0:
220,244,37385,1,8,0:0:0:0:
292,112,37718,6,0,L|336:48,1,70,4|0,0:0|0:0,0:0:0:0:
373,54,38218,2,0,P|385:98|377:138,1,70,2|0,0:0|0:0,0:0:0:0:
332,192,38885,2,0,B|312:256|356:280|324:344|264:332,1,175,2|8,0:0|0:0,0:0:0:0:
220,272,40051,6,0,P|184:248|172:212,1,70,2|0,0:0|0:0,0:0:0:0:
292,112,40718,2,0,P|328:136|340:172,1,70,2|8,0:0|0:0,0:0:0:0:
176,156,41385,2,0,P|200:120|236:108,1,70,2|0,0:0|0:0,0:0:0:0:
336,228,42051,2,0,P|312:264|276:276,1,70,2|8,0:0|0:0,0:0:0:0:
256,192,42718,1,0,0:0:0:0:
256,192,42885,1,0,0:0:0:0:
256,192,43051,6,0,L|256:48,2,140,2|8|2,0:0|0:0|0:0,0:0:0:0:
200,256,44718,1,0,0:0:0:0:
200,256,45051,1,8,0:0:0:0:
128,304,45385,6,0,P|80:232|76:156,2,140,2|2|2,0:0|0:0|0:0,0:0:0:0:
296,320,47385,1,0,0:0:0:0:
292,176,47718,1,8,0:0:0:0:
188,240,48051,1,0,0:0:0:0:
376,320,48385,6,0,L|432:236,1,70,4|0,0:0|0:0,0:0:0:0:
408,220,48885,2,0,P|380:164|384:136,1,70,2|0,0:0|0:0,0:0:0:0:
468,112,49551,2,0,P|380:136|296:112,1,175,2|8,0:0|0:0,0:0:0:0:
228,160,50718,6,0,L|264:304,2,140,2|2|2,0:0|0:0|0:0,0:0:0:0:
208,144,52718,1,0,0:0:0:0:
140,44,53051,1,8,0:0:0:0:
16,152,53385,1,0,0:0:0:0:
16,152,53551,1,0,0:0:0:0:
16,152,53718,6,0,P|8:220|56:300,1,140,4|8,0:0|0:0,0:0:0:0:
216,204,54718,2,0,P|140:184|76:212,1,140,2|0,0:0|0:0,0:0:0:0:
155,301,55718,1,8,0:0:0:0:
155,301,56051,1,0,0:0:0:0:
248,176,56385,6,0,P|312:196|412:176,1,140,2|8,0:0|0:0,0:0:0:0:
336,16,57385,2,0,P|276:47|220:131,1,140,2|0,0:0|0:0,0:0:0:0:
332,116,58385,1,8,0:0:0:0:
332,116,58718,1,8,0:0:0:0:
168,172,59051,6,0,L|188:268,1,70,4|0,0:0|0:0,0:0:0:0:
344,212,59718,2,0,L|324:116,1,70,8|0,0:0|0:0,0:0:0:0:
236,280,60385,2,0,L|332:260,1,70,2|0,0:0|0:0,0:0:0:0:
276,104,61051,2,0,L|180:124,1,70,8|0,0:0|0:0,0:0:0:0:
176,148,61551,1,0,0:0:0:0:
176,148,61718,5,8,0:0:0:0:
80,64,62051,1,0,0:0:0:0:
116,232,62385,1,8,0:0:0:0:
176,24,62718,1,8,0:0:0:0:
204,48,63385,1,8,0:0:0:0:
204,48,63551,1,2,0:3:0:0:
204,48,63718,1,8,0:0:0:0:
204,48,63885,1,4,0:3:0:0:
204,48,64051,1,4,0:3:0:0:
316,92,64385,6,0,P|316:128|296:172,1,70,4|0,0:0|0:0,0:0:0:0:
228,192,65051,1,8,0:0:0:0:
160,144,65385,1,0,0:0:0:0:
160,144,65551,1,0,0:0:0:0:
160,144,65718,2,0,P|148:184|152:216,1,70,2|0,0:0|0:0,0:0:0:0:
164,296,66385,1,8,0:0:0:0:
224,188,66718,1,0,0:0:0:0:
80,188,67051,5,2,0:0:0:0:
232,272,67385,1,0,0:0:0:0:
216,104,67718,1,8,0:0:0:0:
104,272,68051,1,0,0:0:0:0:
104,272,68218,1,0,0:0:0:0:
104,272,68385,1,2,0:0:0:0:
116,284,69051,1,8,0:0:0:0:
176,168,69385,1,0,0:0:0:0:
32,204,69718,5,2,0:0:0:0:
104,96,70051,1,0,0:0:0:0:
200,44,70385,1,8,0:0:0:0:
268,92,70718,1,0,0:0:0:0:
268,92,70885,1,0,0:0:0:0:
268,92,71051,2,0,P|304:112|344:108,1,70,2|0,0:0|0:0,0:0:0:0:
320,44,71718,1,8,0:0:0:0:
236,28,72051,1,0,0:0:0:0:
164,152,72385,6,0,B|140:224|188:224|164:296,1,140,2|8,0:0|0:0,0:0:0:0:
64,264,73385,1,0,0:0:0:0:
64,264,73551,1,0,0:0:0:0:
64,264,73718,1,2,0:0:0:0:
92,292,74385,1,4,0:0:0:0:
216,172,74718,1,4,0:3:0:0:
176,368,75051,5,4,0:0:0:0:
140,208,75385,1,0,0:0:0:0:
240,272,75718,1,8,0:0:0:0:
270,167,76051,1,0,0:0:0:0:
270,167,76218,1,0,0:0:0:0:
270,167,76385,2,0,L|236:96,1,70,2|0,0:0|0:0,0:0:0:0:
236,20,77051,1,8,0:0:0:0:
192,192,77385,1,0,0:0:0:0:
72,36,77718,5,2,0:0:0:0:
240,112,78051,1,0,0:0:0:0:
72,144,78385,1,8,0:0:0:0:
184,28,78718,1,0,0:0:0:0:
184,28,78885,1,0,0:0:0:0:
184,28,79051,1,2,0:0:0:0:
192,40,79718,1,8,0:0:0:0:
232,132,80051,1,0,0:0:0:0:
152,208,80385,6,0,P|160:264|184:292,1,70,2|0,0:0|0:0,0:0:0:0:
256,320,81051,1,8,0:0:0:0:
320,244,81385,1,0,0:0:0:0:
320,244,81551,1,0,0:0:0:0:
320,244,81718,2,0,L|384:300,1,70,2|0,0:0|0:0,0:0:0:0:
340,168,82385,2,0,L|287:121,1,70,8|0,0:0|0:0,0:0:0:0:
252,48,83051,5,2,0:0:0:0:
212,192,83385,1,0,0:0:0:0:
216,72,83718,1,8,0:0:0:0:
292,240,84051,1,0,0:0:0:0:
292,240,84218,1,0,0:0:0:0:
292,240,84385,1,10,0:0:0:0:
148,340,84718,1,8,0:0:0:0:
120,180,85051,1,8,0:0:0:0:
132,140,85218,1,8,0:3:0:0:
156,108,85385,1,4,0:3:0:0:
188,80,85551,1,0,0:0:0:0:
220,56,85718,5,4,0:0:0:0:
304,160,86051,1,8,0:3:0:0:
392,44,86385,1,8,0:0:0:0:
492,288,86718,2,0,P|420:312|344:284,1,140,4|0,0:0|0:0,0:0:0:0:
308,204,87718,1,8,0:0:0:0:
160,40,88385,6,0,L|104:108,1,70,2|0,0:0|0:0,0:0:0:0:
116,176,89051,1,8,0:0:0:0:
288,176,89718,1,8,0:0:0:0:
336,252,90051,1,8,0:0:0:0:
264,320,90385,1,8,0:0:0:0:
264,320,90551,1,8,0:3:0:0:
264,320,90718,1,4,0:3:0:0:
256,192,91051,12,2,96385,0:0:0:0:
168,336,101718,6,0,L|128:188,1,140,4|8,0:0|0:0,0:0:0:0:
226,144,102740,1,0,0:0:0:0:
226,144,102911,1,0,0:0:0:0:
226,144,103081,2,0,P|226:182|208:214,1,70,2|0,0:0|0:0,0:0:0:0:
119,153,103763,1,8,0:0:0:0:
132,36,104104,1,0,0:0:0:0:
132,36,104445,6,0,P|200:28|272:68,1,140,2|8,0:0|0:0,0:0:0:0:
336,176,105468,1,0,0:0:0:0:
248,152,105808,1,2,0:0:0:0:
268,236,106149,1,0,0:0:0:0:
268,236,106320,1,0,0:0:0:0:
268,236,106490,1,8,0:0:0:0:
276,88,106831,1,0,0:0:0:0:
200,212,107172,6,0,P|156:156|148:136,1,70,2|0,0:0|0:0,0:0:0:0:
128,72,107854,1,8,0:0:0:0:
48,20,108195,1,0,0:0:0:0:
48,20,108365,1,0,0:0:0:0:
48,20,108536,2,0,P|36:92|80:152,1,140,2|8,0:0|0:0,0:0:0:0:
168,72,109558,1,0,0:0:0:0:
236,196,109899,6,0,L|156:316,1,140,2|8,0:0|0:0,0:0:0:0:
24,308,110922,2,0,P|8:264|16:224,1,70,2|0,0:0|0:0,0:0:0:0:
108,164,111604,1,0,0:0:0:0:
40,84,111945,1,8,0:0:0:0:
40,84,112115,1,2,0:0:0:0:
56,64,112627,6,0,B|124:48|124:48|168:36|188:64,1,140,2|8,0:0|0:0,0:0:0:0:
224,168,113649,1,0,0:0:0:0:
224,168,113820,1,0,0:0:0:0:
224,168,113990,2,0,B|156:184|156:184|112:196|92:168,1,140,2|8,0:0|0:0,0:0:0:0:
140,116,115013,1,0,0:0:0:0:
276,212,115354,6,0,L|352:212,1,70,2|0,0:0|0:0,0:0:0:0:
346,212,115865,1,0,0:0:0:0:
346,212,116036,1,8,0:0:0:0:
312,136,116377,1,0,0:0:0:0:
276,296,116718,1,2,0:0:0:0:
392,220,117058,1,0,0:0:0:0:
232,152,117399,1,8,0:0:0:0:
376,84,117740,1,0,0:0:0:0:
312,236,118081,6,0,L|160:280,1,140,2|8,0:0|0:0,0:0:0:0:
360,304,119104,2,0,B|420:240|361:168,1,140,2|0,0:0|0:0,0:0:0:0:
296,136,120127,1,8,0:0:0:0:
188,220,120468,1,0,0:0:0:0:
188,220,120638,1,0,0:0:0:0:
188,220,120808,6,0,P|97:231|60:276,1,140,2|8,0:0|0:0,0:0:0:0:
108,368,121831,2,0,P|195:353|232:312,1,140,2|4,0:0|0:0,0:0:0:0:
144,160,122853,1,8,0:0:0:0:
144,160,123024,1,8,0:3:0:0:
144,160,123194,1,4,0:3:0:0:
44,236,123536,6,0,P|44:280|68:308,1,70,4|0,0:0|0:0,0:0:0:0:
96,320,124047,2,0,L|180:320,1,70,2|0,0:0|0:0,0:0:0:0:
248,248,124729,2,0,B|288:188|332:240|372:224|388:164,1,175,2|8,0:0|0:0,0:0:0:0:
316,40,125922,6,0,L|232:64,1,70,2|0,0:0|0:0,0:0:0:0:
132,120,126604,2,0,L|216:144,1,70,2|8,0:0|0:0,0:0:0:0:
324,183,127286,2,0,L|240:207,1,70,2|0,0:0|0:0,0:0:0:0:
140,263,127968,2,0,L|224:287,1,70,2|8,0:0|0:0,0:0:0:0:
344,280,128649,1,0,0:0:0:0:
344,280,128820,1,0,0:0:0:0:
344,280,128990,6,2,B|412:304|412:248|488:280,2,140,4|8|2,0:0|0:0|0:0,0:0:0:0:
292,216,130695,1,0,0:0:0:0:
220,216,131036,1,8,0:0:0:0:
168,280,131377,6,0,B|100:304|100:248|24:280,2,140,2|2|2,0:0|0:0|0:0,0:0:0:0:
176,272,133422,1,0,0:0:0:0:
256,108,133763,1,8,0:0:0:0:
256,208,134104,1,0,0:0:0:0:
176,48,134445,6,0,P|136:56|96:44,1,70,4|0,0:0|0:0,0:0:0:0:
64,52,134956,2,0,L|44:124,1,70,2|0,0:0|0:0,0:0:0:0:
96,208,135638,2,0,P|184:224|268:208,1,175,2|8,0:0|0:0,0:0:0:0:
332,156,136831,6,0,B|328:76|328:76|328:40|368:24,2,140,2|2|2,0:0|0:0|0:0,0:0:0:0:
352,172,138877,1,0,0:0:0:0:
260,324,139218,1,8,0:0:0:0:
104,256,139558,1,0,0:0:0:0:
104,256,139729,1,0,0:0:0:0:
104,256,139899,6,0,P|80:192|120:112,1,140,4|8,0:0|0:0,0:0:0:0:
240,124,140922,2,0,P|263:188|239:252,1,140,2|0,0:0|0:0,0:0:0:0:
176,192,141945,1,8,0:0:0:0:
176,192,142286,1,0,0:0:0:0:
328,44,142627,6,0,L|404:164,1,140,4|8,0:0|0:0,0:0:0:0:
336,296,143649,2,0,L|254:166,1,140,2|0,0:0|0:0,0:0:0:0:
264,92,144672,1,8,0:0:0:0:
264,92,145013,1,8,0:0:0:0:
340,160,145354,6,0,P|352:196|340:232,1,70,4|0,0:0|0:0,0:0:0:0:
172,159,146036,2,0,P|160:192|168:226,1,70,8|0,0:0|0:0,0:0:0:0:
340,256,146718,2,0,P|352:292|340:328,1,70,2|0,0:0|0:0,0:0:0:0:
172,255,147399,2,0,P|160:287|168:321,1,70,8|0,0:0|0:0,0:0:0:0:
196,352,147911,1,8,0:0:0:0:
196,352,148081,5,8,0:0:0:0:
356,344,148422,1,8,0:0:0:0:
396,332,148593,1,8,0:0:0:0:
432,308,148763,1,8,0:0:0:0:
456,272,148933,1,8,0:0:0:0:
468,232,149104,1,8,0:0:0:0:
316,120,149445,2,0,P|308:156|316:196,1,70,8|0,0:0|0:0,0:0:0:0:
476,48,150127,1,8,0:0:0:0:
476,48,150297,1,4,0:3:0:0:
476,48,150468,1,4,0:3:0:0:
484,208,150808,6,0,L|464:288,1,70,4|0,0:0|0:0,0:0:0:0:
400,328,151490,1,12,0:0:0:0:
332,276,151831,1,0,0:0:0:0:
332,276,152002,1,0,0:0:0:0:
332,276,152172,2,0,P|292:264|260:268,1,70,2|0,0:0|0:0,0:0:0:0:
200,324,152854,1,8,0:0:0:0:
288,196,153195,1,0,0:0:0:0:
292,328,153536,5,2,0:0:0:0:
192,224,153877,1,0,0:0:0:0:
360,260,154218,1,8,0:0:0:0:
260,120,154558,1,0,0:0:0:0:
260,120,154729,1,0,0:0:0:0:
260,120,154899,1,2,0:0:0:0:
244,144,155581,1,8,0:0:0:0:
200,216,155922,1,0,0:0:0:0:
104,188,156263,6,0,P|100:148|112:120,1,70,2|0,0:0|0:0,0:0:0:0:
180,76,156945,1,8,0:0:0:0:
256,116,157286,1,0,0:0:0:0:
256,116,157456,1,0,0:0:0:0:
256,116,157627,2,0,P|276:152|272:192,1,70,2|0,0:0|0:0,0:0:0:0:
200,220,158308,1,8,0:0:0:0:
124,188,158649,1,0,0:0:0:0:
312,248,158990,6,0,B|384:272|384:224|456:248,1,140,2|12,0:0|0:0,0:0:0:0:
424,360,160013,1,0,0:0:0:0:
424,360,160183,1,0,0:0:0:0:
424,360,160354,1,2,0:0:0:0:
464,356,161036,1,4,0:0:0:0:
288,280,161377,1,4,0:3:0:0:
448,196,161718,5,4,0:0:0:0:
440,104,162058,1,0,0:0:0:0:
388,28,162399,1,8,0:0:0:0:
320,140,162740,1,0,0:0:0:0:
320,140,162911,1,0,0:0:0:0:
320,140,163081,2,0,P|288:160|248:164,1,70,2|0,0:0|0:0,0:0:0:0:
264,80,163763,1,8,0:0:0:0:
376,180,164104,1,0,0:0:0:0:
224,160,164445,5,2,0:0:0:0:
256,336,164786,1,0,0:0:0:0:
312,168,165127,1,8,0:0:0:0:
160,300,165468,1,0,0:0:0:0:
160,300,165638,1,0,0:0:0:0:
160,300,165808,1,2,0:0:0:0:
144,288,166490,1,8,0:0:0:0:
188,156,166831,1,0,0:0:0:0:
20,144,167172,6,0,P|28:200|52:228,1,70,4|0,0:0|0:0,0:0:0:0:
120,272,167854,1,8,0:0:0:0:
216,200,168195,1,0,0:0:0:0:
216,200,168365,1,0,0:0:0:0:
216,200,168536,2,0,P|224:160|216:120,1,70,2|0,0:0|0:0,0:0:0:0:
128,160,169218,1,8,0:0:0:0:
132,244,169558,1,0,0:0:0:0:
216,352,169899,6,0,P|248:360|292:352,1,70,2|0,0:0|0:0,0:0:0:0:
360,244,170581,1,12,0:0:0:0:
256,172,170922,1,0,0:0:0:0:
256,172,171093,1,0,0:0:0:0:
256,172,171263,1,4,0:0:0:0:
348,56,171604,1,8,0:0:0:0:
448,172,171945,1,8,0:0:0:0:
440,212,172115,1,8,0:3:0:0:
420,248,172286,1,4,0:3:0:0:
328,288,172627,5,4,0:0:0:0:
252,104,172968,1,0,0:0:0:0:
424,164,173308,1,8,0:0:0:0:
168,236,173649,2,0,P|112:208|96:120,1,140,4|0,0:0|0:0,0:0:0:0:
180,148,174672,1,8,0:0:0:0:
76,216,175354,6,0,L|76:304,1,70,4|0,0:0|0:0,0:0:0:0:
136,344,176036,1,8,0:0:0:0:
240,268,176377,1,0,0:0:0:0:
344,368,176718,1,4,0:0:0:0:
413,253,177058,1,8,0:0:0:0:
432,272,177229,1,8,0:0:0:0:
432,272,177399,1,8,0:0:0:0:
432,272,177570,1,8,0:3:0:0:
432,272,177740,1,4,0:3:0:0:
432,272,177911,1,8,0:0:0:0:
432,272,178081,6,0,L|464:132,1,140,4|4,0:0|0:0,0:0:0:0:
292,144,179104,1,0,0:0:0:0:
292,144,179274,2,0,P|340:172|408:148,1,105,2|0,0:0|0:0,0:0:0:0:
351,88,180127,1,8,0:0:0:0:
220,172,180468,1,0,0:0:0:0:
240,40,180808,5,2,0:0:0:0:
308,168,181149,1,0,0:0:0:0:
172,100,181490,1,8,0:0:0:0:
120,244,181831,1,0,0:0:0:0:
120,244,182002,2,0,P|132:300|168:340,1,105,2|0,0:0|0:0,0:0:0:0:
240,364,182854,1,8,0:0:0:0:
316,276,183195,1,0,0:0:0:0:
196,192,183536,6,0,P|168:136|192:64,1,140,2|8,0:0|0:0,0:0:0:0:
392,60,184558,1,0,0:0:0:0:
392,60,184729,2,0,P|360:111|226:107,1,175,2|8,0:0|0:0,0:0:0:0:
295,38,185922,1,0,0:0:0:0:
408,164,186263,6,0,L|368:308,1,140,2|8,0:0|0:0,0:0:0:0:
200,228,187286,1,0,0:0:0:0:
200,228,187456,2,0,P|252:208|302:224,1,105,2|4,0:0|0:0,0:0:0:0:
253,298,188308,1,8,0:0:0:0:
124,232,188649,1,0,0:0:0:0:
216,136,188990,6,0,P|276:100|356:104,1,140,4|8,0:0|0:0,0:0:0:0:
284,280,190013,1,0,0:0:0:0:
284,280,190183,2,0,L|300:148,1,105,2|0,0:0|0:0,0:0:0:0:
232,328,191036,1,8,0:0:0:0:
352,248,191377,1,0,0:0:0:0:
204,216,191718,5,2,0:0:0:0:
344,176,192058,1,0,0:0:0:0:
312,316,192399,1,8,0:0:0:0:
260,152,192740,1,0,0:0:0:0:
260,152,192911,2,0,P|236:100|184:72,1,105,2|0,0:0|0:0,0:0:0:0:
168,164,193763,1,8,0:0:0:0:
224,60,194104,1,0,0:0:0:0:
344,164,194445,6,0,P|364:224|320:292,1,140,4|8,0:0|0:0,0:0:0:0:
156,284,195468,1,0,0:0:0:0:
156,284,195638,2,0,B|156:220|232:220|232:220|312:220,1,175,2|8,0:0|0:0,0:0:0:0:
224,288,196831,1,0,0:0:0:0:
100,212,197172,6,0,B|76:156|136:124|100:72,1,140,4|4,0:0|0:0,0:0:0:0:
28,112,198195,1,0,0:0:0:0:
28,112,198365,1,2,0:0:0:0:
28,112,198536,1,8,0:0:0:0:
168,180,198877,1,8,0:0:0:0:
208,164,199047,1,8,0:0:0:0:
244,140,199218,1,8,0:0:0:0:
276,112,199388,1,8,0:3:0:0:
300,76,199558,1,4,0:3:0:0:
384,180,199899,6,0,P|384:216|404:260,1,70,4|0,0:0|0:0,0:0:0:0:
444,124,200566,1,8,0:0:0:0:
332,44,200899,1,0,0:0:0:0:
332,44,201066,1,0,0:0:0:0:
332,44,201232,2,0,L|260:36,1,70,2|0,0:0|0:0,0:0:0:0:
292,120,201899,1,8,0:0:0:0:
440,40,202232,1,0,0:0:0:0:
432,228,202566,5,2,0:0:0:0:
276,120,202899,1,0,0:0:0:0:
320,296,203232,1,8,0:0:0:0:
376,88,203566,1,0,0:0:0:0:
376,88,203732,1,0,0:0:0:0:
376,88,203899,1,2,0:0:0:0:
138,216,204566,1,8,0:0:0:0:
122,42,204899,1,0,0:0:0:0:
72,172,205232,5,2,0:0:0:0:
96,276,205566,1,0,0:0:0:0:
184,328,205899,1,8,0:0:0:0:
264,296,206232,1,0,0:0:0:0:
264,296,206399,1,0,0:0:0:0:
264,296,206566,2,0,L|280:220,1,70,2|0,0:0|0:0,0:0:0:0:
188,260,207232,1,8,0:0:0:0:
196,344,207566,1,0,0:0:0:0:
360,288,207899,5,2,0:0:0:0:
416,184,208232,1,0,0:0:0:0:
312,108,208566,1,8,0:0:0:0:
392,8,208899,1,0,0:0:0:0:
392,8,209066,1,0,0:0:0:0:
392,8,209232,1,8,0:0:0:0:
92,88,209899,1,4,0:0:0:0:
256,36,210232,1,4,0:3:0:0:
192,240,210566,6,0,P|212:276|256:304,1,70,4|0,0:0|0:0,0:0:0:0:
336,272,211232,1,8,0:0:0:0:
196,168,211566,1,0,0:0:0:0:
196,168,211732,1,0,0:0:0:0:
196,168,211899,2,0,P|156:176|128:196,1,70,2|0,0:0|0:0,0:0:0:0:
256,208,212566,1,8,0:0:0:0:
192,92,212899,1,0,0:0:0:0:
104,280,213232,5,2,0:0:0:0:
152,88,213566,1,0,0:0:0:0:
264,232,213899,1,8,0:0:0:0:
68,184,214232,1,0,0:0:0:0:
68,184,214399,1,0,0:0:0:0:
68,184,214566,1,2,0:0:0:0:
376,316,215232,1,8,0:0:0:0:
444,216,215566,1,0,0:0:0:0:
340,32,215899,5,4,0:0:0:0:
224,208,216232,1,0,0:0:0:0:
396,140,216566,1,8,0:0:0:0:
196,112,216899,1,0,0:0:0:0:
196,112,217066,1,0,0:0:0:0:
196,112,217232,2,0,P|156:128|108:128,1,70,2|0,0:0|0:0,0:0:0:0:
28,32,217899,2,0,L|52:104,1,70,8|0,0:0|0:0,0:0:0:0:
32,284,218566,5,2,0:0:0:0:
136,184,218899,1,0,0:0:0:0:
196,324,219232,1,8,0:0:0:0:
296,208,219566,1,0,0:0:0:0:
296,208,219732,1,0,0:0:0:0:
296,208,219899,1,8,0:0:0:0:
144,112,220232,1,8,0:0:0:0:
336,24,220566,1,8,0:0:0:0:
376,32,220732,1,8,0:3:0:0:
412,56,220899,1,4,0:3:0:0:
432,92,221066,1,0,0:0:0:0:
444,132,221232,5,4,0:0:0:0:
282,232,221566,1,8,0:3:0:0:
372,56,221899,1,4,0:3:0:0:
372,312,222232,2,0,P|276:352|188:304,1,210,4|8,0:0|0:0,0:0:0:0:
260,200,223566,1,0,0:0:0:0:
260,200,223732,1,0,0:0:0:0:
260,200,223899,5,8,0:0:0:0:
108,200,224232,1,0,0:0:0:0:
108,200,224399,1,0,0:0:0:0:
108,200,224566,1,8,0:0:0:0:
188,72,224899,1,8,0:0:0:0:
324,72,225232,1,4,0:0:0:0:
404,200,225566,2,0,P|440:192|484:200,2,70,2|8|4,0:0|0:0|0:3,0:0:0:0:
444,296,226566,6,0,P|361:310|313:270,1,140,4|8,0:0|0:0,0:0:0:0:
192,279,227566,2,0,P|133:314|68:296,1,140,2|0,0:0|0:0,0:0:0:0:
68,88,228566,6,0,P|150:73|198:113,1,140,8|0,0:0|0:0,0:0:0:0:
319,104,229566,2,0,P|378:69|444:88,1,140,2|0,0:0|0:0,0:0:0:0:
360,236,230566,1,2,0:0:0:0:
256,152,230899,1,0,0:0:0:0:
152,236,231232,1,8,0:0:0:0:
208,24,231899,6,0,P|216:116|184:164,1,140,4|8,0:0|0:0,0:0:0:0:
108,160,232899,2,0,P|76:116|80:72,2,70,2|0|0,0:0|0:0|0:0,0:0:0:0:
160,224,233899,1,8,0:0:0:0:
112,292,234232,1,0,0:0:0:0:
180,340,234566,6,0,L|180:392,2,35,2|0|0,0:0|0:0|0:0,0:0:0:0:
216,316,235066,2,0,L|268:328,2,35,2|4|0,0:0|0:0|0:0,0:0:0:0:
208,276,235566,1,2,0:0:0:0:
156,208,235899,1,0,0:0:0:0:
208,144,236232,1,0,0:0:0:0:
144,48,236566,1,8,0:0:0:0:
40,116,236899,1,8,0:0:0:0:
40,116,237066,1,4,0:3:0:0:
40,116,237232,5,4,0:0:0:0:
56,284,237899,2,0,L|208:316,1,140,4|0,0:0|0:0,0:0:0:0:
319,312,238899,2,0,L|456:284,1,140,2|0,0:0|0:0,0:0:0:0:
456,100,239899,6,0,L|319:71,1,140,2|8,0:0|0:0,0:0:0:0:
193,71,240899,2,0,L|108:89,1,70,2|0,0:0|0:0,0:0:0:0:
44,104,241566,1,0,0:0:0:0:
44,104,241732,1,0,0:0:0:0:
44,104,241899,1,12,0:0:0:0:
180,184,242232,1,0,0:0:0:0:
180,184,242399,1,0,0:0:0:0:
180,184,242566,6,0,P|180:248|144:316,1,140,4|8,0:0|0:0,0:0:0:0:
72,144,243566,2,0,L|188:44,1,140,2|0,0:0|0:0,0:0:0:0:
333,52,244566,6,0,L|440:144,1,140,8|0,0:0|0:0,0:0:0:0:
367,314,245566,2,0,P|339:279|332:236,2,70,4|4|4,0:0|0:0|0:0,0:0:0:0:
328,172,246566,1,8,0:0:0:0:
256,264,246899,1,8,0:0:0:0:
124,192,247232,1,8,0:0:0:0:
104,156,247399,1,8,0:3:0:0:
108,112,247566,1,4,0:3:0:0:
128,76,247732,1,0,0:0:0:0:
164,52,247899,5,4,0:0:0:0:
256,208,248232,1,8,0:3:0:0:
348,52,248566,1,4,0:3:0:0:
356,328,248899,2,0,B|248:384|268:272|160:328,1,210,4|2,0:0|0:0,0:0:0:0:
256,192,253232,12,2,257566,0:0:0:0:
