osu file format v14

[General]
AudioFilename: Yume no Tsubasa.mp3
AudioLeadIn: 0
PreviewTime: 64218
Countdown: 0
SampleSet: Soft
StackLeniency: 0.7
Mode: 0
LetterboxInBreaks: 0
WidescreenStoryboard: 1

[Editor]
DistanceSpacing: 1.3
BeatDivisor: 4
GridSize: 4
TimelineZoom: 0.6

[Metadata]
Title:Yume no Tsubasa / tsubasa
TitleUnicode:ユメノツバサ/tsubasa
Artist:FictionJunction KAORI
ArtistUnicode:FictionJunction KAORI
Creator:Lanturn
Version:Normal
Source:ツバサ・クロニクル
Tags:Clamp 織田かおり Oda Resovoir Chronicle Chronicles Kajiura Yuki 梶浦由記 Everlasting Songs Best Vocal Collection Makino Yui 牧野由依 lost Wings of Dream Japanese English Anime J-Pop JPop Pop Insert Song Sakura サクラ Wakana Ootaki 大滝若奈 Keiko Kubota 窪田啓子 Yuriko Kaida 貝田由里子
BeatmapID:2130595
BeatmapSetID:1018076

[Difficulty]
HPDrainRate:3
CircleSize:4
OverallDifficulty:4
ApproachRate:5
SliderMultiplier:1.2
SliderTickRate:1

[Events]
//Background and Video events
0,0,"Yume no TsubasaBG.jpg",0,0
//Break Periods
2,96585,100518
//Storyboard Layer 0 (Background)
//Storyboard Layer 1 (Fail)
//Storyboard Layer 2 (Pass)
//Storyboard Layer 3 (Foreground)
//Storyboard Layer 4 (Overlay)
//Storyboard Sound Samples

[TimingPoints]
385,666.666666666667,4,2,1,60,1,0
16051,-100,4,2,1,40,0,0
16385,-100,4,2,1,60,0,0
37385,-100,4,2,1,50,0,0
37718,-100,4,2,1,60,0,0
58718,-100,4,2,1,30,0,0
59051,-100,4,2,1,60,0,0
63385,-100,4,2,1,50,0,0
64385,-100,4,2,1,70,0,1
74385,-100,4,2,1,40,0,1
74718,-100,4,2,1,70,0,1
84718,-100,4,2,1,50,0,1
85718,-100,4,2,1,60,0,0
90051,-100,4,2,1,50,0,0
91051,-100,4,2,1,50,0,0
101718,681.818181818182,4,2,1,50,1,0
122513,-100,4,2,1,40,0,0
122854,-100,4,2,1,50,0,0
150808,-100,4,2,1,70,0,1
151490,-100,4,2,1,50,0,1
151831,-100,4,2,1,70,0,1
159672,-100,4,2,1,50,0,1
160013,-100,4,2,1,70,0,1
161036,-100,4,2,1,50,0,1
161718,-100,4,2,1,70,0,1
170581,-100,4,2,1,50,0,1
170922,-100,4,2,1,70,0,1
172627,-100,4,2,1,50,0,0
176718,-100,4,2,1,30,0,0
177058,-100,4,2,1,50,0,0
178763,-100,4,2,1,40,0,0
178933,-100,4,2,1,50,0,0
194445,-100,4,2,1,30,0,0
194615,-100,4,2,1,50,0,0
197172,-100,4,2,1,40,0,0
197343,-100,4,2,1,50,0,0
199899,666.666666666667,4,2,1,80,1,1
209899,-100,4,2,1,70,0,1
210565,-100,4,2,1,80,0,1
221232,-100,4,2,1,70,0,0
225232,-100,4,2,1,50,0,0
225565,-100,4,2,1,70,0,0
226565,-100,4,2,1,60,0,0
237899,-100,4,2,1,50,0,0
238065,-100,4,2,1,60,0,0
241899,-100,4,2,1,50,0,0
242065,-100,4,2,1,60,0,0
245899,-100,4,2,1,40,0,0
246565,-100,4,2,1,60,0,0

[Colours]
Combo1 : 0,255,128
Combo2 : 128,255,255
Combo3 : 255,188,155
Combo4 : 255,128,192
SliderBorder : 255,255,255

[HitObjects]
188,252,11051,5,4,0:0:0:0:
256,288,11385,1,0,0:0:0:0:
320,240,11718,2,0,P|336:176|316:120,1,120,8|0,0:0|0:0,0:0:0:0:
260,76,12718,2,0,L|176:176,1,120,2|0,0:0|0:0,0:0:0:0:
112,136,13718,1,2,0:0:0:0:
252,208,14385,1,8,0:0:0:0:
312,160,14718,2,0,L|392:160,2,60,0|0|0,0:0|0:0|0:0,0:0:0:0:
256,104,15718,1,8,0:0:0:0:
184,72,16051,1,8,0:0:0:0:
112,104,16385,6,0,B|84:160|136:168|112:220,2,120,4|8|2,0:0|0:0|0:0,0:0:0:0:
168,52,18051,1,0,0:0:0:0:
248,56,18385,1,8,0:0:0:0:
316,96,18718,2,0,B|344:152|292:160|316:212,2,120,2|2|0,0:0|0:0|0:0,0:0:0:0:
372,40,20385,2,0,L|400:100,1,60,2|0,0:0|0:0,0:0:0:0:
468,124,21051,2,0,L|496:184,1,60,8|0,0:0|0:0,0:0:0:0:
432,228,21718,6,0,B|432:288|432:288|432:348|472:356,2,120,2|8|2,0:0|0:0|0:0,0:0:0:0:
364,88,23718,1,8,0:0:0:0:
292,120,24051,1,0,0:0:0:0:
228,76,24385,2,0,P|164:96|112:76,1,120,2|8,0:0|0:0,0:0:0:0:
56,28,25385,2,0,P|76:76|40:140,1,120,2|0,0:0|0:0,0:0:0:0:
0,196,26385,1,8,0:0:0:0:
156,192,27051,6,0,L|184:68,2,120,2|8|2,0:0|0:0|0:0,0:0:0:0:
256,312,29051,1,8,0:0:0:0:
320,268,29385,1,0,0:0:0:0:
392,244,29718,2,0,P|436:292|440:328,2,90,2|2|0,0:0|0:0|0:0,0:0:0:0:
332,196,31051,2,0,P|296:196|264:180,1,60,2|0,0:0|0:0,0:0:0:0:
218,131,31718,2,0,P|189:120|160:122,1,60,8|0,0:0|0:0,0:0:0:0:
88,156,32385,6,0,B|64:216|64:216|84:284,1,120,2|8,0:0|0:0,0:0:0:0:
144,312,33385,2,0,P|202:298|260:316,1,120,2|0,0:0|0:0,0:0:0:0:
328,352,34385,1,8,0:0:0:0:
452,260,35051,2,0,P|432:200|452:144,1,120,2|8,0:0|0:0,0:0:0:0:
492,84,36051,2,0,L|364:124,1,120,2|4,0:0|0:3,0:0:0:0:
308,84,37051,1,8,0:0:0:0:
308,84,37385,1,8,0:0:0:0:
268,152,37718,6,0,P|192:204|160:200,2,120,4|8|2,0:0|0:0|0:0,0:0:0:0:
196,12,39718,1,8,0:0:0:0:
136,60,40051,2,0,L|108:116,1,60,2|0,0:0|0:0,0:0:0:0:
168,164,40718,2,0,L|196:108,1,60,2|8,0:0|0:0,0:0:0:0:
252,164,41385,2,0,L|224:220,1,60,2|0,0:0|0:0,0:0:0:0:
284,268,42051,2,0,L|312:212,1,60,2|8,0:0|0:0,0:0:0:0:
380,176,42718,1,0,0:0:0:0:
324,120,43051,6,0,B|324:60|324:60|324:24|352:8,2,120,2|8|2,0:0|0:0|0:0,0:0:0:0:
388,264,45051,1,8,0:0:0:0:
324,312,45385,2,0,B|268:336|264:292|208:312,2,120,2|2|2,0:0|0:0|0:0,0:0:0:0:
456,228,47385,1,0,0:0:0:0:
448,152,47718,1,8,0:0:0:0:
404,88,48051,1,0,0:0:0:0:
336,48,48385,6,0,P|280:68|220:52,2,120,4|8|2,0:0|0:0|0:0,0:0:0:0:
436,168,50385,1,8,0:0:0:0:
400,236,50718,2,0,B|435:364,2,120,2|2|2,0:0|0:0|0:0,0:0:0:0:
296,120,52718,1,0,0:0:0:0:
244,60,53051,1,8,0:0:0:0:
96,116,53718,6,0,P|104:172|88:236,1,120,4|8,0:0|0:0,0:0:0:0:
12,244,54718,2,0,L|124:324,1,120,2|0,0:0|0:0,0:0:0:0:
188,312,55718,1,8,0:0:0:0:
336,264,56385,2,0,B|320:200|320:200|344:144,1,120,2|8,0:0|0:0,0:0:0:0:
416,132,57385,2,0,P|352:116|308:56,1,120,2|0,0:0|0:0,0:0:0:0:
296,4,58385,1,8,0:0:0:0:
240,60,58718,1,8,0:0:0:0:
176,16,59051,5,4,0:0:0:0:
156,172,59718,1,8,0:0:0:0:
60,48,60385,1,2,0:0:0:0:
60,48,60718,1,0,0:0:0:0:
60,48,61051,1,8,0:0:0:0:
36,204,61718,1,8,0:0:0:0:
84,268,62051,1,0,0:0:0:0:
156,300,62385,1,8,0:0:0:0:
228,268,62718,2,0,B|284:252|292:288|352:268,1,120,8|8,0:0|0:0,0:0:0:0:
416,232,63718,1,8,0:0:0:0:
328,100,64385,6,0,B|349:76|383:78|383:78|397:41|436:30,2,120,4|8|2,0:0|0:0|0:0,0:0:0:0:
192,172,66385,1,8,0:0:0:0:
128,212,66718,1,0,0:0:0:0:
56,180,67051,2,0,L|32:104,1,60,2|0,0:0|0:0,0:0:0:0:
108,88,67718,2,0,L|108:12,2,60,8|0|2,0:0|0:0|0:0,0:0:0:0:
176,228,69051,1,8,0:0:0:0:
240,272,69385,1,0,0:0:0:0:
316,288,69718,6,0,P|350:288|378:274,1,60,2|0,0:0|0:0,0:0:0:0:
433,227,70385,2,0,L|433:143,1,60,8|0,0:0|0:0,0:0:0:0:
386,104,71051,2,0,P|327:120|269:105,1,120,2|8,0:0|0:0,0:0:0:0:
132,44,72385,2,0,B|84:24|52:56|12:36,2,120,2|8|2,0:0|0:0|0:0,0:0:0:0:
220,172,74385,1,4,0:0:0:0:
200,248,74718,1,4,0:3:0:0:
144,300,75051,6,0,P|100:312|64:304,1,60,4|0,0:0|0:0,0:0:0:0:
28,260,75718,2,0,L|12:184,2,60,8|0|2,0:0|0:0|0:0,0:0:0:0:
112,128,77051,1,8,0:0:0:0:
184,96,77385,1,0,0:0:0:0:
252,132,77718,2,0,P|288:140|316:132,1,60,2|0,0:0|0:0,0:0:0:0:
368,80,78385,2,0,L|404:12,2,60,8|0|2,0:0|0:0|0:0,0:0:0:0:
344,236,79718,1,8,0:0:0:0:
284,288,80051,1,0,0:0:0:0:
204,288,80385,6,0,L|132:248,1,60,2|0,0:0|0:0,0:0:0:0:
72,252,81051,2,0,L|44:192,1,60,8|0,0:0|0:0,0:0:0:0:
84,128,81718,2,0,P|128:84|184:64,1,120,2|8,0:0|0:0,0:0:0:0:
336,84,83051,1,2,0:0:0:0:
380,148,83385,1,0,0:0:0:0:
396,224,83718,2,0,B|388:276|388:276|384:312|344:320,1,120,8|10,0:0|0:0,0:0:0:0:
268,312,84718,1,8,0:0:0:0:
204,268,85051,1,8,0:0:0:0:
88,164,85718,6,0,B|76:232,2,60,4|8|8,0:0|0:3|0:0,0:0:0:0:
152,116,86718,2,0,P|220:156|308:120,1,180,4|8,0:0|0:0,0:0:0:0:
460,160,88385,2,0,P|456:192|440:224,2,60,2|0|8,0:0|0:0|0:0,0:0:0:0:
384,24,89718,1,8,0:0:0:0:
336,85,90051,2,0,P|304:91|270:81,1,60,8|8,0:0|0:0,0:0:0:0:
214,39,90718,1,4,0:3:0:0:
256,192,91051,12,2,96385,0:0:0:0:
304,124,101718,6,0,B|356:100|420:124,2,120,4|8|2,0:0|0:0|0:0,0:0:0:0:
256,184,103422,1,0,0:0:0:0:
276,260,103763,1,8,0:0:0:0:
224,320,104104,2,0,P|144:344|80:276,1,180,2|8,0:0|0:0,0:0:0:0:
108,208,105468,1,0,0:0:0:0:
40,168,105808,2,0,P|24:124|36:68,2,90,2|2|0,0:0|0:0|0:0,0:0:0:0:
88,232,107172,6,0,B|88:292|88:292|56:360,2,120,2|8|2,0:0|0:0|0:0,0:0:0:0:
180,104,109218,1,8,0:0:0:0:
252,76,109558,1,0,0:0:0:0:
304,132,109899,2,0,P|324:196|304:248,1,120,2|8,0:0|0:0,0:0:0:0:
232,260,110922,2,0,L|344:312,1,120,2|0,0:0|0:0,0:0:0:0:
412,344,111945,1,8,0:0:0:0:
464,196,112627,6,0,B|488:148|448:136|472:80,2,120,2|8|2,0:0|0:0|0:0,0:0:0:0:
336,284,114672,1,8,0:0:0:0:
260,300,115013,1,0,0:0:0:0:
196,252,115354,2,0,B|136:252|136:252|104:272,2,90,2|2|0,0:0|0:0|0:0,0:0:0:0:
256,200,116718,2,0,L|240:140,1,60,2|0,0:0|0:0,0:0:0:0:
168,120,117399,2,0,L|152:60,1,60,8|0,0:0|0:0,0:0:0:0:
80,36,118081,6,0,P|44:84|52:144,1,120,2|8,0:0|0:0,0:0:0:0:
112,192,119104,2,0,P|116:252|76:308,1,120,2|0,0:0|0:0,0:0:0:0:
28,356,120127,1,8,0:0:0:0:
180,316,120808,2,0,B|240:316|240:316|280:312|292:272,1,120,2|8,0:0|0:0,0:0:0:0:
268,208,121831,2,0,L|376:264,1,120,2|4,0:0|0:0,0:0:0:0:
446,232,122854,1,8,0:0:0:0:
408,80,123536,6,0,B|472:68|472:68|516:28,2,120,4|8|2,0:0|0:0|0:0,0:0:0:0:
260,32,125581,1,8,0:0:0:0:
188,64,125922,2,0,P|156:72|128:72,1,60,2|0,0:0|0:0,0:0:0:0:
140,148,126604,2,0,P|169:147|198:139,1,60,2|8,0:0|0:0,0:0:0:0:
212,216,127286,2,0,P|180:224|152:224,1,60,2|0,0:0|0:0,0:0:0:0:
164,300,127968,2,0,P|193:299|222:291,1,60,2|8,0:0|0:0,0:0:0:0:
284,244,128649,1,0,0:0:0:0:
324,176,128990,6,2,B|348:120|308:120|328:56,2,120,4|8|2,0:0|0:0|0:0,0:0:0:0:
256,316,131036,1,8,0:0:0:0:
192,272,131377,2,0,B|128:244|76:276,2,120,2|2|2,0:0|0:0|0:0,0:0:0:0:
324,352,133422,1,0,0:0:0:0:
400,328,133763,1,8,0:0:0:0:
448,268,134104,1,0,0:0:0:0:
436,192,134445,6,0,L|488:64,2,120,4|8|2,0:0|0:0|0:0,0:0:0:0:
300,116,136490,1,8,0:0:0:0:
248,176,136831,2,0,L|293:287,2,120,2|2|2,0:0|0:0|0:0,0:0:0:0:
144,56,138877,1,0,0:0:0:0:
68,52,139218,1,8,0:0:0:0:
28,204,139899,6,0,L|124:280,1,120,4|8,0:0|0:0,0:0:0:0:
152,352,140922,2,0,P|168:296|220:264,1,120,2|0,0:0|0:0,0:0:0:0:
288,296,141945,1,8,0:0:0:0:
440,256,142627,2,0,P|464:204|456:140,1,120,4|8,0:0|0:0,0:0:0:0:
456,64,143649,2,0,L|368:160,1,120,2|0,0:0|0:0,0:0:0:0:
368,232,144672,1,8,0:0:0:0:
324,296,145013,1,8,0:0:0:0:
256,336,145354,5,4,0:0:0:0:
256,180,146036,1,8,0:0:0:0:
256,336,146718,1,2,0:0:0:0:
188,296,147058,1,0,0:0:0:0:
144,232,147399,1,8,0:0:0:0:
208,88,148081,2,0,P|192:64|188:28,2,60,8|8|8,0:0|0:0|0:0,0:0:0:0:
256,152,149104,1,8,0:0:0:0:
303,88,149445,2,0,P|320:63|324:33,2,60,8|0|8,0:0|0:0|0:0,0:0:0:0:
192,200,150808,6,0,B|140:220|124:184|72:204,2,120,4|12|2,0:0|0:0|0:0,0:0:0:0:
312,100,152854,1,8,0:0:0:0:
380,60,153195,1,0,0:0:0:0:
444,104,153536,2,0,P|448:144|436:184,1,60,2|0,0:0|0:0,0:0:0:0:
400,228,154218,2,0,P|400:268|424:304,2,60,8|0|2,0:0|0:0|0:0,0:0:0:0:
504,344,155581,1,8,0:0:0:0:
432,380,155922,1,0,0:0:0:0:
360,348,156263,6,0,P|324:356|292:348,1,60,2|0,0:0|0:0,0:0:0:0:
248,292,156945,2,0,L|248:228,1,60,8|0,0:0|0:0,0:0:0:0:
312,188,157627,2,0,P|372:208|428:188,1,120,2|8,0:0|0:0,0:0:0:0:
423,34,158990,2,0,P|366:16|310:36,2,120,2|12|2,0:0|0:0|0:0,0:0:0:0:
288,112,161036,1,4,0:0:0:0:
212,132,161377,1,4,0:3:0:0:
148,84,161718,6,0,L|76:112,1,60,4|0,0:0|0:0,0:0:0:0:
44,168,162399,2,0,P|68:216|48:284,1,120,8|2,0:0|0:0,0:0:0:0:
184,364,163763,1,8,0:0:0:0:
216,292,164104,1,0,0:0:0:0:
176,228,164445,2,0,L|176:164,1,60,2|0,0:0|0:0,0:0:0:0:
220,104,165127,2,0,L|184:36,2,60,8|0|2,0:0|0:0|0:0,0:0:0:0:
288,244,166490,1,8,0:0:0:0:
332,308,166831,1,0,0:0:0:0:
408,324,167172,6,0,L|480:284,1,60,4|0,0:0|0:0,0:0:0:0:
436,220,167854,2,0,P|428:192|440:152,1,60,8|0,0:0|0:0,0:0:0:0:
460,90,168536,2,0,L|346:25,1,120,2|8,0:0|0:0,0:0:0:0:
244,140,169899,2,0,P|212:144|180:136,1,60,2|0,0:0|0:0,0:0:0:0:
128,88,170581,2,0,L|84:16,2,60,12|0|4,0:0|0:0|0:0,0:0:0:0:
112,164,171604,1,8,0:0:0:0:
144,236,171945,1,8,0:0:0:0:
280,312,172627,6,0,L|352:352,2,60,4|0|8,0:0|0:0|0:0,0:0:0:0:
232,252,173649,2,0,B|276:192|232:144|232:144|248:112|232:80,1,180,4|8,0:0|0:0,0:0:0:0:
88,24,175354,1,4,0:0:0:0:
32,168,176036,1,8,0:0:0:0:
32,244,176377,1,0,0:0:0:0:
60,316,176718,1,4,0:0:0:0:
212,352,177399,2,0,L|276:352,1,60,8|4,0:0|0:3,0:0:0:0:
336,308,178081,6,0,P|336:272|348:232,1,60,4|0,0:0|0:0,0:0:0:0:
400,196,178763,2,0,P|448:208|496:196,2,90,4|2|0,0:0|0:0|0:0,0:0:0:0:
340,144,180127,1,8,0:0:0:0:
280,96,180468,1,0,0:0:0:0:
224,152,180808,2,0,L|140:152,1,60,2|0,0:0|0:0,0:0:0:0:
108,96,181490,2,0,B|49:96|49:96|8:108,1,90,8|2,0:0|0:0,0:0:0:0:
48,296,182854,1,8,0:0:0:0:
116,332,183195,1,0,0:0:0:0:
184,296,183536,6,0,B|216:304|216:304|256:292,1,60,2|0,0:0|0:0,0:0:0:0:
292,240,184218,2,0,B|280:196|280:196|296:144,2,90,8|2|0,0:0|0:0|0:0,0:0:0:0:
344,300,185581,1,8,0:0:0:0:
416,328,185922,1,0,0:0:0:0:
480,280,186263,2,0,L|500:200,1,60,2|0,0:0|0:0,0:0:0:0:
452,156,186945,2,0,B|469:98|469:98|460:60,1,90,8|2,0:0|0:0,0:0:0:0:
272,20,188308,1,8,0:0:0:0:
248,92,188649,1,0,0:0:0:0:
279,163,188990,6,0,P|284:193|280:223,1,60,4|0,0:0|0:0,0:0:0:0:
284,300,189672,2,0,P|338:275|356:239,2,90,8|2|0,0:0|0:0|0:0,0:0:0:0:
212,268,191036,1,8,0:0:0:0:
148,312,191377,1,0,0:0:0:0:
88,260,191718,2,0,L|4:260,1,60,2|0,0:0|0:0,0:0:0:0:
28,180,192399,2,0,B|88:180|88:180|120:160,1,90,8|2,0:0|0:0,0:0:0:0:
260,32,193763,1,8,0:0:0:0:
308,92,194104,1,0,0:0:0:0:
360,152,194445,6,0,L|419:158,1,60,4|0,0:0|0:0,0:0:0:0:
496,180,195127,2,0,P|488:120|465:93,2,90,8|2|0,0:0|0:0|0:0,0:0:0:0:
440,236,196490,1,8,0:0:0:0:
392,296,196831,1,0,0:0:0:0:
328,340,197172,2,0,L|256:360,1,60,4|0,0:0|0:0,0:0:0:0:
248,280,197854,2,0,B|305:262|305:262|320:232,2,90,4|2|8,0:0|0:0|0:0,0:0:0:0:
116,88,199899,6,0,P|56:68|0:92,2,120,4|8|2,0:0|0:0|0:0,0:0:0:0:
232,192,201899,1,8,0:0:0:0:
304,164,202232,1,0,0:0:0:0:
380,176,202566,2,0,L|464:148,1,60,2|0,0:0|0:0,0:0:0:0:
436,78,203232,2,0,L|378:60,2,60,8|0|2,0:0|0:0|0:0,0:0:0:0:
468,232,204566,1,8,0:0:0:0:
432,300,204899,1,0,0:0:0:0:
366,342,205232,6,0,P|330:350|290:342,1,60,2|0,0:0|0:0,0:0:0:0:
240,308,205899,2,0,L|156:308,1,60,8|0,0:0|0:0,0:0:0:0:
128,252,206566,2,0,B|142:190|142:190|151:152|195:143,1,120,2|8,0:0|0:0,0:0:0:0:
251,171,207565,1,0,0:0:0:0:
327,188,207899,2,0,B|347:140|327:96,2,90,2|2|0,0:0|0:0|0:0,0:0:0:0:
297,260,209232,1,8,0:0:0:0:
144,288,209899,1,4,0:0:0:0:
86,234,210232,1,4,0:3:0:0:
135,172,210566,6,0,P|136:142|128:113,1,60,4|0,0:0|0:0,0:0:0:0:
49,113,211232,2,0,P|41:141|41:171,2,60,8|0|2,0:0|0:0|0:0,0:0:0:0:
188,44,212566,1,8,0:0:0:0:
252,92,212899,1,0,0:0:0:0:
320,56,213232,2,0,L|384:56,1,60,2|0,0:0|0:0,0:0:0:0:
428,120,213899,2,0,L|392:188,2,60,8|0|2,0:0|0:0|0:0,0:0:0:0:
484,264,215232,1,8,0:0:0:0:
432,320,215566,1,0,0:0:0:0:
352,316,215899,6,0,L|268:292,1,60,4|0,0:0|0:0,0:0:0:0:
244,360,216566,2,0,L|160:336,1,60,8|0,0:0|0:0,0:0:0:0:
128,291,217232,2,0,B|112:239|148:231|128:171,1,120,2|8,0:0|0:0,0:0:0:0:
133,95,218232,1,0,0:0:0:0:
100,24,218566,2,0,B|52:32|52:32|12:24,2,90,2|2|0,0:0|0:0|0:0,0:0:0:0:
176,8,219899,1,8,0:0:0:0:
252,28,220232,1,8,0:0:0:0:
312,80,220566,1,8,0:0:0:0:
412,200,221232,6,0,B|488:200,2,60,4|4|8,0:0|0:3|0:0,0:0:0:0:
364,264,222232,2,0,B|320:264|292:310|292:310|264:264|220:264,1,180,4|8,0:0|0:0,0:0:0:0:
84,348,223899,1,8,0:0:0:0:
32,200,224566,1,8,0:0:0:0:
32,200,224899,1,8,0:0:0:0:
148,96,225566,2,0,P|204:76|260:96,1,120,2|0,0:0|0:0,0:0:0:0:
296,164,226566,6,0,P|304:224|296:292,1,120,4|8,0:0|0:0,0:0:0:0:
220,284,227566,2,0,P|225:224|217:165,1,120,2|0,0:0|0:0,0:0:0:0:
140,168,228566,2,0,P|148:228|140:296,1,120,8|0,0:0|0:0,0:0:0:0:
64,288,229566,2,0,P|69:228|61:169,1,120,2|0,0:0|0:0,0:0:0:0:
100,100,230566,1,2,0:0:0:0:
248,44,231232,1,8,0:0:0:0:
300,192,231899,6,0,P|280:248|296:328,1,120,4|8,0:0|0:0,0:0:0:0:
364,320,232899,2,0,P|384:264|368:184,1,120,2|0,0:0|0:0,0:0:0:0:
352,132,233899,1,8,0:0:0:0:
216,52,234566,2,0,P|172:44|116:60,2,90,2|2|2,0:0|0:0|0:0,0:0:0:0:
244,204,236232,1,0,0:0:0:0:
244,204,236566,1,8,0:0:0:0:
112,120,237232,5,4,0:0:0:0:
36,256,237899,2,0,B|80:296|80:296|144:312,1,120,4|0,0:0|0:0,0:0:0:0:
176,244,238899,2,0,B|117:229|117:229|73:189,1,120,2|0,0:0|0:0,0:0:0:0:
112,120,239899,2,0,B|156:160|156:160|220:176,1,120,2|8,0:0|0:0,0:0:0:0:
252,108,240899,2,0,B|193:93|193:93|149:53,1,120,2|0,0:0|0:0,0:0:0:0:
72,52,241899,1,12,0:0:0:0:
48,208,242566,6,0,P|80:260|148:268,1,120,4|8,0:0|0:0,0:0:0:0:
200,228,243566,2,0,P|256:210|312:228,1,120,2|0,0:0|0:0,0:0:0:0:
377,271,244566,2,0,P|434:258|464:208,1,120,8|0,0:0|0:0,0:0:0:0:
468,132,245566,1,4,0:0:0:0:
432,64,245899,1,4,0:0:0:0:
368,20,246232,1,4,0:0:0:0:
292,12,246566,1,8,0:0:0:0:
256,164,247232,1,8,0:0:0:0:
220,12,247899,5,4,0:0:0:0:
144,20,248232,1,8,0:3:0:0:
80,64,248565,1,4,0:3:0:0:
44,132,248899,2,0,B|20:200|72:236|48:308,1,180,4|2,0:0|0:0,0:0:0:0:
256,192,253232,12,2,257566,0:0:0:0:
