osu file format v14

[General]
AudioFilename: audio.mp3
AudioLeadIn: 0
PreviewTime: 104192
Countdown: 0
SampleSet: Normal
StackLeniency: 0.9
Mode: 0
LetterboxInBreaks: 0
WidescreenStoryboard: 1

[Editor]
DistanceSpacing: 0.5
BeatDivisor: 4
GridSize: 8
TimelineZoom: 1.3

[Metadata]
Title:Ordesia Polka
TitleUnicode:オルデシア・ポルカ
Artist:Fianna Ray Ordesia (CV. Oonishi Saori)
ArtistUnicode:フィアナ・レイ・オルデシア(CV.大西沙織)
Creator:Yumikoi
Version:Socks
Source:精霊使いの剣舞
Tags:blade dance kneesocks seirei tsukai no
BeatmapID:1637525
BeatmapSetID:447855

[Difficulty]
HPDrainRate:5.5
CircleSize:4
OverallDifficulty:7.5
ApproachRate:9.5
SliderMultiplier:3.59999990463257
SliderTickRate:1

[Events]
//Background and Video events
0,0,"bg.jpg",0,0
//Break Periods
2,133555,135347
//Storyboard Layer 0 (Background)
//Storyboard Layer 1 (Fail)
//Storyboard Layer 2 (Pass)
//Storyboard Layer 3 (Foreground)
//Storyboard Sound Samples

[TimingPoints]
1355,428.571428571429,4,1,0,100,1,0
1355,-66.6666666666667,4,1,0,50,0,0
14855,-66.6666666666667,4,1,0,70,0,0
35640,-66.6666666666667,4,1,0,80,0,0
42497,-66.6666666666667,4,1,0,90,0,1
63283,-200,4,1,0,80,0,1
64355,-66.6666666666667,4,1,0,80,0,1
64997,-200,4,1,0,80,0,1
66069,-66.6666666666667,4,1,0,80,0,1
72283,-66.6666666666667,4,1,0,60,0,0
72712,-200,4,1,0,60,0,0
73997,-66.6666666666667,4,1,0,70,0,0
97355,-66.6666666666667,4,1,0,80,0,0
104212,-66.6666666666667,4,1,0,90,0,1
124997,-200,4,1,0,80,0,1
126069,-66.6666666666667,4,1,0,80,0,1
126712,-200,4,1,0,80,0,1
127783,-66.6666666666667,4,1,0,80,0,1
134012,600,4,1,0,100,1,0
134012,-100,4,1,0,50,0,0
134908,666.666666666667,4,1,0,100,1,0
134908,-100,4,1,0,50,0,0
135872,600,4,1,0,100,1,0
135872,-100,4,1,0,50,0,0
137065,705.882352941176,4,1,0,100,1,0
137065,-100,4,1,0,50,0,0
138443,666.666666666667,4,1,0,100,1,0
138443,-100,4,1,0,50,0,0
139748,600,4,1,0,100,1,0
139748,-100,4,1,0,50,0,0
141028,631.578947368421,4,1,0,100,1,0
141028,-100,4,1,0,50,0,0
141915,571.428571428571,4,1,0,100,1,0
141915,-100,4,1,0,50,0,0
143057,545.454545454546,4,1,0,100,1,0
143057,-100,4,1,0,50,0,0
144463,500,4,1,0,100,1,0
144463,-100,4,1,0,60,0,0
148463,461.538461538462,4,1,0,100,1,0
148463,-100,4,1,0,70,0,0
150309,428.571428571429,4,1,0,100,1,0
150309,-100,4,1,0,70,0,0
152830,-66.6666666666667,4,1,0,80,0,0
152840,400,4,1,0,100,1,0
154430,-66.6666666666667,4,1,0,90,0,1
167241,363.636363636364,4,1,0,100,1,0
167241,-66.6666666666667,4,1,0,80,0,0
168695,-66.6666666666667,4,1,0,90,0,1
180327,333.333333333333,4,1,0,100,1,0
180327,-66.6666666666667,4,1,0,85,0,0
181660,-66.6666666666667,4,1,0,100,0,1
197826,-200,4,1,0,100,0,1
198660,-66.6666666666667,4,1,0,100,0,1
199160,-200,4,1,0,100,0,1
199993,-66.6666666666667,4,1,0,100,0,1
206993,-200,4,1,0,85,0,0
207639,666.666666666667,4,1,0,100,1,0
207639,-66.6666666666667,4,1,0,50,0,0
208639,857.142857142857,4,1,0,100,1,0
208639,-66.6666666666667,4,1,0,50,0,0
211688,400,4,1,0,100,1,0
211688,-100,4,1,0,50,0,0
213909,428.571428571429,4,1,0,100,1,0
213909,-100,4,1,0,40,0,0

[HitObjects]
312,64,1355,6,0,P|136:56|-8:104,1,270.000003147125
232,272,1783,2,0,P|336:312|520:320,1,270.000003147125
312,208,2212,2,0,P|192:176|32:192,1,270.000003147125
304,336,2640,1,0,0:0:0:0:
224,96,2855,1,0,0:0:0:0:
104,280,3069,6,0,P|232:224|336:112,1,270.000003147125
400,104,3390,1,0,0:0:0:0:
464,152,3497,1,0,0:0:0:0:
328,336,3712,1,0,0:0:0:0:
208,336,3926,2,0,P|120:280|40:80,1,270.000003147125
264,72,4355,2,0,P|384:128|496:264,1,270.000003147125
320,200,4783,6,0,P|176:184|48:104,1,270.000003147125
272,48,5212,2,0,P|344:144|368:304,1,270.000003147125
64,272,5640,2,0,P|160:168|352:80,1,270.000003147125
368,248,6069,1,0,0:0:0:0:
80,176,6283,1,0,0:0:0:0:
208,40,6497,6,0,P|288:160|304:304,1,270.000003147125
360,344,6819,1,0,0:0:0:0:
424,296,6926,1,0,0:0:0:0:
368,80,7140,1,0,0:0:0:0:
256,48,7355,2,0,P|136:104|24:240,1,270.000003147125
304,280,7783,2,0,P|424:192|480:48,1,270.000003147125
64,88,8212,6,0,P|80:224|192:360,1,270.000003147125
424,232,8640,2,0,P|336:128|168:64,1,270.000003147125
136,152,9069,2,0,P|241:244|384:320,1,270.000003147125
464,104,9497,1,0,0:0:0:0:
72,208,9712,1,0,0:0:0:0:
144,336,9926,6,0,P|256:248|344:104,1,270.000003147125
400,104,10247,1,0,0:0:0:0:
432,176,10355,1,0,0:0:0:0:
416,304,10569,1,0,0:0:0:0:
232,328,10783,2,0,P|112:264|32:128,1,270.000003147125
256,80,11212,2,0,P|384:136|496:240,1,270.000003147125
328,304,11640,6,0,P|176:320|0:280,1,270.000003147125
152,184,12069,2,0,P|240:112|416:64,1,270.000003147125
384,304,12497,2,0,P|240:288|104:240,1,270.000003147125
240,80,12926,1,0,0:0:0:0:
208,336,13140,1,0,0:0:0:0:
48,280,13355,6,0,P|144:208|344:144,1,270.000003147125
360,128,13676,1,0,0:0:0:0:
376,48,13783,1,0,0:0:0:0:
152,72,13997,1,0,0:0:0:0:
256,176,14212,2,0,L|256:328,1,135.000001573563
408,288,14533,2,0,L|416:136,1,135.000001573563
248,80,14855,5,0,0:0:0:0:
168,80,14962,1,0,0:0:0:0:
104,128,15069,1,0,0:0:0:0:
64,296,15283,1,0,0:0:0:0:
264,344,15497,1,0,0:0:0:0:
416,288,15712,2,0,P|360:160|272:40,1,270.000003147125
224,272,16140,1,0,0:0:0:0:
96,72,16355,1,0,0:0:0:0:
64,256,16569,6,0,P|176:304|376:328,1,270.000003147125
448,144,16997,1,0,0:0:0:0:
304,48,17212,1,0,0:0:0:0:
176,80,17426,1,0,0:0:0:0:
72,240,17640,1,0,0:0:0:0:
176,80,17855,1,0,0:0:0:0:
360,224,18069,1,0,0:0:0:0:
168,152,18283,5,0,0:0:0:0:
88,168,18390,1,0,0:0:0:0:
40,232,18497,1,0,0:0:0:0:
144,336,18712,1,0,0:0:0:0:
368,304,18926,1,0,0:0:0:0:
224,136,19140,1,0,0:0:0:0:
376,304,19355,1,0,0:0:0:0:
432,208,19569,1,0,0:0:0:0:
448,72,19783,1,0,0:0:0:0:
376,184,19997,5,0,0:0:0:0:
296,208,20105,1,0,0:0:0:0:
216,216,20212,1,0,0:0:0:0:
72,112,20426,1,0,0:0:0:0:
224,56,20640,2,0,P|316:155|416:336,1,270.000003147125
208,280,21069,1,0,0:0:0:0:
432,88,21283,1,0,0:0:0:0:
208,280,21497,1,0,0:0:0:0:
408,312,21712,5,0,0:0:0:0:
432,232,21819,1,0,0:0:0:0:
424,152,21926,1,0,0:0:0:0:
272,56,22140,1,0,0:0:0:0:
136,64,22355,2,0,P|96:184|104:352,1,270.000003147125
256,336,22783,1,0,0:0:0:0:
400,248,22997,1,0,0:0:0:0:
120,152,23212,1,0,0:0:0:0:
368,64,23426,5,0,0:0:0:0:
392,144,23533,1,0,0:0:0:0:
352,216,23640,1,0,0:0:0:0:
128,304,23855,1,0,0:0:0:0:
56,168,24069,1,0,0:0:0:0:
184,48,24283,1,0,0:0:0:0:
360,112,24497,1,0,0:0:0:0:
232,184,24712,1,0,0:0:0:0:
400,256,24926,1,0,0:0:0:0:
120,232,25140,5,0,0:0:0:0:
72,168,25247,1,0,0:0:0:0:
96,88,25355,1,0,0:0:0:0:
352,64,25569,1,0,0:0:0:0:
200,176,25783,1,0,0:0:0:0:
448,160,25997,1,0,0:0:0:0:
408,288,26212,5,0,0:0:0:0:
248,240,26426,1,0,0:0:0:0:
280,136,26640,1,0,0:0:0:0:
408,80,26855,1,0,0:0:0:0:
320,320,27069,1,0,0:0:0:0:
112,288,27283,1,0,0:0:0:0:
384,352,27497,2,0,P|416:136|384:88,1,270.000003147125
272,64,27926,1,0,0:0:0:0:
192,72,28033,5,0,0:0:0:0:
120,104,28140,1,0,0:0:0:0:
72,176,28247,1,0,0:0:0:0:
64,256,28355,1,0,0:0:0:0:
96,328,28462,1,0,0:0:0:0:
176,352,28569,1,0,0:0:0:0:
256,352,28676,1,0,0:0:0:0:
328,312,28783,6,0,P|400:192|440:56,1,270.000003147125
216,328,29212,1,0,0:0:0:0:
256,48,29426,1,0,0:0:0:0:
304,328,29640,1,0,0:0:0:0:
160,64,29855,1,0,0:0:0:0:
400,312,30069,1,0,0:0:0:0:
96,128,30283,1,0,0:0:0:0:
376,216,30497,6,0,L|64:224,1,270.000003147125
448,216,30926,1,0,0:0:0:0:
112,128,31140,1,0,0:0:0:0:
416,304,31355,1,0,0:0:0:0:
168,64,31569,1,0,0:0:0:0:
304,312,31783,1,0,0:0:0:0:
248,40,31997,1,0,0:0:0:0:
176,320,32212,6,0,L|376:40,1,270.000003147125
440,40,32640,1,0,0:0:0:0:
440,192,32855,1,0,0:0:0:0:
392,312,33069,1,0,0:0:0:0:
248,344,33283,1,0,0:0:0:0:
128,320,33497,2,0,P|56:224|56:32,2,270.000003147125
248,344,34140,1,0,0:0:0:0:
352,240,34355,1,0,0:0:0:0:
320,88,34569,1,0,0:0:0:0:
88,48,34783,5,0,0:0:0:0:
432,144,34997,1,0,0:0:0:0:
64,184,35212,1,0,0:0:0:0:
408,248,35426,1,0,0:0:0:0:
272,336,35640,6,0,P|160:264|56:128,1,270.000003147125
160,56,36069,1,0,0:0:0:0:
376,160,36283,1,0,0:0:0:0:
272,336,36497,2,0,P|240:176|256:48,1,270.000003147125
456,120,36926,1,0,0:0:0:0:
432,248,37140,1,0,0:0:0:0:
272,336,37355,2,0,P|328:192|448:72,1,270.000003147125
432,248,37783,1,0,0:0:0:0:
200,248,37997,1,0,0:0:0:0:
64,96,38212,5,0,0:0:0:0:
328,104,38426,1,0,0:0:0:0:
64,96,38640,1,0,0:0:0:0:
328,104,38855,1,0,0:0:0:0:
448,264,39069,2,0,P|320:296|112:296,1,270.000003147125
360,192,39497,1,0,0:0:0:0:
360,192,39712,1,0,0:0:0:0:
424,48,39926,2,0,P|296:48|88:88,1,270.000003147125
80,232,40355,2,0,P|208:256|368:248,1,270.000003147125
416,104,40783,5,0,0:0:0:0:
208,48,40997,1,0,0:0:0:0:
136,80,41105,1,0,0:0:0:0:
88,144,41212,1,0,0:0:0:0:
136,312,41426,1,0,0:0:0:0:
208,344,41533,1,0,0:0:0:0:
288,344,41640,1,0,0:0:0:0:
360,200,41855,1,0,0:0:0:0:
80,200,42069,1,0,0:0:0:0:
312,296,42497,5,0,0:0:0:0:
408,176,42712,1,0,0:0:0:0:
384,96,42819,1,0,0:0:0:0:
312,64,42926,1,0,0:0:0:0:
120,104,43140,1,0,0:0:0:0:
408,176,43355,1,0,0:0:0:0:
312,296,43569,1,0,0:0:0:0:
232,296,43676,1,0,0:0:0:0:
160,256,43783,1,0,0:0:0:0:
120,104,43997,1,0,0:0:0:0:
248,48,44212,5,0,0:0:0:0:
408,304,44426,1,0,0:0:0:0:
248,48,44640,1,0,0:0:0:0:
88,296,44855,1,0,0:0:0:0:
248,48,45069,1,0,0:0:0:0:
448,144,45283,1,0,0:0:0:0:
248,48,45497,1,0,0:0:0:0:
104,160,45712,1,0,0:0:0:0:
248,48,45926,5,0,0:0:0:0:
336,208,46140,1,0,0:0:0:0:
264,248,46247,1,0,0:0:0:0:
184,248,46355,1,0,0:0:0:0:
248,48,46569,1,0,0:0:0:0:
96,112,46783,1,0,0:0:0:0:
248,168,46997,1,0,0:0:0:0:
304,224,47105,1,0,0:0:0:0:
320,304,47212,1,0,0:0:0:0:
128,344,47426,1,0,0:0:0:0:
56,240,47640,6,0,P|144:144|360:40,1,270.000003147125
472,48,48069,2,0,P|364:137|184:208,1,270.000003147125
136,72,48497,1,0,0:0:0:0:
80,248,48712,1,0,0:0:0:0:
128,312,48819,1,0,0:0:0:0:
208,336,48926,1,0,0:0:0:0:
376,312,49140,1,0,0:0:0:0:
464,176,49355,5,0,0:0:0:0:
320,56,49569,1,0,0:0:0:0:
240,48,49676,1,0,0:0:0:0:
168,80,49783,1,0,0:0:0:0:
72,272,49997,1,0,0:0:0:0:
208,152,50212,1,0,0:0:0:0:
392,120,50426,1,0,0:0:0:0:
440,184,50533,1,0,0:0:0:0:
424,264,50640,1,0,0:0:0:0:
288,352,50855,1,0,0:0:0:0:
168,288,51069,5,0,0:0:0:0:
384,80,51283,1,0,0:0:0:0:
48,104,51497,1,0,0:0:0:0:
416,160,51712,1,0,0:0:0:0:
240,336,51926,1,0,0:0:0:0:
384,88,52140,1,0,0:0:0:0:
48,104,52355,1,0,0:0:0:0:
336,328,52569,1,0,0:0:0:0:
136,56,52783,6,0,P|136:176|184:336,1,270.000003147125
448,312,53212,2,0,P|384:200|280:88,1,270.000003147125
56,160,53640,1,0,0:0:0:0:
128,312,53855,1,0,0:0:0:0:
408,296,54069,1,0,0:0:0:0:
384,88,54283,1,0,0:0:0:0:
232,56,54497,6,0,L|56:264,1,270.000003147125
232,56,54926,2,0,L|172:316,1,270.000003147125
232,56,55355,2,0,L|384:304,1,270.000003147125
48,272,55783,1,0,0:0:0:0:
376,280,55997,1,0,0:0:0:0:
80,184,56212,5,0,0:0:0:0:
384,88,56426,1,0,0:0:0:0:
304,72,56533,1,0,0:0:0:0:
224,96,56640,1,0,0:0:0:0:
120,224,56855,1,0,0:0:0:0:
232,336,57069,1,0,0:0:0:0:
424,240,57283,1,0,0:0:0:0:
360,192,57390,1,0,0:0:0:0:
280,168,57497,1,0,0:0:0:0:
120,136,57712,1,0,0:0:0:0:
64,312,57926,5,0,0:0:0:0:
256,48,58140,1,0,0:0:0:0:
408,328,58355,1,0,0:0:0:0:
472,48,58569,1,0,0:0:0:0:
256,320,58783,1,0,0:0:0:0:
112,56,58997,1,0,0:0:0:0:
48,304,59212,1,0,0:0:0:0:
264,48,59426,1,0,0:0:0:0:
424,232,59640,5,0,0:0:0:0:
272,312,59855,1,0,0:0:0:0:
192,304,59962,1,0,0:0:0:0:
136,248,60069,1,0,0:0:0:0:
128,104,60283,1,0,0:0:0:0:
368,312,60497,1,0,0:0:0:0:
256,192,60712,1,0,0:0:0:0:
256,112,60819,1,0,0:0:0:0:
312,48,60926,1,0,0:0:0:0:
472,56,61140,1,0,0:0:0:0:
472,192,61355,6,0,P|352:264|192:320,1,270.000003147125
192,56,61783,2,0,P|112:152|56:296,1,270.000003147125
312,112,62212,1,0,0:0:0:0:
408,240,62426,1,0,0:0:0:0:
360,304,62533,1,0,0:0:0:0:
280,320,62640,1,0,0:0:0:0:
120,240,62855,1,0,0:0:0:0:
72,176,62962,1,0,0:0:0:0:
56,96,63069,1,0,0:0:0:0:
216,56,63283,6,0,B|272:40|272:40|336:88|408:72,1,179.999995231629
448,208,63926,1,0,0:0:0:0:
368,328,64355,2,0,P|240:344|64:296,1,270.000003147125
80,224,64783,1,0,0:0:0:0:
296,56,64997,6,0,B|240:40|240:40|176:88|104:72,1,179.999995231629
312,192,65640,1,0,0:0:0:0:
440,320,66069,2,0,P|312:280|104:304,1,270.000003147125
40,344,66497,6,0,P|176:304|376:200,1,270.000003147125
424,144,66926,1,0,0:0:0:0:
280,336,67140,1,0,0:0:0:0:
440,296,67355,6,0,P|304:240|168:136,1,270.000003147125
80,64,67783,1,0,0:0:0:0:
64,144,67997,1,0,0:0:0:0:
176,40,68212,1,0,0:0:0:0:
128,168,68426,1,0,0:0:0:0:
288,48,68640,1,0,0:0:0:0:
176,216,68855,1,0,0:0:0:0:
400,64,69069,1,0,0:0:0:0:
208,280,69283,1,0,0:0:0:0:
472,136,69497,1,0,0:0:0:0:
224,344,69712,1,0,0:0:0:0:
480,216,69926,5,0,0:0:0:0:
480,216,70355,1,0,0:0:0:0:
376,288,70569,1,0,0:0:0:0:
296,288,70676,1,0,0:0:0:0:
224,248,70783,1,0,0:0:0:0:
400,112,70997,1,0,0:0:0:0:
248,80,71212,1,0,0:0:0:0:
96,128,71426,1,0,0:0:0:0:
80,272,71640,1,0,0:0:0:0:
320,256,72283,6,0,L|376:112,2,135.000001573563
224,320,72712,2,0,B|168:336|168:336|104:288|32:304,1,179.999995231629
256,112,73355,1,0,0:0:0:0:
448,120,73997,5,0,0:0:0:0:
448,200,74105,1,0,0:0:0:0:
400,264,74212,1,0,0:0:0:0:
216,280,74426,1,0,0:0:0:0:
144,88,74855,1,0,0:0:0:0:
224,80,74962,1,0,0:0:0:0:
304,96,75069,1,0,0:0:0:0:
352,256,75497,1,0,0:0:0:0:
96,336,75926,5,0,0:0:0:0:
152,192,76140,1,0,0:0:0:0:
224,152,76247,1,0,0:0:0:0:
304,152,76355,1,0,0:0:0:0:
440,232,76569,5,0,0:0:0:0:
416,312,76676,1,0,0:0:0:0:
336,336,76783,1,0,0:0:0:0:
136,272,76997,1,0,0:0:0:0:
280,304,77212,2,0,P|361:189|392:56,1,270.000003147125
280,40,77640,1,0,0:0:0:0:
384,264,77855,1,0,0:0:0:0:
208,72,78069,1,0,0:0:0:0:
208,208,78283,5,0,0:0:0:0:
128,216,78390,1,0,0:0:0:0:
56,176,78497,1,0,0:0:0:0:
168,56,78712,1,0,0:0:0:0:
152,320,78926,1,0,0:0:0:0:
344,128,79140,1,0,0:0:0:0:
464,328,79355,1,0,0:0:0:0:
232,320,79569,1,0,0:0:0:0:
464,328,79783,1,0,0:0:0:0:
376,224,79997,5,0,0:0:0:0:
304,184,80105,1,0,0:0:0:0:
224,184,80212,1,0,0:0:0:0:
128,280,80426,1,0,0:0:0:0:
312,72,80640,1,0,0:0:0:0:
456,88,80855,2,0,P|344:184|272:320,1,270.000003147125
416,328,81283,1,0,0:0:0:0:
248,80,81497,1,0,0:0:0:0:
80,152,81712,5,0,0:0:0:0:
56,232,81819,1,0,0:0:0:0:
80,312,81926,1,0,0:0:0:0:
248,344,82140,1,0,0:0:0:0:
368,296,82355,2,0,P|440:200|464:32,1,270.000003147125
360,40,82783,1,0,0:0:0:0:
368,296,82997,1,0,0:0:0:0:
360,40,83212,1,0,0:0:0:0:
192,192,83426,5,0,0:0:0:0:
120,224,83533,1,0,0:0:0:0:
48,184,83640,1,0,0:0:0:0:
120,40,83855,1,0,0:0:0:0:
280,40,84069,1,0,0:0:0:0:
464,136,84283,2,0,P|392:256|264:352,1,270.000003147125
144,304,84712,1,0,0:0:0:0:
320,248,84926,1,0,0:0:0:0:
368,120,85140,5,0,0:0:0:0:
320,56,85247,1,0,0:0:0:0:
240,40,85355,1,0,0:0:0:0:
104,88,85569,1,0,0:0:0:0:
64,208,85783,2,0,P|152:304|312:344,1,270.000003147125
432,320,86212,1,0,0:0:0:0:
264,248,86426,1,0,0:0:0:0:
448,200,86640,1,0,0:0:0:0:
304,104,86855,5,0,0:0:0:0:
232,64,86962,1,0,0:0:0:0:
152,64,87069,1,0,0:0:0:0:
48,144,87283,1,0,0:0:0:0:
72,296,87497,1,0,0:0:0:0:
256,264,87712,1,0,0:0:0:0:
96,176,87926,5,0,0:0:0:0:
208,120,88140,1,0,0:0:0:0:
360,176,88355,1,0,0:0:0:0:
240,216,88569,1,0,0:0:0:0:
408,328,88783,1,0,0:0:0:0:
184,320,88997,1,0,0:0:0:0:
88,192,89212,1,0,0:0:0:0:
352,232,89426,1,0,0:0:0:0:
192,88,89640,5,0,0:0:0:0:
112,112,89747,1,0,0:0:0:0:
80,184,89855,1,0,0:0:0:0:
96,264,89962,1,0,0:0:0:0:
160,312,90069,1,0,0:0:0:0:
240,304,90176,1,0,0:0:0:0:
304,256,90283,1,0,0:0:0:0:
352,192,90390,1,0,0:0:0:0:
376,112,90497,6,0,P|352:64|216:200,1,270.000003147125
168,232,90926,1,0,0:0:0:0:
312,328,91140,1,0,0:0:0:0:
344,56,91355,1,0,0:0:0:0:
184,328,91569,1,0,0:0:0:0:
432,112,91783,1,0,0:0:0:0:
112,264,91997,1,0,0:0:0:0:
456,328,92212,6,0,L|208:136,1,270.000003147125
40,80,92640,1,0,0:0:0:0:
272,328,92855,1,0,0:0:0:0:
136,48,93069,1,0,0:0:0:0:
176,328,93283,1,0,0:0:0:0:
240,48,93497,1,0,0:0:0:0:
88,320,93712,1,0,0:0:0:0:
392,208,93926,5,0,0:0:0:0:
288,304,94140,1,0,0:0:0:0:
144,296,94355,1,0,0:0:0:0:
56,160,94569,1,0,0:0:0:0:
112,40,94783,1,0,0:0:0:0:
128,216,94997,1,0,0:0:0:0:
232,328,95212,1,0,0:0:0:0:
384,328,95426,1,0,0:0:0:0:
472,240,95640,6,0,P|416:120|288:32,1,270.000003147125
104,72,96069,2,0,P|160:192|288:288,1,270.000003147125
256,144,96497,1,0,0:0:0:0:
96,304,96712,1,0,0:0:0:0:
256,144,96926,1,0,0:0:0:0:
464,48,97140,1,0,0:0:0:0:
456,160,97355,6,0,P|384:264|240:360,1,270.000003147125
96,328,97783,1,0,0:0:0:0:
280,240,97997,1,0,0:0:0:0:
168,56,98212,1,0,0:0:0:0:
280,240,98426,1,0,0:0:0:0:
464,328,98640,1,0,0:0:0:0:
472,144,98855,1,0,0:0:0:0:
312,64,99069,6,0,P|328:192|280:344,1,270.000003147125
192,48,99497,1,0,0:0:0:0:
80,176,99712,1,0,0:0:0:0:
112,336,99926,1,0,0:0:0:0:
280,184,100140,1,0,0:0:0:0:
344,296,100355,2,0,P|152:280|16:176,1,270.000003147125
32,88,100783,5,0,0:0:0:0:
168,88,100997,1,0,0:0:0:0:
304,88,101212,1,0,0:0:0:0:
440,88,101426,1,0,0:0:0:0:
480,272,101640,1,0,0:0:0:0:
344,272,101855,1,0,0:0:0:0:
208,272,102069,1,0,0:0:0:0:
72,272,102283,1,0,0:0:0:0:
128,64,102497,5,0,0:0:0:0:
160,112,102605,1,0,0:0:0:0:
288,192,102926,1,0,0:0:0:0:
448,112,103247,1,0,0:0:0:0:
416,160,103355,1,0,0:0:0:0:
352,312,103569,1,0,0:0:0:0:
96,320,103783,1,0,0:0:0:0:
96,320,104212,5,0,0:0:0:0:
264,296,104426,1,0,0:0:0:0:
336,264,104533,1,0,0:0:0:0:
384,200,104640,1,0,0:0:0:0:
352,48,104855,1,0,0:0:0:0:
160,40,105069,1,0,0:0:0:0:
96,192,105283,1,0,0:0:0:0:
128,264,105390,1,0,0:0:0:0:
208,280,105497,1,0,0:0:0:0:
400,272,105712,1,0,0:0:0:0:
456,184,105926,5,0,0:0:0:0:
128,56,106140,1,0,0:0:0:0:
456,184,106355,1,0,0:0:0:0:
128,320,106569,1,0,0:0:0:0:
456,184,106783,1,0,0:0:0:0:
312,40,106997,1,0,0:0:0:0:
456,184,107212,1,0,0:0:0:0:
344,336,107426,1,0,0:0:0:0:
424,120,107640,5,0,0:0:0:0:
144,48,107855,1,0,0:0:0:0:
224,32,107962,1,0,0:0:0:0:
304,56,108069,1,0,0:0:0:0:
48,232,108283,1,0,0:0:0:0:
160,320,108497,1,0,0:0:0:0:
312,160,108712,1,0,0:0:0:0:
240,128,108819,1,0,0:0:0:0:
160,128,108926,1,0,0:0:0:0:
424,48,109140,1,0,0:0:0:0:
448,152,109355,6,0,P|368:264|216:368,1,270.000003147125
56,112,109783,2,0,P|192:88|400:128,1,270.000003147125
176,176,110212,1,0,0:0:0:0:
96,312,110426,1,0,0:0:0:0:
176,336,110533,1,0,0:0:0:0:
256,336,110640,1,0,0:0:0:0:
400,256,110855,1,0,0:0:0:0:
384,96,111069,5,0,0:0:0:0:
152,152,111283,1,0,0:0:0:0:
152,232,111390,1,0,0:0:0:0:
88,280,111497,1,0,0:0:0:0:
88,64,111712,1,0,0:0:0:0:
232,320,111926,1,0,0:0:0:0:
336,192,112140,1,0,0:0:0:0:
288,128,112247,1,0,0:0:0:0:
288,48,112355,1,0,0:0:0:0:
88,64,112569,1,0,0:0:0:0:
336,336,112783,5,0,0:0:0:0:
200,48,112997,1,0,0:0:0:0:
120,336,113212,1,0,0:0:0:0:
272,48,113426,1,0,0:0:0:0:
416,344,113640,1,0,0:0:0:0:
136,48,113855,1,0,0:0:0:0:
40,344,114069,1,0,0:0:0:0:
352,48,114283,1,0,0:0:0:0:
472,336,114497,6,0,P|368:208|224:136,1,270.000003147125
240,336,114926,2,0,P|136:264|48:136,1,270.000003147125
240,88,115355,1,0,0:0:0:0:
104,296,115569,1,0,0:0:0:0:
240,88,115783,1,0,0:0:0:0:
456,104,115997,1,0,0:0:0:0:
432,248,116212,2,0,P|308:292|132:300,1,270.000003147125
432,248,116640,2,0,P|348:149|196:59,1,270.000003147125
64,184,117069,5,0,0:0:0:0:
272,232,117283,1,0,0:0:0:0:
64,184,117497,1,0,0:0:0:0:
272,232,117712,1,0,0:0:0:0:
448,208,117926,5,0,0:0:0:0:
328,64,118140,1,0,0:0:0:0:
248,48,118247,1,0,0:0:0:0:
176,80,118355,1,0,0:0:0:0:
384,240,118569,1,0,0:0:0:0:
96,176,118783,1,0,0:0:0:0:
144,320,118997,1,0,0:0:0:0:
224,336,119105,1,0,0:0:0:0:
304,312,119212,1,0,0:0:0:0:
392,160,119426,1,0,0:0:0:0:
168,96,119640,5,0,0:0:0:0:
384,304,119855,1,0,0:0:0:0:
48,280,120069,1,0,0:0:0:0:
416,224,120283,1,0,0:0:0:0:
240,48,120497,1,0,0:0:0:0:
384,296,120712,1,0,0:0:0:0:
48,280,120926,1,0,0:0:0:0:
336,56,121140,1,0,0:0:0:0:
272,160,121355,5,0,0:0:0:0:
64,64,121569,1,0,0:0:0:0:
272,160,121783,1,0,0:0:0:0:
432,336,121997,1,0,0:0:0:0:
272,160,122212,1,0,0:0:0:0:
424,64,122426,1,0,0:0:0:0:
272,160,122640,1,0,0:0:0:0:
120,336,122855,1,0,0:0:0:0:
128,128,123069,6,0,P|200:240|336:336,1,270.000003147125
352,152,123497,2,0,P|240:72|64:48,1,270.000003147125
184,288,123926,2,0,P|240:152|336:48,1,270.000003147125
400,240,124355,1,0,0:0:0:0:
96,112,124569,1,0,0:0:0:0:
48,176,124676,1,0,0:0:0:0:
56,256,124783,1,0,0:0:0:0:
216,328,124997,6,0,B|272:344|272:344|336:296|408:312,1,179.999995231629
448,176,125640,1,0,0:0:0:0:
368,56,126069,2,0,P|240:40|64:88,1,270.000003147125
80,160,126497,1,0,0:0:0:0:
296,328,126712,6,0,B|240:344|240:344|176:296|104:312,1,179.999995231629
312,192,127355,1,0,0:0:0:0:
440,64,127783,2,0,P|312:104|104:80,1,270.000003147125
56,152,128212,6,0,P|136:256|272:328,1,270.000003147125
392,312,128640,1,0,0:0:0:0:
208,208,128855,1,0,0:0:0:0:
408,152,129069,1,0,0:0:0:0:
208,208,129283,1,0,0:0:0:0:
56,56,129497,1,0,0:0:0:0:
288,40,129712,1,0,0:0:0:0:
408,152,129926,5,0,0:0:0:0:
208,208,130140,1,0,0:0:0:0:
40,344,130355,1,0,0:0:0:0:
208,208,130569,1,0,0:0:0:0:
408,152,130783,1,0,0:0:0:0:
104,80,130997,1,0,0:0:0:0:
408,152,131212,1,0,0:0:0:0:
200,344,131426,1,0,0:0:0:0:
408,152,131640,5,0,0:0:0:0:
432,200,131747,1,0,0:0:0:0:
336,328,132069,1,0,0:0:0:0:
184,288,132283,1,0,0:0:0:0:
112,248,132390,1,0,0:0:0:0:
104,168,132497,1,0,0:0:0:0:
352,208,132712,1,0,0:0:0:0:
224,56,132926,1,0,0:0:0:0:
56,176,133140,1,0,0:0:0:0:
240,320,133355,1,0,0:0:0:0:
464,112,135872,6,0,P|400:216|136:344,1,359.999990463257
56,112,137065,6,0,P|152:256|360:328,1,359.999990463257
304,136,138123,1,0,0:0:0:0:
176,296,138443,6,0,P|136:216|112:120,1,179.999995231629
224,56,139109,1,0,0:0:0:0:
432,136,139443,1,0,0:0:0:0:
368,336,139748,6,0,P|168:272|40:136,1,359.999990463257
328,176,141028,6,0,P|408:136|464:40,2,179.999995231629
88,144,141915,2,0,P|128:80|248:32,1,179.999995231629
456,240,142486,2,0,P|384:304|256:328,1,179.999995231629
200,224,143057,1,0,0:0:0:0:
272,88,143329,6,0,P|352:128|440:192,1,179.999995231629
360,296,143875,1,0,0:0:0:0:
152,176,144147,1,0,0:0:0:0:
64,312,144463,6,0,P|232:272|400:120,1,359.999990463257
184,72,145463,6,0,P|112:112|32:216,1,179.999995231629
216,160,145963,2,0,P|288:200|336:288,1,179.999995231629
224,336,146463,1,0,0:0:0:0:
416,160,146713,1,0,0:0:0:0:
152,224,146963,1,0,0:0:0:0:
312,128,147213,5,0,0:0:0:0:
256,72,147338,1,0,0:0:0:0:
176,72,147463,1,0,0:0:0:0:
56,208,147713,1,0,0:0:0:0:
160,336,147963,1,0,0:0:0:0:
344,304,148213,1,0,0:0:0:0:
464,192,148463,6,0,P|312:96|96:48,1,359.999990463257
216,208,149155,5,0,0:0:0:0:
296,216,149270,1,0,0:0:0:0:
368,248,149386,1,0,0:0:0:0:
80,320,149616,1,0,0:0:0:0:
296,320,149847,6,0,L|120:144,1,179.999995231629
392,112,150309,1,0,0:0:0:0:
392,112,150523,1,0,0:0:0:0:
448,200,150737,6,0,L|240:256,1,179.999995231629
152,104,151166,1,0,0:0:0:0:
152,104,151380,1,0,0:0:0:0:
160,264,151594,6,0,L|368:320,1,179.999995231629
448,312,152023,2,0,P|352:152|136:64,1,359.999990463257
80,256,152840,5,0,0:0:0:0:
288,304,153240,1,0,0:0:0:0:
80,256,153440,1,0,0:0:0:0:
96,176,153540,1,0,0:0:0:0:
160,128,153640,1,0,0:0:0:0:
304,112,153840,1,0,0:0:0:0:
432,232,154040,1,0,0:0:0:0:
304,112,154240,1,0,0:0:0:0:
104,80,154440,5,0,0:0:0:0:
152,256,154640,1,0,0:0:0:0:
216,312,154740,1,0,0:0:0:0:
296,304,154840,1,0,0:0:0:0:
304,80,155040,1,0,0:0:0:0:
480,200,155240,1,0,0:0:0:0:
296,304,155440,1,0,0:0:0:0:
216,312,155540,1,0,0:0:0:0:
152,256,155640,1,0,0:0:0:0:
96,112,155840,1,0,0:0:0:0:
256,48,156040,5,0,0:0:0:0:
416,288,156240,1,0,0:0:0:0:
248,48,156440,1,0,0:0:0:0:
256,328,156640,1,0,0:0:0:0:
256,48,156840,1,0,0:0:0:0:
96,288,157040,1,0,0:0:0:0:
256,48,157240,1,0,0:0:0:0:
256,328,157440,1,0,0:0:0:0:
408,64,157640,6,0,P|392:184|304:344,1,270.000003147125
224,168,158040,1,0,0:0:0:0:
448,312,158240,1,0,0:0:0:0:
336,248,158440,2,0,P|192:264|40:240,1,270.000003147125
160,144,158840,1,0,0:0:0:0:
112,344,159040,1,0,0:0:0:0:
216,272,159240,6,0,P|128:168|72:40,1,270.000003147125
248,88,159640,1,0,0:0:0:0:
80,248,159840,1,0,0:0:0:0:
264,280,160040,1,0,0:0:0:0:
384,184,160240,1,0,0:0:0:0:
392,104,160340,1,0,0:0:0:0:
336,48,160440,1,0,0:0:0:0:
160,56,160640,1,0,0:0:0:0:
64,184,160840,5,0,0:0:0:0:
144,320,161040,1,0,0:0:0:0:
224,336,161140,1,0,0:0:0:0:
304,312,161240,1,0,0:0:0:0:
432,184,161440,2,0,P|344:96|168:48,1,270.000003147125
64,224,161840,1,0,0:0:0:0:
128,272,161940,1,0,0:0:0:0:
208,296,162040,1,0,0:0:0:0:
376,288,162240,5,0,0:0:0:0:
392,144,162440,1,0,0:0:0:0:
144,64,162640,1,0,0:0:0:0:
368,48,162840,1,0,0:0:0:0:
112,152,163040,1,0,0:0:0:0:
432,240,163240,1,0,0:0:0:0:
88,240,163440,1,0,0:0:0:0:
456,328,163640,1,0,0:0:0:0:
64,328,163840,1,0,0:0:0:0:
352,336,164040,6,0,P|248:240|192:88,1,270.000003147125
368,176,164440,1,0,0:0:0:0:
144,280,164640,1,0,0:0:0:0:
197,123,164840,2,0,P|248:248|360:344,1,270.000003147125
368,176,165240,1,0,0:0:0:0:
144,280,165440,1,0,0:0:0:0:
64,200,165640,6,0,P|176:136|360:120,1,270.000003147125
64,200,166040,2,0,L|364:252,1,270.000003147125
64,200,166440,2,0,P|152:296|304:352,1,270.000003147125
448,328,166840,1,0,0:0:0:0:
80,256,167241,5,0,0:0:0:0:
296,328,167604,1,0,0:0:0:0:
240,176,167786,1,0,0:0:0:0:
256,96,167877,1,0,0:0:0:0:
320,48,167968,1,0,0:0:0:0:
424,176,168150,1,0,0:0:0:0:
152,136,168331,1,0,0:0:0:0:
288,304,168513,1,0,0:0:0:0:
384,144,168695,5,0,0:0:0:0:
256,56,168877,1,0,0:0:0:0:
176,48,168968,1,0,0:0:0:0:
104,88,169059,1,0,0:0:0:0:
192,304,169241,1,0,0:0:0:0:
72,184,169422,1,0,0:0:0:0:
320,312,169604,1,0,0:0:0:0:
400,296,169695,1,0,0:0:0:0:
464,248,169786,1,0,0:0:0:0:
408,72,169968,1,0,0:0:0:0:
248,48,170150,5,0,0:0:0:0:
408,304,170331,1,0,0:0:0:0:
248,48,170513,1,0,0:0:0:0:
88,296,170695,1,0,0:0:0:0:
248,48,170877,1,0,0:0:0:0:
448,144,171059,1,0,0:0:0:0:
248,48,171241,1,0,0:0:0:0:
104,160,171422,1,0,0:0:0:0:
136,56,171604,6,0,P|136:176|184:336,1,270.000003147125
448,312,171968,2,0,P|384:200|280:88,1,270.000003147125
56,160,172331,1,0,0:0:0:0:
128,312,172513,1,0,0:0:0:0:
408,296,172695,1,0,0:0:0:0:
384,88,172877,1,0,0:0:0:0:
232,56,173059,6,0,L|56:264,1,270.000003147125
232,56,173422,2,0,L|172:316,1,270.000003147125
232,56,173786,2,0,L|384:304,1,270.000003147125
48,272,174150,1,0,0:0:0:0:
376,280,174331,1,0,0:0:0:0:
144,176,174513,5,0,0:0:0:0:
288,88,174695,1,0,0:0:0:0:
368,96,174786,1,0,0:0:0:0:
416,160,174877,1,0,0:0:0:0:
416,288,175059,2,0,P|288:320|112:320,1,270.000003147125
64,224,175422,1,0,0:0:0:0:
56,144,175513,1,0,0:0:0:0:
104,80,175604,1,0,0:0:0:0:
312,48,175786,1,0,0:0:0:0:
384,240,175968,5,0,0:0:0:0:
128,80,176150,1,0,0:0:0:0:
464,104,176331,1,0,0:0:0:0:
96,160,176513,1,0,0:0:0:0:
272,336,176695,1,0,0:0:0:0:
128,88,176877,1,0,0:0:0:0:
464,104,177059,1,0,0:0:0:0:
176,328,177241,1,0,0:0:0:0:
240,224,177422,5,0,0:0:0:0:
448,320,177604,1,0,0:0:0:0:
240,224,177786,1,0,0:0:0:0:
80,48,177968,1,0,0:0:0:0:
240,224,178150,1,0,0:0:0:0:
88,320,178331,1,0,0:0:0:0:
240,224,178513,1,0,0:0:0:0:
392,48,178695,1,0,0:0:0:0:
448,152,178877,2,0,P|368:256|200:344,1,270.000003147125
56,200,179241,2,0,P|144:112|312:40,1,270.000003147125
368,288,179604,2,0,P|248:240|136:128,1,270.000003147125
336,112,179968,1,0,0:0:0:0:
80,256,180327,5,0,0:0:0:0:
256,320,180660,1,0,0:0:0:0:
432,256,180827,1,0,0:0:0:0:
424,192,180910,1,0,0:0:0:0:
376,144,180993,1,0,0:0:0:0:
128,192,181160,1,0,0:0:0:0:
256,320,181327,1,0,0:0:0:0:
304,112,181493,1,0,0:0:0:0:
312,296,181660,5,0,0:0:0:0:
416,168,181827,1,0,0:0:0:0:
392,104,181910,1,0,0:0:0:0:
336,64,181993,1,0,0:0:0:0:
288,224,182160,1,0,0:0:0:0:
176,80,182327,1,0,0:0:0:0:
248,336,182493,1,0,0:0:0:0:
184,336,182577,1,0,0:0:0:0:
120,312,182660,1,0,0:0:0:0:
80,152,182827,1,0,0:0:0:0:
248,48,182993,5,0,0:0:0:0:
408,304,183160,1,0,0:0:0:0:
248,48,183327,1,0,0:0:0:0:
88,296,183493,1,0,0:0:0:0:
248,48,183660,1,0,0:0:0:0:
448,144,183827,1,0,0:0:0:0:
248,48,183993,1,0,0:0:0:0:
104,160,184160,1,0,0:0:0:0:
248,48,184327,5,0,0:0:0:0:
336,208,184493,1,0,0:0:0:0:
280,240,184577,1,0,0:0:0:0:
216,248,184660,1,0,0:0:0:0:
248,48,184827,1,0,0:0:0:0:
96,112,184993,1,0,0:0:0:0:
256,168,185160,1,0,0:0:0:0:
304,216,185243,1,0,0:0:0:0:
368,240,185327,1,0,0:0:0:0:
168,336,185493,1,0,0:0:0:0:
56,240,185660,6,0,P|144:144|360:40,1,270.000003147125
472,48,185993,2,0,P|364:137|184:208,1,270.000003147125
136,72,186327,1,0,0:0:0:0:
80,248,186493,1,0,0:0:0:0:
120,304,186577,1,0,0:0:0:0:
184,328,186660,1,0,0:0:0:0:
352,320,186827,1,0,0:0:0:0:
432,216,186993,5,0,0:0:0:0:
392,112,187160,1,0,0:0:0:0:
336,72,187243,1,0,0:0:0:0:
272,56,187327,1,0,0:0:0:0:
104,72,187493,2,0,P|88:184|208:352,1,270.000003147125
304,328,187827,1,0,0:0:0:0:
360,296,187910,1,0,0:0:0:0:
400,240,187993,1,0,0:0:0:0:
296,96,188160,1,0,0:0:0:0:
168,288,188327,5,0,0:0:0:0:
384,80,188493,1,0,0:0:0:0:
48,104,188660,1,0,0:0:0:0:
416,160,188827,1,0,0:0:0:0:
240,336,188993,1,0,0:0:0:0:
384,88,189160,1,0,0:0:0:0:
48,104,189327,1,0,0:0:0:0:
336,328,189493,1,0,0:0:0:0:
136,56,189660,6,0,P|136:176|184:336,1,270.000003147125
448,312,189993,2,0,P|384:200|280:88,1,270.000003147125
64,48,190327,1,0,0:0:0:0:
88,224,190493,1,0,0:0:0:0:
232,312,190660,1,0,0:0:0:0:
400,320,190827,1,0,0:0:0:0:
432,184,190993,5,0,0:0:0:0:
184,128,191160,1,0,0:0:0:0:
344,64,191327,1,0,0:0:0:0:
208,248,191493,1,0,0:0:0:0:
88,64,191660,1,0,0:0:0:0:
64,320,191827,1,0,0:0:0:0:
64,320,191910,1,0,0:0:0:0:
64,320,191993,1,0,0:0:0:0:
256,344,192160,5,0,0:0:0:0:
256,344,192243,1,0,0:0:0:0:
256,344,192327,1,0,0:0:0:0:
408,240,192493,1,0,0:0:0:0:
432,176,192577,1,0,0:0:0:0:
400,112,192660,1,0,0:0:0:0:
240,48,192827,5,0,0:0:0:0:
240,48,192910,1,0,0:0:0:0:
240,48,192993,1,0,0:0:0:0:
48,120,193160,1,0,0:0:0:0:
32,184,193243,1,0,0:0:0:0:
72,240,193327,1,0,0:0:0:0:
256,336,193493,1,0,0:0:0:0:
448,72,193660,5,0,0:0:0:0:
256,336,193827,1,0,0:0:0:0:
104,56,193993,1,0,0:0:0:0:
40,336,194160,1,0,0:0:0:0:
256,64,194327,1,0,0:0:0:0:
400,328,194493,1,0,0:0:0:0:
464,80,194660,1,0,0:0:0:0:
256,336,194826,1,0,0:0:0:0:
128,80,194993,6,0,P|64:184|48:344,1,270.000003147125
136,224,195326,2,0,P|249:157|344:32,1,270.000003147125
192,80,195660,2,0,P|224:224|288:328,1,270.000003147125
368,232,195993,2,0,P|240:176|80:152,1,270.000003147125
96,248,196326,5,0,0:0:0:0:
280,72,196493,1,0,0:0:0:0:
264,288,196660,1,0,0:0:0:0:
280,72,196826,1,0,0:0:0:0:
96,248,196993,1,0,0:0:0:0:
280,72,197160,1,0,0:0:0:0:
432,256,197326,1,0,0:0:0:0:
280,72,197493,1,0,0:0:0:0:
280,72,197826,6,0,B|336:56|336:56|400:104|472:88,1,179.999995231629
448,208,198326,1,0,0:0:0:0:
368,328,198660,2,0,P|240:344|64:296,1,270.000003147125
80,224,198993,1,0,0:0:0:0:
280,64,199160,6,0,B|224:48|224:48|160:96|88:80,1,179.999995231629
312,192,199660,1,0,0:0:0:0:
440,320,199993,2,0,P|312:280|104:304,1,270.000003147125
96,112,200326,5,0,0:0:0:0:
56,224,200493,1,0,0:0:0:0:
176,96,200660,1,0,0:0:0:0:
136,224,200826,1,0,0:0:0:0:
264,80,200993,1,0,0:0:0:0:
208,240,201160,1,0,0:0:0:0:
352,96,201326,1,0,0:0:0:0:
272,280,201493,1,0,0:0:0:0:
432,136,201660,5,0,0:0:0:0:
240,168,201826,1,0,0:0:0:0:
456,208,201993,1,0,0:0:0:0:
168,192,202160,1,0,0:0:0:0:
448,288,202326,1,0,0:0:0:0:
88,176,202493,1,0,0:0:0:0:
384,336,202660,1,0,0:0:0:0:
40,120,202826,1,0,0:0:0:0:
304,344,202993,6,0,P|208:240|152:64,1,270.000003147125
200,352,203326,2,0,P|152:192|200:48,1,270.000003147125
432,40,203660,1,0,0:0:0:0:
304,152,203826,1,0,0:0:0:0:
440,272,203993,1,0,0:0:0:0:
304,152,204160,1,0,0:0:0:0:
88,80,204326,5,0,0:0:0:0:
304,144,204493,1,0,0:0:0:0:
256,336,204660,1,0,0:0:0:0:
216,104,204826,1,0,0:0:0:0:
152,320,204993,1,0,0:0:0:0:
120,72,205160,1,0,0:0:0:0:
48,320,205326,1,0,0:0:0:0:
32,40,205493,1,0,0:0:0:0:
56,176,205660,6,0,P|208:224|384:240,1,270.000003147125
240,104,205993,1,0,0:0:0:0:
168,312,206160,1,0,0:0:0:0:
400,336,206326,1,0,0:0:0:0:
456,296,206410,1,0,0:0:0:0:
472,232,206493,1,0,0:0:0:0:
368,48,206660,1,0,0:0:0:0:
320,96,206743,1,0,0:0:0:0:
256,104,206826,1,0,0:0:0:0:
96,104,206993,2,0,L|40:80,2,44.9999988079071
256,192,207639,12,0,211639,0:0:0:0:
144,216,212488,6,0,L|80:120,2,89.9999976158143
208,144,212888,1,0,0:0:0:0:
424,128,213288,2,0,L|344:208,1,89.9999976158143
288,256,213488,1,0,0:0:0:0:
48,320,213909,5,0,0:0:0:0:
464,336,214337,5,0,0:0:0:0:
256,40,214766,5,0,0:0:0:0:
