osu file format v14

[General]
AudioFilename: audio.mp3
AudioLeadIn: 0
PreviewTime: 17098
Countdown: 0
SampleSet: Soft
StackLeniency: 0.7
Mode: 0
LetterboxInBreaks: 0
WidescreenStoryboard: 1

[Editor]
DistanceSpacing: 1.1
BeatDivisor: 2
GridSize: 16
TimelineZoom: 1.8

[Metadata]
Title:Aozora no Rhapsody (TV size)
TitleUnicode:青空のラプソディ (TV size)
Artist:Fhana
ArtistUnicode:Fhána
Creator:makisokk
Version:Normal
Source:小林さんちのメイドラゴン
Tags:Dragons Anime Japanese TV SIZE Maid
BeatmapID:1225865
BeatmapSetID:579014

[Difficulty]
HPDrainRate:4
CircleSize:3.5
OverallDifficulty:3
ApproachRate:4
SliderMultiplier:1
SliderTickRate:1

[Events]
//Background and Video events
Video,-1018,"Video.avi"
0,0,"Normal.png",0,0
//Break Periods
//Storyboard Layer 0 (Background)
//Storyboard Layer 1 (Fail)
//Storyboard Layer 2 (Pass)
//Storyboard Layer 3 (Foreground)
//Storyboard Sound Samples

[TimingPoints]
1099,444.444444444444,4,2,0,30,1,0
33098,-100,4,2,0,50,0,0
50876,-100,4,2,0,70,0,1
75765,-100,4,2,0,50,0,0

[Colours]
Combo1 : 255,192,0
Combo2 : 0,202,0
Combo3 : 18,124,255
Combo4 : 242,24,57

[HitObjects]
423,307,1099,6,0,L|384:195,1,100
348,110,1987,1,0,0:0:0:0:
245,70,2432,1,0,0:0:0:0:
135,80,2876,2,0,P|103:120|103:171,1,100
160,264,3765,1,0,0:0:0:0:
256,208,4210,1,0,0:0:0:0:
358,248,4654,6,0,P|343:295|280:312,1,100
189,315,5543,1,0,0:0:0:0:
104,244,5987,1,0,0:0:0:0:
163,151,6432,2,0,L|288:111,1,100
365,94,7321,1,0,0:0:0:0:
365,94,7765,1,0,0:0:0:0:
315,192,8210,6,0,P|366:204|426:176,1,100
493,117,9098,1,0,0:0:0:0:
400,56,9543,1,0,0:0:0:0:
295,89,9987,2,0,L|194:127,1,100
97,159,10876,1,0,0:0:0:0:
121,51,11321,1,0,0:0:0:0:
201,124,11765,6,0,P|214:182|202:230,1,100
158,320,12654,2,0,P|216:329|265:313,1,100
364,306,13543,2,0,L|378:236,1,50
417,223,13987,2,0,L|406:160,1,50
411,121,14432,2,0,L|359:82,1,50
318,105,14876,2,0,P|291:116|256:110,1,50
224,84,15321,6,0,L|180:116,1,50
128,114,15765,2,0,L|131:170,1,50
103,211,16210,2,0,L|143:247,1,50
194,240,16654,2,0,P|227:239|258:248,1,50
294,262,17098,5,0,0:0:0:0:
400,288,17543,2,0,P|424:238|421:173,1,100
390,89,18432,1,0,0:0:0:0:
390,89,18876,1,0,0:0:0:0:
280,77,19321,1,0,0:0:0:0:
280,77,19765,1,0,0:0:0:0:
171,92,20210,2,0,P|147:144|156:197,1,100
214,275,21098,5,0,0:0:0:0:
321,249,21543,1,0,0:0:0:0:
427,277,21987,1,0,0:0:0:0:
482,181,22432,2,0,P|446:138|398:129,1,100
302,169,23321,2,0,L|188:142,1,100
97,119,24210,1,0,0:0:0:0:
114,227,24654,1,0,0:0:0:0:
69,327,25098,2,0,P|121:336|176:322,1,100
267,283,25987,5,0,0:0:0:0:
267,283,26432,1,0,0:0:0:0:
375,263,26876,1,0,0:0:0:0:
375,263,27321,1,0,0:0:0:0:
481,290,27765,6,0,L|474:154,1,100
411,100,28654,1,0,0:0:0:0:
302,84,29098,1,0,0:0:0:0:
201,119,29543,2,0,P|207:167|252:201,1,100
354,194,30432,2,0,P|396:220|394:275,1,100
303,322,31321,1,0,0:0:0:0:
194,305,31765,1,0,0:0:0:0:
85,325,32210,2,0,L|68:200,1,100
68,116,33098,5,0,0:0:0:0:
177,126,33543,1,0,0:0:0:0:
278,84,33987,2,0,P|329:91|384:134,1,100
432,206,34876,1,0,0:0:0:0:
383,305,35321,2,0,B|332:277|332:277|250:323|193:256,1,200
119,192,36654,5,0,0:0:0:0:
97,299,37098,1,0,0:0:0:0:
202,265,37543,2,0,L|224:127,1,100
284,78,38432,1,0,0:0:0:0:
189,34,38876,2,0,P|137:57|117:119,1,100
95,208,39765,1,0,0:0:0:0:
210,213,40210,6,0,L|339:233,1,100
417,245,41098,1,0,0:0:0:0:
489,161,41543,1,0,0:0:0:0:
442,61,41987,2,0,P|346:89|237:67,1,200
142,44,43321,1,0,0:0:0:0:
165,151,43765,5,0,0:0:0:0:
136,257,44210,1,0,0:0:0:0:
218,329,44654,2,0,P|270:335|312:306,1,100
409,266,45543,6,0,L|379:191,1,50
338,201,45987,2,0,L|335:131,1,50
370,108,46432,2,0,L|320:60,1,50
281,88,46876,2,0,L|250:27,1,50
203,43,47321,6,0,L|172:107,1,50
132,112,47765,2,0,L|134:182,1,50
184,184,48210,2,0,L|154:247,1,50
109,244,48654,2,0,L|119:299,1,50
256,192,49098,12,0,49987,0:0:0:0:
272,328,50876,5,0,0:0:0:0:
377,296,51321,2,0,P|401:248|393:192,1,100
335,112,52210,1,0,0:0:0:0:
268,199,52654,1,0,0:0:0:0:
171,145,53098,2,0,P|128:175|128:237,1,100
171,317,53987,1,0,0:0:0:0:
277,287,54432,6,0,L|275:176,1,100
306,81,55321,1,0,0:0:0:0:
415,87,55765,1,0,0:0:0:0:
492,164,56210,2,0,P|448:253|348:287,1,200
248,275,57543,1,0,0:0:0:0:
177,190,57987,6,0,P|228:172|306:197,1,100
355,250,58876,1,0,0:0:0:0:
452,199,59321,1,0,0:0:0:0:
410,96,59765,2,0,L|282:64,1,100
219,129,60654,2,0,P|165:122|128:86,1,100
41,29,61543,5,0,0:0:0:0:
68,135,61987,1,0,0:0:0:0:
48,243,62432,1,0,0:0:0:0:
106,335,62876,1,0,0:0:0:0:
206,289,63321,2,0,B|270:263|270:263|346:319|434:280|470:178,1,300
458,93,65098,6,0,P|402:91|356:120,1,100
272,172,65987,2,0,P|216:166|184:137,1,100
125,44,66876,1,0,0:0:0:0:
55,129,67321,1,0,0:0:0:0:
87,233,67765,2,0,P|126:266|185:265,1,100
282,256,68654,5,0,0:0:0:0:
390,236,69098,1,0,0:0:0:0:
413,128,69543,1,0,0:0:0:0:
497,197,69987,1,0,0:0:0:0:
454,298,70432,2,0,P|360:329|250:297,1,200
168,252,71765,1,0,0:0:0:0:
63,218,72210,6,0,P|90:175|91:122,1,100
190,78,73098,2,0,P|243:55|300:66,1,100
386,100,73987,1,0,0:0:0:0:
424,203,74432,1,0,0:0:0:0:
390,307,74876,2,0,P|333:307|292:278,1,100
211,220,75765,5,0,0:0:0:0:
101,234,76210,1,0,0:0:0:0:
159,141,76654,1,0,0:0:0:0:
266,161,77098,1,0,0:0:0:0:
370,127,77543,5,0,0:0:0:0:
286,55,77987,1,0,0:0:0:0:
266,161,78432,1,0,0:0:0:0:
350,251,78876,1,0,0:0:0:0:
299,348,79321,5,0,0:0:0:0:
238,256,79765,1,0,0:0:0:0:
350,251,80210,1,0,0:0:0:0:
433,179,80654,1,0,0:0:0:0:
360,96,81098,5,0,0:0:0:0:
263,149,81543,1,0,0:0:0:0:
153,135,81987,2,0,P|141:93|84:56,2,100
165,244,83321,1,0,0:0:0:0:
254,307,83765,1,0,0:0:0:0:
361,285,84210,2,0,P|405:314|456:309,2,100
323,181,85543,5,0,0:0:0:0:
387,92,85987,1,0,0:0:0:0:
288,43,86432,1,0,0:0:0:0:
178,43,86876,2,0,P|161:97|191:147,1,100
246,220,87765,2,0,L|226:269,2,50
348,180,88654,2,0,L|337:335,1,150
