osu file format v14

[General]
AudioFilename: audio.mp3
AudioLeadIn: 0
PreviewTime: 17098
Countdown: 0
SampleSet: Soft
StackLeniency: 0.7
Mode: 0
LetterboxInBreaks: 0
WidescreenStoryboard: 1

[Editor]
DistanceSpacing: 0.6
BeatDivisor: 4
GridSize: 16
TimelineZoom: 2.700006

[Metadata]
Title:Aozora no Rhapsody (TV size)
TitleUnicode:青空のラプソディ (TV size)
Artist:Fhana
ArtistUnicode:Fhána
Creator:makisokk
Version:Dragon Maid
Source:小林さんちのメイドラゴン
Tags:Dragons Anime Japanese TV SIZE Maid
BeatmapID:1225862
BeatmapSetID:579014

[Difficulty]
HPDrainRate:6
CircleSize:4
OverallDifficulty:8
ApproachRate:9
SliderMultiplier:1.8
SliderTickRate:1

[Events]
//Background and Video events
Video,-1018,"Video.avi"
0,0,"Insane.png",0,0
//Break Periods
//Storyboard Layer 0 (Background)
//Storyboard Layer 1 (Fail)
//Storyboard Layer 2 (Pass)
//Storyboard Layer 3 (Foreground)
//Storyboard Sound Samples

[TimingPoints]
1099,444.444444444444,4,2,1,30,1,0
7321,-90.9090909090909,4,2,1,30,0,0
7765,-100,4,2,1,30,0,0
10876,-90.9090909090909,4,2,1,30,0,0
11321,-100,4,2,1,30,0,0
33098,-100,4,2,1,50,0,0
50876,-83.3333333333333,4,2,1,70,0,1
75765,-100,4,2,1,50,0,0
88654,-133.333333333333,4,2,1,50,0,0

[Colours]
Combo1 : 255,192,0
Combo2 : 0,202,0
Combo3 : 18,124,255
Combo4 : 242,24,57

[HitObjects]
173,135,1099,6,0,L|142:244,1,90
323,284,1543,2,0,L|301:187,1,90
273,65,1987,1,0,0:0:0:0:
229,210,2210,1,0,0:0:0:0:
368,65,2432,1,0,0:0:0:0:
174,93,2654,2,0,L|115:81,2,45
363,140,3098,2,0,P|406:169|419:218,1,90
371,323,3543,1,0,0:0:0:0:
298,168,3765,2,0,P|298:112|346:76,1,90
452,147,4210,6,0,L|415:237,1,90
277,277,4654,2,0,L|235:181,1,90
109,118,5098,2,0,P|111:160|150:197,1,90
291,244,5543,1,0,0:0:0:0:
197,110,5765,1,0,0:0:0:0:
225,295,5987,1,0,0:0:0:0:
311,117,6210,2,0,L|332:57,2,45
314,324,6654,2,0,P|366:322|394:275,1,90
443,188,7098,1,0,0:0:0:0:
386,82,7321,6,0,L|278:66,1,99.0000030212403
122,44,7765,1,0,0:0:0:0:
52,206,7987,1,0,0:0:0:0:
218,126,8210,2,0,P|163:113|111:138,1,90
49,258,8654,2,0,P|93:277|141:265,1,90
261,220,9098,1,0,0:0:0:0:
186,344,9321,1,0,0:0:0:0:
171,168,9543,1,0,0:0:0:0:
280,315,9765,2,0,L|312:356,2,45
139,262,10210,6,0,P|185:233|235:231,1,90
348,241,10654,1,0,0:0:0:0:
453,295,10876,2,0,P|482:253|470:191,1,99.0000030212403
380,118,11321,6,0,L|281:106,1,90
136,207,11765,2,0,L|235:219,1,90
371,285,12210,2,0,P|340:314|289:319,1,90
132,238,12654,1,0,0:0:0:0:
220,345,12876,1,0,0:0:0:0:
260,181,13098,1,0,0:0:0:0:
301,161,13210,1,0,0:0:0:0:
345,161,13321,1,0,0:0:0:0:
384,139,13432,1,0,0:0:0:0:
402,98,13543,5,0,0:0:0:0:
402,98,13654,2,0,L|388:43,1,45
302,50,13876,5,0,0:0:0:0:
302,50,13987,2,0,L|287:106,1,45
212,140,14210,5,0,0:0:0:0:
212,140,14321,2,0,L|190:84,1,45
123,157,14543,5,0,0:0:0:0:
123,157,14654,2,0,L|117:215,1,45
159,278,14876,5,0,0:0:0:0:
309,190,15098,1,0,0:0:0:0:
255,302,15321,5,0,0:0:0:0:
255,302,15432,2,0,L|205:334,1,45
174,246,15654,5,0,0:0:0:0:
174,246,15765,2,0,L|198:203,1,45
117,159,15987,5,0,0:0:0:0:
117,159,16098,2,0,L|66:189,1,45
59,92,16321,5,0,0:0:0:0:
59,92,16432,2,0,L|102:71,1,45
173,45,16654,5,0,0:0:0:0:
368,86,16876,1,0,0:0:0:0:
288,169,17098,5,0,0:0:0:0:
356,281,17321,1,0,0:0:0:0:
233,339,17543,2,0,L|221:292,1,45
217,268,17765,1,0,0:0:0:0:
214,241,17876,1,0,0:0:0:0:
158,158,18098,1,0,0:0:0:0:
158,158,18210,1,0,0:0:0:0:
141,276,18432,5,0,0:0:0:0:
333,214,18654,1,0,0:0:0:0:
262,350,18876,1,0,0:0:0:0:
150,163,19098,1,0,0:0:0:0:
374,228,19321,1,0,0:0:0:0:
342,259,19432,1,0,0:0:0:0:
301,276,19543,1,0,0:0:0:0:
256,277,19654,1,0,0:0:0:0:
152,241,19876,1,0,0:0:0:0:
152,241,19987,1,0,0:0:0:0:
163,124,20210,2,0,L|228:98,3,45
270,85,20654,5,0,0:0:0:0:
347,246,20876,1,0,0:0:0:0:
208,190,21098,1,0,0:0:0:0:
220,151,21210,1,0,0:0:0:0:
221,110,21321,1,0,0:0:0:0:
239,73,21432,1,0,0:0:0:0:
277,59,21543,1,0,0:0:0:0:
317,62,21654,1,0,0:0:0:0:
367,187,21987,1,0,0:0:0:0:
277,294,22210,5,0,0:0:0:0:
277,294,22321,1,0,0:0:0:0:
277,294,22432,1,0,0:0:0:0:
121,336,22654,1,0,0:0:0:0:
158,291,22765,1,0,0:0:0:0:
160,232,22876,1,0,0:0:0:0:
177,176,22987,1,0,0:0:0:0:
225,143,23098,1,0,0:0:0:0:
282,155,23210,1,0,0:0:0:0:
388,203,23432,5,0,0:0:0:0:
388,203,23543,1,0,0:0:0:0:
388,203,23654,1,0,0:0:0:0:
388,203,23765,2,0,L|392:140,3,45
393,99,24210,5,0,0:0:0:0:
199,44,24432,1,0,0:0:0:0:
243,187,24654,1,0,0:0:0:0:
243,187,24765,1,0,0:0:0:0:
243,187,24876,1,0,0:0:0:0:
243,187,24987,1,0,0:0:0:0:
100,239,25210,2,0,L|55:253,2,45
160,225,25543,5,0,0:0:0:0:
306,276,25765,1,0,0:0:0:0:
191,319,25987,1,0,0:0:0:0:
313,177,26210,1,0,0:0:0:0:
316,340,26432,1,0,0:0:0:0:
163,190,26654,2,0,L|107:190,2,45
201,192,26987,1,0,0:0:0:0:
243,194,27098,1,0,0:0:0:0:
421,201,27321,5,0,0:0:0:0:
311,78,27543,1,0,0:0:0:0:
357,272,27765,1,0,0:0:0:0:
468,123,27987,1,0,0:0:0:0:
267,172,28210,1,0,0:0:0:0:
267,172,28321,1,0,0:0:0:0:
267,172,28432,1,0,0:0:0:0:
267,172,28543,1,0,0:0:0:0:
422,253,28765,2,0,L|480:237,2,45
371,265,29098,5,0,0:0:0:0:
175,217,29321,1,0,0:0:0:0:
175,217,29432,1,0,0:0:0:0:
175,217,29543,1,0,0:0:0:0:
294,82,29765,1,0,0:0:0:0:
295,302,29987,1,0,0:0:0:0:
129,108,30210,1,0,0:0:0:0:
129,108,30321,1,0,0:0:0:0:
381,108,30543,1,0,0:0:0:0:
381,108,30654,1,0,0:0:0:0:
154,223,30876,5,0,0:0:0:0:
292,65,31098,1,0,0:0:0:0:
307,305,31321,2,0,P|282:318|260:321,1,45
210,311,31543,1,0,0:0:0:0:
156,287,31654,1,0,0:0:0:0:
99,272,31765,1,0,0:0:0:0:
40,278,31876,1,0,0:0:0:0:
47,220,31987,1,0,0:0:0:0:
57,166,32098,2,0,P|71:142|94:130,1,45
294,52,32432,1,0,0:0:0:0:
295,255,32654,1,0,0:0:0:0:
170,79,32876,1,0,0:0:0:0:
375,109,33098,6,0,L|397:217,1,90
401,237,33432,1,0,0:0:0:0:
408,276,33543,1,0,0:0:0:0:
274,188,33765,1,0,0:0:0:0:
486,240,33987,1,0,0:0:0:0:
486,240,34098,1,0,0:0:0:0:
486,240,34210,1,0,0:0:0:0:
285,301,34432,1,0,0:0:0:0:
375,102,34654,1,0,0:0:0:0:
443,273,34876,6,0,L|332:302,1,90
316,306,35210,1,0,0:0:0:0:
276,313,35321,1,0,0:0:0:0:
123,345,35543,1,0,0:0:0:0:
213,163,35765,1,0,0:0:0:0:
213,163,35876,1,0,0:0:0:0:
213,163,35987,1,0,0:0:0:0:
342,285,36210,1,0,0:0:0:0:
100,218,36432,1,0,0:0:0:0:
303,76,36654,6,0,L|277:184,1,90
271,202,36987,1,0,0:0:0:0:
260,241,37098,1,0,0:0:0:0:
145,344,37321,1,0,0:0:0:0:
357,239,37543,1,0,0:0:0:0:
185,145,37765,1,0,0:0:0:0:
285,351,37987,1,0,0:0:0:0:
375,135,38210,1,0,0:0:0:0:
161,193,38432,6,0,L|283:231,1,90
286,230,38765,1,0,0:0:0:0:
324,243,38876,1,0,0:0:0:0:
465,283,39098,1,0,0:0:0:0:
430,141,39321,1,0,0:0:0:0:
377,152,39432,1,0,0:0:0:0:
323,144,39543,1,0,0:0:0:0:
281,108,39654,1,0,0:0:0:0:
234,80,39765,1,0,0:0:0:0:
180,75,39876,1,0,0:0:0:0:
133,101,39987,1,0,0:0:0:0:
105,147,40098,1,0,0:0:0:0:
105,201,40210,6,0,P|127:243|185:259,1,90
208,267,40543,1,0,0:0:0:0:
252,274,40654,1,0,0:0:0:0:
417,302,40876,1,0,0:0:0:0:
265,180,41098,1,0,0:0:0:0:
329,355,41321,1,0,0:0:0:0:
434,174,41543,1,0,0:0:0:0:
271,269,41765,1,0,0:0:0:0:
487,354,41987,6,0,L|429:259,1,90
418,237,42321,1,0,0:0:0:0:
395,198,42432,1,0,0:0:0:0:
327,97,42654,2,0,P|274:85|227:92,1,90
116,165,43098,1,0,0:0:0:0:
251,232,43321,1,0,0:0:0:0:
292,248,43432,1,0,0:0:0:0:
333,264,43543,1,0,0:0:0:0:
489,251,43765,5,0,0:0:0:0:
419,117,43987,1,0,0:0:0:0:
368,98,44098,1,0,0:0:0:0:
313,99,44210,1,0,0:0:0:0:
159,209,44432,5,0,0:0:0:0:
209,228,44543,1,0,0:0:0:0:
262,226,44654,1,0,0:0:0:0:
441,167,44876,1,0,0:0:0:0:
316,53,45098,5,0,0:0:0:0:
287,99,45210,1,0,0:0:0:0:
281,152,45321,1,0,0:0:0:0:
190,259,45543,5,0,0:0:0:0:
259,290,45654,1,0,0:0:0:0:
281,152,45876,5,0,0:0:0:0:
317,219,45987,1,0,0:0:0:0:
363,46,46210,5,0,0:0:0:0:
354,121,46321,1,0,0:0:0:0:
494,26,46543,5,0,0:0:0:0:
439,80,46654,1,0,0:0:0:0:
293,183,46876,5,0,0:0:0:0:
293,183,46987,1,0,0:0:0:0:
293,183,47098,1,0,0:0:0:0:
190,28,47321,5,0,0:0:0:0:
251,72,47432,1,0,0:0:0:0:
157,152,47654,5,0,0:0:0:0:
229,175,47765,1,0,0:0:0:0:
192,284,47987,5,0,0:0:0:0:
266,266,48098,1,0,0:0:0:0:
319,357,48321,5,0,0:0:0:0:
367,297,48432,1,0,0:0:0:0:
439,175,48654,5,0,0:0:0:0:
439,175,48765,1,0,0:0:0:0:
439,175,48876,1,0,0:0:0:0:
439,175,48987,1,0,0:0:0:0:
439,175,49098,1,0,0:0:0:0:
310,59,49432,1,0,0:0:0:0:
379,277,49765,1,0,0:0:0:0:
441,86,49987,5,0,0:0:0:0:
374,93,50098,1,0,0:0:0:0:
319,133,50210,1,0,0:0:0:0:
287,192,50321,1,0,0:0:0:0:
226,220,50432,1,0,0:0:0:0:
161,200,50543,1,0,0:0:0:0:
120,146,50654,1,0,0:0:0:0:
125,78,50765,1,0,0:0:0:0:
184,43,50876,6,0,P|237:40|312:71,1,107.999996704102
337,90,51210,1,0,0:0:0:0:
377,133,51321,1,0,0:0:0:0:
456,285,51543,1,0,0:0:0:0:
241,242,51765,2,0,P|261:188|305:167,1,107.999996704102
368,161,52098,1,0,0:0:0:0:
427,188,52210,1,0,0:0:0:0:
485,335,52432,1,0,0:0:0:0:
372,269,52654,2,0,L|268:198,1,107.999996704102
228,172,52987,1,0,0:0:0:0:
173,137,53098,1,0,0:0:0:0:
50,240,53321,1,0,0:0:0:0:
183,348,53543,6,0,P|220:307|225:246,1,107.999996704102
215,192,53876,1,0,0:0:0:0:
173,142,53987,1,0,0:0:0:0:
27,125,54210,1,0,0:0:0:0:
48,305,54432,2,0,L|188:265,1,107.999996704102
215,262,54765,1,0,0:0:0:0:
278,248,54876,1,0,0:0:0:0:
446,210,55098,1,0,0:0:0:0:
296,84,55321,6,0,P|270:128|286:200,1,107.999996704102
312,235,55654,1,0,0:0:0:0:
370,263,55765,1,0,0:0:0:0:
497,255,55987,5,0,0:0:0:0:
346,153,56210,1,0,0:0:0:0:
433,351,56432,1,0,0:0:0:0:
484,115,56654,1,0,0:0:0:0:
260,230,56876,1,0,0:0:0:0:
488,309,57098,2,0,P|479:262|415:200,1,107.999996704102
383,186,57432,1,0,0:0:0:0:
318,190,57543,1,0,0:0:0:0:
184,222,57765,1,0,0:0:0:0:
212,95,57987,6,0,P|263:65|338:72,1,107.999996704102
373,82,58321,1,0,0:0:0:0:
418,128,58432,1,0,0:0:0:0:
466,273,58654,1,0,0:0:0:0:
303,273,58876,2,0,L|181:255,1,107.999996704102
131,249,59210,1,0,0:0:0:0:
67,237,59321,1,0,0:0:0:0:
119,61,59543,1,0,0:0:0:0:
307,134,59765,6,0,P|269:175|188:184,1,107.999996704102
155,187,60098,1,0,0:0:0:0:
96,158,60210,1,0,0:0:0:0:
40,26,60432,1,0,0:0:0:0:
161,89,60654,2,0,L|242:177,1,107.999996704102
279,214,60987,1,0,0:0:0:0:
323,260,61098,1,0,0:0:0:0:
462,329,61321,1,0,0:0:0:0:
451,183,61543,6,0,P|429:139|366:106,1,107.999996704102
169,130,61987,1,0,0:0:0:0:
381,210,62210,1,0,0:0:0:0:
269,30,62432,2,0,P|250:79|258:139,1,107.999996704102
453,231,62876,2,0,P|442:168|394:137,1,107.999996704102
216,71,63321,5,0,0:0:0:0:
243,285,63543,5,0,0:0:0:0:
288,218,63654,1,0,0:0:0:0:
191,146,63876,5,0,0:0:0:0:
175,225,63987,1,0,0:0:0:0:
300,340,64210,5,0,0:0:0:0:
329,282,64321,1,0,0:0:0:0:
379,241,64432,1,0,0:0:0:0:
443,233,64543,1,0,0:0:0:0:
453,169,64654,1,0,0:0:0:0:
428,109,64765,1,0,0:0:0:0:
376,69,64876,1,0,0:0:0:0:
130,67,65098,6,0,P|130:129|174:175,1,107.999996704102
202,192,65432,1,0,0:0:0:0:
254,202,65543,1,0,0:0:0:0:
434,139,65765,1,0,0:0:0:0:
446,300,65987,2,0,P|387:284|348:225,1,107.999996704102
327,204,66321,1,0,0:0:0:0:
299,157,66432,1,0,0:0:0:0:
265,23,66654,1,0,0:0:0:0:
457,93,66876,6,0,P|399:92|354:125,1,107.999996704102
323,160,67210,1,0,0:0:0:0:
304,210,67321,1,0,0:0:0:0:
317,353,67543,1,0,0:0:0:0:
464,269,67765,2,0,P|419:222|369:202,1,107.999996704102
330,185,68098,1,0,0:0:0:0:
276,176,68210,1,0,0:0:0:0:
123,172,68432,1,0,0:0:0:0:
184,306,68654,6,0,L|317:260,1,107.999996704102
338,256,68987,1,0,0:0:0:0:
389,241,69098,1,0,0:0:0:0:
483,118,69321,1,0,0:0:0:0:
454,314,69543,2,0,P|397:275|393:213,1,107.999996704102
392,180,69876,1,0,0:0:0:0:
413,124,69987,1,0,0:0:0:0:
494,29,70210,5,0,0:0:0:0:
301,168,70432,1,0,0:0:0:0:
406,51,70654,1,0,0:0:0:0:
432,232,70876,1,0,0:0:0:0:
227,124,71098,1,0,0:0:0:0:
402,101,71321,2,0,P|392:163|351:196,1,107.999996704102
303,210,71654,1,0,0:0:0:0:
243,206,71765,1,0,0:0:0:0:
127,100,71987,5,0,0:0:0:0:
296,39,72210,2,0,P|312:92|288:141,1,107.999996704102
243,173,72543,1,0,0:0:0:0:
184,182,72654,1,0,0:0:0:0:
28,129,72876,1,0,0:0:0:0:
137,65,73098,2,0,L|274:86,1,107.999996704102
302,91,73432,1,0,0:0:0:0:
360,99,73543,1,0,0:0:0:0:
477,213,73765,5,0,0:0:0:0:
317,257,73987,2,0,L|191:278,1,107.999996704102
151,286,74321,1,0,0:0:0:0:
95,305,74432,1,0,0:0:0:0:
110,162,74654,1,0,0:0:0:0:
244,327,74876,2,0,P|184:316|138:262,1,107.999996704102
132,234,75210,1,0,0:0:0:0:
143,181,75321,1,0,0:0:0:0:
239,77,75543,1,0,0:0:0:0:
239,77,75654,1,0,0:0:0:0:
239,77,75765,5,0,0:0:0:0:
383,229,75987,1,0,0:0:0:0:
175,265,76210,1,0,0:0:0:0:
147,229,76321,1,0,0:0:0:0:
137,185,76432,1,0,0:0:0:0:
147,141,76543,1,0,0:0:0:0:
263,80,76765,5,0,0:0:0:0:
263,80,76876,1,0,0:0:0:0:
263,80,76987,1,0,0:0:0:0:
263,80,77098,1,0,0:0:0:0:
267,125,77210,1,0,0:0:0:0:
272,169,77321,1,0,0:0:0:0:
277,213,77432,1,0,0:0:0:0:
282,257,77543,1,0,0:0:0:0:
438,348,77765,5,0,0:0:0:0:
420,176,77987,1,0,0:0:0:0:
393,139,78098,1,0,0:0:0:0:
354,114,78210,1,0,0:0:0:0:
311,98,78321,1,0,0:0:0:0:
161,109,78543,5,0,0:0:0:0:
161,109,78654,1,0,0:0:0:0:
161,109,78765,1,0,0:0:0:0:
161,109,78876,1,0,0:0:0:0:
168,153,78987,1,0,0:0:0:0:
175,197,79098,1,0,0:0:0:0:
183,241,79210,1,0,0:0:0:0:
192,285,79321,1,0,0:0:0:0:
58,338,79543,5,0,0:0:0:0:
57,195,79765,1,0,0:0:0:0:
90,165,79876,1,0,0:0:0:0:
124,135,79987,1,0,0:0:0:0:
158,105,80098,1,0,0:0:0:0:
278,118,80321,5,0,0:0:0:0:
278,118,80432,1,0,0:0:0:0:
278,118,80543,1,0,0:0:0:0:
278,118,80654,1,0,0:0:0:0:
293,160,80765,1,0,0:0:0:0:
325,190,80876,1,0,0:0:0:0:
368,203,80987,1,0,0:0:0:0:
411,192,81098,6,0,P|445:172|458:123,1,90
316,23,81543,2,0,P|304:63|323:119,1,90
430,280,81987,1,0,0:0:0:0:
428,111,82210,1,0,0:0:0:0:
257,234,82432,2,0,P|289:264|333:269,1,90
415,232,82876,6,0,P|386:200|338:188,1,90
172,207,83321,2,0,L|268:238,1,90
357,324,83765,2,0,P|365:270|332:221,1,90
222,202,84210,1,0,0:0:0:0:
178,190,84321,1,0,0:0:0:0:
134,178,84432,1,0,0:0:0:0:
90,165,84543,1,0,0:0:0:0:
46,153,84654,6,0,P|44:109|93:76,1,90
217,104,85098,2,0,L|318:69,1,90
447,32,85543,1,0,0:0:0:0:
371,214,85765,1,0,0:0:0:0:
269,80,85987,1,0,0:0:0:0:
484,100,86210,1,0,0:0:0:0:
484,100,86321,1,0,0:0:0:0:
484,100,86432,2,0,P|434:122|412:169,1,90
431,312,86876,6,0,L|325:321,1,90
208,341,87321,1,0,0:0:0:0:
196,279,87432,1,0,0:0:0:0:
186,216,87543,1,0,0:0:0:0:
174,154,87654,1,0,0:0:0:0:
161,92,87765,1,0,0:0:0:0:
212,56,87876,1,0,0:0:0:0:
274,48,87987,1,0,0:0:0:0:
336,55,88098,1,0,0:0:0:0:
442,265,88654,6,0,L|242:315,1,202.500007724762
