osu file format v14

[General]
AudioFilename: audio.mp3
AudioLeadIn: 0
PreviewTime: 62132
Countdown: 1
SampleSet: Soft
StackLeniency: 0.2
Mode: 0
LetterboxInBreaks: 0
WidescreenStoryboard: 1

[Editor]
Bookmarks: 12789,25421,38053,50684,57000,62132,63316,75947,88579
DistanceSpacing: 1.3
BeatDivisor: 4
GridSize: 8
TimelineZoom: 2.6

[Metadata]
Title:Trap Queen (Crankdat Remix)
TitleUnicode:Trap Queen (Crankdat Remix)
Artist:Fetty Wap
ArtistUnicode:Fetty Wap
Creator:SnivehNDraegonz
Version:Hard
Source:
Tags:trap RGF productions Tony Fadd 300 entertainment
BeatmapID:1304686
BeatmapSetID:618918

[Difficulty]
HPDrainRate:5
CircleSize:4
OverallDifficulty:5
ApproachRate:7
SliderMultiplier:1.3
SliderTickRate:1

[Events]
//Background and Video events
0,0,"4784-cite-fortifiee-WallFizz.jpg",0,0
//Break Periods
//Storyboard Layer 0 (Background)
//Storyboard Layer 1 (Fail)
//Storyboard Layer 2 (Pass)
//Storyboard Layer 3 (Foreground)
//Storyboard Sound Samples

[TimingPoints]
12790,394.736842105263,4,2,1,60,1,0
25421,-100,4,2,1,60,0,1
38053,-90.9090909090909,4,2,1,60,0,0
50684,-100,4,2,1,20,0,0
52263,-100,4,2,1,25,0,0
53842,-100,4,2,1,30,0,0
55421,-100,4,2,1,35,0,0
57000,-100,4,2,1,40,0,0
58579,-100,4,2,1,50,0,0
60158,-100,4,2,1,60,0,0
63316,-80,4,2,1,75,0,1
64105,-80,4,2,1,75,0,1
64500,-80,4,2,1,75,0,1
65684,-80,4,2,1,75,0,1
66474,-80,4,2,1,75,0,1
67263,-80,4,2,1,75,0,1
67658,-80,4,2,1,75,0,1
70421,-80,4,2,1,75,0,1
70816,-80,4,2,1,75,0,1
72000,-80,4,2,1,75,0,1
72789,-80,4,2,1,75,0,1
74368,-80,4,2,1,75,0,0
75947,-80,4,2,1,75,0,1
76737,-80,4,2,1,75,0,1
77132,-80,4,2,1,75,0,1
78316,-80,4,2,1,75,0,1
79105,-80,4,2,1,75,0,1
79895,-80,4,2,1,75,0,1
80289,-80,4,2,1,75,0,1
83053,-80,4,2,1,75,0,1
83447,-80,4,2,1,75,0,1
84632,-80,4,2,1,75,0,1
85421,-80,4,2,1,75,0,1
87000,-80,4,2,1,75,0,0
88579,-80,4,2,1,75,0,1
88974,-80,4,2,1,75,0,0

[Colours]
Combo1 : 0,164,0
Combo2 : 164,82,0
Combo3 : 183,0,0
Combo4 : 213,213,0
SliderBorderOveride : 111,111,111
SliderTrackOverride : 35,35,35

[HitObjects]
256,192,9632,12,2,10816,0:0:0:0:
141,199,11605,6,0,L|127:120,2,65,2|0|2,0:0|0:0|0:0,0:0:0:0:
163,280,12197,2,0,P|204:304|242:304,1,65,2|0,0:0|0:0,0:0:0:0:
304,294,12592,1,2,0:0:0:0:
403,354,12789,6,0,P|418:307|390:218,1,130,14|0,0:0|0:0,0:0:0:0:
332,178,13382,1,0,0:0:0:0:
247,182,13579,2,0,L|179:170,1,65,2|0,1:2|0:0,0:0:0:0:
101,148,13974,1,14,0:2:0:0:
119,230,14171,5,2,1:2:0:0:
163,90,14566,1,2,1:2:0:0:
182,170,14763,2,0,P|216:155|237:126,1,65,10|0,0:0|0:0,0:0:0:0:
163,90,15158,2,0,P|129:105|108:134,1,65,2|0,1:2|0:0,0:0:0:0:
113,210,15553,2,0,L|120:299,1,65,2|2,0:0|0:0,0:0:0:0:
182,170,15947,6,0,L|194:301,1,130,14|0,0:0|0:0,0:0:0:0:
254,358,16539,1,0,0:0:0:0:
303,289,16737,2,0,P|345:285|382:297,1,65,2|2,1:2|0:0,0:0:0:0:
424,352,17132,1,6,0:0:0:0:
468,280,17329,6,0,L|451:141,1,130,2|2,1:2|1:2,0:0:0:0:
402,82,17921,1,10,0:0:0:0:
321,58,18118,1,0,0:0:0:0:
237,72,18316,2,0,P|196:89|172:116,1,65,2|0,1:2|0:0,0:0:0:0:
143,178,18711,2,0,L|148:222,3,32.5,2|0|2|0,0:0|0:0|0:0|0:0,0:0:0:0:
105,251,19105,6,0,L|242:235,1,130,14|0,0:0|0:0,0:0:0:0:
318,224,19697,1,0,0:0:0:0:
386,274,19895,2,0,P|400:245|402:213,1,65,2|2,1:2|0:0,0:0:0:0:
351,145,20289,1,14,0:0:0:0:
318,224,20487,1,2,1:2:0:0:
443,337,20882,1,0,1:0:0:0:
386,274,21079,1,10,0:0:0:0:
218,251,21474,2,0,P|177:258|148:281,1,65,2|0,1:2|0:0,0:0:0:0:
213,334,21868,2,0,P|254:327|283:304,1,65,2|0,0:0|0:0,0:0:0:0:
310,202,22263,6,0,L|299:56,1,130,14|0,0:0|0:0,0:0:0:0:
224,33,22855,1,8,0:0:0:0:
162,91,23053,2,0,L|170:179,1,65,2|2,1:2|0:0,0:0:0:0:
126,229,23447,1,6,0:0:0:0:
181,293,23645,6,0,L|327:282,1,130,2|0,1:2|1:0,0:0:0:0:
371,224,24237,2,0,P|376:191|370:156,1,65,10|0,0:0|0:0,0:0:0:0:
309,101,24632,1,2,1:2:0:0:
219,86,24829,1,0,0:0:0:0:
127,120,25026,1,2,0:0:0:0:
82,214,25224,1,2,0:0:0:0:
134,345,25421,6,0,L|280:334,1,130,12|0,0:0|0:0,0:0:0:0:
347,326,26013,1,0,0:0:0:0:
431,319,26211,2,0,P|436:268|430:231,1,65,0|0,1:0|0:0,0:0:0:0:
390,182,26605,1,12,0:2:0:0:
323,128,26803,6,0,P|272:123|235:129,1,65,0|0,1:0|0:0,0:0:0:0:
189,173,27197,1,0,1:0:0:0:
255,224,27395,2,0,P|306:229|343:223,1,65,8|0,0:0|0:0,0:0:0:0:
390,182,27789,1,0,1:0:0:0:
404,98,27987,1,0,0:0:0:0:
344,38,28184,2,0,P|293:33|256:39,1,65
182,100,28579,6,8,L|170:243,1,130,12|0,0:0|0:0,0:0:0:0:
158,313,29171,1,0,0:0:0:0:
236,282,29368,2,0,P|274:279|314:291,1,65,0|0,1:0|0:0,0:0:0:0:
369,333,29763,1,8,0:2:0:0:
378,248,29961,6,0,L|392:181,1,65,0|0,1:0|0:0,0:0:0:0:
394,100,30355,1,0,1:0:0:0:
321,144,30553,2,0,P|283:147|243:135,1,65,8|0,0:0|0:0,0:0:0:0:
186,95,30947,2,0,L|109:93,1,65,0|0,1:0|0:0,0:0:0:0:
117,177,31342,2,0,L|194:179,1,65
320,144,31737,6,0,L|468:149,1,130,12|0,0:0|0:0,0:0:0:0:
494,220,32329,1,0,0:0:0:0:
426,270,32526,2,0,L|353:267,1,65,0|0,1:0|0:0,0:0:0:0:
287,310,32921,1,8,0:0:0:0:
250,233,33118,6,0,P|193:228|165:234,1,65,4|0,1:2|0:0,0:0:0:0:
135,297,33513,1,0,1:0:0:0:
66,247,33711,2,0,P|64:214|69:182,1,65,8|0,0:0|0:0,0:0:0:0:
129,122,34105,1,0,1:0:0:0:
213,126,34303,1,0,0:0:0:0:
270,188,34500,2,0,P|271:220|266:252,1,65
205,352,34895,6,0,L|353:341,1,130,12|0,0:2|0:0,0:0:0:0:
418,333,35487,1,8,0:0:0:0:
479,275,35684,2,0,P|481:236|465:199,1,65,0|0,1:0|0:0,0:0:0:0:
415,149,36079,1,12,0:0:0:0:
333,126,36276,6,0,P|331:165|347:202,1,65,0|0,1:0|0:0,0:0:0:0:
399,249,36671,1,0,1:0:0:0:
317,271,36868,2,0,L|227:262,1,65,8|0,0:0|0:0,0:0:0:0:
192,204,37263,2,0,L|183:114,1,65,0|0,1:0|0:0,0:0:0:0:
127,77,37658,2,0,L|88:81,3,32.5
39,34,38053,6,0,L|49:150,1,107.25000327301
75,178,38447,2,0,P|84:214|80:254,1,71.5000021820069
58,338,38842,2,0,L|152:333,1,71.5000021820069
222,324,39237,1,0,0:0:0:0:
314,316,39434,1,0,0:0:0:0:
322,292,39533,1,0,0:0:0:0:
327,267,39632,6,0,P|324:217|307:185,1,71.5000021820069
298,179,39928,1,0,0:0:0:0:
283,158,40026,2,0,P|286:108|303:76,1,71.5000021820069
366,29,40421,1,0,0:0:0:0:
381,120,40618,1,0,0:0:0:0:
292,89,40816,2,0,L|209:89,1,71.5000021820069
91,90,41211,6,0,P|94:135|144:202,1,107.25000327301
125,187,41605,2,0,L|134:279,1,71.5000021820069
224,267,42000,2,0,L|215:175,1,71.5000021820069
307,171,42395,1,0,0:0:0:0:
317,263,42592,6,0,L|322:322,2,35.7500010910034
392,208,42987,2,0,L|451:202,2,35.7500010910034
307,171,43382,1,0,0:0:0:0:
381,116,43579,2,0,P|381:74|365:34,1,71.5000021820069
283,17,43875,1,0,0:0:0:0:
283,17,43974,2,0,P|283:59|299:99,1,71.5000021820069
392,208,44368,6,0,L|387:328,1,107.25000327301
387,315,44763,2,0,P|335:325|294:312,1,71.5000021820069
254,253,45158,2,0,P|201:243|160:256,1,71.5000021820069
102,290,45553,1,0,0:0:0:0:
108,197,45750,2,0,L|62:206,2,35.7500010910034
115,104,46145,2,0,L|161:113,2,35.7500010910034
126,11,46539,1,0,0:0:0:0:
42,51,46737,2,0,P|25:92|26:125,1,71.5000021820069
72,203,47132,2,0,L|153:218,1,71.5000021820069
240,324,47526,6,0,P|283:310|362:331,1,107.25000327301
343,319,47921,2,0,L|357:219,1,71.5000021820069
362,156,48316,1,0,0:0:0:0:
278,196,48513,1,0,0:0:0:0:
352,249,48711,2,0,P|391:256|442:250,1,71.5000021820069
442,246,49007,1,0,0:0:0:0:
460,236,49105,6,0,L|469:145,1,71.5000021820069
469,143,49401,1,0,0:0:0:0:
471,121,49500,2,0,L|480:30,1,71.5000021820069
381,105,49895,2,0,L|390:14,1,71.5000021820069
287,88,50191,1,0,0:0:0:0:
287,88,50289,2,0,L|296:-3,1,71.5000021820069
192,105,50684,6,0,P|209:148|241:176,1,65
200,244,51079,2,0,P|157:261|129:293,1,65
65,240,51474,2,0,P|48:197|16:169,1,65
62,103,51868,2,0,P|105:86|133:54,1,65
128,57,52164,1,0,0:0:0:0:
137,40,52263,6,0,L|209:36,1,65
203,121,52658,2,0,L|275:117,1,65
267,202,53053,2,0,L|339:198,1,65
343,281,53447,2,0,L|415:277,1,65
426,271,53743,1,0,0:0:0:0:
441,258,53842,6,0,P|455:222|454:181,1,65
385,149,54237,2,0,P|387:116|400:86,1,65
320,58,54632,2,0,P|317:90|304:120,1,65
224,146,55026,2,0,P|211:175|208:208,1,65
213,227,55322,1,0,0:0:0:0:
217,246,55421,6,0,L|144:243,1,65
149,328,55816,2,0,L|222:331,1,65
298,335,56211,2,0,L|362:337,1,65
366,254,56606,2,0,L|301:251,1,65
281,249,56901,1,0,0:0:0:0:
261,246,57000,5,0,0:0:0:0:
217,174,57197,1,0,0:0:0:0:
280,117,57395,2,0,L|353:117,1,65
346,32,57789,2,0,L|273:32,1,65
207,75,58184,1,0,0:0:0:0:
137,27,58382,1,0,0:0:0:0:
62,66,58579,5,0,0:0:0:0:
64,150,58776,1,0,0:0:0:0:
136,194,58974,2,0,P|149:229|139:279,1,65
76,300,59368,2,0,P|63:265|73:215,1,65
136,194,59763,1,0,0:0:0:0:
209,152,59961,1,0,0:0:0:0:
281,108,60158,6,0,L|338:116,2,32.5
136,194,60553,2,0,L|94:154,2,32.5
303,209,60947,2,0,L|313:265,2,32.5
176,98,61342,2,0,L|201:46,2,32.5
213,262,61737,2,0,L|162:289,2,32.5
219,177,62132,5,0,0:0:0:0:
476,98,62921,5,0,0:0:0:0:
483,139,63020,1,0,0:0:0:0:
491,180,63118,1,0,0:0:0:0:
435,269,63316,6,0,P|393:279|344:267,1,81.25,12|0,0:0|0:0,0:0:0:0:
267,215,63711,1,0,0:0:0:0:
358,25,64105,5,4,1:2:0:0:
268,216,64500,6,0,P|213:242|171:241,1,81.25,4|0,0:0|0:0,0:0:0:0:
121,165,64895,2,0,P|176:139|218:140,1,81.25
268,216,65289,5,8,0:0:0:0:
148,41,65684,5,4,1:2:0:0:
268,216,66079,2,0,L|371:227,1,81.25
454,235,66474,6,0,P|474:191|472:126,1,81.25,12|0,0:0|0:0,0:0:0:0:
438,60,66868,1,0,0:0:0:0:
336,28,67066,1,0,0:0:0:0:
249,88,67263,5,4,1:2:0:0:
197,293,67658,6,0,P|146:292|108:270,1,81.25,4|0,0:0|0:0,0:0:0:0:
136,174,68053,2,0,P|187:175|225:197,1,81.25
286,263,68447,1,8,0:0:0:0:
487,198,68842,5,4,1:2:0:0:
389,238,69039,2,0,P|381:187|395:145,1,81.25,8|0,0:0|0:0,0:0:0:0:
476,100,69434,1,8,0:0:0:0:
381,52,69632,6,0,L|287:53,1,81.25,12|0,0:0|0:0,0:0:0:0:
194,55,70026,1,0,0:0:0:0:
261,255,70421,5,4,1:2:0:0:
227,154,70618,1,0,0:0:0:0:
194,55,70816,6,0,P|142:57|109:71,1,81.25,12|0,0:0|0:0,0:0:0:0:
53,153,71211,2,0,P|55:205|69:238,1,81.25
146,298,71605,1,8,0:0:0:0:
356,313,72000,5,4,1:2:0:0:
146,298,72395,2,0,L|165:200,1,81.25
248,158,72789,6,0,P|308:165|337:161,2,81.25,12|0|0,0:0|0:0|0:0,0:0:0:0:
171,83,73382,1,12,0:0:0:0:
271,52,73579,1,0,1:0:0:0:
248,158,73776,1,0,0:0:0:0:
146,186,73974,2,0,L|47:172,1,81.25,4|0,0:0|0:0,0:0:0:0:
2,90,74368,6,0,L|82:78,1,81.25,2|0,0:0|0:0,0:0:0:0:
82,77,75947,6,0,P|74:130|92:186,1,81.25,12|0,0:0|0:0,0:0:0:0:
147,237,76342,1,0,0:0:0:0:
171,27,76737,5,4,1:2:0:0:
147,237,77132,6,0,P|200:245|256:227,1,81.25,12|0,0:0|0:0,0:0:0:0:
274,146,77526,2,0,P|221:138|165:156,1,81.25
147,237,77921,1,8,0:0:0:0:
212,36,78316,5,4,1:2:0:0:
147,237,78711,2,0,L|162:325,1,81.25
245,380,79105,6,0,P|297:386|353:365,1,81.25,12|0,0:0|0:0,0:0:0:0:
403,309,79500,1,0,0:0:0:0:
419,204,79697,1,0,0:0:0:0:
371,109,79895,5,4,1:2:0:0:
191,218,80289,6,0,P|185:270|206:326,1,81.25,12|0,0:2|0:0,0:0:0:0:
287,252,80684,2,0,P|293:200|272:144,1,81.25
199,112,81079,1,8,0:0:0:0:
95,296,81474,5,4,1:2:0:0:
152,384,81671,2,0,L|260:382,1,81.25
339,378,82066,1,8,0:2:0:0:
283,288,82263,6,0,P|281:223|300:186,1,81.25,12|0,0:0|0:0,0:0:0:0:
387,177,82658,1,0,0:0:0:0:
182,231,83053,5,4,1:2:0:0:
286,208,83250,1,0,0:0:0:0:
387,177,83447,6,0,P|396:125|386:86,1,81.25,4|0,1:2|0:0,0:0:0:0:
317,21,83842,2,0,P|265:12|226:22,1,81.25
159,89,84237,1,8,0:2:0:0:
202,295,84632,5,4,1:2:0:0:
159,89,85026,2,0,L|146:186,1,81.25
101,264,85421,6,0,P|53:267|13:253,2,81.25,4|0|0,1:2|0:0|0:0,0:0:0:0:
202,295,86013,2,0,P|250:292|290:306,2,81.25,4|0|0,1:2|1:0|0:0,0:0:0:0:
101,264,86605,2,0,L|110:172,1,81.25,4|0,1:2|0:0,0:0:0:0:
118,77,87000,6,0,P|167:88|199:120,2,81.25,2|0|2,0:0|0:0|0:0,0:0:0:0:
250,241,87789,2,0,L|336:233,1,81.25,2|0,0:0|0:0,0:0:0:0:
436,220,88184,2,0,L|444:176,2,40.625,2|0|2,0:0|0:0|0:0,0:0:0:0:
400,369,88579,5,2,0:0:0:0:
