osu file format v14

[General]
AudioFilename: audio.mp3
AudioLeadIn: 0
PreviewTime: 62132
Countdown: 1
SampleSet: None
StackLeniency: 0.6
Mode: 0
LetterboxInBreaks: 0
WidescreenStoryboard: 1

[Editor]
Bookmarks: 12789,25421,38053,50684,57000,62132,63316,75947,88579
DistanceSpacing: 1.1
BeatDivisor: 4
GridSize: 8
TimelineZoom: 2.6

[Metadata]
Title:Trap Queen (Crankdat Remix)
TitleUnicode:Trap Queen (Crankdat Remix)
Artist:Fetty Wap
ArtistUnicode:Fetty Wap
Creator:SnivehNDraegonz
Version:Easy
Source:
Tags:trap RGF productions Tony Fadd 300 entertainment
BeatmapID:1304685
BeatmapSetID:618918

[Difficulty]
HPDrainRate:1
CircleSize:3
OverallDifficulty:2
ApproachRate:3
SliderMultiplier:0.799999999999999
SliderTickRate:1

[Events]
//Background and Video events
0,0,"4784-cite-fortifiee-WallFizz.jpg",0,0
//Break Periods
//Storyboard Layer 0 (Background)
//Storyboard Layer 1 (Fail)
//Storyboard Layer 2 (Pass)
//Storyboard Layer 3 (Foreground)
//Storyboard Sound Samples

[TimingPoints]
12790,394.736842105263,4,2,1,60,1,0
25421,-100,4,2,1,60,0,1
38053,-100,4,2,1,60,0,0
50684,-100,4,2,1,20,0,0
52263,-100,4,2,1,25,0,0
53842,-100,4,2,1,30,0,0
55421,-100,4,2,1,35,0,0
57000,-100,4,2,1,40,0,0
58579,-100,4,2,1,50,0,0
60158,-100,4,2,1,60,0,0
63316,-80,4,2,1,75,0,1
64105,-80,4,2,1,75,0,1
64500,-80,4,2,1,75,0,1
65684,-80,4,2,1,75,0,1
66474,-80,4,2,1,75,0,1
67263,-80,4,2,1,75,0,1
67658,-80,4,2,1,75,0,1
70421,-80,4,2,1,75,0,1
70816,-80,4,2,1,75,0,1
72000,-80,4,2,1,75,0,1
72789,-80,4,2,1,75,0,1
74368,-80,4,2,1,75,0,0
75947,-80,4,2,1,75,0,1
76737,-80,4,2,1,75,0,1
77132,-80,4,2,1,75,0,1
78316,-80,4,2,1,75,0,1
79105,-80,4,2,1,75,0,1
79895,-80,4,2,1,75,0,1
80289,-80,4,2,1,75,0,1
83053,-80,4,2,1,75,0,1
83447,-80,4,2,1,75,0,1
84632,-80,4,2,1,75,0,1
85421,-80,4,2,1,75,0,1
87000,-80,4,2,1,75,0,0
88579,-80,4,2,1,75,0,1
88974,-80,4,2,1,75,0,0

[Colours]
Combo1 : 0,164,0
Combo2 : 164,82,0
Combo3 : 183,0,0
Combo4 : 213,213,0
SliderBorderOveride : 111,111,111
SliderTrackOverride : 35,35,35

[HitObjects]
256,192,9632,12,2,11605,0:0:0:0:
93,289,12789,5,14,1:2:0:0:
58,117,13579,1,0,1:0:0:0:
131,165,13974,2,0,P|187:178|294:146,1,160,10|8,0:0|0:0,0:0:0:0:
348,91,15158,1,0,1:0:0:0:
195,3,15947,5,2,1:2:0:0:
131,165,16737,1,0,1:0:0:0:
215,140,17132,2,0,P|204:217|122:255,1,160,10|8,0:0|0:0,0:0:0:0:
131,165,18316,1,0,1:0:0:0:
279,71,19105,5,2,1:2:0:0:
429,162,19895,1,0,1:0:0:0:
383,237,20289,2,0,L|219:266,1,160,10|8,0:2|0:0,0:0:0:0:
139,284,21474,1,0,1:0:0:0:
42,136,22263,5,2,1:2:0:0:
218,130,23053,1,0,1:0:0:0:
173,206,23447,2,0,P|181:261|276:321,1,160,10|8,0:0|0:0,0:0:0:0:
348,308,24632,1,0,1:0:0:0:
412,144,25421,5,6,1:2:0:0:
267,43,26211,1,0,1:0:0:0:
188,82,26605,2,8,L|102:80,2,79.9999999999999,14|0|8,1:2|0:0|0:0,0:0:0:0:
259,132,27789,2,0,P|268:183|266:219,1,79.9999999999999,0|0,1:0|0:0,0:0:0:0:
225,288,28579,5,6,1:2:0:0:
53,327,29368,1,0,1:0:0:0:
109,259,29763,2,0,P|76:242|30:242,2,79.9999999999999,14|0|8,1:2|0:0|0:2,0:0:0:0:
144,339,30947,1,0,1:0:0:0:
161,163,31737,5,14,1:2:0:0:
306,262,32526,1,0,1:0:0:0:
373,205,32921,2,0,L|457:209,2,79.9999999999999,14|0|8,1:2|0:0|0:0,0:0:0:0:
290,174,34105,2,0,P|279:116|285:85,1,79.9999999999999,0|0,1:0|0:0,0:0:0:0:
346,36,34895,5,14,1:2:0:0:
380,208,35684,1,0,1:0:0:0:
310,262,36079,2,0,L|228:271,2,79.9999999999999,14|0|8,1:2|0:0|0:0,0:0:0:0:
390,297,37263,1,0,1:0:0:0:
462,247,37658,1,0,0:0:0:0:
454,159,38053,5,10,0:0:0:0:
374,122,38447,1,0,1:0:0:0:
299,168,38842,2,0,L|220:176,1,79.9999999999999,8|2,0:0|1:2,0:0:0:0:
142,218,39632,6,0,P|102:224|64:214,1,79.9999999999999,8|0,0:0|1:0,0:0:0:0:
66,126,40421,2,0,P|105:119|143:129,1,79.9999999999999,8|0,0:0|1:0,0:0:0:0:
219,176,41211,5,10,0:0:0:0:
226,263,41605,1,0,1:0:0:0:
235,350,42000,2,0,P|271:337|302:301,1,79.9999999999999,8|2,0:0|1:2,0:0:0:0:
304,219,42789,6,0,L|297:129,1,79.9999999999999,8|0,0:0|1:0,0:0:0:0:
381,110,43579,2,0,L|388:200,1,79.9999999999999,8|0,0:0|1:0,0:0:0:0:
397,277,44368,5,10,0:0:0:0:
314,306,44763,1,0,1:0:0:0:
230,333,45158,2,0,L|143:324,1,79.9999999999999,8|2,0:0|1:2,0:0:0:0:
81,270,45947,6,0,P|66:211|73:183,1,79.9999999999999,8|0,0:0|1:0,0:0:0:0:
141,142,46737,2,0,P|155:179|152:218,1,79.9999999999999,8|0,0:0|1:0,0:0:0:0:
81,270,47526,5,10,0:0:0:0:
161,306,47921,1,0,1:0:0:0:
232,254,48316,2,0,P|265:231|304:225,1,79.9999999999999,8|2,0:0|1:2,0:0:0:0:
386,256,49105,6,0,L|481:253,1,79.9999999999999,8|0,0:0|1:0,0:0:0:0:
468,165,49895,2,0,L|388:167,1,79.9999999999999,8|0,0:0|1:0,0:0:0:0:
307,132,50684,5,2,1:2:0:0:
307,308,51474,1,2,1:2:0:0:
155,218,52263,1,2,1:2:0:0:
307,132,53053,1,2,1:2:0:0:
217,283,53842,6,0,P|174:305|76:262,1,160,2|2,1:2|1:2,0:2:0:0:
108,91,55421,2,0,P|151:69|249:112,1,160,2|2,1:2|1:2,0:2:0:0:
217,283,57000,5,2,1:2:0:0:
133,311,57395,1,2,1:2:0:0:
59,263,57789,1,2,1:2:0:0:
48,175,58184,1,2,1:2:0:0:
90,97,58579,6,0,P|131:71|179:66,1,79.9999999999999,2|2,1:2|1:2,0:2:0:0:
224,126,59368,2,0,P|265:152|313:157,1,79.9999999999999,2|2,1:2|1:2,0:2:0:0:
256,192,60158,12,2,62132,0:0:0:0:
227,109,63316,6,0,P|183:107|90:227,1,200,6|0,1:2|1:0,0:0:0:0:
60,321,64500,2,0,P|104:323|197:203,1,200,6|8,1:2|0:0,0:0:0:0:
227,109,65684,2,0,P|274:66|324:57,1,99.9999999999999,4|0,1:2|0:0,0:0:0:0:
411,96,66474,6,0,L|442:306,1,200,4|0,1:2|1:0,0:0:0:0:
351,359,67658,2,0,L|320:149,1,200,4|8,1:2|0:0,0:0:0:0:
213,139,68842,2,0,L|230:255,1,99.9999999999999,4|0,1:2|0:0,0:0:0:0:
249,346,69632,6,0,P|181:334|116:209,1,200,4|0,1:2|1:0,0:0:0:0:
125,119,70816,2,0,L|348:105,1,200,4|8,1:2|0:0,0:0:0:0:
434,99,72000,1,4,1:2:0:0:
387,198,72395,1,0,0:0:0:0:
453,285,72789,6,0,P|375:304|307:273,2,150,12|12|12,0:0|0:0|0:0,0:0:0:0:
501,186,74368,5,2,0:0:0:0:
322,24,75947,6,0,P|309:83|387:203,1,200,4|0,1:2|1:0,0:0:0:0:
483,171,77132,2,0,P|485:231|459:278,1,99.9999999999999,4|0,1:2|0:0,0:0:0:0:
367,308,77921,1,8,0:0:0:0:
274,249,78316,2,0,L|165:269,1,99.9999999999999,4|0,1:2|0:0,0:0:0:0:
76,314,79105,6,0,B|53:272|72:226|72:226|94:173|70:120,1,200,4|0,1:2|1:0,0:0:0:0:
10,28,80289,2,0,P|99:15|126:27,1,99.9999999999999,4|0,1:2|0:0,0:0:0:0:
191,86,81079,1,8,0:0:0:0:
287,32,81474,1,4,1:2:0:0:
383,84,81868,1,0,0:0:0:0:
479,31,82263,6,0,L|458:247,1,200,4|0,1:2|1:0,0:0:0:0:
448,339,83447,2,0,P|374:344|337:322,1,99.9999999999999,4|0,1:2|0:0,0:0:0:0:
274,255,84237,1,8,0:0:0:0:
205,169,84632,2,0,P|157:154|109:163,1,99.9999999999999,4|0,1:2|0:0,0:0:0:0:
47,254,85421,6,0,P|65:174|46:102,2,150,12|12|12,0:0|0:0|0:0,0:0:0:0:
91,354,87000,6,0,L|200:339,1,99.9999999999999,2|0,0:0|0:0,0:0:0:0:
298,318,87789,2,0,L|397:331,1,99.9999999999999,2|2,0:0|0:0,0:0:0:0:
505,353,88579,5,6,1:2:0:0:
