osu file format v14

[General]
AudioFilename: audio.mp3
AudioLeadIn: 0
PreviewTime: 87055
Countdown: 0
SampleSet: Soft
StackLeniency: 0.4
Mode: 0
LetterboxInBreaks: 0
WidescreenStoryboard: 0

[Editor]
Bookmarks: 98668
DistanceSpacing: 1
BeatDivisor: 4
GridSize: 16
TimelineZoom: 2.5

[Metadata]
Title:Lemuria
TitleUnicode:Lemuria
Artist:Festa
ArtistUnicode:Festa
Creator:QuiescentRabbit
Version:Side's Normal
Source:BMS
Tags:blastthekidd side crazyrabbitkge nayarii elcheer mentai xi piano artcore electronic deathstream rsi evolved chronicles
BeatmapID:1767334
BeatmapSetID:835474

[Difficulty]
HPDrainRate:3
CircleSize:3
OverallDifficulty:4
ApproachRate:5
SliderMultiplier:1.1
SliderTickRate:1

[Events]
//Background and Video events
0,0,"background.jpg",0,0
//Break Periods
2,77821,78777
//Storyboard Layer 0 (Background)
//Storyboard Layer 1 (Fail)
//Storyboard Layer 2 (Pass)
//Storyboard Layer 3 (Foreground)
//Storyboard Sound Samples

[TimingPoints]
991,314.13612565445,4,2,0,65,1,0
1148,-100,4,2,0,10,0,0
1462,-100,4,2,0,15,0,0
1776,-100,4,2,0,20,0,0
2090,-100,4,2,0,25,0,0
2404,-100,4,2,0,30,0,0
2718,-100,4,2,0,35,0,0
3032,-100,4,2,0,40,0,0
3347,-100,4,2,0,45,0,0
3661,-100,4,2,0,50,0,0
3975,-100,4,2,0,55,0,0
4132,-100,4,2,0,60,0,0
4760,-133.333333333333,4,2,0,60,0,0
11671,-100,4,2,0,65,0,0
15598,331.491712707182,4,2,0,65,1,0
16095,350.877192982456,4,2,0,65,1,0
16445,372.670807453416,4,2,0,65,1,0
16817,425.531914893617,4,2,0,65,1,0
17413,458.015267175573,4,2,0,65,1,0
18100,540.540540540541,4,2,0,65,1,0
18640,588.235294117647,4,2,0,65,1,0
19820,314.13612565445,4,2,0,65,1,0
24846,-100,4,2,0,65,0,0
25160,-100,4,2,0,70,0,0
35212,-100,4,2,0,75,0,0
45265,-100,4,2,0,65,0,0
53118,-100,4,2,0,60,0,0
54374,-100,4,2,0,70,0,0
64113,-100,4,2,0,75,0,0
77621,-100,4,2,0,50,0,0
79977,-100,4,2,0,65,0,0
80762,-100,4,2,0,67,0,0
81076,-100,4,2,0,69,0,0
81390,-100,4,2,0,71,0,0
81704,-100,4,2,0,73,0,0
82018,-100,4,2,0,75,0,0
85003,-100,4,2,0,78,0,0
87045,-100,4,2,0,60,0,0
87673,-100,4,2,0,80,0,1
97411,-100,4,2,0,80,0,0
97725,-100,4,2,0,80,0,1
107463,-100,4,2,0,80,0,0
107778,-100,4,2,0,80,0,1
117516,-100,4,2,0,80,0,0
117830,-100,4,2,0,80,0,1
127882,-100,4,2,0,80,0,0
134793,-100,4,2,0,75,0,0
135107,-100,4,2,0,70,0,0
135422,-100,4,2,0,65,0,0
135736,-100,4,2,0,60,0,0
136050,-100,4,2,0,55,0,0
136364,-100,4,2,0,50,0,0
136678,-100,4,2,0,45,0,0
136992,-100,4,2,0,40,0,0
137306,-100,4,2,0,35,0,0
137621,-100,4,2,0,30,0,0
137935,-100,4,2,0,25,0,0
138249,-100,4,2,0,20,0,0
138563,-100,4,2,0,15,0,0
138877,-100,4,2,0,10,0,0
139191,-100,4,2,0,5,0,0

[Colours]
Combo1 : 184,192,199
Combo2 : 148,204,235
Combo3 : 12,104,180

[HitObjects]
256,192,991,5,4,0:0:0:0:
256,192,1148,12,0,4132,0:0:0:0:
382,123,4760,6,0,L|383:81,2,41.2500015735627,4|2|0,0:0|0:0|0:0,0:0:0:0:
445,199,5388,2,0,L|441:245,1,41.2500015735627,2|0,0:0|0:0,0:0:0:0:
349,278,5860,2,0,P|308:270|272:251,2,82.5000031471254,2|2|0,0:0|0:0|0:0,0:0:0:0:
378,317,6645,2,0,L|374:363,1,41.2500015735627,2|0,0:0|0:0,0:0:0:0:
176,371,7430,6,0,P|160:332|136:299,1,82.5000031471254,2|2,0:0|0:0,0:0:0:0:
121,201,8059,1,2,0:0:0:0:
216,87,8530,6,0,L|304:91,1,82.5000031471254,2|0,0:0|0:0,0:0:0:0:
384,139,9158,1,2,0:0:0:0:
452,324,9786,1,2,0:0:0:0:
254,345,10415,2,0,L|270:297,1,41.2500015735627,2|0,0:0|0:0,0:0:0:0:
227,215,10886,1,2,0:0:0:0:
131,189,11200,1,2,0:0:0:0:
56,254,11514,1,0,0:0:0:0:
56,254,11671,6,0,B|32:210|32:210|34:150,1,110,4|8,3:2|3:2,0:0:0:0:
221,34,12614,1,8,3:2:0:0:
418,130,13242,1,8,3:2:0:0:
418,130,13556,2,0,B|437:177|437:177|428:235,1,110,2|8,3:2|0:0,0:0:0:0:
364,325,14184,2,0,P|311:308|257:309,1,110,0|8,3:2|0:0,0:0:0:0:
169,374,14812,1,0,3:0:0:0:
90,300,15127,5,6,3:2:0:0:
90,300,15284,1,2,0:0:0:0:
152,209,15598,1,6,3:2:0:0:
152,209,15763,1,2,0:0:0:0:
256,242,16095,6,0,P|309:254|363:244,1,110,6|8,3:2|3:2,0:0:0:0:
445,174,16817,6,0,L|459:100,1,55,6|2,3:2|0:0,0:0:0:0:
363,69,17413,2,0,L|364:132,1,55,6|2,3:2|0:0,0:0:0:0:
283,171,18100,6,0,B|274:119|274:119|229:81,1,110,6|0,3:2|3:2,0:0:0:0:
256,192,19820,12,0,21704,0:0:0:0:
146,37,22333,5,6,0:0:0:0:
295,107,22804,1,2,0:0:0:0:
458,67,23275,1,2,0:0:0:0:
458,67,23589,2,0,B|388:134|394:228|394:228|331:187|247:208,1,330,4|8,0:0|0:0,0:0:0:0:
159,272,24846,6,0,P|153:217|124:171,1,110,0|12,0:0|0:0,0:0:0:0:
19,139,25474,2,0,P|23:111|35:87,2,55,2|0|8,0:0|3:0|0:0,0:0:0:0:
35,190,25945,2,0,P|44:244|27:296,1,110,2|2,3:2|3:2,0:0:0:0:
169,378,26730,2,0,L|286:369,1,110,2|8,0:0|0:0,0:0:0:0:
360,295,27359,6,0,P|346:242|351:187,1,110,2|8,3:2|0:0,0:0:0:0:
458,123,27987,2,0,L|467:68,2,55,2|0|8,0:0|3:2|0:0,0:0:0:0:
480,173,28458,2,0,L|494:283,1,110,2|2,3:2|3:2,0:0:0:0:
340,343,29244,1,2,0:0:0:0:
251,278,29558,1,8,0:0:0:0:
161,342,29872,6,0,P|107:331|63:299,1,110,2|8,3:2|0:0,0:0:0:0:
37,192,30500,2,0,L|44:137,1,55,2|0,0:0|3:2,0:0:0:0:
91,110,30814,1,8,0:0:0:0:
91,110,30971,2,0,P|145:116|200:111,1,110,2|2,3:2|3:2,0:0:0:0:
299,63,31600,1,0,0:0:0:0:
299,63,31757,2,0,P|353:68|407:61,1,110,2|8,0:0|0:0,0:0:0:0:
488,135,32385,5,2,3:2:0:0:
410,213,32699,1,8,0:0:0:0:
306,176,33013,2,0,P|279:168|252:165,1,55,2|0,0:0|3:0,0:0:0:0:
160,224,33484,2,0,L|158:353,1,110,2|2,3:2|3:2,0:0:0:0:
196,374,33956,2,0,P|224:368|254:371,1,55,8|0,0:0|0:0,0:0:0:0:
295,339,34270,2,0,P|304:300|326:264,2,82.5,2|2|2,0:0|0:0|0:0,0:0:0:0:
459,331,35212,5,4,3:2:0:0:
433,223,35526,1,0,3:0:0:0:
325,249,35840,1,8,3:2:0:0:
299,141,36155,1,0,3:0:0:0:
191,167,36469,1,8,3:2:0:0:
217,275,36783,1,0,3:0:0:0:
109,301,37097,1,8,3:2:0:0:
83,193,37411,6,0,L|56:86,1,110,2|8,3:2|3:2,0:0:0:0:
164,60,38039,2,0,L|191:167,1,110,2|8,3:2|3:2,0:0:0:0:
225,209,38511,2,0,P|203:259|197:313,1,110,0|0,3:0|3:0,0:0:0:0:
228,358,38982,2,0,L|298:344,1,55,8|0,0:0|0:0,0:0:0:0:
336,356,39296,1,2,3:2:0:0:
443,334,39610,1,8,0:0:0:0:
471,227,39924,6,0,B|466:178|466:178|425:132,1,110,6|8,3:2|3:2,0:0:0:0:
315,140,40552,2,0,B|266:135|266:135|220:94,1,110,0|8,3:2|0:0,0:0:0:0:
170,70,41024,2,0,P|116:80|77:118,1,110,2|0,3:2|3:2,0:0:0:0:
75,282,41809,2,0,L|129:272,1,55,2|0,0:0|0:0,0:0:0:0:
178,296,42123,2,0,L|219:260,1,55,8|0,0:0|0:0,0:0:0:0:
267,228,42437,5,6,0:0:0:0:
267,228,42594,1,2,0:0:0:0:
330,137,42909,1,6,0:0:0:0:
330,137,43066,1,2,0:0:0:0:
261,49,43380,1,6,0:0:0:0:
261,49,43537,2,0,P|180:41|99:57,1,165,2|8,0:0|0:0,0:0:0:0:
30,143,44322,2,0,L|36:225,2,82.5,6|2|0,3:2|0:0|0:0,0:0:0:0:
256,192,45265,12,0,46521,0:0:0:0:
361,80,47149,6,0,P|393:183|359:285,1,220,2|0,0:0|0:0,0:0:0:0:
144,333,48406,2,0,P|111:229|145:127,1,220,2|2,0:0|0:0,0:0:0:0:
256,192,49348,12,2,53118,0:0:0:0:
41,59,54374,6,0,L|112:69,1,55,4|0,0:0|0:0,0:0:0:0:
140,167,54846,2,0,L|194:159,1,55,4|0,0:0|0:0,0:0:0:0:
239,259,55317,2,0,L|310:269,1,55,4|0,0:0|0:0,0:0:0:0:
372,122,55945,2,0,P|386:98|405:79,2,55,0|0|8,3:0|3:0|0:0,0:0:0:0:
289,195,56573,6,0,P|182:214|82:172,1,220,4|0,3:2|0:0,0:0:0:0:
265,51,57830,2,0,P|371:32|471:74,1,220,4|0,0:0|0:0,0:0:0:0:
490,293,59087,6,0,L|419:283,1,55,4|0,0:0|0:0,0:0:0:0:
386,186,59559,2,0,L|332:194,1,55,4|0,0:0|0:0,0:0:0:0:
279,97,60029,2,0,L|208:87,1,55,4|0,0:0|0:0,0:0:0:0:
14,266,60971,1,8,0:0:0:0:
93,345,61286,6,0,P|199:363|299:321,1,220,4|0,3:2|0:0,0:0:0:0:
217,116,62542,2,4,P|316:73|423:92,1,220,0|0,0:0|0:0,3:2:0:0:
468,192,63484,1,0,0:0:0:0:
418,290,63799,2,0,P|390:283|363:283,1,55
333,329,64113,6,0,B|297:297|297:297|235:298,1,110,6|0,3:2|3:0,0:0:0:0:
137,348,64741,2,0,P|127:322|125:294,1,55,8|0,0:0|0:0,0:0:0:0:
150,246,65055,2,0,B|163:196|163:196|146:139,1,110,2|0,3:2|3:0,0:0:0:0:
211,51,65683,1,8,0:0:0:0:
320,38,65998,1,0,3:0:0:0:
408,103,66312,6,0,L|422:173,1,55,6|2,3:2|0:0,0:0:0:0:
409,211,66626,1,8,0:0:0:0:
307,253,66940,2,0,L|293:323,1,55,6|2,3:2|0:0,0:0:0:0:
304,361,67254,1,8,0:0:0:0:
194,358,67568,1,2,3:2:0:0:
139,262,67882,1,2,3:2:0:0:
230,200,68196,1,2,3:2:0:0:
175,104,68510,1,4,3:2:0:0:
256,192,68668,12,0,70081,3:0:0:0:
503,263,71024,5,0,0:0:0:0:
436,350,71338,2,0,L|381:340,1,55,4|0,3:2|3:0,0:0:0:0:
331,317,71652,2,0,L|276:326,1,55,8|0,3:2|3:0,0:0:0:0:
230,355,71966,2,0,L|175:345,1,55,0|0,3:0|3:0,0:0:0:0:
122,332,72280,1,8,0:2:0:0:
91,226,72594,6,0,L|146:216,1,55,4|0,3:2|3:0,0:0:0:0:
196,193,72909,2,0,L|251:202,1,55,8|0,3:2|3:0,0:0:0:0:
297,231,73223,2,0,L|352:221,1,55,0|0,3:0|3:0,0:0:0:0:
405,208,73536,1,8,0:0:0:0:
419,98,73851,6,0,L|364:88,1,55,4|0,3:2|3:2,0:0:0:0:
314,65,74165,2,0,L|259:74,1,55,8|0,3:2|3:2,0:0:0:0:
213,103,74479,2,0,L|158:93,1,55,0|0,3:2|3:2,0:0:0:0:
105,80,74793,1,8,0:0:0:0:
256,192,75107,12,2,77621,0:0:0:0:
60,183,79977,6,0,B|49:128|49:128|69:77,1,110,6|2,3:2|3:2,0:0:0:0:
107,39,80448,1,6,0:0:0:0:
256,192,80605,12,0,82018,0:0:0:0:
250,151,82647,6,0,P|252:108|241:57,2,82.5,4|2|2,0:0|0:0|0:0,0:0:0:0:
223,199,83275,2,0,P|181:219|146:253,2,82.5,4|2|2,0:0|0:0|0:0,0:0:0:0:
281,199,83903,2,0,P|308:222|366:238,2,82.5,4|2|2,0:0|0:0|0:0,0:0:0:0:
250,151,84532,2,0,P|252:108|241:57,1,82.5,4|2,0:0|0:0,0:0:0:0:
170,34,85003,5,2,0:0:0:0:
170,34,85160,2,0,P|136:57|108:88,1,82.5,4|2,0:0|0:0,0:0:0:0:
85,167,85631,1,2,0:0:0:0:
85,167,85788,2,0,P|111:198|130:235,1,82.5,4|2,0:0|0:0,0:0:0:0:
139,317,86259,1,2,0:0:0:0:
139,317,86416,1,4,0:0:0:0:
306,173,87045,5,2,0:0:0:0:
91,127,87673,6,0,P|93:73|129:32,1,110,4|2,3:2|0:0,0:0:0:0:
178,58,88144,2,0,P|230:68|278:44,1,110,0|2,3:0|0:0,0:0:0:0:
316,3,88615,2,0,P|367:19|396:65,1,110,0|2,3:2|0:0,0:0:0:0:
367,112,89087,2,0,P|356:164|380:212,1,110,0|2,3:2|0:0,0:0:0:0:
435,216,89558,1,0,3:2:0:0:
378,310,89872,1,0,3:2:0:0:
167,245,90500,5,8,0:0:0:0:
140,196,90657,2,0,P|166:150|183:89,1,110,2|0,3:2|3:2,0:0:0:0:
177,40,91128,1,8,0:0:0:0:
66,35,91443,2,0,B|32:75|32:75|17:130,1,110,2|8,3:2|0:0,0:0:0:0:
57,232,92071,2,0,P|111:236|165:247,1,110,2|8,3:2|0:0,0:0:0:0:
279,342,92699,6,0,P|302:294|354:281,1,110,4|8,3:2|0:0,0:0:0:0:
405,301,93170,2,0,L|390:192,1,110,2|0,0:0|3:0,0:0:0:0:
405,139,93641,1,8,0:0:0:0:
332,53,93956,2,0,P|282:64|256:123,1,110,6|8,3:2|0:0,0:0:0:0:
283,160,94427,2,0,L|174:178,1,110,2|0,3:2|3:2,0:0:0:0:
124,202,94898,1,8,0:0:0:0:
105,310,95212,6,0,P|157:325|212:324,1,110,4|8,3:2|0:0,0:0:0:0:
304,264,95840,2,0,L|315:196,1,55,2|0,3:2|3:0,0:0:0:0:
352,170,96155,2,0,L|341:102,1,55,8|0,0:0|0:0,0:0:0:0:
316,66,96469,2,0,B|356:31|356:31|412:39,1,110,6|8,3:2|0:0,0:0:0:0:
499,107,97097,1,2,0:0:0:0:
434,196,97411,1,8,0:0:0:0:
485,292,97725,6,0,P|446:327|396:309,1,110,4|2,3:2|0:0,0:0:0:0:
380,256,98196,2,0,P|330:238|291:273,1,110,0|2,3:2|0:0,0:0:0:0:
284,328,98668,2,0,P|237:351|194:321,1,110,0|2,3:2|0:0,0:0:0:0:
191,266,99139,2,0,P|158:224|107:233,1,110,0|2,3:2|0:0,0:0:0:0:
75,278,99610,1,0,3:2:0:0:
13,186,99924,1,10,0:0:0:0:
78,97,100238,6,0,B|118:75|118:75|182:80,1,110,0|12,0:0|3:2,0:0:0:0:
227,112,100710,2,0,L|336:117,1,110,2|0,0:0|3:0,0:0:0:0:
378,153,101181,1,8,0:0:0:0:
476,201,101495,2,0,B|488:235|488:235|481:271,2,73.3333333333333,4|2|2,3:2|3:2|3:2,0:0:0:0:
498,150,102123,2,0,B|486:116|486:116|492:79,2,73.3333333333333,0|2|2,3:2|3:2|3:2,0:0:0:0:
297,127,103066,5,12,3:2:0:0:
235,218,103380,1,2,0:0:0:0:
131,180,103694,1,8,0:0:0:0:
59,263,104008,2,0,P|65:317|91:364,1,110,6|8,3:2|0:0,0:0:0:0:
146,361,104479,2,0,P|193:334|247:328,1,110,2|0,0:0|3:2,0:0:0:0:
294,353,104950,2,0,P|322:352|347:340,1,55,8|0,0:0|0:0,0:0:0:0:
381,297,105265,5,6,3:2:0:0:
357,189,105579,1,8,0:0:0:0:
252,154,105893,1,2,3:2:0:0:
171,232,106207,1,8,0:0:0:0:
63,210,106521,2,0,P|29:167|24:113,1,110,2|8,3:2|0:0,0:0:0:0:
90,23,107149,2,0,P|149:11|196:28,1,110,2|8,3:2|0:0,0:0:0:0:
230,70,107621,1,0,0:0:0:0:
232,124,107778,6,0,P|264:164|315:151,1,110,4|2,3:2|0:0,0:0:0:0:
333,99,108249,2,0,P|365:58|416:71,1,110,0|2,3:2|0:0,0:0:0:0:
442,119,108720,2,0,P|407:158|429:205,1,110,0|2,3:2|0:0,0:0:0:0:
482,219,109191,2,0,P|503:266|469:305,1,110,0|2,3:2|0:0,0:0:0:0:
414,300,109662,1,0,3:2:0:0:
322,239,109977,1,10,0:0:0:0:
245,318,110291,6,0,B|190:349|190:349|144:337,1,110,2|6,0:0|3:2,0:0:0:0:
100,304,110762,2,0,P|98:249|115:197,1,110,2|0,0:0|3:2,0:0:0:0:
150,155,111233,1,8,0:0:0:0:
258,175,111547,2,0,P|312:179|360:154,1,110,2|8,3:2|0:0,0:0:0:0:
343,45,112176,2,0,P|288:40|240:65,1,110,2|8,3:2|0:0,0:0:0:0:
156,136,112804,6,0,L|44:106,1,110,6|8,3:2|0:0,0:0:0:0:
11,146,113275,2,0,L|41:252,1,110,2|0,0:0|3:2,0:0:0:0:
80,292,113746,1,8,0:0:0:0:
189,286,114060,2,0,P|228:254|270:204,1,110,6|8,3:2|0:0,0:0:0:0:
288,158,114531,2,0,L|393:186,1,110,2|0,0:0|3:2,0:0:0:0:
443,211,115002,1,8,0:0:0:0:
443,324,115317,6,0,B|386:349|386:349|338:344,1,110,6|8,3:2|0:0,0:0:0:0:
229,329,115945,2,0,L|183:280,1,55,2|0,3:2|3:0,0:0:0:0:
138,272,116259,2,0,L|138:203,1,55,8|0,0:0|0:0,0:0:0:0:
95,181,116573,2,0,B|123:140|123:140|120:80,1,110,2|8,3:2|0:0,0:0:0:0:
211,17,117202,1,2,3:2:0:0:
304,75,117516,1,8,0:0:0:0:
283,182,117830,6,0,P|242:211|268:254,1,110,4|2,3:2|3:2,0:0:0:0:
315,282,118301,2,0,P|355:252|329:209,1,110,2|2,3:2|3:2,0:0:0:0:
313,155,118772,2,0,P|287:111|328:83,1,110,0|2,3:2|3:2,0:0:0:0:
382,72,119244,2,0,P|408:114|368:145,1,110,0|2,3:2|3:2,0:0:0:0:
313,155,119715,6,0,L|222:161,2,82.5,0|0|8,3:2|3:0|3:2,0:0:0:0:
414,285,120657,1,8,3:2:0:0:
455,249,120814,2,0,P|452:194|466:141,1,110,6|0,3:2|3:0,0:0:0:0:
499,97,121285,1,8,0:0:0:0:
391,74,121600,2,0,L|371:-8,2,73.3333333333333,4|2|2,3:2|3:2|3:2,0:0:0:0:
361,116,122228,2,0,L|341:198,2,73.3333333333333,0|2|2,3:0|3:2|3:2,0:0:0:0:
218,231,123170,6,0,L|157:198,1,55,12|0,3:2|3:2,0:0:0:0:
133,163,123484,2,0,L|129:93,1,55,0|0,3:2|3:2,0:0:0:0:
142,54,123799,1,8,0:0:0:0:
250,34,124113,6,0,P|289:53|302:126,1,110,6|8,3:2|3:2,0:0:0:0:
277,160,124584,2,0,P|287:212|333:239,1,110,2|0,3:2|3:2,0:0:0:0:
387,235,125055,2,0,P|413:241|431:261,1,55,8|0,0:0|3:2,0:0:0:0:
439,315,125369,1,6,3:2:0:0:
346,373,125683,6,0,L|284:379,1,55,8|0,0:0|3:0,0:0:0:0:
248,343,125998,2,0,L|242:281,1,55,2|0,3:2|3:0,0:0:0:0:
199,254,126312,2,0,L|137:260,1,55,8|0,0:0|3:2,0:0:0:0:
91,236,126626,2,0,B|83:170|83:170|130:104|130:104|121:32,1,220,6|2,3:2|3:2,0:0:0:0:
17,68,127568,1,8,0:0:0:0:
17,68,127882,5,6,3:2:0:0:
256,192,128039,12,0,130395,0:0:0:0:
128,168,131024,6,0,P|126:113|155:67,2,110,6|2|2,3:2|3:2|3:2,0:0:0:0:
204,247,131966,2,0,B|243:232|243:232|283:239,1,82.5,6|0,3:2|3:0,0:0:0:0:
351,285,132437,2,0,B|391:292|391:292|430:277,2,82.5,0|0|0,3:2|3:0|3:0,0:0:0:0:
383,179,133223,6,0,B|382:99|382:99|360:118,1,110,2|8,3:2|0:0,0:0:0:0:
254,86,133851,2,0,B|232:105|232:105|231:25,2,110,2|8|0,3:2|0:0|0:0,0:0:0:0:
256,192,134793,12,0,139505,0:0:0:0:
