osu file format v14

[General]
AudioFilename: audio.mp3
AudioLeadIn: 0
PreviewTime: 87055
Countdown: 0
SampleSet: Soft
StackLeniency: 0.3
Mode: 0
LetterboxInBreaks: 0
WidescreenStoryboard: 1

[Editor]
Bookmarks: 77621,79977,87673,90186,97725,100238,107778,109662,117830,120343
DistanceSpacing: 0.6
BeatDivisor: 4
GridSize: 32
TimelineZoom: 2.6

[Metadata]
Title:Lemuria
TitleUnicode:Lemuria
Artist:Festa
ArtistUnicode:Festa
Creator:QuiescentRabbit
Version:Nayarabbit's Expert
Source:BMS
Tags:blastthekidd side crazyrabbitkge nayarii elcheer mentai xi piano artcore electronic deathstream rsi evolved chronicles
BeatmapID:1806961
BeatmapSetID:835474

[Difficulty]
HPDrainRate:5
CircleSize:3.2
OverallDifficulty:8.3
ApproachRate:9.3
SliderMultiplier:1.6
SliderTickRate:1

[Events]
//Background and Video events
0,0,"background.jpg",0,0
//Break Periods
//Storyboard Layer 0 (Background)
//Storyboard Layer 1 (Fail)
//Storyboard Layer 2 (Pass)
//Storyboard Layer 3 (Foreground)
//Storyboard Sound Samples
Sample,1619,0,"soft-hitwhistle13.wav",70

[TimingPoints]
991,314.13612565445,4,2,1,50,1,0
991,-133.333333333333,4,2,1,50,0,0
1148,-100,4,2,10,60,0,0
1305,-100,4,2,11,60,0,0
1462,-133.333333333333,4,2,12,60,0,0
1619,-100,4,2,13,60,0,0
1776,-100,4,2,14,60,0,0
2090,-133.333333333333,4,2,10,64,0,0
2247,-133.333333333333,4,2,11,64,0,0
2404,-133.333333333333,4,2,12,64,0,0
2561,-133.333333333333,4,2,13,64,0,0
2718,-133.333333333333,4,2,14,64,0,0
3032,-133.333333333333,4,2,10,68,0,0
3189,-133.333333333333,4,2,11,68,0,0
3347,-133.333333333333,4,2,12,68,0,0
3504,-133.333333333333,4,2,13,68,0,0
3661,-133.333333333333,4,2,14,68,0,0
3975,-133.333333333333,4,2,10,68,0,0
4132,-133.333333333333,4,2,11,68,0,0
4289,-133.333333333333,4,2,12,68,0,0
4446,-133.333333333333,4,2,1,50,0,0
4760,-111.111111111111,4,2,3,60,0,0
6174,-111.111111111111,4,2,3,60,0,0
11671,-100,4,2,3,70,0,0
14498,-100,4,2,1,70,0,0
14812,-100,4,2,3,70,0,0
14891,-100,4,2,1,70,0,0
15127,-100,4,2,1,75,0,0
15598,331.491712707182,4,2,1,75,1,0
16095,350.877192982456,4,2,1,75,1,0
16445,372.670807453416,4,2,3,60,1,0
16817,425.531914893617,4,2,1,85,1,0
17413,458.015267175573,4,2,1,85,1,0
18100,540.540540540541,4,2,1,85,1,0
18640,588.235294117647,4,2,1,85,1,0
19820,314.13612565445,4,2,99,70,1,0
19898,-100,4,2,99,25,0,0
21940,-100,4,2,99,5,0,0
22018,-100,4,2,99,60,0,0
22333,-66.6666666666667,4,2,1,72,0,0
23903,-66.6666666666667,4,2,1,70,0,0
24217,-100,4,2,3,62,0,0
24532,-66.6666666666667,4,2,2,54,0,0
24846,-133.333333333333,4,2,1,45,0,0
25081,-133.333333333333,4,2,1,5,0,0
25160,-66.6666666666667,4,2,1,70,0,0
25631,-83.3333333333333,4,2,1,70,0,0
26416,-83.3333333333333,4,2,3,70,0,0
26730,-83.3333333333333,4,2,1,70,0,0
29244,-83.3333333333333,4,2,3,70,0,0
29872,-83.3333333333333,4,2,1,70,0,0
31443,-83.3333333333333,4,2,3,70,0,0
31757,-83.3333333333333,4,2,1,70,0,0
33484,-66.6666666666667,4,2,1,70,0,0
34113,-66.6666666666667,4,2,3,70,0,0
34819,-133.333333333333,4,2,3,70,0,0
34898,-133.333333333333,4,2,1,60,0,0
35212,-76.9230769230769,4,2,1,85,0,1
35369,-76.9230769230769,4,2,1,85,0,1
41338,-76.9230769230769,4,2,3,85,0,1
42437,-76.9230769230769,4,2,1,85,0,1
43851,-76.9230769230769,4,2,3,85,0,1
44008,-76.9230769230769,4,2,3,85,0,1
44322,-76.9230769230769,4,2,1,85,0,1
45265,-76.9230769230769,4,2,99,70,0,0
45343,-76.9230769230769,4,2,99,35,0,0
47071,-76.9230769230769,4,2,99,5,0,0
47149,-76.9230769230769,4,2,1,70,0,0
47228,-76.9230769230769,4,2,1,35,0,0
48327,-76.9230769230769,4,2,1,5,0,0
48406,-76.9230769230769,4,2,1,70,0,0
48484,-76.9230769230769,4,2,1,35,0,0
48956,-76.9230769230769,4,2,1,5,0,0
49034,-76.9230769230769,4,2,1,70,0,0
49113,-76.9230769230769,4,2,1,35,0,0
49270,-76.9230769230769,4,2,1,5,0,0
49348,-76.9230769230769,4,2,99,70,0,0
49662,-200,4,2,10,60,0,0
49819,-200,4,2,21,60,0,0
49977,-200,4,2,22,60,0,0
50134,-200,4,2,14,60,0,0
50291,-200,4,2,24,60,0,0
50605,-200,4,2,10,64,0,0
50762,-200,4,2,21,64,0,0
50919,-200,4,2,22,64,0,0
51076,-200,4,2,14,64,0,0
51233,-200,4,2,24,64,0,0
51547,-200,4,2,20,68,0,0
51704,-200,4,2,21,68,0,0
51861,-200,4,2,22,68,0,0
52018,-200,4,2,14,68,0,0
52176,-200,4,2,24,68,0,0
52490,-200,4,2,20,72,0,0
52647,-200,4,2,21,72,0,0
52804,-200,4,2,22,72,0,0
52961,-200,4,2,14,72,0,0
53118,-333.333333333333,4,2,24,72,0,0
54296,-333.333333333333,4,2,24,5,0,0
54374,-333.333333333333,4,2,1,70,0,0
56259,-66.6666666666667,4,2,1,70,0,0
56573,-100,4,2,1,64,0,0
57202,-100,4,2,3,64,0,0
57830,-100,4,2,1,64,0,0
58458,-100,4,2,3,64,0,0
58615,-100,4,2,3,64,0,0
59087,-100,4,2,1,70,0,0
60343,-100,4,2,3,70,0,0
60657,-200,4,2,3,70,0,0
60971,-66.6666666666667,4,2,3,70,0,0
61285,-100,4,2,1,64,0,0
61914,-100,4,2,3,64,0,0
62542,-100,4,2,1,64,0,0
64113,-66.6666666666667,4,2,1,85,0,1
64191,-66.6666666666667,4,2,1,82,0,1
65055,-66.6666666666667,4,2,1,82,0,1
65134,-66.6666666666667,4,2,1,82,0,1
65998,-83.3333333333333,4,2,1,82,0,1
66312,-83.3333333333333,4,2,1,88,0,1
66390,-83.3333333333333,4,2,1,88,0,1
66469,-83.3333333333333,4,2,1,88,0,1
66547,-83.3333333333333,4,2,1,88,0,1
66940,-83.3333333333333,4,2,1,88,0,1
67018,-83.3333333333333,4,2,1,88,0,1
67097,-83.3333333333333,4,2,1,88,0,1
67176,-83.3333333333333,4,2,1,88,0,0
67254,-83.3333333333333,4,2,1,82,0,0
67568,-66.6666666666667,4,2,1,82,0,0
67647,-66.6666666666667,4,2,1,82,0,0
67882,-58.8235294117647,4,2,1,86,0,0
67961,-58.8235294117647,4,2,1,86,0,0
68196,-52.6315789473684,4,2,1,90,0,0
68275,-52.6315789473684,4,2,1,90,0,0
68511,-52.6315789473684,4,2,1,94,0,0
68589,-52.6315789473684,4,2,1,70,0,0
68982,-52.6315789473684,4,2,1,62,0,0
70709,-52.6315789473684,4,2,1,70,0,0
71338,-133.333333333333,4,2,1,70,0,0
72594,-100,4,2,1,70,0,0
73851,-66.6666666666667,4,2,1,70,0,0
75107,-66.6666666666667,4,2,1,76,0,0
75422,-66.6666666666667,4,2,1,72,0,0
75736,-66.6666666666667,4,2,1,68,0,0
76050,-66.6666666666667,4,2,1,64,0,0
76364,-66.6666666666667,4,2,3,80,0,0
76678,-100,4,2,3,78,0,0
76992,-133.333333333333,4,2,2,86,0,0
77306,-133.333333333333,4,2,2,84,0,0
77621,-133.333333333333,4,2,2,70,0,0
77778,-133.333333333333,4,2,1,70,0,0
79819,-133.333333333333,4,2,1,5,0,0
79977,-133.333333333333,4,2,1,70,0,0
80291,-133.333333333333,4,2,1,85,0,0
80369,-133.333333333333,4,2,1,70,0,0
80448,-66.6666666666667,4,2,1,85,0,0
80526,-66.6666666666667,4,2,1,70,0,0
80605,-133.333333333333,4,2,1,70,0,0
80762,-133.333333333333,4,2,1,76,0,0
82647,-133.333333333333,4,2,1,85,0,0
84532,-58.8235294117647,4,2,1,85,0,0
86416,-58.8235294117647,4,2,1,72,0,0
87045,-58.8235294117647,4,2,1,72,0,1
87673,-71.4285714285714,4,2,3,90,0,1
89558,-66.6666666666667,4,2,1,90,0,1
90186,-66.6666666666667,4,2,1,78,0,1
90422,-66.6666666666667,4,2,1,5,0,1
90500,-66.6666666666667,4,2,1,90,0,1
93170,-66.6666666666667,4,2,1,90,0,1
93484,-66.6666666666667,4,2,1,90,0,1
93641,-66.6666666666667,4,2,1,90,0,1
94427,-66.6666666666667,4,2,1,90,0,1
94505,-66.6666666666667,4,2,1,90,0,1
94584,-66.6666666666667,4,2,1,90,0,1
94662,-66.6666666666667,4,2,1,90,0,1
94741,-66.6666666666667,4,2,1,90,0,1
94819,-66.6666666666667,4,2,1,90,0,1
95840,-66.6666666666667,4,2,1,90,0,1
97097,-66.6666666666667,4,2,1,90,0,1
97725,-66.6666666666667,4,2,3,90,0,1
99610,-66.6666666666667,4,2,1,90,0,1
99924,-66.6666666666667,4,2,1,90,0,1
100238,-66.6666666666667,4,2,1,78,0,1
100474,-66.6666666666667,4,2,1,5,0,1
100552,-66.6666666666667,4,2,1,90,0,1
101495,-66.6666666666667,4,2,1,90,0,1
102751,-66.6666666666667,4,2,1,78,0,1
102987,-66.6666666666667,4,2,1,5,0,1
103066,-66.6666666666667,4,2,1,90,0,1
107778,-66.6666666666667,4,2,3,90,0,1
109662,-66.6666666666667,4,2,1,90,0,1
109977,-66.6666666666667,4,2,1,90,0,1
111704,-66.6666666666667,4,2,1,95,0,1
111861,-66.6666666666667,4,2,1,95,0,1
112176,-66.6666666666667,4,2,1,90,0,1
113275,-66.6666666666667,4,2,1,90,0,1
113511,-66.6666666666667,4,2,1,90,0,1
113589,-66.6666666666667,4,2,1,90,0,1
113668,-66.6666666666667,4,2,1,90,0,1
114532,-66.6666666666667,4,2,1,90,0,1
114767,-66.6666666666667,4,2,1,90,0,1
114846,-66.6666666666667,4,2,1,90,0,1
114924,-66.6666666666667,4,2,1,90,0,1
115945,-66.6666666666667,4,2,1,90,0,1
116024,-66.6666666666667,4,2,1,90,0,1
116102,-66.6666666666667,4,2,1,90,0,1
116181,-66.6666666666667,4,2,1,90,0,1
116259,-66.6666666666667,4,2,1,90,0,1
116338,-66.6666666666667,4,2,1,90,0,1
116416,-66.6666666666667,4,2,1,90,0,1
116495,-66.6666666666667,4,2,1,90,0,1
116573,-66.6666666666667,4,2,1,90,0,1
117123,-66.6666666666667,4,2,1,90,0,1
117830,-66.6666666666667,4,2,3,90,0,1
119715,-66.6666666666667,4,2,1,90,0,1
120186,-66.6666666666667,4,2,1,90,0,1
121600,-66.6666666666667,4,2,1,95,0,1
122228,-66.6666666666667,4,2,1,90,0,1
122856,-66.6666666666667,4,2,1,85,0,1
123092,-66.6666666666667,4,2,1,5,0,1
123170,-66.6666666666667,4,2,1,90,0,1
125369,-66.6666666666667,4,2,1,100,0,1
127882,-66.6666666666667,4,2,99,82,0,0
128982,-66.6666666666667,4,2,1,75,0,0
130552,-66.6666666666667,4,2,1,85,0,0
132280,-76.9230769230769,4,2,1,90,0,0
133066,-76.9230769230769,4,2,1,95,0,0
133851,-76.9230769230769,4,2,1,100,0,0
134793,-76.9230769230769,4,2,99,85,0,0
139505,-76.9230769230769,4,2,1,5,0,0

[Colours]
Combo1 : 184,192,199
Combo2 : 148,204,235
Combo3 : 12,104,180

[HitObjects]
103,145,991,6,0,L|91:82,2,60.0000022888184,4|2|2,1:2|0:0|0:0,0:0:0:0:
185,176,1462,2,0,L|203:35,2,120.000004577637,2|2|2,0:0|0:0|0:0,0:0:0:0:
166,277,2247,6,0,P|205:263|236:258,1,60.0000022888184,2|2,0:0|0:0,0:0:0:0:
308,283,2561,1,2,0:0:0:0:
415,219,2718,2,0,P|371:201|297:186,1,120.000004577637,2|2,0:0|0:0,0:0:0:0:
166,277,3189,6,0,P|206:269|238:270,1,60.0000022888184,2|2,0:0|0:0,0:0:0:0:
304,307,3503,1,2,0:0:0:0:
421,262,3660,2,0,P|380:237|310:209,1,120.000004577637,2|2,0:0|0:0,0:0:0:0:
166,277,4132,6,0,P|207:277|238:283,1,60.0000022888184,2|2,0:0|0:0,0:0:0:0:
321,327,4446,1,6,1:2:0:0:
321,327,4525,1,0,0:0:0:0:
321,327,4603,2,0,L|312:378,1,30.0000011444092,0|0,0:0|0:0,0:0:0:0:
123,315,4760,6,0,L|134:211,1,71.9999978027344,6|0,0:2|0:0,0:0:0:0:
42,355,5074,2,0,L|20:191,1,143.999995605469,0|2,0:0|0:0,0:0:0:0:
56,99,5545,2,0,P|88:116|132:125,1,71.9999978027344,0|0,0:0|0:0,0:0:0:0:
195,182,5860,2,0,P|248:152|337:147,1,143.999995605469,0|0,0:0|0:0,0:0:0:0:
436,217,6331,6,0,L|421:299,1,71.9999978027344,0|0,0:0|0:0,0:0:0:0:
402,374,6645,1,2,0:0:0:0:
331,287,6802,2,0,L|212:307,1,107.999996704102,0|0,0:0|0:0,0:0:0:0:
224,304,7116,2,0,L|233:251,2,35.9999989013672,0|0|2,0:0|0:0|0:0,0:0:0:0:
133,348,7430,6,0,L|117:249,1,71.9999978027344,0|0,0:0|0:0,0:0:0:0:
37,162,7744,2,0,L|25:233,1,71.9999978027344,0|2,0:0|0:0,0:0:0:0:
11,322,8059,1,0,0:0:0:0:
133,187,8216,6,0,B|197:193|197:193|211:203|211:203|291:210,1,143.999995605469,0|2,1:2|0:0,0:0:0:0:
356,133,8687,2,0,L|370:290,1,143.999995605469,0|0,0:0|0:0,0:0:0:0:
378,367,9158,1,2,0:0:0:0:
459,294,9315,6,0,L|470:248,3,35.9999989013672,0|0|0|0,0:0|0:0|0:0|0:0,0:0:0:0:
368,276,9629,2,0,L|362:229,3,35.9999989013672,0|0|2|0,0:0|0:0|0:0|0:0,0:0:0:0:
285,310,9943,2,0,L|263:267,3,35.9999989013672,0|0|0|0,0:0|0:0|0:0|0:0,0:0:0:0:
233,380,10258,1,0,0:0:0:0:
233,380,10415,1,2,0:0:0:0:
78,298,10572,6,0,P|115:307|155:328,1,71.9999978027344,0|0,0:0|0:0,0:0:0:0:
127,167,10886,2,0,P|153:139|191:115,1,71.9999978027344,0|2,0:0|0:0,0:0:0:0:
13,77,11200,2,0,P|2:40|0:-4,1,71.9999978027344,0|0,0:0|0:0,0:0:0:0:
35,167,11514,1,0,0:0:0:0:
123,65,11671,6,0,L|226:81,1,80,6|0,1:2|0:0,0:0:0:0:
262,148,11985,1,0,1:2:0:0:
337,33,12142,2,0,L|367:201,1,160,0|0,0:0|0:0,0:0:0:0:
441,147,12614,6,0,L|422:43,1,80,0|0,1:2|0:0,0:0:0:0:
305,237,12928,2,0,B|398:221|365:276|464:268,1,160,2|0,0:0|1:2,0:0:0:0:
505,197,13399,1,0,0:0:0:0:
460,294,13556,1,2,1:2:0:0:
382,161,13713,2,0,B|314:173|314:173|298:183|298:183|220:197,1,160,0|0,0:0|0:0,0:0:0:0:
146,288,14184,6,0,L|239:301,1,80,2|0,1:2|0:0,0:0:0:0:
48,221,14498,2,0,B|12:275|12:275|60:378,1,160,2|2,1:2|1:2,0:0:0:0:
132,314,14970,1,2,0:0:0:0:
91,77,15127,5,6,1:2:0:0:
91,77,15284,1,2,1:2:0:0:
313,162,15598,1,6,1:2:0:0:
313,162,15763,1,2,1:2:0:0:
132,314,16095,1,6,1:2:0:0:
109,198,16445,1,2,0:0:0:0:
254,348,16817,5,6,1:2:0:0:
254,348,17029,1,2,1:2:0:0:
58,384,17413,1,6,1:2:0:0:
58,384,17642,1,2,1:2:0:0:
109,198,18100,1,6,1:2:0:0:
132,314,18640,1,0,1:2:0:0:
132,314,18934,2,0,P|170:315|231:341,2,80,0|0|0,0:0|0:0|0:0,0:0:0:0:
57,384,19820,1,4,1:2:0:0:
256,192,19898,12,0,22018,0:0:0:0:
252,318,22333,6,0,P|331:261|484:257,1,240.000009155274,6|10,1:2|0:0,0:0:0:0:
354,153,22804,2,0,P|254:88|136:87,1,240.000009155274,6|10,1:2|0:0,0:0:0:0:
45,150,23275,1,6,1:2:0:0:
53,3,23432,2,0,P|37:69|45:92,1,60.0000022888184,2|0,1:2|0:0,0:0:0:0:
100,227,23589,5,10,0:0:0:0:
140,240,23668,1,10,0:0:0:0:
181,233,23746,1,10,0:0:0:0:
216,210,23825,1,10,0:0:0:0:
230,171,23903,2,0,L|218:73,3,60.0000022888184,10|10|10|10,0:0|0:0|0:0|0:0,0:0:0:0:
319,197,24217,2,0,L|345:130,3,40,8|8|0|0,0:0|0:0|1:2|1:2,0:0:0:0:
406,295,24532,6,0,P|321:294|227:373,1,180.000006866455,10|2,0:0|0:0,0:0:0:0:
244,345,24846,6,0,P|264:261|258:239,1,90.0000034332277,2|0,0:0|0:0,0:0:0:0:
119,149,25160,5,14,0:0:0:0:
19,322,25317,2,0,L|168:293,1,120.000004577637,0|2,1:2|0:0,0:0:0:0:
66,79,25631,2,0,P|35:124|37:187,1,95.9999970703126,2|8,1:2|0:0,0:0:0:0:
173,223,25945,2,0,P|201:184|207:137,1,95.9999970703126,2|0,1:2|0:0,0:0:0:0:
276,22,26259,6,0,B|367:34|367:34|377:40|377:40|486:50,1,191.999994140625,2|2,1:2|1:2,0:0:0:0:
512,139,26730,2,0,P|447:165|405:189,1,95.9999970703126,2|0,0:0|1:2,0:0:0:0:
288,243,27045,2,0,P|332:259|375:281,1,95.9999970703126,10|0,0:0|0:0,0:0:0:0:
164,373,27359,6,0,L|149:244,1,95.9999970703126,2|0,1:2|0:0,0:0:0:0:
25,167,27673,2,0,L|36:262,1,95.9999970703126,10|0,0:0|1:2,0:0:0:0:
185,97,27987,1,2,0:0:0:0:
169,262,28144,1,2,1:2:0:0:
260,217,28301,1,8,0:0:0:0:
342,45,28458,6,0,P|308:102|304:152,1,95.9999970703126,2|0,1:2|0:0,0:0:0:0:
494,202,28772,2,0,P|419:196|318:292,1,191.999994140625,0|0,1:2|1:2,0:0:0:0:
437,380,29244,6,0,L|450:272,1,95.9999970703126,2|0,3:2|0:0,0:0:0:0:
229,206,29558,1,10,3:2:0:0:
234,238,29636,1,0,3:2:0:0:
240,271,29715,1,0,3:2:0:0:
246,303,29793,1,0,3:2:0:0:
253,337,29872,2,0,P|189:303|127:301,1,95.9999970703126,2|0,1:2|0:0,0:0:0:0:
2,255,30186,2,0,P|42:229|88:217,1,95.9999970703126,10|0,0:0|1:2,0:0:0:0:
164,286,30500,1,2,0:0:0:0:
47,179,30657,1,2,1:2:0:0:
126,126,30814,1,8,0:0:0:0:
285,215,30971,6,0,L|395:201,1,95.9999970703126,2|0,1:2|0:0,0:0:0:0:
488,59,31285,2,0,B|441:117|441:117|490:247,1,191.999994140625,2|0,1:2|1:2,0:0:0:0:
472,359,31757,2,0,P|426:328|375:319,1,95.9999970703126,2|0,1:2|1:2,0:0:0:0:
194,307,32071,2,0,P|232:279|278:267,1,95.9999970703126,10|0,0:0|0:0,0:0:0:0:
94,384,32385,6,0,L|75:275,1,95.9999970703126,2|0,1:2|0:0,0:0:0:0:
143,109,32699,2,0,L|159:203,1,95.9999970703126,10|0,0:0|1:2,0:0:0:0:
40,254,33013,1,2,0:0:0:0:
204,291,33170,1,2,1:2:0:0:
185,199,33327,1,8,0:0:0:0:
296,366,33484,6,0,L|306:275,1,60.0000022888184,2|0,1:2|0:0,0:0:0:0:
378,167,33641,1,0,0:0:0:0:
378,167,33720,1,0,0:0:0:0:
378,167,33799,2,0,L|470:188,1,60.0000022888184,2|0,1:2|0:0,0:0:0:0:
436,265,33956,2,0,L|377:251,1,60.0000022888184,8|0,0:0|0:0,0:0:0:0:
223,126,34113,2,0,L|214:57,1,60.0000022888184,2|0,3:2|3:2,0:0:0:0:
296,49,34270,2,0,L|303:108,1,60.0000022888184,2|0,1:2|3:2,0:0:0:0:
244,280,34427,5,0,3:2:0:0:
202,303,34505,1,2,3:2:0:0:
153,301,34584,1,8,3:2:0:0:
106,280,34662,1,0,3:2:0:0:
80,239,34741,1,2,3:2:0:0:
77,191,34819,6,0,L|99:65,1,120.000004577637,0|0,3:2|0:0,0:0:0:0:
304,139,35212,6,0,P|214:173|194:170,1,103.999995239258,6|0,1:2|0:0,0:0:0:0:
389,177,35526,2,0,P|373:271|360:287,1,103.999995239258,2|2,1:2|0:0,0:0:0:0:
219,378,35840,6,0,L|201:261,1,103.999995239258,0|2,1:2|0:0,0:0:0:0:
68,356,36155,2,0,L|83:254,1,103.999995239258,0|2,1:2|0:0,0:0:0:0:
22,93,36469,6,0,P|65:134|113:141,1,103.999995239258,0|0,1:2|0:0,0:0:0:0:
222,103,36783,1,2,1:2:0:0:
256,9,36940,1,0,0:0:0:0:
308,160,37097,1,2,1:2:0:0:
340,133,37176,1,2,0:0:0:0:
379,118,37254,1,2,0:0:0:0:
420,114,37333,1,2,0:0:0:0:
460,119,37411,2,0,L|441:257,1,103.999995239258,2|0,1:2|0:0,0:0:0:0:
512,327,37647,1,0,0:0:0:0:
512,327,37725,6,0,B|421:336|421:336|395:349|395:349|282:363,1,207.999990478516,2|2,1:2|1:2,0:0:0:0:
145,249,38196,2,0,L|290:267,1,103.999995239258,2|0,0:0|1:2,0:0:0:0:
26,61,38511,1,2,1:2:0:0:
26,61,38825,5,2,1:2:0:0:
69,97,38903,1,2,0:0:0:0:
124,110,38982,1,2,0:0:0:0:
180,105,39060,1,2,0:0:0:0:
231,77,39139,2,0,L|241:7,1,51.999997619629,2|0,1:2|0:0,0:0:0:0:
382,135,39296,6,0,L|403:273,1,103.999995239258,2|0,0:0|1:2,0:0:0:0:
323,329,39532,1,0,0:0:0:0:
323,329,39610,2,0,L|307:226,1,103.999995239258,2|0,0:0|1:2,0:0:0:0:
170,202,39846,5,0,1:2:0:0:
170,202,39924,2,0,P|73:245|46:244,1,103.999995239258,6|0,1:2|1:2,0:0:0:0:
98,87,40238,2,0,P|12:24|0:0,1,103.999995239258,2|2,1:2|1:2,0:0:0:0:
218,20,40552,1,0,1:2:0:0:
196,209,40710,1,2,1:2:0:0:
374,131,40867,1,0,1:2:0:0:
353,125,40945,1,0,0:0:0:0:
332,119,41024,2,0,L|353:256,1,103.999995239258,2|0,1:2|0:0,0:0:0:0:
504,362,41338,5,0,3:2:0:0:
471,321,41416,1,0,3:2:0:0:
423,299,41495,1,2,3:2:0:0:
372,289,41573,1,2,3:2:0:0:
320,295,41652,1,2,3:2:0:0:
276,323,41730,1,2,3:2:0:0:
328,323,41809,6,0,L|347:229,1,51.999997619629,0|0,3:2|3:2,0:0:0:0:
239,240,41966,2,0,L|228:189,1,51.999997619629,0|0,3:2|3:2,0:0:0:0:
354,168,42123,2,0,L|364:117,1,51.999997619629,8|8,3:2|3:2,0:0:0:0:
206,85,42280,2,0,L|195:34,1,51.999997619629,8|8,3:2|3:2,0:0:0:0:
452,162,42437,5,6,1:2:0:0:
452,162,42594,1,2,1:2:0:0:
149,235,42909,1,6,1:2:0:0:
149,235,43066,1,2,1:2:0:0:
446,335,43380,1,6,1:2:0:0:
446,335,43537,1,2,1:2:0:0:
446,335,43851,5,2,3:2:0:0:
394,331,43929,1,0,3:2:0:0:
341,327,44008,1,0,3:2:0:0:
288,323,44087,1,0,3:2:0:0:
236,319,44165,1,0,3:2:0:0:
183,315,44244,1,0,3:2:0:0:
143,348,44322,5,6,1:2:0:0:
374,209,44558,1,6,1:2:0:0:
140,88,44793,1,6,1:2:0:0:
213,217,44950,1,8,0:0:0:0:
440,41,45265,5,4,1:2:0:0:
256,192,45343,12,0,46835,0:0:0:0:
440,41,47149,5,0,1:2:0:0:
256,192,47228,12,0,48327,0:0:0:0:
256,192,48406,12,0,49034,1:2:0:0:
256,192,49348,5,4,1:2:0:0:
174,281,49662,2,0,L|186:335,3,40,2|2|2|2,0:0|0:0|0:0|0:0,0:0:0:0:
256,364,50291,1,2,0:0:0:0:
256,192,50605,2,0,L|268:246,3,40,2|2|2|2,0:0|0:0|0:0|0:0,0:0:0:0:
338,275,51234,1,2,0:0:0:0:
333,101,51547,2,0,L|345:155,3,40,2|2|2|2,0:0|0:0|0:0|0:0,0:0:0:0:
415,184,52176,1,2,0:0:0:0:
405,39,52490,5,2,0:0:0:0:
371,25,52647,1,2,0:0:0:0:
314,29,52804,1,2,0:0:0:0:
247,82,52961,1,2,0:0:0:0:
216,174,53118,2,0,L|242:349,1,167.999994873047,2|0,0:0|0:0,0:0:0:0:
475,272,54374,5,6,1:2:0:0:
475,272,54532,1,2,1:2:0:0:
191,317,54846,1,6,1:2:0:0:
191,317,55004,1,2,1:2:0:0:
459,162,55317,1,6,1:2:0:0:
459,162,55475,1,2,1:2:0:0:
459,162,55945,6,0,L|462:133,1,23.9999992675781,0|0,1:2|1:2,0:0:0:0:
319,42,56259,1,8,0:0:0:0:
325,71,56338,1,0,1:2:0:0:
331,100,56416,1,0,1:2:0:0:
337,129,56495,1,0,1:2:0:0:
345,157,56573,6,0,B|241:173|303:208|183:220,1,160,6|8,1:2|0:0,0:0:0:0:
100,277,57045,2,0,L|80:172,1,80,0|2,1:2|3:2,0:0:0:0:
141,121,57359,1,0,3:2:0:0:
48,70,57516,2,0,L|37:157,2,53.3333333333333,8|0|0,3:2|0:0|0:0,0:0:0:0:
161,13,57830,6,0,P|223:50|301:55,1,120,2|2,1:2|1:2,0:0:0:0:
361,26,58301,1,2,1:2:0:0:
361,26,58615,2,0,L|354:78,1,40,8|8,0:0|0:0,0:0:0:0:
447,56,58772,2,0,L|452:95,1,40,0|0,3:2|3:2,0:0:0:0:
319,141,58929,2,0,L|324:180,1,40,0|0,3:2|3:2,0:0:0:0:
494,237,59087,5,6,1:2:0:0:
494,237,59244,1,2,1:2:0:0:
209,328,59558,1,6,1:2:0:0:
209,328,59715,1,2,1:2:0:0:
504,371,60029,1,6,1:2:0:0:
509,375,60186,1,2,1:2:0:0:
509,375,60657,6,0,L|469:369,1,40,2|0,0:0|0:0,0:0:0:0:
334,291,60971,1,0,3:2:0:0:
304,298,61050,1,0,3:2:0:0:
275,305,61128,1,0,3:0:0:0:
245,312,61207,1,0,3:0:0:0:
216,319,61285,6,0,B|239:253|239:253|200:137,1,160,6|8,1:2|0:0,0:0:0:0:
108,168,61757,1,0,1:2:0:0:
94,65,61914,2,0,L|143:75,2,40,2|0|0,3:2|3:2|3:2,0:0:0:0:
50,197,62228,2,0,L|102:187,2,53.3333333333333,8|0|0,3:2|0:0|0:0,0:0:0:0:
11,302,62542,6,0,P|68:309|145:357,1,120,2|2,1:2|1:2,0:0:0:0:
222,384,63013,2,0,P|275:356|334:348,1,120,2|0,1:2|1:2,0:0:0:0:
487,290,63484,5,8,1:2:0:0:
467,284,63563,1,8,0:0:0:0:
449,274,63641,1,8,0:0:0:0:
433,260,63720,1,8,0:2:0:0:
407,223,63799,1,2,1:2:0:0:
399,179,63877,1,2,1:2:0:0:
407,127,63956,1,2,1:2:0:0:
439,87,64034,1,2,1:2:0:0:
498,66,64113,6,0,B|535:119|535:119|312:86,1,240.000009155274,6|0,1:2|1:2,0:0:0:0:
244,34,64584,1,2,0:0:0:0:
292,216,64741,1,2,1:2:0:0:
119,157,64898,1,2,0:0:0:0:
196,328,65055,6,0,B|182:266|182:266|195:240|195:240|187:196|187:196|166:179|166:179|147:67,1,240.000009155274,2|0,1:2|1:2,0:0:0:0:
295,288,65526,2,0,L|311:129,1,120.000004577637,2|0,0:0|1:2,0:0:0:0:
430,158,65840,6,0,L|419:114,2,40.000001525879,2|0|0,0:0|0:0|0:0,0:0:0:0:
497,220,65998,2,0,B|440:244|440:244|372:233,1,95.9999970703126,2|0,1:2|0:0,0:0:0:0:
320,91,66312,1,6,1:2:0:0:
394,331,66469,1,2,1:2:0:0:
299,304,66626,2,0,L|241:320,3,47.9999985351563,0|0|0|0,0:0|0:0|0:0|0:0,0:0:0:0:
372,245,66940,5,6,1:2:0:0:
108,198,67097,1,2,1:2:0:0:
186,133,67254,2,0,L|196:194,4,31.9999990234375,0|0|0|0|0,0:0|0:0|0:0|0:0|0:0,0:0:0:0:
41,358,67568,6,0,L|256:323,1,180.000006866455,6|0,1:2|0:0,0:0:0:0:
299,333,67882,2,0,L|85:367,1,204.000003890991,6|0,1:2|0:0,0:0:0:0:
31,360,68196,2,0,L|276:319,1,227.999993911743,6|0,1:2|0:0,0:0:0:0:
478,369,68511,1,6,1:2:0:0:
256,192,68589,12,2,70081,1:2:0:0:
476,369,70395,6,0,L|478:317,6,37.9999989852906,2|0|0|0|0|0|0,0:0|0:0|0:0|0:0|0:0|0:0|0:0,0:0:0:0:
395,324,70710,2,0,L|393:361,6,37.9999989852906,0|0|0|0|2|0|0,0:0|0:0|0:0|0:0|0:0|0:0|0:0,0:0:0:0:
310,350,71024,2,0,L|311:312,6,37.9999989852906,2|0|0|0|2|0|0,0:0|0:0|0:0|0:0|0:0|0:0|0:0,0:0:0:0:
268,217,71338,6,0,L|183:233,1,60.0000022888184,6|0,1:2|1:2,0:0:0:0:
191,149,71652,2,0,L|249:137,1,60.0000022888184,0|0,1:2|1:2,0:0:0:0:
239,60,71966,2,0,L|180:71,1,60.0000022888184,0|0,1:2|1:2,0:0:0:0:
75,308,72280,1,2,0:0:0:0:
75,308,72594,6,0,L|60:212,1,80,2|0,1:2|1:2,0:0:0:0:
167,317,72909,2,0,L|202:226,1,80,0|0,1:2|1:2,0:0:0:0:
238,384,73223,2,0,L|313:323,1,80,0|0,1:2|1:2,0:0:0:0:
475,187,73537,1,2,0:0:0:0:
475,187,73851,6,0,P|386:164|351:111,1,120.000004577637,2|0,1:2|1:2,0:0:0:0:
366,23,74165,1,0,1:2:0:0:
290,174,74322,1,0,1:2:0:0:
288,162,74401,1,0,0:0:0:0:
286,150,74479,1,0,1:2:0:0:
449,96,74636,1,0,1:2:0:0:
232,216,74793,5,2,0:0:0:0:
274,214,74872,1,0,0:0:0:0:
313,225,74950,1,2,0:0:0:0:
347,249,75029,1,0,0:0:0:0:
369,284,75107,2,0,L|362:358,1,60.0000022888184,2|2,1:2|1:2,0:0:0:0:
276,363,75265,2,0,L|281:303,1,60.0000022888184,2|2,1:2|1:2,0:0:0:0:
42,171,75422,6,0,L|48:231,1,60.0000022888184,2|2,1:2|1:2,0:0:0:0:
135,250,75580,2,0,L|130:191,1,60.0000022888184,2|2,1:2|1:2,0:0:0:0:
236,45,75736,6,0,L|230:104,1,60.0000022888184,0|0,1:2|1:2,0:0:0:0:
318,85,75894,2,0,L|323:25,1,60.0000022888184,0|0,1:2|1:2,0:0:0:0:
445,196,76050,1,0,1:2:0:0:
403,195,76128,1,0,1:2:0:0:
362,207,76207,1,0,1:2:0:0:
330,234,76285,1,0,1:2:0:0:
309,271,76364,2,0,L|320:343,3,60.0000022888184,0|0|0|0,3:2|3:2|3:2|3:2,0:0:0:0:
394,353,76678,2,0,L|401:301,3,40,0|0|0|0,3:2|3:2|3:2|3:2,0:0:0:0:
234,305,76992,2,0,L|244:362,3,30.0000011444092,2|2|2|2,0:0|0:0|0:0|0:0,0:0:0:0:
466,384,77306,2,0,L|468:361,8,15.0000005722046,0|0|0|0|0|0|0|0|4,0:0|0:0|0:0|0:0|0:0|0:0|0:0|0:0|1:2,0:0:0:0:
175,114,79977,5,2,1:2:0:0:
213,343,80291,1,6,1:2:0:0:
154,21,80448,5,6,1:2:0:0:
175,114,80605,2,0,L|190:169,5,30.0000011444092,0|0|0|0|0|0,0:0|0:0|0:0|0:0|0:0|0:0,0:0:0:0:
276,136,81076,2,0,L|261:191,3,30.0000011444092,0|0|0|0,0:0|0:0|0:0|0:0,0:0:0:0:
353,205,81390,2,0,L|312:245,3,30.0000011444092,0|0|0|0,0:0|0:0|0:0|0:0,0:0:0:0:
382,302,81704,2,0,L|327:316,3,30.0000011444092,0|0|0|0,0:0|0:0|0:0|0:0,0:0:0:0:
242,383,82018,5,8,0:0:0:0:
234,335,82097,1,8,0:0:0:0:
208,294,82176,1,8,0:0:0:0:
172,262,82254,1,8,0:0:0:0:
126,247,82333,1,8,0:0:0:0:
78,251,82411,1,8,0:0:0:0:
35,274,82490,1,8,0:0:0:0:
9,314,82568,1,8,0:0:0:0:
56,303,82647,5,6,1:2:0:0:
5,86,82882,1,0,1:2:0:0:
214,155,83118,1,0,1:2:0:0:
80,188,83275,5,2,1:2:0:0:
237,35,83511,1,0,1:2:0:0:
309,247,83746,1,0,1:2:0:0:
214,155,83903,5,2,1:2:0:0:
465,82,84139,1,0,1:2:0:0:
403,338,84374,1,0,1:2:0:0:
309,247,84532,5,2,1:2:0:0:
491,188,84689,1,2,1:2:0:0:
438,178,84767,1,2,1:2:0:0:
398,140,84846,1,0,1:2:0:0:
378,89,84924,1,2,1:2:0:0:
386,35,85003,1,2,1:2:0:0:
435,13,85081,1,0,1:2:0:0:
482,40,85160,5,6,1:2:0:0:
229,159,85395,1,0,1:2:0:0:
452,337,85631,1,0,1:2:0:0:
408,184,85788,5,2,1:2:0:0:
144,298,86024,1,0,1:2:0:0:
195,41,86259,1,0,1:2:0:0:
312,339,86416,1,2,0:0:0:0:
312,339,86730,5,2,0:0:0:0:
14,183,87045,6,0,P|93:181|147:215,1,136.000002593994,2|2,1:2|1:2,0:0:0:0:
144,298,87280,1,0,0:0:0:0:
144,298,87359,1,2,1:2:0:0:
118,170,87516,1,2,0:0:0:0:
236,200,87673,6,0,P|266:263|267:280,1,55.9999982910157,6|0,1:2|0:0,0:0:0:0:
312,339,87830,2,0,L|305:264,2,55.9999982910157,0|2|2,0:0|0:0|0:0,0:0:0:0:
332,182,88144,6,0,P|362:119|363:102,1,55.9999982910157,2|0,1:2|0:0,0:0:0:0:
408,43,88301,2,0,L|401:117,2,55.9999982910157,0|2|2,0:0|0:0|0:0,0:0:0:0:
236,200,88615,6,0,P|266:263|267:280,1,55.9999982910157,2|0,1:2|0:0,0:0:0:0:
312,339,88772,2,0,L|305:264,2,55.9999982910157,0|2|2,0:0|0:0|0:0,0:0:0:0:
332,182,89087,6,0,P|362:119|363:102,1,55.9999982910157,2|0,1:2|0:0,0:0:0:0:
408,43,89244,2,0,L|401:117,2,55.9999982910157,0|0|2,0:0|0:0|0:0,0:0:0:0:
258,56,89558,5,2,1:2:0:0:
229,37,89636,1,2,0:0:0:0:
196,32,89715,1,2,0:0:0:0:
164,40,89793,1,2,0:0:0:0:
138,62,89872,2,0,P|65:80|54:74,3,60.0000022888184,2|2|2|2,1:2|0:0|0:0|0:0,0:0:0:0:
78,0,90186,2,0,P|125:96|70:157,1,180.000006866455,2|0,0:0|0:0,0:0:0:0:
79,157,90500,6,0,L|184:147,1,60.0000022888184,4|0,1:2|0:0,0:0:0:0:
219,223,90657,2,0,L|74:235,1,120.000004577637,8|0,0:0|0:0,0:0:0:0:
119,309,90971,1,0,1:2:0:0:
139,307,91050,1,0,0:0:0:0:
159,305,91128,1,8,0:0:0:0:
179,304,91207,1,0,0:0:0:0:
199,302,91285,1,0,1:2:0:0:
219,300,91364,1,0,0:0:0:0:
241,299,91443,6,0,P|292:255|292:232,3,60.0000022888184,0|0|2|2,1:2|0:0|0:0|0:0,0:0:0:0:
242,139,91757,2,0,P|293:183|293:206,3,60.0000022888184,10|0|2|0,0:0|0:0|0:0|0:0,0:0:0:0:
303,267,92071,1,10,1:2:0:0:
303,267,92149,1,0,0:0:0:0:
303,267,92228,2,0,P|375:266|396:252,1,60.0000022888184,0|0,1:2|1:2,0:0:0:0:
430,189,92385,1,8,0:0:0:0:
430,189,92463,1,0,1:2:0:0:
430,189,92542,2,0,P|358:190|337:204,1,60.0000022888184,0|0,1:2|1:2,0:0:0:0:
498,242,92699,6,0,P|513:163|472:107,1,120.000004577637,6|2,1:2|0:0,0:0:0:0:
456,50,93013,1,10,0:0:0:0:
456,50,93092,1,2,0:0:0:0:
456,50,93170,2,0,L|461:-20,4,60.0000022888184,2|0|2|0|2,1:2|0:0|0:0|0:0|1:2,0:0:0:0:
284,206,93641,2,0,L|288:265,3,60.0000022888184,10|0|0|0,0:0|0:0|0:0|0:0,0:0:0:0:
193,163,93956,5,2,1:2:0:0:
180,148,94034,1,2,0:0:0:0:
171,130,94113,1,2,0:0:0:0:
166,111,94191,1,2,0:0:0:0:
166,91,94270,1,10,1:2:0:0:
170,72,94348,1,2,0:0:0:0:
181,52,94427,6,0,P|225:10|254:14,1,60.0000022888184,2|0,1:2|0:0,0:0:0:0:
308,41,94584,2,0,P|290:70|268:82,1,60.0000022888184,2|0,0:0|0:0,0:0:0:0:
255,95,94741,1,2,1:2:0:0:
105,9,94898,1,10,0:0:0:0:
101,184,95055,1,0,1:2:0:0:
29,121,95212,5,2,1:2:0:0:
12,146,95290,1,0,1:0:0:0:
3,174,95369,1,0,1:2:0:0:
4,204,95447,1,0,1:0:0:0:
16,232,95526,1,2,1:2:0:0:
27,259,95605,1,0,1:0:0:0:
28,289,95683,1,0,1:2:0:0:
19,317,95762,1,0,1:0:0:0:
2,342,95840,5,2,1:2:0:0:
101,184,95998,1,2,1:2:0:0:
200,342,96155,1,2,1:2:0:0:
101,184,96313,1,2,1:2:0:0:
270,244,96469,5,2,1:2:0:0:
314,240,96547,1,0,1:2:0:0:
350,214,96626,1,2,1:2:0:0:
367,173,96704,1,0,1:2:0:0:
359,130,96783,1,10,1:2:0:0:
330,96,96861,1,8,1:2:0:0:
287,83,96940,1,10,1:2:0:0:
245,95,97018,1,8,1:2:0:0:
214,127,97097,6,0,P|204:158|207:178,5,40.000001525879,2|0|0|2|0|0,0:0|0:0|0:0|0:0|0:0|0:0,0:0:0:0:
288,165,97411,2,0,P|290:91|233:48,1,120.000004577637,8|10,0:0|0:0,0:0:0:0:
451,4,97725,6,0,P|421:67|420:84,1,60.0000022888184,6|0,1:2|0:0,0:0:0:0:
457,126,97882,2,0,L|463:49,2,60.0000022888184,0|2|10,0:0|0:0|0:0,0:0:0:0:
373,295,98196,6,0,P|403:232|404:215,1,60.0000022888184,2|0,1:2|0:0,0:0:0:0:
367,173,98353,2,0,L|360:249,2,60.0000022888184,0|2|10,0:0|0:0|1:2,0:0:0:0:
451,4,98668,6,0,P|421:67|420:84,1,60.0000022888184,2|0,1:2|0:0,0:0:0:0:
457,126,98825,2,0,L|463:49,2,60.0000022888184,0|2|10,0:0|0:0|0:0,0:0:0:0:
373,295,99139,6,0,P|403:232|404:215,1,60.0000022888184,2|0,1:2|0:0,0:0:0:0:
367,173,99296,2,0,L|360:249,2,60.0000022888184,0|2|10,0:0|0:0|0:0,0:0:0:0:
287,307,99610,5,2,1:2:0:0:
304,347,99688,1,2,0:0:0:0:
339,375,99767,1,2,0:0:0:0:
383,382,99845,1,2,0:0:0:0:
425,368,99924,2,0,P|463:308|462:294,3,60.0000022888184,2|2|2|2,1:2|0:0|0:0|0:0,0:0:0:0:
292,219,100238,6,0,P|346:242|373:295,1,120.000004577637,0|0,0:0|0:0,0:0:0:0:
282,366,100552,2,0,L|286:299,1,60.0000022888184,6|0,1:2|0:0,0:0:0:0:
292,219,100710,2,0,L|281:78,1,120.000004577637,8|0,0:0|0:0,0:0:0:0:
167,25,101024,1,0,1:2:0:0:
165,44,101102,1,0,1:0:0:0:
164,64,101181,1,8,0:0:0:0:
162,84,101259,1,0,1:0:0:0:
161,104,101338,1,0,1:0:0:0:
159,124,101416,1,0,1:0:0:0:
157,144,101495,6,0,L|149:236,1,80.0000030517579,2|0,1:2|0:0,0:0:0:0:
73,323,101704,2,0,L|65:231,1,80.0000030517579,2|0,1:2|0:0,0:0:0:0:
161,135,101914,2,0,L|152:236,1,80.0000030517579,2|0,1:2|0:0,0:0:0:0:
68,331,102123,2,0,L|60:230,1,80.0000030517579,2|0,1:2|0:0,0:0:0:0:
165,126,102333,2,0,L|155:236,1,80.0000030517579,2|0,1:2|0:0,0:0:0:0:
64,340,102542,2,0,L|54:230,1,80.0000030517579,2|0,1:2|0:0,0:0:0:0:
169,117,102751,2,0,L|153:306,1,160.000006103516,2|0,0:0|0:0,0:0:0:0:
228,343,103066,5,6,1:2:0:0:
228,343,103144,1,0,0:0:0:0:
228,343,103223,2,0,P|247:264|235:240,1,60.0000022888184,2|0,1:2|0:0,0:0:0:0:
333,232,103380,2,0,P|316:207|310:177,1,60.0000022888184,2|0,1:2|0:0,0:0:0:0:
266,99,103537,1,2,1:2:0:0:
219,195,103694,1,2,1:2:0:0:
399,161,103851,5,0,1:0:0:0:
399,161,103929,1,0,0:0:0:0:
399,161,104008,2,0,P|429:229|408:281,1,120.000004577637,0|0,1:2|1:2,0:0:0:0:
169,117,104322,1,2,1:2:0:0:
170,72,104400,1,2,0:0:0:0:
192,33,104479,1,2,1:2:0:0:
229,9,104557,1,2,0:0:0:0:
273,4,104636,5,2,1:2:0:0:
333,232,104793,1,2,1:2:0:0:
169,117,104950,1,2,1:2:0:0:
397,58,105107,1,2,1:2:0:0:
212,232,105265,5,0,1:2:0:0:
189,235,105343,1,0,1:0:0:0:
167,236,105422,1,0,1:2:0:0:
145,232,105500,1,0,1:0:0:0:
124,224,105579,1,0,1:2:0:0:
104,213,105657,1,0,1:0:0:0:
87,199,105736,1,0,1:2:0:0:
72,182,105814,1,0,1:0:0:0:
60,159,105893,2,0,L|66:92,3,60.0000022888184,0|0|0|0,1:2|1:0|1:0|1:2,0:0:0:0:
162,57,106207,2,0,L|168:123,3,60.0000022888184,0|0|0|2,1:2|1:2|1:0|1:2,0:0:0:0:
269,154,106521,5,10,1:2:0:0:
290,175,106599,1,2,1:2:0:0:
303,201,106678,1,2,1:2:0:0:
308,231,106756,1,10,1:2:0:0:
303,260,106835,1,2,1:2:0:0:
290,287,106913,1,2,1:2:0:0:
269,308,106992,1,10,1:2:0:0:
243,322,107070,1,2,1:2:0:0:
212,327,107149,2,0,L|135:315,5,40.000001525879,2|0|0|2|0|0,0:0|0:0|0:0|0:0|0:0|0:0,0:0:0:0:
139,315,107463,5,8,0:0:0:0:
252,64,107621,1,2,0:0:0:0:
89,169,107778,6,0,L|182:160,1,60.0000022888184,6|0,1:2|0:0,0:0:0:0:
10,117,107935,2,0,P|2:183|19:211,2,60.0000022888184,0|2|10,0:0|0:0|0:0,0:0:0:0:
148,163,108249,6,0,L|54:171,1,60.0000022888184,2|0,1:2|0:0,0:0:0:0:
227,215,108406,2,0,P|234:148|217:120,2,60.0000022888184,0|2|10,0:0|0:0|1:2,0:0:0:0:
89,169,108720,6,0,L|182:160,1,60.0000022888184,2|0,1:2|0:0,0:0:0:0:
10,117,108877,2,0,P|2:183|19:211,2,60.0000022888184,0|2|10,0:0|0:0|0:0,0:0:0:0:
148,163,109191,6,0,L|54:171,1,60.0000022888184,2|0,1:2|0:0,0:0:0:0:
227,215,109348,2,0,P|234:148|217:120,2,60.0000022888184,0|2|10,0:0|0:0|1:2,0:0:0:0:
142,248,109662,1,2,1:2:0:0:
171,281,109740,1,2,0:0:0:0:
212,298,109819,1,2,0:0:0:0:
257,296,109897,1,2,0:0:0:0:
296,274,109977,2,0,P|311:195|300:177,3,60.0000022888184,2|2|2|2,0:0|0:0|1:2|0:0,0:0:0:0:
330,127,110291,5,2,1:2:0:0:
358,134,110369,1,0,0:0:0:0:
383,151,110448,1,2,0:0:0:0:
401,175,110526,1,0,0:0:0:0:
413,203,110605,2,0,L|406:275,1,60.0000022888184,2|0,1:2|0:0,0:0:0:0:
316,220,110762,2,0,P|253:175|260:61,1,180.000006866455,10|0,0:0|0:0,0:0:0:0:
257,72,111076,5,2,1:2:0:0:
230,86,111154,1,2,1:2:0:0:
201,93,111233,1,10,1:2:0:0:
171,93,111311,1,2,1:2:0:0:
142,86,111390,1,2,1:2:0:0:
116,73,111468,1,2,1:2:0:0:
93,53,111547,2,0,P|61:-6|66:-27,3,60.0000022888184,0|0|2|2,1:2|0:0|1:2|0:0,0:0:0:0:
139,141,111861,2,0,P|171:82|166:61,3,60.0000022888184,2|0|2|2,1:2|0:0|1:2|0:0,0:0:0:0:
48,136,112176,5,2,1:2:0:0:
49,165,112254,1,0,1:2:0:0:
61,193,112333,1,0,1:2:0:0:
82,214,112411,1,0,1:2:0:0:
109,227,112489,1,2,1:2:0:0:
135,239,112568,1,0,1:2:0:0:
156,261,112646,1,0,1:2:0:0:
168,288,112725,1,0,1:2:0:0:
170,317,112804,2,0,P|121:344|48:325,1,120.000004577637,6|0,1:2|0:0,0:0:0:0:
249,215,113118,5,8,1:2:0:0:
249,215,113197,1,0,0:0:0:0:
249,215,113275,2,0,L|319:220,4,60.0000022888184,2|0|2|0|2,0:0|0:0|1:2|0:0|0:0,0:0:0:0:
152,48,113746,2,0,L|93:52,3,60.0000022888184,10|0|0|0,1:2|0:0|0:0|0:0,0:0:0:0:
271,116,114060,5,0,1:2:0:0:
289,123,114138,1,0,0:0:0:0:
309,125,114217,1,0,0:0:0:0:
329,123,114295,1,0,0:0:0:0:
348,117,114374,1,8,1:2:0:0:
364,106,114452,1,0,0:0:0:0:
380,89,114531,2,0,P|404:33|390:7,1,60.0000022888184,2|0,0:0|0:0,0:0:0:0:
427,6,114689,2,0,L|418:86,1,60.0000022888184,2|0,1:2|0:0,0:0:0:0:
443,159,114845,5,2,0:0:0:0:
311,40,115002,1,10,1:2:0:0:
274,214,115160,1,0,1:2:0:0:
289,123,115317,5,2,1:2:0:0:
244,124,115395,1,0,1:0:0:0:
205,146,115474,1,0,1:2:0:0:
181,183,115552,1,0,1:0:0:0:
177,227,115631,2,0,P|226:298|306:309,1,120.000004577637,2|0,1:2|1:2,0:0:0:0:
274,214,115945,1,2,1:2:0:0:
127,64,116103,1,2,1:2:0:0:
60,272,116259,1,2,1:2:0:0:
127,64,116417,1,2,1:2:0:0:
274,214,116573,5,2,1:2:0:0:
300,227,116651,1,0,1:2:0:0:
329,236,116730,1,2,1:2:0:0:
358,239,116808,1,0,1:2:0:0:
388,236,116887,1,2,1:2:0:0:
417,228,116965,1,0,1:2:0:0:
444,214,117044,1,2,1:2:0:0:
466,197,117122,1,0,1:2:0:0:
487,173,117202,2,0,P|496:123|488:98,5,40.000001525879,2|0|0|2|0|0,0:0|0:0|0:0|0:0|0:0|0:0,0:0:0:0:
472,40,117516,5,10,0:0:0:0:
388,236,117673,1,10,0:0:0:0:
257,66,117830,6,0,L|249:151,1,60.0000022888184,6|0,1:2|0:0,0:0:0:0:
281,213,117987,1,0,0:0:0:0:
281,213,118066,1,2,1:2:0:0:
281,213,118144,2,0,P|325:157|326:135,1,60.0000022888184,10|0,1:2|0:0,0:0:0:0:
224,70,118301,6,0,L|239:154,1,60.0000022888184,2|0,1:2|0:0,0:0:0:0:
285,205,118458,1,0,0:0:0:0:
285,205,118537,1,2,1:2:0:0:
285,205,118615,2,0,P|314:140|309:119,1,60.0000022888184,10|0,1:2|0:0,0:0:0:0:
193,82,118772,6,0,L|230:160,1,60.0000022888184,2|0,1:2|0:0,0:0:0:0:
288,197,118929,1,0,0:0:0:0:
288,197,119008,1,2,1:2:0:0:
288,197,119086,2,0,P|299:127|289:107,1,60.0000022888184,10|0,1:2|0:0,0:0:0:0:
167,102,119244,6,0,L|222:168,1,60.0000022888184,2|0,1:2|0:0,0:0:0:0:
288,189,119401,1,0,0:0:0:0:
288,189,119480,1,2,1:2:0:0:
288,189,119558,2,0,P|281:118|266:102,1,60.0000022888184,10|0,1:2|0:0,0:0:0:0:
205,148,119715,5,2,1:2:0:0:
196,191,119793,1,2,0:0:0:0:
210,234,119872,1,2,0:2:0:0:
243,264,119950,1,2,0:2:0:0:
286,274,120029,2,0,P|329:326|329:354,3,60.0000022888184,2|0|10|2,0:0|0:0|1:2|0:0,0:0:0:0:
288,189,120343,1,2,0:2:0:0:
298,161,120421,1,0,0:0:0:0:
297,131,120500,1,2,0:0:0:0:
286,103,120578,1,0,0:0:0:0:
266,80,120657,6,0,P|217:57|160:69,1,60.0000022888184,2|2,1:2|0:0,0:0:0:0:
205,148,120814,2,0,P|256:166|354:62,1,180.000006866455,10|0,0:0|0:0,0:0:0:0:
401,30,121128,5,2,1:2:0:0:
403,59,121206,1,2,0:0:0:0:
406,89,121285,1,10,0:0:0:0:
408,119,121363,1,2,0:0:0:0:
411,149,121442,1,2,1:2:0:0:
414,179,121520,1,2,0:0:0:0:
416,209,121600,6,0,L|423:318,1,80.0000030517579,2|0,1:2|0:0,0:0:0:0:
318,272,121809,2,0,L|252:359,1,80.0000030517579,2|0,1:2|0:0,0:0:0:0:
202,256,122018,2,0,L|96:281,1,80.0000030517579,2|0,1:2|0:0,0:0:0:0:
422,222,122228,6,0,L|428:330,1,80.0000030517579,2|0,1:2|0:0,0:0:0:0:
323,284,122437,2,0,L|257:371,1,80.0000030517579,2|0,1:2|0:0,0:0:0:0:
207,268,122646,2,0,L|101:293,1,80.0000030517579,2|0,1:2|0:0,0:0:0:0:
0,208,122856,6,0,L|169:167,1,120.000004577637,6|0,1:2|0:0,0:0:0:0:
246,83,123170,1,2,1:2:0:0:
246,83,123248,1,0,0:0:0:0:
246,83,123327,2,0,P|167:64|143:76,1,60.0000022888184,2|0,1:2|0:0,0:0:0:0:
258,179,123484,2,0,P|287:172|311:156,1,60.0000022888184,2|0,1:2|0:0,0:0:0:0:
341,78,123641,1,2,1:2:0:0:
116,180,123799,1,2,1:2:0:0:
116,180,123956,1,0,1:2:0:0:
218,353,124113,6,0,P|188:279|159:269,1,60.0000022888184,0|0,1:2|0:0,0:0:0:0:
116,180,124270,1,2,1:2:0:0:
98,204,124349,1,2,0:0:0:0:
90,233,124427,1,2,1:2:0:0:
93,263,124506,1,2,0:0:0:0:
106,289,124584,1,2,1:2:0:0:
218,353,124741,1,2,1:2:0:0:
100,83,124898,1,2,1:2:0:0:
2,262,125055,1,2,1:2:0:0:
258,179,125212,1,2,1:2:0:0:
22,31,125369,6,0,P|16:128|71:175,1,120.000004577637,0|0,1:2|0:0,0:0:0:0:
324,242,125683,5,4,1:2:0:0:
339,216,125761,1,0,1:0:0:0:
346,187,125840,1,0,1:2:0:0:
344,157,125918,1,0,1:2:0:0:
332,130,125997,1,0,1:2:0:0:
320,102,126076,1,0,1:0:0:0:
317,72,126154,1,0,1:2:0:0:
324,43,126233,1,0,1:2:0:0:
340,18,126312,2,0,P|405:-4|439:7,3,60.0000022888184,0|0|2|2,1:2|1:2|1:2|1:2,0:0:0:0:
404,80,126626,5,2,1:2:0:0:
363,98,126704,1,2,1:2:0:0:
318,96,126783,1,2,1:2:0:0:
279,75,126861,1,2,1:2:0:0:
255,38,126940,1,10,1:2:0:0:
217,15,127018,1,10,1:2:0:0:
172,12,127097,1,10,1:2:0:0:
132,32,127175,1,10,1:2:0:0:
107,69,127254,2,0,P|70:7|76:-6,1,60.0000022888184,2|0,0:0|0:0,0:0:0:0:
6,164,127411,5,2,0:0:0:0:
10,172,127463,1,0,0:0:0:0:
14,180,127516,1,0,0:0:0:0:
16,187,127568,6,0,P|147:222|189:201,1,180.000006866455,8|0,0:0|0:0,0:0:0:0:
193,99,127882,1,6,1:2:0:0:
256,192,127961,12,0,130238,0:0:0:0:
385,31,130552,5,2,1:2:0:0:
295,222,130710,2,0,L|302:140,3,60.0000022888184,10|2|2|2,0:0|0:0|0:0|0:0,0:0:0:0:
200,181,131024,2,0,P|199:262|228:309,1,120.000004577637,6|0,1:2|1:2,0:0:0:0:
401,145,131338,2,0,P|402:64|373:17,1,120.000004577637,6|0,1:2|1:2,0:0:0:0:
202,210,131652,2,0,P|241:281|290:307,1,120.000004577637,6|0,1:2|1:2,0:0:0:0:
398,115,131966,2,0,P|358:44|309:18,1,120.000004577637,6|0,1:2|0:0,0:0:0:0:
167,62,132280,6,0,L|245:54,7,51.999997619629,2|2|2|2|2|2|2|2,0:0|0:0|1:2|0:0|0:0|1:2|0:0|0:0,0:0:0:0:
226,56,132909,1,2,1:2:0:0:
3,154,133066,2,0,L|81:161,7,51.999997619629,2|2|2|2|2|2|2|2,0:0|1:2|1:2|0:0|1:2|0:0|1:2|1:2,0:0:0:0:
62,159,133695,1,2,1:2:0:0:
235,256,133851,2,0,L|156:263,7,51.999997619629,10|2|10|10|2|10|10|2,1:2|1:2|1:2|1:2|1:2|1:2|1:2|1:2,0:0:0:0:
82,271,134479,1,2,1:2:0:0:
343,90,134793,5,4,1:2:0:0:
256,192,134872,12,0,139505,0:0:0:0:
