osu file format v14

[General]
AudioFilename: audio.mp3
AudioLeadIn: 0
PreviewTime: 87055
Countdown: 0
SampleSet: Soft
StackLeniency: 0.3
Mode: 0
LetterboxInBreaks: 0
WidescreenStoryboard: 0

[Editor]
DistanceSpacing: 0.7
BeatDivisor: 4
GridSize: 32
TimelineZoom: 4.899998

[Metadata]
Title:Lemuria
TitleUnicode:Lemuria
Artist:Festa
ArtistUnicode:Festa
Creator:QuiescentRabbit
Version:Isolation Singularity
Source:BMS
Tags:blastthekidd side crazyrabbitkge nayarii elcheer mentai xi piano artcore electronic deathstream rsi evolved chronicles
BeatmapID:1749822
BeatmapSetID:835474

[Difficulty]
HPDrainRate:5
CircleSize:4
OverallDifficulty:9
ApproachRate:9.6
SliderMultiplier:2
SliderTickRate:1

[Events]
//Background and Video events
0,0,"background.jpg",0,0
//Break Periods
//Storyboard Layer 0 (Background)
//Storyboard Layer 1 (Fail)
//Storyboard Layer 2 (Pass)
//Storyboard Layer 3 (Foreground)
//Storyboard Sound Samples

[TimingPoints]
991,314.13612565445,4,2,1,50,1,0
991,-133.333333333333,4,2,1,50,0,0
1148,-100,4,2,10,60,0,0
1305,-100,4,2,11,60,0,0
1462,-100,4,2,12,60,0,0
1619,-100,4,2,13,60,0,0
1776,-100,4,2,14,60,0,0
2090,-100,4,2,10,64,0,0
2247,-100,4,2,11,64,0,0
2404,-100,4,2,12,64,0,0
2561,-100,4,2,13,64,0,0
2718,-100,4,2,14,64,0,0
3032,-100,4,2,10,68,0,0
3189,-100,4,2,11,68,0,0
3347,-100,4,2,12,68,0,0
3504,-100,4,2,13,68,0,0
3661,-100,4,2,14,68,0,0
3975,-100,4,2,10,68,0,0
4132,-100,4,2,11,68,0,0
4289,-100,4,2,12,68,0,0
4446,-100,4,2,1,50,0,0
4760,-100,4,2,3,60,0,0
5860,-100,4,2,3,60,0,0
7430,-125,4,2,3,60,0,0
8216,-100,4,2,3,60,0,0
11671,-100,4,2,3,70,0,0
14498,-100,4,2,1,70,0,0
14812,-100,4,2,3,70,0,0
14891,-100,4,2,1,70,0,0
15127,-100,4,2,1,75,0,0
15598,331.491712707182,4,2,1,75,1,0
16095,350.877192982456,4,2,1,75,1,0
16095,-125,4,2,1,75,0,0
16445,372.670807453416,4,2,3,60,1,0
16817,425.531914893617,4,2,1,85,1,0
16817,-133.333333333333,4,2,1,85,0,0
17413,458.015267175573,4,2,1,85,1,0
17413,-200,4,2,1,85,0,0
18100,540.540540540541,4,2,1,85,1,0
18100,-149.253731343284,4,2,1,85,0,0
18640,588.235294117647,4,2,1,85,1,0
19820,314.13612565445,4,2,99,70,1,0
19820,-384.615384615385,4,2,99,70,0,0
19898,-100,4,2,99,25,0,0
21940,-384.615384615385,4,2,99,5,0,0
22018,-100,4,2,99,60,0,0
22333,-100,4,2,1,72,0,0
23903,-100,4,2,1,70,0,0
24217,-100,4,2,3,62,0,0
24532,-100,4,2,2,54,0,0
24846,-229.885057471264,4,2,1,45,0,0
25081,-153.846153846154,4,2,1,5,0,0
25160,-83.3333333333333,4,2,1,70,0,0
25474,-83.3333333333333,4,2,1,70,0,0
26416,-83.3333333333333,4,2,3,70,0,0
26730,-83.3333333333333,4,2,1,70,0,0
27359,-125,4,2,1,70,0,0
27673,-100,4,2,1,70,0,0
28458,-76.9230769230769,4,2,1,70,0,0
29244,-76.9230769230769,4,2,3,70,0,0
29872,-125,4,2,1,70,0,0
30186,-83.3333333333333,4,2,1,70,0,0
31443,-83.3333333333333,4,2,3,70,0,0
31757,-83.3333333333333,4,2,1,70,0,0
32385,-125,4,2,1,70,0,0
32699,-100,4,2,1,70,0,0
34113,-100,4,2,3,70,0,0
34898,-71.4285714285714,4,2,1,60,0,1
35212,-83.3333333333333,4,2,1,85,0,1
35369,-83.3333333333333,4,2,1,85,0,1
38511,-133.333333333333,4,2,1,85,0,1
39846,-100,4,2,1,85,0,1
41024,-66.6666666666667,4,2,1,85,0,1
41259,-66.6666666666667,4,2,1,85,0,1
41338,-66.6666666666667,4,2,3,85,0,1
42437,-66.6666666666667,4,2,1,85,0,1
43851,-66.6666666666667,4,2,3,85,0,1
44008,-66.6666666666667,4,2,3,85,0,1
44322,-66.6666666666667,4,2,1,85,0,1
45265,-277.777777777778,4,2,99,70,0,0
45343,-277.777777777778,4,2,99,35,0,0
47071,-277.777777777778,4,2,99,5,0,0
47149,-250,4,2,1,70,0,0
47228,-250,4,2,1,35,0,0
48327,-250,4,2,1,5,0,0
48406,-133.333333333333,4,2,1,70,0,0
48484,-133.333333333333,4,2,1,35,0,0
48956,-133.333333333333,4,2,1,5,0,0
49034,-100,4,2,1,70,0,0
49113,-100,4,2,1,35,0,0
49270,-100,4,2,1,5,0,0
49348,-100,4,2,99,70,0,0
49662,-100,4,2,10,60,0,0
49819,-100,4,2,21,60,0,0
49977,-100,4,2,22,60,0,0
50134,-100,4,2,14,60,0,0
50291,-100,4,2,24,60,0,0
50605,-100,4,2,10,64,0,0
50762,-100,4,2,21,64,0,0
50919,-100,4,2,22,64,0,0
51076,-100,4,2,14,64,0,0
51233,-100,4,2,24,64,0,0
51547,-100,4,2,20,68,0,0
51704,-100,4,2,21,68,0,0
51861,-100,4,2,22,68,0,0
52018,-100,4,2,14,68,0,0
52176,-100,4,2,24,68,0,0
52490,-100,4,2,20,72,0,0
52647,-100,4,2,21,72,0,0
52804,-100,4,2,22,72,0,0
52961,-100,4,2,14,72,0,0
53118,-100,4,2,24,72,0,0
54296,-100,4,2,24,5,0,0
54374,-100,4,2,1,70,0,0
56573,-90.9090909090909,4,2,1,64,0,0
57202,-90.9090909090909,4,2,3,64,0,0
57830,-90.9090909090909,4,2,1,64,0,0
58458,-90.9090909090909,4,2,3,64,0,0
59087,-90.9090909090909,4,2,1,70,0,0
60343,-90.9090909090909,4,2,3,70,0,0
61285,-90.9090909090909,4,2,1,64,0,0
61914,-90.9090909090909,4,2,3,64,0,0
62542,-90.9090909090909,4,2,1,64,0,0
64113,-62.5,4,2,1,85,0,1
64191,-62.5,4,2,1,82,0,1
64427,-66.6666666666667,4,2,1,82,0,1
65055,-66.6666666666667,4,2,1,82,0,1
65134,-66.6666666666667,4,2,1,82,0,1
66312,-66.6666666666667,4,2,1,88,0,1
66390,-66.6666666666667,4,2,1,88,0,1
66469,-66.6666666666667,4,2,1,88,0,1
66547,-66.6666666666667,4,2,1,88,0,1
66940,-66.6666666666667,4,2,1,88,0,1
67018,-66.6666666666667,4,2,1,88,0,1
67097,-66.6666666666667,4,2,1,88,0,1
67176,-66.6666666666667,4,2,1,88,0,1
67254,-80,4,2,1,82,0,1
67568,-80,4,2,1,82,0,1
67647,-80,4,2,1,82,0,1
67882,-80,4,2,1,86,0,1
67961,-80,4,2,1,86,0,1
68196,-80,4,2,1,90,0,1
68275,-80,4,2,1,90,0,1
68511,-500,4,2,1,94,0,1
68589,-500,4,2,1,70,0,1
68982,-500,4,2,1,62,0,0
70709,-111.111111111111,4,2,1,70,0,0
71338,-100,4,2,1,70,0,0
75107,-100,4,2,1,76,0,0
75422,-100,4,2,1,72,0,0
75736,-100,4,2,1,68,0,0
76050,-100,4,2,1,64,0,0
76364,-100,4,2,3,80,0,0
76678,-100,4,2,3,78,0,0
76992,-100,4,2,2,86,0,0
77306,-100,4,2,2,84,0,0
77621,-100,4,2,2,70,0,0
77778,-500,4,2,1,70,0,0
79819,-500,4,2,1,5,0,0
79977,-500,4,2,1,70,0,0
80291,-76.9230769230769,4,2,1,85,0,0
80369,-76.9230769230769,4,2,1,70,0,0
80448,-76.9230769230769,4,2,1,85,0,0
80526,-76.9230769230769,4,2,1,70,0,0
80762,-76.9230769230769,4,2,1,76,0,0
82647,-76.9230769230769,4,2,1,85,0,0
86416,-76.9230769230769,4,2,1,72,0,0
87673,-76.9230769230769,4,2,3,90,0,1
89558,-62.5,4,2,3,90,0,1
89872,-76.9230769230769,4,2,1,90,0,1
90186,-230.76940828416,4,2,1,78,0,1
90422,-230.76940828416,4,2,1,5,0,1
90500,-71.4285714285714,4,2,1,90,0,1
90657,-100,4,2,1,90,0,1
90971,-83.3333333333333,4,2,1,90,0,1
91600,-83.3333333333333,4,2,1,90,0,1
92071,-83.3333333333333,4,2,1,90,0,1
93170,-83.3333333333333,4,2,1,90,0,1
93484,-83.3333333333333,4,2,1,90,0,1
93641,-83.3333333333333,4,2,1,90,0,1
94427,-83.3333333333333,4,2,1,90,0,1
94505,-83.3333333333333,4,2,1,90,0,1
94584,-83.3333333333333,4,2,1,90,0,1
94662,-83.3333333333333,4,2,1,90,0,1
94741,-83.3333333333333,4,2,1,90,0,1
94819,-83.3333333333333,4,2,1,90,0,1
95840,-83.3333333333333,4,2,1,90,0,1
97097,-83.3333333333333,4,2,1,90,0,1
97725,-83.3333333333333,4,2,3,90,0,1
99924,-83.3333333333333,4,2,1,90,0,1
100238,-219.78021978022,4,2,1,78,0,1
100474,-219.78021978022,4,2,1,5,0,1
100552,-80,4,2,1,90,0,1
100710,-100,4,2,1,90,0,1
101495,-80,4,2,1,90,0,1
102123,-57.1428571428571,4,2,1,90,0,1
102751,-133.333333333333,4,2,1,78,0,1
102987,-133.333333333333,4,2,1,5,0,1
103066,-133.333333333333,4,2,1,90,0,1
103380,-66.6666666666667,4,2,1,90,0,1
105265,-100,4,2,1,90,0,1
105579,-66.6666666666667,4,2,1,90,0,1
107778,-66.6666666666667,4,2,3,90,0,1
108092,-80,4,2,3,90,0,1
109977,-80,4,2,1,90,0,1
111704,-80,4,2,1,95,0,1
112176,-80,4,2,1,90,0,1
113275,-80,4,2,1,90,0,1
113511,-80,4,2,1,90,0,1
113589,-80,4,2,1,90,0,1
113668,-80,4,2,1,90,0,1
114532,-80,4,2,1,90,0,1
114767,-80,4,2,1,90,0,1
114846,-80,4,2,1,90,0,1
114924,-80,4,2,1,90,0,1
115945,-80,4,2,1,90,0,1
116024,-80,4,2,1,90,0,1
116102,-80,4,2,1,90,0,1
116181,-80,4,2,1,90,0,1
116259,-80,4,2,1,90,0,1
116338,-80,4,2,1,90,0,1
116416,-80,4,2,1,90,0,1
116495,-80,4,2,1,90,0,1
116573,-80,4,2,1,90,0,1
117123,-80,4,2,1,90,0,1
117830,-80,4,2,3,90,0,1
120029,-80,4,2,1,90,0,1
120186,-80,4,2,1,90,0,1
121600,-57.1428571428571,4,2,1,95,0,1
122228,-44.4444444444445,4,2,1,90,0,1
122856,-100,4,2,1,85,0,1
123092,-100,4,2,1,5,0,1
123170,-66.6666666666667,4,2,1,90,0,1
125369,-100,4,2,1,100,0,1
127568,-333.333333333333,4,2,1,100,0,1
127882,-333.333333333333,4,2,99,82,0,0
128982,-333.333333333333,4,2,1,75,0,0
130552,-333.333333333333,4,2,1,85,0,0
131024,-100,4,2,1,85,0,0
132280,-100,4,2,1,90,0,0
133066,-100,4,2,1,95,0,0
133851,-100,4,2,1,100,0,0
134793,-655.737704918033,4,2,99,85,0,0
139505,-655.737704918033,4,2,1,5,0,0

[Colours]
Combo1 : 184,192,199
Combo2 : 148,204,235
Combo3 : 12,104,180

[HitObjects]
33,216,991,6,0,P|22:174|38:132,1,75.0000028610231,4|2,1:2|0:0,0:0:0:0:
44,77,1305,1,2,0:0:0:0:
116,67,1462,1,2,0:0:0:0:
147,132,1619,1,2,0:0:0:0:
94,181,1776,1,2,0:0:0:0:
24,146,2090,5,2,0:0:0:0:
39,72,2247,1,2,0:0:0:0:
118,61,2404,1,2,0:0:0:0:
153,133,2561,1,2,0:0:0:0:
94,187,2718,1,2,0:0:0:0:
18,148,3032,5,2,0:0:0:0:
35,67,3189,1,2,0:0:0:0:
122,55,3347,1,2,0:0:0:0:
159,134,3504,1,2,0:0:0:0:
95,193,3661,1,2,0:0:0:0:
13,151,3975,5,2,0:0:0:0:
31,63,4132,1,2,0:0:0:0:
124,50,4289,1,2,0:0:0:0:
165,135,4446,5,6,1:2:0:0:
188,176,4525,1,0,0:0:0:0:
184,225,4603,1,0,0:0:0:0:
153,264,4682,1,0,0:0:0:0:
106,279,4760,1,6,0:0:0:0:
95,193,4917,5,0,0:0:0:0:
285,307,5074,1,0,0:0:0:0:
105,198,5388,1,2,0:0:0:0:
277,302,5545,1,0,0:0:0:0:
436,19,5860,6,0,P|429:101|394:134,1,100,0|2,0:0|0:0,0:0:0:0:
334,199,6174,1,0,0:0:0:0:
334,199,6252,1,0,0:0:0:0:
334,199,6331,1,0,0:0:0:0:
355,52,6488,1,0,0:0:0:0:
450,238,6645,5,2,0:0:0:0:
346,60,6802,1,0,0:0:0:0:
277,302,6959,5,0,0:0:0:0:
309,309,7038,1,0,0:0:0:0:
342,309,7116,1,0,0:0:0:0:
375,301,7195,1,0,0:0:0:0:
404,286,7273,1,2,0:0:0:0:
430,264,7352,1,0,0:0:0:0:
450,238,7430,2,0,L|442:337,1,80,0|0,0:0|0:0,0:0:0:0:
277,302,7744,2,0,L|269:401,1,80,0|2,0:0|0:0,0:0:0:0:
102,207,8059,1,0,0:0:0:0:
104,303,8216,6,0,P|91:255|102:206,1,100,0|0,1:2|0:0,0:0:0:0:
196,132,8530,5,2,0:0:0:0:
204,254,8687,1,0,0:0:0:0:
356,144,8844,5,0,0:0:0:0:
364,22,9001,1,0,0:0:0:0:
87,77,9158,5,2,0:0:0:0:
100,56,9237,1,0,0:0:0:0:
118,38,9315,1,0,0:0:0:0:
139,24,9394,1,0,0:0:0:0:
162,15,9472,1,0,0:0:0:0:
187,11,9551,1,0,0:0:0:0:
212,11,9629,1,0,0:0:0:0:
236,17,9708,1,0,0:0:0:0:
256,27,9786,2,0,L|250:87,3,50,2|0|0|0,0:0|0:0|0:0|0:0,0:0:0:0:
196,132,10100,5,0,0:0:0:0:
139,24,10258,1,0,0:0:0:0:
356,144,10415,1,2,0:0:0:0:
156,208,10572,2,0,P|107:121|117:89,1,100,0|0,0:0|0:0,0:0:0:0:
356,144,10886,6,0,L|365:45,1,100,0|2,0:0|0:0,0:0:0:0:
280,257,11200,2,0,L|272:158,1,100,0|0,0:0|0:0,0:0:0:0:
355,371,11514,2,0,L|362:292,1,50,0|0,0:0|0:0,0:0:0:0:
364,271,11671,1,6,1:2:0:0:
215,310,11828,5,0,0:0:0:0:
194,110,11985,1,0,1:2:0:0:
213,299,12299,5,2,0:0:0:0:
195,120,12456,1,0,0:0:0:0:
130,269,12614,5,0,1:2:0:0:
277,69,12771,2,0,B|237:13|168:24,1,100,0|2,0:0|0:0,0:0:0:0:
111,78,13085,5,0,0:0:0:0:
111,78,13163,1,0,0:0:0:0:
111,78,13242,1,0,1:2:0:0:
208,216,13399,1,0,0:0:0:0:
12,331,13556,5,2,0:0:0:0:
95,177,13713,1,0,0:0:0:0:
146,358,13870,5,0,1:2:0:0:
157,327,13949,1,0,0:0:0:0:
153,295,14027,1,0,0:0:0:0:
134,267,14106,1,0,0:0:0:0:
83,268,14184,1,2,1:2:0:0:
72,237,14263,1,0,0:0:0:0:
76,205,14341,1,0,0:0:0:0:
95,177,14420,1,0,0:0:0:0:
153,142,14498,5,2,1:2:0:0:
175,157,14577,1,2,0:0:0:0:
201,160,14655,1,2,0:0:0:0:
225,151,14734,1,2,0:0:0:0:
273,132,14812,5,2,1:2:0:0:
295,117,14891,1,2,0:0:0:0:
321,114,14970,1,2,0:0:0:0:
345,123,15048,1,2,0:0:0:0:
356,136,15127,6,0,L|363:62,1,50,6|0,1:2|0:0,0:0:0:0:
273,132,15284,2,0,L|280:205,1,50,2|0,1:2|0:0,0:0:0:0:
277,181,15598,6,0,L|281:230,1,50,6|0,1:2|0:0,0:0:0:0:
193,315,15763,2,0,L|198:266,1,50,2|0,1:2|0:0,0:0:0:0:
297,33,16095,6,0,P|339:12|413:27,1,120,6|0,1:2|0:0,0:0:0:0:
487,127,16445,5,2,0:0:0:0:
485,139,16538,1,0,0:0:0:0:
484,151,16631,1,0,0:0:0:0:
483,164,16724,1,0,0:0:0:0:
482,174,16817,6,0,L|472:277,1,75.0000028610231,6|2,1:2|1:2,0:0:0:0:
375,384,17413,2,0,L|368:313,1,50,6|2,1:2|1:2,0:0:0:0:
243,210,18100,6,0,P|122:213|110:233,1,133.999993661499,6|0,1:2|1:2,0:0:0:0:
24,340,18934,5,0,0:0:0:0:
185,263,19228,1,0,0:0:0:0:
38,163,19522,1,0,0:0:0:0:
50,239,19820,6,0,P|206:210|126:131,1,350.999997857666,4|0,1:2|0:0,0:0:0:0:
242,78,22018,5,0,0:0:0:0:
279,74,22096,1,0,0:0:0:0:
316,71,22175,1,0,0:0:0:0:
354,68,22253,1,0,0:0:0:0:
391,65,22333,6,0,L|463:58,1,50,6|0,1:2|0:0,0:0:0:0:
138,2,22490,1,2,0:0:0:0:
138,2,22568,1,10,0:0:0:0:
138,2,22647,1,10,0:0:0:0:
333,224,22804,6,0,L|260:217,1,50,6|0,1:2|0:0,0:0:0:0:
451,71,22961,1,2,0:0:0:0:
451,71,23039,1,10,0:0:0:0:
451,71,23118,1,10,0:0:0:0:
391,383,23275,6,0,L|463:376,1,50,6|0,1:2|0:0,0:0:0:0:
353,215,23432,2,0,L|280:208,1,50,2|0,1:2|0:0,0:0:0:0:
440,205,23589,5,10,0:0:0:0:
429,253,23667,1,10,0:0:0:0:
395,288,23746,1,10,0:0:0:0:
347,300,23824,1,10,0:0:0:0:
300,285,23903,5,10,0:0:0:0:
259,265,23982,1,10,0:0:0:0:
218,269,24061,1,10,0:0:0:0:
185,296,24139,1,10,0:0:0:0:
171,335,24217,5,8,0:0:0:0:
151,365,24296,1,8,0:0:0:0:
120,378,24375,1,0,1:2:0:0:
87,373,24453,1,0,1:2:0:0:
62,352,24532,6,0,L|-15:320,3,50,10|2|2|2,0:0|0:0|0:0|0:0,0:0:0:0:
49,259,24846,6,0,L|81:182,1,65.2500005475998,2|0,0:0|0:0,0:0:0:0:
263,168,25160,6,0,L|217:279,1,119.999996337891,14|0,0:0|1:2,0:0:0:0:
160,4,25474,1,2,0:0:0:0:
75,199,25631,1,2,1:2:0:0:
75,199,25709,1,0,0:0:0:0:
75,199,25788,1,8,0:0:0:0:
263,80,25945,2,0,P|194:115|182:197,1,119.999996337891,2|0,1:2|0:0,0:0:0:0:
216,370,26259,1,2,1:2:0:0:
319,319,26416,5,8,3:2:0:0:
294,281,26494,1,0,3:2:0:0:
257,257,26573,1,2,1:2:0:0:
213,250,26651,1,0,3:2:0:0:
169,260,26730,2,0,P|101:236|67:150,1,119.999996337891,2|0,0:0|1:2,0:0:0:0:
168,31,27045,2,0,L|180:175,1,119.999996337891,10|0,0:0|0:0,0:0:0:0:
15,107,27359,6,0,P|82:87|116:103,1,80,2|0,1:2|0:0,0:0:0:0:
262,165,27673,2,0,P|318:161|364:129,1,100,10|0,0:0|1:2,0:0:0:0:
436,41,27987,1,2,0:0:0:0:
353,235,28144,2,0,L|364:105,1,100,2|8,1:2|0:0,0:0:0:0:
441,254,28458,2,0,P|386:318|323:315,1,129.999994049073,2|0,1:2|0:0,0:0:0:0:
175,148,28772,2,0,P|230:84|293:87,1,129.999994049073,0|8,1:2|0:0,0:0:0:0:
353,235,29086,1,0,1:2:0:0:
262,219,29243,5,2,3:2:0:0:
242,222,29321,1,0,3:2:0:0:
222,226,29400,1,0,1:2:0:0:
202,230,29478,1,0,3:2:0:0:
182,234,29557,1,10,3:2:0:0:
135,227,29636,1,0,3:2:0:0:
99,195,29715,1,0,3:2:0:0:
87,148,29793,1,0,3:2:0:0:
101,102,29872,6,0,L|108:19,1,80,2|0,1:2|0:0,0:0:0:0:
222,226,30186,2,0,L|233:358,1,119.999996337891,10|0,0:0|1:2,0:0:0:0:
33,297,30500,1,2,0:0:0:0:
176,154,30657,1,2,1:2:0:0:
176,154,30736,1,0,0:0:0:0:
176,154,30814,1,8,0:0:0:0:
232,345,30971,2,0,P|174:355|124:326,1,119.999996337891,2|0,1:2|0:0,0:0:0:0:
16,210,31285,1,2,1:2:0:0:
99,99,31442,5,8,3:2:0:0:
136,74,31520,1,0,3:2:0:0:
180,67,31599,1,0,1:2:0:0:
222,81,31677,1,0,3:2:0:0:
254,112,31757,2,0,P|311:135|405:78,1,119.999996337891,2|0,1:2|1:2,0:0:0:0:
509,42,32071,2,0,P|452:19|358:76,1,119.999996337891,10|0,0:0|0:0,0:0:0:0:
243,205,32385,6,0,L|237:285,1,80,2|0,1:2|0:0,0:0:0:0:
456,210,32699,2,0,L|447:108,1,100,10|0,0:0|1:2,0:0:0:0:
313,52,33013,1,2,0:0:0:0:
359,227,33170,2,0,P|410:295|453:306,1,100,2|8,1:2|0:0,0:0:0:0:
506,346,33484,5,2,1:2:0:0:
506,346,33563,1,0,0:0:0:0:
506,346,33641,1,0,1:0:0:0:
468,313,33719,1,0,0:0:0:0:
421,299,33798,1,2,1:2:0:0:
372,307,33876,1,0,0:0:0:0:
331,335,33955,1,8,0:0:0:0:
293,368,34034,1,0,0:0:0:0:
246,382,34113,5,2,3:2:0:0:
197,374,34191,1,0,3:2:0:0:
156,346,34270,1,2,1:2:0:0:
139,293,34348,1,0,3:2:0:0:
161,242,34427,1,0,3:2:0:0:
211,218,34505,1,2,3:2:0:0:
264,232,34584,1,8,3:2:0:0:
295,277,34662,1,0,3:2:0:0:
290,332,34741,1,2,3:2:0:0:
250,370,34819,1,0,3:2:0:0:
219,298,34898,6,0,L|239:75,1,209.999993591309,2|0,0:0|0:0,0:0:0:0:
139,7,35212,2,0,L|154:176,1,119.999996337891,6|0,1:2|0:0,0:0:0:0:
161,242,35526,1,2,1:2:0:0:
34,53,35683,1,2,0:0:0:0:
253,170,35840,1,0,1:2:0:0:
99,303,35997,6,0,P|82:208|122:171,1,119.999996337891,2|0,0:0|1:2,0:0:0:0:
317,117,36312,2,0,P|331:210|291:247,1,119.999996337891,2|0,0:0|1:2,0:0:0:0:
185,376,36626,1,0,0:0:0:0:
243,88,36783,1,2,1:2:0:0:
453,281,36940,1,0,0:0:0:0:
305,315,37097,5,2,1:2:0:0:
265,294,37175,1,2,0:0:0:0:
240,257,37254,1,2,0:0:0:0:
235,213,37332,1,2,0:0:0:0:
251,172,37411,1,2,1:2:0:0:
438,47,37568,5,0,0:0:0:0:
438,47,37647,1,0,0:0:0:0:
438,47,37725,2,0,L|426:173,1,119.999996337891,2|0,1:2|0:0,0:0:0:0:
330,223,38039,2,0,L|335:163,1,59.9999981689454,2|0,1:2|0:0,0:0:0:0:
410,294,38196,2,0,L|404:353,1,59.9999981689454,2|0,0:0|0:0,0:0:0:0:
251,172,38353,1,0,1:2:0:0:
422,300,38511,6,0,L|415:376,1,75.0000028610231,2|0,1:2|0:0,0:0:0:0:
171,143,38825,5,2,1:2:0:0:
191,111,38903,1,2,0:0:0:0:
223,92,38982,1,2,0:0:0:0:
260,88,39060,1,2,0:0:0:0:
295,101,39139,1,2,1:2:0:0:
321,127,39217,1,2,0:0:0:0:
335,163,39296,6,0,L|343:61,1,75.0000028610231,2|0,0:0|1:2,0:0:0:0:
165,68,39610,2,0,L|173:169,1,75.0000028610231,2|0,0:0|1:2,0:0:0:0:
252,187,39846,5,0,1:2:0:0:
252,187,39924,2,0,L|262:54,1,100,6|0,1:2|1:2,0:0:0:0:
392,25,40238,5,2,1:2:0:0:
392,25,40317,1,2,1:2:0:0:
392,25,40395,2,0,P|331:10|272:38,1,100,2|0,1:2|1:2,0:0:0:0:
75,147,40709,2,0,P|136:132|195:160,1,100,2|0,1:2|1:2,0:0:0:0:
379,242,41024,2,0,P|318:227|274:374,1,225.000008583069,2|0,1:2|0:0,0:0:0:0:
331,307,41338,5,0,3:2:0:0:
305,279,41416,1,0,3:2:0:0:
271,265,41495,1,2,3:2:0:0:
233,266,41573,1,2,3:2:0:0:
200,282,41652,1,2,3:2:0:0:
176,311,41730,1,2,3:2:0:0:
166,346,41809,5,0,3:2:0:0:
164,327,41887,1,0,3:2:0:0:
133,290,41966,5,0,3:2:0:0:
130,267,42045,1,0,3:2:0:0:
161,230,42123,5,8,3:2:0:0:
157,202,42202,1,8,3:2:0:0:
126,165,42280,5,8,3:2:0:0:
120,128,42359,1,8,3:2:0:0:
151,91,42437,6,0,L|141:-12,1,75.0000028610231,6|0,1:2|0:0,0:0:0:0:
270,93,42594,2,0,L|260:195,1,75.0000028610231,2|0,1:2|0:0,0:0:0:0:
263,167,42909,6,0,L|271:77,1,75.0000028610231,6|0,1:2|0:0,0:0:0:0:
380,183,43066,2,0,L|388:272,1,75.0000028610231,2|0,1:2|0:0,0:0:0:0:
386,257,43380,6,0,L|376:154,1,75.0000028610231,6|0,1:2|0:0,0:0:0:0:
505,259,43537,2,0,L|495:361,1,75.0000028610231,2|0,1:2|0:0,0:0:0:0:
386,257,43851,5,2,3:2:0:0:
382,219,43929,1,0,3:2:0:0:
379,182,44008,1,0,3:2:0:0:
375,144,44086,1,0,3:2:0:0:
372,107,44165,1,0,3:2:0:0:
368,70,44243,1,0,3:2:0:0:
365,32,44322,6,0,B|302:56|302:56|201:47,1,150.000005722046,6|0,1:2|0:0,0:0:0:0:
13,176,44558,2,0,B|75:200|75:200|176:191,1,150.000005722046,6|0,1:2|0:0,0:0:0:0:
333,316,44793,2,0,B|270:340|270:340|169:331,1,150.000005722046,6|8,1:2|0:0,0:0:0:0:
413,332,45265,6,0,P|461:247|346:326,1,396.000009667969,4|0,1:2|0:0,0:0:0:0:
385,260,47149,2,0,B|279:171|198:324|106:233,1,280,0|0,1:2|0:0,0:0:0:0:
61,192,48406,2,0,P|150:175|173:306,1,225.000008583069,0|0,1:2|0:0,0:0:0:0:
120,245,49034,2,0,L|130:84,1,150,0|0,1:2|0:0,0:0:0:0:
73,23,49348,6,0,P|41:63|52:146,1,100,4|0,1:2|0:0,0:0:0:0:
207,86,49662,5,2,0:0:0:0:
159,24,49819,1,2,0:0:0:0:
129,95,49976,1,2,0:0:0:0:
129,95,50134,1,2,0:0:0:0:
129,95,50291,1,2,0:0:0:0:
207,100,50605,5,2,0:0:0:0:
175,23,50762,1,2,0:0:0:0:
123,90,50919,1,2,0:0:0:0:
123,90,51077,1,2,0:0:0:0:
123,90,51234,1,2,0:0:0:0:
191,27,51546,5,2,0:0:0:0:
118,81,51703,1,2,0:0:0:0:
129,174,51860,1,2,0:0:0:0:
129,174,52018,1,2,0:0:0:0:
129,174,52176,1,2,0:0:0:0:
209,37,52490,5,2,0:0:0:0:
114,74,52647,1,2,0:0:0:0:
21,111,52804,1,2,0:0:0:0:
21,111,52961,1,2,0:0:0:0:
226,134,53118,1,2,0:0:0:0:
256,192,53432,12,0,54296,0:0:0:0:
244,47,54374,5,6,1:2:0:0:
68,289,54531,1,2,1:2:0:0:
72,295,54846,5,6,1:2:0:0:
352,197,55003,1,2,1:2:0:0:
356,203,55317,5,6,1:2:0:0:
68,104,55474,1,2,1:2:0:0:
263,256,55631,6,0,P|264:320|220:360,1,100,0|0,0:0|0:0,0:0:0:0:
60,153,55945,2,0,L|67:104,2,50,0|0|0,1:2|0:0|1:2,0:0:0:0:
373,43,56259,5,8,0:0:0:0:
398,69,56337,1,0,1:2:0:0:
411,104,56416,1,0,1:2:0:0:
407,141,56494,1,0,1:2:0:0:
389,174,56573,2,0,L|376:320,1,110.000003356934,6|0,1:2|0:0,0:0:0:0:
385,291,56887,1,8,0:0:0:0:
320,112,57045,1,0,1:2:0:0:
470,334,57202,5,2,3:2:0:0:
440,362,57280,1,0,3:2:0:0:
402,378,57359,1,0,3:2:0:0:
361,377,57437,1,2,3:2:0:0:
324,361,57516,1,8,3:2:0:0:
294,332,57594,1,0,3:2:0:0:
256,316,57673,1,2,3:2:0:0:
215,317,57751,1,0,3:2:0:0:
177,333,57830,2,0,L|188:219,1,110.000003356934,2|2,1:2|0:0,0:0:0:0:
88,132,58065,5,2,1:2:0:0:
88,132,58144,2,0,L|96:220,1,55.0000016784668,0|2,0:0|0:0,0:0:0:0:
170,124,58301,1,2,1:2:0:0:
14,245,58458,5,0,3:2:0:0:
14,245,58537,1,0,3:2:0:0:
14,245,58615,1,8,0:0:0:0:
40,266,58693,1,8,0:0:0:0:
72,278,58772,1,0,3:2:0:0:
106,279,58850,1,0,3:2:0:0:
139,270,58929,1,0,3:2:0:0:
167,250,59007,1,0,3:2:0:0:
187,223,59086,5,6,1:2:0:0:
49,59,59243,1,2,1:2:0:0:
319,258,59558,5,6,1:2:0:0:
276,26,59715,1,2,1:2:0:0:
409,352,60029,5,6,1:2:0:0:
494,111,60186,1,2,1:2:0:0:
303,157,60343,6,0,P|296:223|351:276,1,110.000003356934,2|0,0:0|0:0,0:0:0:0:
473,232,60657,2,0,P|421:194|351:212,1,110.000003356934,2|0,0:0|0:0,0:0:0:0:
256,320,60971,5,0,3:2:0:0:
239,340,61049,1,0,3:2:0:0:
215,354,61128,1,8,0:0:0:0:
188,359,61206,1,8,0:0:0:0:
162,355,61285,2,0,L|152:239,1,110.000003356934,6|0,1:2|0:0,0:0:0:0:
164,64,61600,5,8,0:0:0:0:
52,174,61757,1,0,1:2:0:0:
369,108,61914,5,2,3:2:0:0:
350,88,61992,1,0,3:2:0:0:
325,75,62071,1,0,3:2:0:0:
298,72,62149,1,2,3:2:0:0:
271,78,62228,1,8,3:2:0:0:
234,86,62307,1,0,3:2:0:0:
198,82,62385,1,2,3:2:0:0:
164,64,62464,1,0,3:2:0:0:
140,39,62542,5,2,1:2:0:0:
101,30,62621,1,0,0:0:0:0:
64,34,62699,1,2,0:0:0:0:
29,53,62778,1,2,1:2:0:0:
4,79,62856,5,0,0:0:0:0:
226,4,63013,1,2,1:2:0:0:
95,119,63170,5,0,0:0:0:0:
72,144,63248,1,0,1:2:0:0:
66,178,63327,1,0,0:0:0:0:
78,209,63405,1,0,0:0:0:0:
104,231,63484,1,8,1:2:0:0:
138,236,63562,1,8,0:0:0:0:
169,224,63641,1,8,0:0:0:0:
190,197,63719,1,8,1:2:0:0:
194,163,63799,5,2,1:2:0:0:
144,198,63877,1,2,1:2:0:0:
120,254,63956,1,2,1:2:0:0:
129,314,64034,1,2,1:2:0:0:
165,356,64113,6,0,L|140:171,1,160,6|0,1:2|0:0,0:0:0:0:
236,88,64427,6,0,P|298:130|309:180,1,75.0000028610231,0|0,1:2|0:0,0:0:0:0:
366,307,64584,2,0,P|304:265|293:215,1,75.0000028610231,2|0,0:0|0:0,0:0:0:0:
372,227,64741,2,0,P|377:152|415:117,1,75.0000028610231,2|0,1:2|0:0,0:0:0:0:
444,192,64898,2,0,P|511:159|560:174,1,75.0000028610231,2|0,0:0|0:0,0:0:0:0:
439,350,65055,2,0,P|360:383|283:340,1,150.000005722046,2|0,1:2|0:0,0:0:0:0:
143,197,65369,5,0,1:2:0:0:
363,4,65526,6,0,L|378:186,1,150.000005722046,2|0,0:0|1:2,0:0:0:0:
218,287,65840,5,2,0:0:0:0:
218,287,65893,1,0,0:0:0:0:
218,287,65945,1,0,0:0:0:0:
218,287,65997,6,0,L|230:141,1,75.0000028610231,2|0,1:2|0:0,0:0:0:0:
276,64,66154,2,0,L|288:209,1,75.0000028610231,2|0,0:0|0:0,0:0:0:0:
312,253,66312,1,6,1:2:0:0:
190,122,66469,1,2,1:2:0:0:
127,309,66626,5,0,0:0:0:0:
155,349,66704,1,0,0:0:0:0:
199,371,66783,1,0,0:0:0:0:
248,368,66861,1,0,0:0:0:0:
290,341,66940,1,6,1:2:0:0:
190,122,67097,1,2,1:2:0:0:
116,308,67254,5,0,0:0:0:0:
132,342,67306,1,0,0:0:0:0:
160,367,67358,1,0,0:0:0:0:
196,381,67411,5,0,0:0:0:0:
234,381,67463,1,0,0:0:0:0:
270,369,67515,1,0,0:0:0:0:
296,339,67568,6,0,L|314:240,1,62.5,6|0,1:2|0:0,0:0:0:0:
373,172,67725,2,0,L|391:271,1,62.5,0|0,0:0|0:0,0:0:0:0:
454,339,67882,5,6,1:2:0:0:
456,323,67960,1,0,0:0:0:0:
459,308,68039,1,0,0:0:0:0:
462,292,68117,1,0,0:0:0:0:
485,248,68196,5,6,1:2:0:0:
480,224,68275,1,0,0:0:0:0:
476,201,68353,1,0,0:0:0:0:
471,177,68432,1,0,0:0:0:0:
494,133,68511,6,0,L|506:72,1,60,6|0,1:2|0:0,0:0:0:0:
201,226,69139,5,0,0:0:0:0:
193,263,69296,1,0,0:0:0:0:
188,293,69453,2,0,L|175:366,1,70,0|0,0:0|0:0,0:0:0:0:
210,143,70081,5,2,1:2:0:0:
193,239,70238,1,2,0:0:0:0:
175,340,70395,2,0,L|169:373,1,30,2|0,0:0|0:0,0:0:0:0:
86,188,70709,6,0,L|91:217,6,22.4999993133545,0|0|0|0|2|0|0,0:0|0:0|0:0|0:0|0:0|0:0|0:0,0:0:0:0:
288,96,71024,2,0,L|283:125,6,22.4999993133545,2|0|0|0|2|0|0,0:0|0:0|0:0|0:0|0:0|0:0|0:0,0:0:0:0:
16,86,71338,6,0,P|94:64|150:91,1,100,6|0,1:2|1:2,0:0:0:0:
285,119,71652,2,0,P|207:141|151:114,1,100,0|0,1:2|1:2,0:0:0:0:
4,78,71966,1,0,1:2:0:0:
48,56,72044,1,0,1:2:0:0:
98,59,72123,1,0,1:2:0:0:
297,127,72280,5,2,0:0:0:0:
268,143,72358,1,2,0:0:0:0:
235,149,72437,1,2,0:0:0:0:
202,145,72515,1,2,0:0:0:0:
177,134,72594,6,0,L|186:22,1,100,2|0,1:2|1:2,0:0:0:0:
318,215,72908,2,0,L|327:326,1,100,0|0,1:2|1:2,0:0:0:0:
177,134,73223,5,0,1:2:0:0:
185,34,73380,1,0,1:2:0:0:
318,215,73537,5,2,0:0:0:0:
326,314,73694,1,2,0:0:0:0:
154,259,73851,6,0,L|15:225,1,100,2|0,1:2|1:2,0:0:0:0:
300,125,74165,2,0,L|397:101,1,100,0|0,1:2|1:2,0:0:0:0:
144,243,74479,6,0,L|5:209,1,100,0|0,1:2|1:2,0:0:0:0:
290,109,74793,6,0,L|371:88,1,50,2|0,0:0|0:0,0:0:0:0:
220,187,74950,2,0,L|171:175,1,50,2|0,0:0|0:0,0:0:0:0:
376,87,75107,1,2,1:2:0:0:
397,82,75185,1,2,1:2:0:0:
419,77,75264,1,2,1:2:0:0:
441,72,75342,1,2,1:2:0:0:
463,66,75422,5,2,1:2:0:0:
430,57,75500,1,2,1:2:0:0:
397,58,75579,1,2,1:2:0:0:
366,69,75657,1,2,1:2:0:0:
339,89,75736,1,0,1:2:0:0:
319,115,75814,1,0,1:2:0:0:
307,146,75893,1,0,1:2:0:0:
306,180,75971,1,0,1:2:0:0:
313,212,76050,1,0,1:2:0:0:
330,240,76128,1,0,1:2:0:0:
355,263,76207,1,0,1:2:0:0:
385,277,76285,1,0,1:2:0:0:
418,282,76364,5,0,3:2:0:0:
370,250,76443,1,0,3:2:0:0:
312,245,76521,1,0,3:2:0:0:
260,269,76600,1,0,3:2:0:0:
226,316,76678,1,0,3:2:0:0:
189,361,76757,1,0,3:2:0:0:
136,382,76835,1,0,3:2:0:0:
78,374,76914,1,0,3:2:0:0:
33,339,76992,5,2,0:0:0:0:
8,295,77071,1,2,0:0:0:0:
4,250,77149,1,2,0:0:0:0:
16,211,77228,1,2,0:0:0:0:
35,182,77306,5,0,0:0:0:0:
32,207,77384,1,0,0:0:0:0:
29,232,77463,1,0,0:0:0:0:
26,257,77541,1,0,0:0:0:0:
23,282,77621,1,4,1:2:0:0:
256,192,78877,12,0,79819,0:0:0:0:
284,103,79977,5,2,1:2:0:0:
0,323,80291,6,0,L|14:232,1,64.9999970245363,6|0,1:2|0:0,0:0:0:0:
102,84,80448,2,0,L|131:266,1,129.999994049073,6|0,1:2|0:0,0:0:0:0:
24,130,80762,5,2,0:0:0:0:
11,91,80840,1,0,0:0:0:0:
17,51,80919,1,0,0:0:0:0:
40,18,80997,1,0,0:0:0:0:
75,0,81076,1,2,0:0:0:0:
115,0,81154,1,0,0:0:0:0:
152,14,81233,1,0,0:0:0:0:
178,45,81311,1,0,0:0:0:0:
187,84,81391,5,2,0:0:0:0:
194,140,81470,1,0,0:0:0:0:
229,183,81548,1,0,0:0:0:0:
283,200,81627,1,0,0:0:0:0:
337,185,81705,1,2,0:0:0:0:
375,144,81784,1,0,0:0:0:0:
384,89,81862,1,0,0:0:0:0:
362,37,81941,1,0,0:0:0:0:
316,6,82019,5,10,0:0:0:0:
292,62,82096,1,8,0:0:0:0:
305,125,82175,1,8,0:0:0:0:
350,168,82253,1,8,0:0:0:0:
413,179,82332,1,10,0:0:0:0:
471,206,82411,1,8,0:0:0:0:
504,260,82489,1,8,0:0:0:0:
500,324,82568,1,8,0:0:0:0:
462,376,82647,6,0,L|325:363,1,129.999994049073,6|0,1:2|0:0,0:0:0:0:
207,224,82882,2,0,P|191:308|219:353,1,129.999994049073,0|0,1:2|0:0,0:0:0:0:
276,279,83118,2,0,P|292:248|294:211,1,64.9999970245363,0|0,1:2|0:0,0:0:0:0:
242,145,83275,6,0,L|106:133,1,129.999994049073,2|0,1:2|0:0,0:0:0:0:
332,137,83511,2,0,P|303:80|245:55,1,129.999994049073,0|0,1:2|0:0,0:0:0:0:
112,133,83746,2,0,L|192:125,1,64.9999970245363,0|0,1:2|0:0,0:0:0:0:
75,64,83903,6,0,P|31:122|52:182,1,129.999994049073,2|0,1:2|0:0,0:0:0:0:
171,316,84139,2,0,P|167:253|115:217,1,129.999994049073,0|0,1:2|0:0,0:0:0:0:
37,256,84374,2,0,P|110:293|133:289,1,64.9999970245363,0|0,1:2|0:0,0:0:0:0:
276,279,84532,5,2,1:2:0:0:
318,273,84610,1,0,0:0:0:0:
359,286,84689,1,2,1:2:0:0:
389,316,84767,2,0,P|398:393|390:407,1,64.9999970245363,2|0,1:2|1:2,0:0:0:0:
512,285,84924,1,2,1:2:0:0:
512,285,85003,2,0,P|443:248|436:233,1,64.9999970245363,2|0,1:2|0:0,0:0:0:0:
369,137,85160,6,0,P|381:54|449:16,1,129.999994049073,6|0,1:2|0:0,0:0:0:0:
512,210,85395,2,0,P|507:147|456:110,1,129.999994049073,0|0,1:2|0:0,0:0:0:0:
297,189,85631,2,0,P|371:217|396:204,1,64.9999970245363,0|0,1:2|0:0,0:0:0:0:
256,119,85788,6,0,L|127:131,1,129.999994049073,2|0,1:2|0:0,0:0:0:0:
434,268,86024,2,0,P|384:308|320:303,1,129.999994049073,0|0,1:2|0:0,0:0:0:0:
131,243,86259,2,0,P|159:317|146:342,1,64.9999970245363,0|0,1:2|0:0,0:0:0:0:
40,176,86416,1,2,1:2:0:0:
29,146,86494,1,2,0:0:0:0:
29,113,86573,1,2,0:0:0:0:
40,83,86651,1,2,0:0:0:0:
61,58,86730,2,0,L|68:-10,1,64.9999970245363,2|0,0:0|0:0,0:0:0:0:
296,78,87045,6,0,L|225:84,1,64.9999970245363,2|0,1:2|0:0,0:0:0:0:
321,303,87202,5,2,1:2:0:0:
321,303,87254,1,0,0:0:0:0:
321,303,87306,1,0,0:0:0:0:
321,303,87359,5,2,1:2:0:0:
409,23,87516,1,2,0:0:0:0:
191,1,87673,5,6,1:2:0:0:
155,32,87751,1,0,0:0:0:0:
139,79,87830,1,0,0:0:0:0:
148,126,87908,1,2,0:0:0:0:
178,164,87987,1,2,0:0:0:0:
131,10,88144,5,2,1:2:0:0:
105,58,88222,1,0,0:0:0:0:
106,115,88301,1,0,0:0:0:0:
135,163,88379,1,2,0:0:0:0:
182,191,88458,1,2,0:0:0:0:
76,40,88615,5,2,1:2:0:0:
66,100,88693,1,0,0:0:0:0:
89,160,88772,1,0,0:0:0:0:
139,201,88850,1,2,0:0:0:0:
198,211,88929,1,2,0:0:0:0:
29,89,89086,5,2,1:2:0:0:
43,157,89165,1,0,0:0:0:0:
90,211,89243,1,0,0:0:0:0:
158,233,89321,1,2,0:0:0:0:
226,223,89401,1,2,0:0:0:0:
0,155,89558,6,0,P|19:201|74:239,1,80,2|0,1:2|0:0,0:0:0:0:
109,258,89715,1,0,0:0:0:0:
188,256,89793,1,0,0:0:0:0:
255,219,89872,1,2,1:2:0:0:
322,182,89951,1,2,0:0:0:0:
401,180,90029,1,2,0:0:0:0:
470,218,90108,1,2,0:0:0:0:
510,283,90186,6,0,L|502:365,1,64.9999497477602,2|0,0:0|0:0,0:0:0:0:
329,251,90500,6,0,L|320:164,1,69.9999978637696,4|0,1:2|0:0,0:0:0:0:
403,164,90657,2,0,L|418:17,1,100,8|0,0:0|0:0,0:0:0:0:
431,295,90971,5,0,1:2:0:0:
405,322,91049,1,0,0:0:0:0:
372,341,91128,1,8,0:0:0:0:
335,348,91206,1,0,0:0:0:0:
297,346,91285,1,0,1:2:0:0:
261,332,91363,1,0,0:0:0:0:
219,297,91443,6,0,L|229:373,1,59.9999981689454,0|0,1:2|0:0,0:0:0:0:
112,282,91600,6,0,L|105:231,1,29.9999990844727,2|0,0:0|0:0,0:0:0:0:
66,310,91678,2,0,L|45:262,1,29.9999990844727,2|0,0:0|0:0,0:0:0:0:
35,353,91757,2,0,L|3:311,2,29.9999990844727,10|0|0,0:0|0:0|0:0,0:0:0:0:
0,213,91914,2,0,L|51:205,2,29.9999990844727,2|2|0,0:0|0:0|0:0,0:0:0:0:
103,112,92071,5,10,1:2:0:0:
164,341,92228,5,0,1:2:0:0:
167,312,92306,1,0,1:2:0:0:
168,282,92385,2,0,L|178:170,1,59.9999981689454,8|0,0:0|1:2,0:0:0:0:
297,133,92542,1,0,1:2:0:0:
298,149,92620,1,0,1:2:0:0:
298,165,92699,2,0,L|303:226,1,59.9999981689454,4|0,1:2|0:0,0:0:0:0:
29,208,92856,5,0,0:0:0:0:
25,172,92934,1,0,0:0:0:0:
21,136,93013,1,8,0:0:0:0:
19,100,93091,1,0,0:0:0:0:
16,64,93170,6,0,L|10:2,1,59.9999981689454,2|0,1:2|0:0,0:0:0:0:
103,112,93327,2,0,L|97:50,1,59.9999981689454,2|0,0:0|0:0,0:0:0:0:
291,73,93484,6,0,L|297:135,1,59.9999981689454,2|0,1:2|0:0,0:0:0:0:
412,193,93641,1,10,0:0:0:0:
410,178,93719,1,0,0:0:0:0:
409,163,93798,1,0,0:0:0:0:
407,148,93876,1,0,0:0:0:0:
406,133,93956,2,0,L|400:69,1,59.9999981689454,0|0,1:2|0:0,0:0:0:0:
501,188,94113,5,0,0:0:0:0:
483,244,94191,1,0,0:0:0:0:
434,277,94270,1,8,0:0:0:0:
376,273,94348,1,0,0:0:0:0:
326,236,94427,6,0,L|331:299,1,59.9999981689454,2|0,1:2|0:0,0:0:0:0:
244,199,94584,2,0,L|249:262,1,59.9999981689454,2|0,0:0|0:0,0:0:0:0:
164,224,94741,6,0,L|160:165,1,59.9999981689454,2|0,1:2|0:0,0:0:0:0:
80,125,94898,1,10,0:0:0:0:
97,283,95055,1,0,1:2:0:0:
219,123,95212,6,0,P|195:101|165:92,1,59.9999981689454,2|0,1:2|0:0,0:0:0:0:
96,21,95369,1,0,1:2:0:0:
96,21,95448,1,0,1:2:0:0:
97,22,95526,2,0,P|68:29|45:49,1,59.9999981689454,2|0,1:2|0:0,0:0:0:0:
39,169,95683,5,0,1:2:0:0:
39,169,95762,1,0,1:2:0:0:
39,169,95840,2,0,L|101:102,1,59.9999981689454,2|0,1:2|0:0,0:0:0:0:
97,283,95997,2,0,L|158:350,1,59.9999981689454,2|0,1:2|0:0,0:0:0:0:
179,168,96154,2,0,L|240:100,1,59.9999981689454,2|0,1:2|0:0,0:0:0:0:
242,283,96312,2,0,L|303:350,1,59.9999981689454,2|0,1:2|0:0,0:0:0:0:
314,198,96469,5,2,1:2:0:0:
340,169,96547,1,0,1:2:0:0:
322,144,96626,1,2,1:2:0:0:
348,115,96704,1,0,1:2:0:0:
324,90,96783,1,10,1:2:0:0:
356,61,96861,1,8,1:2:0:0:
338,36,96940,1,10,1:2:0:0:
364,7,97018,1,8,1:2:0:0:
259,39,97097,6,0,L|164:30,1,59.9999981689454,2|0,0:0|0:0,0:0:0:0:
418,210,97254,5,2,0:0:0:0:
418,210,97306,1,0,0:0:0:0:
418,210,97359,1,0,0:0:0:0:
418,210,97411,5,10,0:0:0:0:
364,7,97568,1,10,0:0:0:0:
329,246,97725,5,6,1:2:0:0:
329,290,97803,1,0,0:0:0:0:
351,328,97882,1,0,0:0:0:0:
388,353,97960,1,2,0:0:0:0:
433,357,98039,1,10,0:0:0:0:
255,172,98196,5,2,1:2:0:0:
298,148,98274,1,0,0:0:0:0:
346,148,98353,1,0,0:0:0:0:
390,169,98431,1,2,0:0:0:0:
418,210,98511,1,10,1:2:0:0:
153,141,98668,5,2,1:2:0:0:
154,193,98746,1,0,0:0:0:0:
180,238,98825,1,0,0:0:0:0:
224,268,98903,1,2,0:0:0:0:
278,273,98982,1,10,0:0:0:0:
71,71,99139,5,2,1:2:0:0:
119,45,99217,1,0,0:0:0:0:
173,45,99296,1,0,0:0:0:0:
222,68,99374,1,2,0:0:0:0:
254,112,99453,1,10,0:0:0:0:
354,88,99610,5,2,1:2:0:0:
310,29,99688,1,0,0:0:0:0:
238,12,99767,1,0,0:0:0:0:
173,44,99845,1,0,0:0:0:0:
145,113,99924,1,2,1:2:0:0:
167,183,100002,1,2,0:0:0:0:
229,220,100081,1,2,0:0:0:0:
301,213,100159,1,2,0:0:0:0:
350,156,100238,2,0,L|354:86,1,68.2500022911073,0|0,0:0|0:0,0:0:0:0:
439,178,100552,6,0,P|450:244|468:259,1,62.5,6|0,1:2|0:0,0:0:0:0:
473,292,100710,2,0,P|410:268|369:282,1,100,8|0,0:0|0:0,0:0:0:0:
52,242,101024,5,0,1:2:0:0:
71,257,101102,1,0,0:0:0:0:
85,278,101181,1,8,0:0:0:0:
93,301,101259,1,0,0:0:0:0:
94,326,101338,1,0,0:0:0:0:
88,350,101416,1,0,0:0:0:0:
77,364,101495,6,0,L|126:276,1,83.3333333333333,2|0,1:2|0:0,0:0:0:0:
254,170,101704,2,0,L|305:256,1,83.3333333333333,2|0,1:2|0:0,0:0:0:0:
431,364,101914,2,0,L|482:277,1,83.3333333333333,2|0,1:2|0:0,0:0:0:0:
66,365,102123,6,0,L|124:259,1,116.666667779287,2|0,1:2|0:0,0:0:0:0:
243,171,102332,2,0,L|304:274,1,116.666667779287,2|0,1:2|0:0,0:0:0:0:
420,365,102542,2,0,L|481:260,1,116.666667779287,2|0,1:2|0:0,0:0:0:0:
384,115,102751,6,0,P|365:187|402:242,1,112.500004291535,2|0,0:0|0:0,0:0:0:0:
458,172,103065,5,6,1:2:0:0:
470,100,103144,1,2,0:2:0:0:
428,41,103223,1,2,1:2:0:0:
355,31,103300,1,2,0:2:0:0:
298,77,103380,2,0,P|261:89|211:70,1,75.0000028610231,2|0,1:2|0:0,0:0:0:0:
158,317,103537,2,0,P|166:281|191:254,1,75.0000028610231,2|0,1:2|0:0,0:0:0:0:
20,76,103694,2,0,P|47:100|59:135,1,75.0000028610231,2|0,1:2|0:0,0:0:0:0:
62,380,103851,5,0,1:0:0:0:
62,380,103929,1,0,0:0:0:0:
62,380,104008,2,0,P|33:353|24:301,1,75.0000028610231,2|0,1:2|0:0,0:0:0:0:
94,211,104165,5,2,1:2:0:0:
131,178,104243,1,2,0:2:0:0:
178,163,104322,1,2,1:2:0:0:
228,169,104401,1,2,0:2:0:0:
270,195,104479,6,0,L|262:269,1,75.0000028610231,2|0,1:2|0:0,0:0:0:0:
191,253,104636,2,0,L|183:327,1,75.0000028610231,2|0,1:2|0:0,0:0:0:0:
368,91,104793,6,0,L|375:165,1,75.0000028610231,2|0,1:2|0:0,0:0:0:0:
447,149,104950,2,0,L|454:223,1,75.0000028610231,2|0,0:0|0:0,0:0:0:0:
368,91,105107,5,2,1:2:0:0:
357,55,105185,1,0,1:2:0:0:
363,18,105265,2,0,L|201:32,1,150,0|0,1:2|0:0,0:0:0:0:
99,0,105579,5,0,1:2:0:0:
65,2,105657,1,0,0:0:0:0:
39,19,105736,1,0,1:2:0:0:
16,42,105814,1,0,0:0:0:0:
3,70,105893,5,0,1:2:0:0:
40,93,105972,1,0,0:0:0:0:
69,127,106050,1,0,1:2:0:0:
85,170,106129,1,0,0:0:0:0:
85,216,106207,1,0,1:2:0:0:
65,265,106285,1,0,0:0:0:0:
29,305,106364,5,2,1:2:0:0:
0,243,106442,1,2,1:2:0:0:
3,177,106521,1,10,1:2:0:0:
39,121,106599,1,2,1:2:0:0:
98,87,106678,1,2,1:2:0:0:
164,85,106756,1,10,1:2:0:0:
223,114,106835,1,2,1:2:0:0:
261,170,106913,1,2,1:2:0:0:
271,236,106992,1,10,1:2:0:0:
244,297,107070,1,2,1:2:0:0:
193,341,107149,2,0,P|106:357|85:348,1,75.0000028610231,2|0,0:0|0:0,0:0:0:0:
0,243,107306,5,2,0:0:0:0:
50,240,107359,1,0,0:0:0:0:
100,237,107411,1,0,0:0:0:0:
148,234,107463,5,10,0:0:0:0:
301,363,107621,1,2,0:0:0:0:
505,209,107778,5,6,1:2:0:0:
475,168,107856,1,0,0:0:0:0:
435,146,107935,1,0,0:0:0:0:
387,149,108013,1,2,0:0:0:0:
345,173,108092,2,0,L|417:236,1,62.5,10|0,0:0|0:0,0:0:0:0:
504,147,108249,5,2,1:2:0:0:
460,115,108327,1,0,0:0:0:0:
404,108,108406,1,0,0:0:0:0:
353,131,108484,1,2,0:0:0:0:
318,173,108563,2,0,L|421:212,1,62.5,10|0,1:2|0:0,0:0:0:0:
482,89,108720,5,2,1:2:0:0:
425,70,108798,1,0,0:0:0:0:
361,85,108877,1,0,0:0:0:0:
314,129,108955,1,2,0:0:0:0:
295,188,109034,2,0,L|405:189,1,62.5,10|0,0:0|0:0,0:0:0:0:
440,36,109191,5,2,1:2:0:0:
371,40,109270,1,0,0:0:0:0:
311,79,109348,1,0,0:0:0:0:
280,143,109426,1,2,0:0:0:0:
280,212,109505,2,0,L|387:175,1,62.5,10|0,1:2|1:2,0:0:0:0:
379,0,109663,5,2,1:2:0:0:
304,25,109741,1,0,0:0:0:0:
252,82,109820,1,0,0:0:0:0:
232,156,109898,1,0,0:0:0:0:
246,231,109977,1,2,1:2:0:0:
296,290,110055,1,2,0:0:0:0:
365,323,110134,1,2,0:0:0:0:
444,319,110212,1,2,0:0:0:0:
511,282,110291,2,0,P|515:214|506:195,1,62.5,2|0,1:2|0:0,0:0:0:0:
217,6,110448,5,0,0:0:0:0:
212,43,110526,1,0,0:0:0:0:
210,82,110605,1,2,1:2:0:0:
209,119,110683,1,2,0:0:0:0:
206,160,110762,2,0,L|199:286,1,125,10|0,0:0|0:0,0:0:0:0:
431,81,111076,5,2,1:2:0:0:
376,80,111155,1,2,0:0:0:0:
338,109,111233,1,10,0:0:0:0:
316,147,111312,1,2,0:0:0:0:
316,183,111391,1,2,1:2:0:0:
331,212,111469,1,2,0:0:0:0:
350,225,111547,6,0,L|343:148,1,62.5,0|0,1:2|0:0,0:0:0:0:
249,316,111704,6,0,L|248:371,1,31.25,2|0,1:2|0:0,0:0:0:0:
230,303,111783,2,0,L|229:358,1,31.25,2|0,0:0|0:0,0:0:0:0:
200,285,111861,6,0,L|199:230,1,31.25,2|0,1:2|0:0,0:0:0:0:
181,298,111940,2,0,L|180:243,1,31.25,0|0,0:0|0:0,0:0:0:0:
161,310,112018,2,0,L|160:255,1,31.25,2|0,1:2|0:0,0:0:0:0:
141,322,112097,2,0,L|140:267,1,31.25,2|0,0:0|0:0,0:0:0:0:
121,334,112175,5,2,1:2:0:0:
97,300,112253,1,0,1:2:0:0:
90,262,112332,1,0,1:2:0:0:
100,225,112410,1,0,1:2:0:0:
125,195,112489,1,2,1:2:0:0:
159,151,112568,1,0,1:2:0:0:
174,99,112646,1,0,1:2:0:0:
164,44,112725,1,0,1:2:0:0:
134,0,112804,2,0,P|82:55|119:140,1,125,6|0,1:2|0:0,0:0:0:0:
277,119,113118,5,8,1:2:0:0:
277,119,113196,1,0,0:0:0:0:
277,119,113275,2,0,P|260:53|241:36,1,62.5,2|0,0:0|0:0,0:0:0:0:
341,182,113432,2,0,P|370:121|366:96,1,62.5,2|0,1:2|0:0,0:0:0:0:
349,271,113589,2,0,P|410:243|423:221,1,62.5,2|0,0:0|0:0,0:0:0:0:
297,344,113746,5,10,1:2:0:0:
309,352,113824,1,0,0:0:0:0:
324,359,113903,1,0,0:0:0:0:
339,362,113981,1,0,0:0:0:0:
356,362,114060,2,0,P|416:346|437:327,1,62.5,0|0,1:2|0:0,0:0:0:0:
302,331,114217,5,0,0:0:0:0:
271,327,114295,1,0,0:0:0:0:
240,330,114374,1,8,1:2:0:0:
211,341,114452,1,0,0:0:0:0:
185,359,114531,6,0,L|174:244,1,62.5,2|0,0:0|0:0,0:0:0:0:
60,263,114689,2,0,L|65:200,1,62.5,2|0,1:2|0:0,0:0:0:0:
186,167,114846,2,0,L|180:104,1,62.5,2|0,0:0|0:0,0:0:0:0:
60,71,115003,1,10,1:2:0:0:
61,55,115081,1,0,1:0:0:0:
62,39,115160,1,0,1:2:0:0:
64,24,115238,1,0,1:0:0:0:
67,7,115317,6,0,L|-23:-9,1,62.5,2|0,1:2|1:0,0:0:0:0:
180,104,115474,5,0,1:2:0:0:
118,93,115552,1,0,1:0:0:0:
56,83,115631,5,2,1:2:0:0:
108,24,115709,1,0,1:0:0:0:
183,5,115788,1,0,1:2:0:0:
255,32,115867,1,0,1:0:0:0:
302,97,115945,5,2,1:2:0:0:
185,359,116102,1,2,1:2:0:0:
183,5,116259,5,2,1:2:0:0:
300,267,116416,1,2,1:2:0:0:
105,167,116573,5,2,1:2:0:0:
85,166,116652,1,0,1:2:0:0:
49,192,116730,5,2,1:2:0:0:
30,192,116809,1,0,1:2:0:0:
20,246,116887,5,2,1:2:0:0:
1,245,116966,1,0,1:2:0:0:
32,307,117044,5,2,1:2:0:0:
12,306,117123,1,0,1:2:0:0:
60,359,117202,6,0,L|165:349,1,62.5,2|0,0:0|0:0,0:0:0:0:
300,267,117359,5,2,0:0:0:0:
300,267,117411,1,0,0:0:0:0:
300,267,117463,1,0,0:0:0:0:
300,267,117516,5,10,0:0:0:0:
150,105,117673,1,10,0:0:0:0:
199,178,117830,5,6,1:2:0:0:
157,191,117908,1,0,0:0:0:0:
114,181,117987,1,0,0:0:0:0:
78,154,118065,1,2,1:2:0:0:
61,113,118144,2,0,P|96:36|114:31,1,62.5,10|0,1:2|0:0,0:0:0:0:
292,225,118301,5,2,1:2:0:0:
301,177,118379,1,0,0:0:0:0:
286,131,118458,1,0,0:0:0:0:
253,95,118537,1,2,1:2:0:0:
206,84,118615,2,0,P|142:121|139:138,1,62.5,10|0,1:2|0:0,0:0:0:0:
353,313,118773,5,2,1:2:0:0:
302,327,118851,1,0,0:0:0:0:
252,317,118929,1,0,0:0:0:0:
209,284,119008,1,2,1:2:0:0:
186,235,119086,2,0,P|219:162|236:157,1,62.5,10|0,1:2|0:0,0:0:0:0:
444,369,119244,5,2,1:2:0:0:
454,315,119322,1,0,0:0:0:0:
437,263,119401,1,0,0:0:0:0:
400,225,119479,1,2,1:2:0:0:
349,205,119558,2,0,P|278:246|274:264,1,62.5,10|0,1:2|0:0,0:0:0:0:
265,139,119715,5,2,1:2:0:0:
307,111,119794,1,0,0:0:0:0:
357,105,119872,1,0,0:0:0:0:
403,124,119951,1,0,0:0:0:0:
436,162,120029,1,2,1:2:0:0:
447,211,120108,1,2,0:0:0:0:
437,263,120186,1,2,0:0:0:0:
400,296,120265,1,2,0:0:0:0:
352,313,120343,2,0,L|266:304,1,62.5,2|0,1:2|0:0,0:0:0:0:
163,224,120500,5,0,0:0:0:0:
209,219,120578,1,0,0:0:0:0:
256,214,120657,1,2,1:2:0:0:
302,210,120735,1,2,0:0:0:0:
349,205,120814,2,0,L|529:192,1,125,10|0,0:0|0:0,0:0:0:0:
139,152,121128,5,0,1:2:0:0:
88,175,121207,1,0,0:0:0:0:
62,217,121285,1,8,0:0:0:0:
62,261,121364,1,0,0:0:0:0:
77,294,121443,1,0,1:2:0:0:
100,315,121521,1,0,0:0:0:0:
132,328,121600,6,0,P|172:285|157:227,1,116.666667779287,2|0,1:2|0:0,0:0:0:0:
277,26,121809,2,0,P|293:82|351:98,1,116.666667779287,2|0,1:2|0:0,0:0:0:0:
465,302,122018,2,0,P|407:288|365:330,1,116.666667779287,2|0,1:2|0:0,0:0:0:0:
128,341,122228,6,0,P|177:300|129:205,1,150.000005722046,2|0,1:2|0:0,0:0:0:0:
266,17,122437,2,0,P|276:79|382:85,1,150.000005722046,2|0,1:2|0:0,0:0:0:0:
480,297,122647,2,0,P|420:274|347:355,1,150.000005722046,2|0,1:2|0:0,0:0:0:0:
274,359,122856,6,0,L|287:199,1,150,6|0,1:2|0:0,0:0:0:0:
349,17,123170,5,2,1:2:0:0:
401,34,123248,1,2,0:0:0:0:
430,81,123327,1,2,1:2:0:0:
422,136,123405,1,2,0:0:0:0:
381,172,123484,2,0,L|334:65,1,75.0000028610231,2|0,1:2|0:0,0:0:0:0:
220,178,123641,2,0,L|173:71,1,75.0000028610231,2|0,1:2|0:0,0:0:0:0:
49,185,123799,5,2,1:2:0:0:
41,167,123877,1,0,1:0:0:0:
34,150,123956,1,0,1:2:0:0:
26,133,124034,1,0,1:0:0:0:
18,112,124113,1,2,1:2:0:0:
59,140,124191,1,2,0:0:0:0:
82,187,124270,1,2,1:2:0:0:
80,238,124348,1,2,0:0:0:0:
79,289,124427,1,2,1:2:0:0:
102,336,124506,1,2,0:0:0:0:
153,361,124584,6,0,P|159:280|139:254,1,75.0000028610231,2|0,1:2|0:0,0:0:0:0:
248,180,124741,2,0,P|242:260|262:286,1,75.0000028610231,2|0,1:2|0:0,0:0:0:0:
333,351,124898,6,0,L|323:238,1,75.0000028610231,2|0,1:2|0:0,0:0:0:0:
386,222,125055,2,0,L|405:110,1,75.0000028610231,2|0,1:2|1:2,0:0:0:0:
470,111,125212,2,0,L|517:8,1,75.0000028610231,2|0,1:2|1:2,0:0:0:0:
457,264,125369,6,0,P|345:290|313:260,1,150,0|0,1:2|0:0,0:0:0:0:
28,169,125683,5,4,1:2:0:0:
23,134,125761,1,0,1:0:0:0:
18,103,125840,1,0,1:2:0:0:
49,73,125918,1,0,1:0:0:0:
97,54,125997,1,0,1:2:0:0:
148,57,126075,1,0,1:0:0:0:
193,81,126154,1,0,1:2:0:0:
239,105,126233,1,0,1:0:0:0:
290,108,126311,1,0,1:2:0:0:
337,89,126390,1,0,1:0:0:0:
372,51,126469,5,2,1:2:0:0:
304,30,126547,1,2,1:2:0:0:
232,34,126626,1,10,1:2:0:0:
167,69,126704,1,2,1:2:0:0:
124,130,126783,1,2,1:2:0:0:
111,201,126861,1,10,1:2:0:0:
124,272,126940,1,2,1:2:0:0:
169,331,127018,1,2,1:2:0:0:
233,367,127097,1,10,1:2:0:0:
307,374,127175,1,2,1:2:0:0:
376,350,127254,2,0,P|414:273|407:250,1,75.0000028610231,2|0,0:0|0:0,0:0:0:0:
111,201,127411,5,2,0:0:0:0:
168,205,127463,1,0,0:0:0:0:
224,210,127515,1,0,0:0:0:0:
281,215,127568,6,0,L|331:219,1,44.999998626709,8|0,0:0|0:0,0:0:0:0:
50,91,127882,5,6,1:2:0:0:
256,192,127961,12,0,130238,0:0:0:0:
207,36,130552,5,2,1:2:0:0:
7,94,130709,5,10,0:0:0:0:
33,121,130787,1,10,0:0:0:0:
65,138,130866,1,10,0:0:0:0:
102,142,130944,1,10,0:0:0:0:
138,130,131024,6,0,L|92:33,1,100,6|0,1:2|1:2,0:0:0:0:
194,210,131338,2,0,L|147:113,1,100,6|0,1:2|1:2,0:0:0:0:
250,291,131652,2,0,L|203:194,1,100,6|0,1:2|1:2,0:0:0:0:
306,373,131966,5,6,1:2:0:0:
397,89,132202,5,0,0:0:0:0:
374,109,132280,1,2,1:2:0:0:
360,135,132359,1,2,0:2:0:0:
357,164,132437,1,2,1:2:0:0:
363,194,132516,1,2,0:2:0:0:
379,220,132594,1,2,1:2:0:0:
394,244,132673,1,2,0:2:0:0:
401,274,132752,1,2,1:2:0:0:
396,303,132830,1,2,0:0:0:0:
382,330,132909,2,0,L|365:246,1,50,2|2,1:2|0:0,0:0:0:0:
327,54,133066,5,2,1:2:0:0:
319,108,133144,1,2,0:2:0:0:
348,155,133223,1,2,1:2:0:0:
400,172,133301,1,2,0:0:0:0:
450,151,133380,1,2,1:2:0:0:
476,103,133458,1,2,0:0:0:0:
464,50,133537,1,2,1:2:0:0:
420,17,133615,1,2,0:2:0:0:
364,21,133694,2,0,P|319:67|315:79,1,50,2|2,1:2|0:0,0:0:0:0:
493,105,133851,5,10,0:2:0:0:
478,40,133930,1,2,1:2:0:0:
425,0,134008,1,2,1:2:0:0:
359,4,134087,1,2,1:2:0:0:
311,45,134166,1,10,0:2:0:0:
302,111,134244,1,2,1:2:0:0:
337,168,134323,1,2,1:2:0:0:
400,189,134401,1,2,1:2:0:0:
113,96,134793,5,4,1:2:0:0:
256,192,134872,12,0,139505,0:0:0:0:
