osu file format v14

[General]
AudioFilename: audio.mp3
AudioLeadIn: 0
PreviewTime: 87055
Countdown: 0
SampleSet: Soft
StackLeniency: 0.3
Mode: 0
LetterboxInBreaks: 0
WidescreenStoryboard: 1

[Editor]
Bookmarks: 52490,117202
DistanceSpacing: 0.4
BeatDivisor: 4
GridSize: 32
TimelineZoom: 2.2

[Metadata]
Title:Lemuria
TitleUnicode:Lemuria
Artist:Festa
ArtistUnicode:Festa
Creator:QuiescentRabbit
Version:Insane
Source:BMS
Tags:blastthekidd side crazyrabbitkge nayarii elcheer mentai xi piano artcore electronic deathstream rsi evolved chronicles
BeatmapID:1815526
BeatmapSetID:835474

[Difficulty]
HPDrainRate:5
CircleSize:3.2
OverallDifficulty:7
ApproachRate:9
SliderMultiplier:2
SliderTickRate:1

[Events]
//Background and Video events
0,0,"background.jpg",0,0
//Break Periods
//Storyboard Layer 0 (Background)
//Storyboard Layer 1 (Fail)
//Storyboard Layer 2 (Pass)
//Storyboard Layer 3 (Foreground)
//Storyboard Sound Samples

[TimingPoints]
991,314.13612565445,4,2,1,50,1,0
991,-142.857142857143,4,2,1,50,0,0
1148,-100,4,2,10,60,0,0
1305,-142.857142857143,4,2,11,60,0,0
1462,-142.857142857143,4,2,12,60,0,0
1619,-142.857142857143,4,2,13,60,0,0
1776,-142.857142857143,4,2,14,60,0,0
2090,-142.857142857143,4,2,10,64,0,0
2247,-142.857142857143,4,2,11,64,0,0
2404,-142.857142857143,4,2,12,64,0,0
2561,-142.857142857143,4,2,13,64,0,0
2718,-142.857142857143,4,2,14,64,0,0
3032,-142.857142857143,4,2,10,68,0,0
3189,-142.857142857143,4,2,11,68,0,0
3347,-142.857142857143,4,2,12,68,0,0
3504,-142.857142857143,4,2,13,68,0,0
3661,-142.857142857143,4,2,14,68,0,0
3975,-100,4,2,10,68,0,0
4132,-100,4,2,11,68,0,0
4289,-100,4,2,12,68,0,0
4446,-100,4,2,1,50,0,0
4760,-100,4,2,3,60,0,0
11671,-100,4,2,3,70,0,0
14498,-100,4,2,1,70,0,0
14812,-100,4,2,3,70,0,0
14891,-100,4,2,1,70,0,0
15127,-100,4,2,1,75,0,0
15598,331.491712707182,4,2,1,75,1,0
16095,350.877192982456,4,2,1,75,1,0
16445,372.670807453416,4,2,3,60,1,0
16817,425.531914893617,4,2,1,85,1,0
17413,458.015267175573,4,2,1,85,1,0
18100,540.540540540541,4,2,1,85,1,0
18640,588.235294117647,4,2,1,85,1,0
19820,314.13612565445,4,2,99,70,1,0
19898,-100,4,2,99,25,0,0
21940,-100,4,2,99,5,0,0
22018,-100,4,2,99,60,0,0
22333,-100,4,2,1,72,0,0
23903,-100,4,2,1,70,0,0
24217,-100,4,2,3,62,0,0
24532,-100,4,2,2,54,0,0
24846,-133.333333333333,4,2,1,45,0,0
25081,-133.333333333333,4,2,1,5,0,0
25160,-100,4,2,1,70,0,0
26416,-100,4,2,3,70,0,0
26730,-100,4,2,1,70,0,0
29244,-100,4,2,3,70,0,0
29872,-100,4,2,1,70,0,0
31443,-100,4,2,3,70,0,0
31757,-100,4,2,1,70,0,0
32621,-100,4,2,1,70,0,0
32699,-100,4,2,1,70,0,0
34113,-100,4,2,3,70,0,0
34898,-100,4,2,1,60,0,0
35212,-83.3333333333333,4,2,1,85,0,1
35369,-83.3333333333333,4,2,1,85,0,1
41338,-83.3333333333333,4,2,3,85,0,1
42437,-83.3333333333333,4,2,1,85,0,1
43851,-83.3333333333333,4,2,3,85,0,1
44008,-83.3333333333333,4,2,3,85,0,1
44322,-83.3333333333333,4,2,1,85,0,1
45265,-83.3333333333333,4,2,99,70,0,0
45343,-83.3333333333333,4,2,99,35,0,0
47071,-83.3333333333333,4,2,99,5,0,0
47149,-83.3333333333333,4,2,1,70,0,0
47228,-83.3333333333333,4,2,1,35,0,0
48327,-83.3333333333333,4,2,1,5,0,0
48406,-83.3333333333333,4,2,1,70,0,0
48484,-83.3333333333333,4,2,1,35,0,0
48956,-83.3333333333333,4,2,1,5,0,0
49034,-83.3333333333333,4,2,1,70,0,0
49113,-83.3333333333333,4,2,1,35,0,0
49270,-83.3333333333333,4,2,1,5,0,0
49348,-83.3333333333333,4,2,99,70,0,0
49662,-83.3333333333333,4,2,10,60,0,0
49819,-83.3333333333333,4,2,21,60,0,0
49977,-83.3333333333333,4,2,22,60,0,0
50134,-83.3333333333333,4,2,14,60,0,0
50291,-83.3333333333333,4,2,24,60,0,0
50605,-83.3333333333333,4,2,10,64,0,0
50762,-83.3333333333333,4,2,21,64,0,0
50919,-83.3333333333333,4,2,22,64,0,0
51076,-83.3333333333333,4,2,14,64,0,0
51233,-83.3333333333333,4,2,24,64,0,0
51547,-83.3333333333333,4,2,20,68,0,0
51704,-83.3333333333333,4,2,21,68,0,0
51861,-83.3333333333333,4,2,22,68,0,0
52018,-83.3333333333333,4,2,14,68,0,0
52176,-83.3333333333333,4,2,24,68,0,0
52490,-83.3333333333333,4,2,20,72,0,0
52647,-83.3333333333333,4,2,21,72,0,0
52804,-83.3333333333333,4,2,22,72,0,0
52961,-83.3333333333333,4,2,14,72,0,0
53118,-166.666666666667,4,2,24,72,0,0
54296,-166.666666666667,4,2,24,5,0,0
54374,-166.666666666667,4,2,1,70,0,0
56259,-100,4,2,1,70,0,0
56573,-100,4,2,1,64,0,0
57202,-100,4,2,3,64,0,0
57830,-100,4,2,1,64,0,0
58458,-100,4,2,3,64,0,0
59087,-100,4,2,1,70,0,0
60343,-100,4,2,3,70,0,0
61285,-100,4,2,1,64,0,0
61914,-100,4,2,3,64,0,0
62542,-100,4,2,1,64,0,0
64113,-90.9090909090909,4,2,1,85,0,1
64191,-90.9090909090909,4,2,1,82,0,1
65055,-90.9090909090909,4,2,1,82,0,1
65134,-90.9090909090909,4,2,1,82,0,1
66312,-90.9090909090909,4,2,1,88,0,1
66390,-90.9090909090909,4,2,1,88,0,1
66469,-90.9090909090909,4,2,1,88,0,1
66547,-90.9090909090909,4,2,1,88,0,1
66940,-90.9090909090909,4,2,1,88,0,1
67018,-90.9090909090909,4,2,1,88,0,1
67097,-90.9090909090909,4,2,1,88,0,1
67176,-90.9090909090909,4,2,1,88,0,1
67254,-90.9090909090909,4,2,1,82,0,1
67568,-90.9090909090909,4,2,1,82,0,1
67647,-90.9090909090909,4,2,1,82,0,1
67882,-90.9090909090909,4,2,1,86,0,1
67961,-90.9090909090909,4,2,1,86,0,1
68196,-90.9090909090909,4,2,1,90,0,1
68275,-90.9090909090909,4,2,1,90,0,1
68511,-222.222222222222,4,2,1,94,0,0
68589,-222.222222222222,4,2,1,70,0,0
68982,-222.222222222222,4,2,1,62,0,0
70395,-100,4,2,1,62,0,0
70709,-100,4,2,1,70,0,0
75107,-100,4,2,1,76,0,0
75422,-100,4,2,1,72,0,0
75736,-100,4,2,1,68,0,0
76050,-100,4,2,1,64,0,0
76364,-100,4,2,3,80,0,0
76678,-100,4,2,3,78,0,0
76992,-100,4,2,2,86,0,0
77306,-100,4,2,2,84,0,0
77621,-100,4,2,2,70,0,0
77778,-100,4,2,1,70,0,0
79819,-100,4,2,1,5,0,0
79977,-100,4,2,1,70,0,0
80291,-100,4,2,1,85,0,0
80369,-100,4,2,1,70,0,0
80448,-100,4,2,1,85,0,0
80526,-100,4,2,1,70,0,0
80762,-100,4,2,1,76,0,0
82647,-90.9090909090909,4,2,1,85,0,0
86416,-90.9090909090909,4,2,1,72,0,0
87673,-90.9090909090909,4,2,3,90,0,1
89872,-90.9090909090909,4,2,1,90,0,1
90186,-90.9090909090909,4,2,1,78,0,1
90422,-90.9090909090909,4,2,1,5,0,1
90500,-90.9090909090909,4,2,1,90,0,1
93170,-90.9090909090909,4,2,1,90,0,1
93484,-90.9090909090909,4,2,1,90,0,1
93641,-90.9090909090909,4,2,1,90,0,1
94427,-90.9090909090909,4,2,1,90,0,1
94505,-90.9090909090909,4,2,1,90,0,1
94584,-90.9090909090909,4,2,1,90,0,1
94662,-90.9090909090909,4,2,1,90,0,1
94741,-90.9090909090909,4,2,1,90,0,1
94819,-90.9090909090909,4,2,1,90,0,1
95840,-90.9090909090909,4,2,1,90,0,1
97097,-90.9090909090909,4,2,1,90,0,1
97725,-90.9090909090909,4,2,3,90,0,1
99924,-90.9090909090909,4,2,1,90,0,1
100238,-90.9090909090909,4,2,1,78,0,1
100474,-90.9090909090909,4,2,1,5,0,1
100552,-90.9090909090909,4,2,1,90,0,1
101495,-90.9090909090909,4,2,1,90,0,1
102751,-90.9090909090909,4,2,1,78,0,1
102987,-90.9090909090909,4,2,1,5,0,1
103066,-90.9090909090909,4,2,1,90,0,1
107778,-90.9090909090909,4,2,3,90,0,1
109977,-90.9090909090909,4,2,1,90,0,1
111861,-90.9090909090909,4,2,3,95,0,1
112176,-90.9090909090909,4,2,1,90,0,1
113275,-90.9090909090909,4,2,1,90,0,1
113511,-90.9090909090909,4,2,1,90,0,1
113589,-90.9090909090909,4,2,1,90,0,1
113668,-90.9090909090909,4,2,1,90,0,1
114532,-90.9090909090909,4,2,1,90,0,1
114767,-90.9090909090909,4,2,1,90,0,1
114846,-90.9090909090909,4,2,1,90,0,1
114924,-90.9090909090909,4,2,1,90,0,1
115945,-90.9090909090909,4,2,1,90,0,1
116024,-90.9090909090909,4,2,1,90,0,1
116102,-90.9090909090909,4,2,1,90,0,1
116181,-90.9090909090909,4,2,1,90,0,1
116259,-90.9090909090909,4,2,1,90,0,1
116338,-90.9090909090909,4,2,1,90,0,1
116416,-90.9090909090909,4,2,1,90,0,1
116495,-90.9090909090909,4,2,1,90,0,1
116573,-90.9090909090909,4,2,1,90,0,1
117123,-90.9090909090909,4,2,1,90,0,1
117830,-90.9090909090909,4,2,3,90,0,1
120186,-90.9090909090909,4,2,1,90,0,1
121600,-90.9090909090909,4,2,1,95,0,1
122228,-90.9090909090909,4,2,1,90,0,1
122856,-90.9090909090909,4,2,1,85,0,1
123092,-90.9090909090909,4,2,1,5,0,1
123170,-90.9090909090909,4,2,1,90,0,1
125369,-90.9090909090909,4,2,1,100,0,1
127882,-90.9090909090909,4,2,99,82,0,0
128982,-90.9090909090909,4,2,1,75,0,0
130552,-90.9090909090909,4,2,1,85,0,0
132280,-90.9090909090909,4,2,1,90,0,0
133066,-90.9090909090909,4,2,1,95,0,0
133851,-90.9090909090909,4,2,1,100,0,0
134793,-90.9090909090909,4,2,99,85,0,0
139505,-90.9090909090909,4,2,1,5,0,0

[Colours]
Combo1 : 184,192,199
Combo2 : 148,204,235
Combo3 : 12,104,180

[HitObjects]
16,169,991,6,0,P|57:171|95:138,1,69.9999978637696,4|2,1:2|0:0,0:0:0:0:
176,108,1305,2,0,L|169:180,1,69.9999978637696,2|2,0:0|0:0,0:0:0:0:
109,257,1619,1,2,0:0:0:0:
109,257,1776,1,2,0:0:0:0:
249,50,2090,6,0,P|266:87|249:141,4,69.9999978637696,2|2|2|2|2,0:0|0:0|0:0|0:0|0:0,0:0:0:0:
383,260,3032,2,0,P|365:222|382:168,4,69.9999978637696,2|2|2|2|2,0:0|0:0|0:0|0:0|0:0,0:0:0:0:
223,374,3975,5,2,0:0:0:0:
160,248,4132,1,2,0:0:0:0:
160,248,4210,1,0,0:0:0:0:
160,248,4289,1,2,0:0:0:0:
279,301,4446,2,0,P|315:368|314:374,3,50,6|0|0|0,1:2|0:0|0:0|0:0,0:0:0:0:
269,292,4760,2,0,P|244:242|271:172,1,100,6|0,0:0|0:0,0:0:0:0:
164,150,5074,1,0,0:0:0:0:
74,298,5388,5,2,0:0:0:0:
160,248,5545,1,0,0:0:0:0:
243,110,5860,6,0,P|184:66|97:94,1,150,0|0,0:0|0:0,0:0:0:0:
113,79,6174,1,0,0:0:0:0:
113,79,6252,1,0,0:0:0:0:
113,79,6331,1,0,0:0:0:0:
258,7,6488,1,0,0:0:0:0:
338,123,6645,2,0,P|255:117|217:83,1,100,2|0,0:0|0:0,0:0:0:0:
358,21,6959,5,0,0:0:0:0:
358,21,7038,1,0,0:0:0:0:
358,21,7116,2,0,P|410:63|415:83,3,50,0|0|2|0,0:0|0:0|0:0|0:0,0:0:0:0:
409,55,7430,2,0,P|430:151|417:184,1,100,0|0,0:0|0:0,0:0:0:0:
511,168,7744,2,0,P|438:234|403:239,1,100,0|2,0:0|0:0,0:0:0:0:
464,312,8059,2,0,P|370:282|348:254,1,100,0|0,0:0|1:2,0:0:0:0:
57,300,8530,6,0,L|175:289,1,100,2|0,0:0|0:0,0:0:0:0:
251,189,8844,2,0,L|151:180,1,100,0|0,0:0|0:0,0:0:0:0:
62,124,9158,1,2,0:0:0:0:
62,124,9237,1,0,0:0:0:0:
62,124,9315,2,0,P|65:82|100:46,3,50,0|0|0|0,0:0|0:0|0:0|0:0,0:0:0:0:
70,50,9629,2,0,P|107:31|156:43,3,50,0|0|2|0,0:0|0:0|0:0|0:0,0:0:0:0:
138,20,9943,2,0,P|172:43|186:91,2,50,0|0|0,0:0|0:0|0:0,0:0:0:0:
62,124,10258,1,0,0:0:0:0:
62,124,10415,1,2,0:0:0:0:
229,118,10572,6,0,P|261:68|250:11,1,100,0|0,0:0|0:0,0:0:0:0:
197,199,10886,2,0,P|256:201|300:163,1,100,0|2,0:0|0:0,0:0:0:0:
110,211,11200,2,0,P|137:263|192:282,1,100,0|0,0:0|0:0,0:0:0:0:
259,349,11514,2,0,L|120:335,1,100,0|6,0:0|1:2,0:0:0:0:
288,180,11828,5,0,0:0:0:0:
344,262,11985,1,0,1:2:0:0:
399,132,12299,5,2,0:0:0:0:
455,50,12456,1,0,0:0:0:0:
193,157,12771,6,0,P|196:217|245:262,1,100,0|2,0:0|0:0,0:0:0:0:
266,98,13085,1,0,0:0:0:0:
266,98,13163,1,0,0:0:0:0:
266,98,13242,1,0,1:2:0:0:
105,156,13399,1,0,0:0:0:0:
230,10,13556,2,0,P|266:65|259:117,1,100,2|0,0:0|0:0,0:0:0:0:
236,263,13870,5,0,1:2:0:0:
236,263,13949,1,0,0:0:0:0:
236,263,14027,1,0,0:0:0:0:
236,263,14106,1,0,0:0:0:0:
236,263,14184,2,0,L|300:258,3,50,2|0|0|0,1:2|0:0|0:0|0:0,0:0:0:0:
406,254,14498,2,0,L|505:261,1,100,2|2,1:2|0:0,0:0:0:0:
392,162,14812,1,2,1:2:0:0:
392,162,14891,1,2,0:0:0:0:
392,162,14970,1,2,0:0:0:0:
406,254,15127,5,6,1:2:0:0:
287,154,15284,1,2,1:2:0:0:
85,250,15598,6,0,P|145:283|165:342,1,100,6|2,1:2|1:2,0:0:0:0:
358,38,16095,6,0,P|303:77|300:186,1,150,6|0,1:2|0:0,0:0:0:0:
289,162,16445,2,0,L|223:157,3,50,2|0|0|0,0:0|0:0|0:0|0:0,0:0:0:0:
207,212,16817,6,0,L|313:203,1,100,6|2,1:2|1:2,0:0:0:0:
29,278,17413,6,0,L|38:171,1,100,6|2,1:2|1:2,0:0:0:0:
240,278,18100,6,0,P|251:346|213:400,1,100,6|0,1:2|0:0,0:0:0:0:
160,328,18640,5,0,1:2:0:0:
240,278,18934,1,0,0:0:0:0:
390,246,19228,5,0,0:0:0:0:
294,186,19522,1,0,0:0:0:0:
256,192,19816,12,0,21861,0:0:0:0:
66,81,22018,6,0,L|60:150,3,50,0|0|0|0,0:0|0:0|0:0|0:0,0:0:0:0:
74,73,22333,1,6,1:2:0:0:
127,195,22490,1,2,0:0:0:0:
127,195,22568,1,10,0:0:0:0:
127,195,22647,1,10,0:0:0:0:
166,57,22804,2,0,L|160:126,3,50,6|0|2|10,1:2|0:0|0:0|0:0,0:0:0:0:
174,49,23118,1,10,0:0:0:0:
227,171,23275,2,0,P|227:220|206:245,2,50,6|0|2,1:2|0:0|1:2,0:0:0:0:
263,85,23589,5,10,0:0:0:0:
263,85,23668,1,10,0:0:0:0:
263,85,23746,2,0,P|304:127|306:142,1,50,10|10,0:0|0:0,0:0:0:0:
347,150,23903,1,10,0:0:0:0:
347,150,23982,1,10,0:0:0:0:
347,150,24060,2,0,P|331:206|319:215,1,50,10|10,0:0|0:0,0:0:0:0:
375,232,24217,2,0,P|365:254|366:279,3,50,8|8|0|0,0:0|0:0|1:2|1:2,0:0:0:0:
462,317,24532,2,0,P|471:294|470:269,3,50,10|2|2|0,0:0|0:0|0:0|0:0,0:0:0:0:
464,260,24846,6,0,P|367:276|356:301,1,112.500004291535,2|0,0:0|0:0,0:0:0:0:
211,337,25160,2,0,P|114:314|103:296,1,100,14|0,0:0|1:2,0:0:0:0:
41,234,25474,1,2,0:0:0:0:
180,248,25631,2,0,P|160:293|118:319,1,100,2|8,1:2|0:0,0:0:0:0:
127,176,25945,2,0,P|222:173|247:197,1,100,2|0,1:2|0:0,0:0:0:0:
275,241,26259,2,0,L|286:119,1,100,2|8,1:2|3:2,0:0:0:0:
304,62,26573,5,2,1:2:0:0:
304,62,26652,1,0,3:2:0:0:
304,62,26730,2,0,P|366:117|370:177,1,100,2|0,0:0|1:2,0:0:0:0:
214,88,27045,2,0,P|210:33|259:-19,1,100,10|0,0:0|0:0,0:0:0:0:
118,76,27359,6,0,L|128:195,1,100,2|0,1:2|0:0,0:0:0:0:
23,233,27673,2,0,L|33:114,1,100,10|0,0:0|1:2,0:0:0:0:
189,226,27987,2,0,P|156:251|86:246,1,100,2|2,0:0|1:2,0:0:0:0:
31,133,28301,1,8,0:0:0:0:
126,175,28458,6,0,L|114:320,1,100,2|0,1:2|0:0,0:0:0:0:
278,233,28772,2,0,P|259:170|197:140,1,100,0|8,1:2|0:0,0:0:0:0:
126,175,29087,1,0,1:2:0:0:
237,316,29244,1,2,3:2:0:0:
237,316,29322,1,0,3:2:0:0:
237,316,29401,1,0,1:2:0:0:
233,149,29558,6,0,L|239:70,3,50,10|0|0|0,3:2|3:2|3:2|3:2,0:0:0:0:
248,86,29872,2,0,L|369:96,1,100,2|0,1:2|0:0,0:0:0:0:
85,11,30186,2,0,L|184:2,1,100,10|0,0:0|1:2,0:0:0:0:
233,149,30500,5,2,0:0:0:0:
347,94,30657,2,0,P|343:29|302:-12,1,100,2|8,1:2|0:0,0:0:0:0:
373,181,30971,6,0,P|427:145|442:89,1,100,2|0,1:2|0:0,0:0:0:0:
503,0,31285,2,0,L|515:126,1,100,2|8,1:2|3:2,0:0:0:0:
464,181,31600,1,0,1:2:0:0:
464,181,31678,1,0,3:2:0:0:
464,181,31757,2,0,P|403:195|375:252,1,100,2|0,1:2|1:2,0:0:0:0:
268,291,32071,2,0,P|329:305|357:362,1,100,10|0,0:0|0:0,0:0:0:0:
381,222,32385,6,0,L|219:206,1,150,2|0,1:2|0:0,0:0:0:0:
168,300,32699,2,0,L|267:290,1,100,10|0,0:0|1:2,0:0:0:0:
199,130,33013,2,0,P|155:167|153:231,1,100,2|2,0:0|1:2,0:0:0:0:
168,300,33327,1,8,0:0:0:0:
287,123,33484,2,0,P|249:59|164:50,1,150,2|0,1:2|0:0,0:0:0:0:
98,77,33799,5,2,1:2:0:0:
98,77,33877,1,0,0:0:0:0:
98,77,33956,2,0,L|104:0,1,50,8|0,0:0|0:0,0:0:0:0:
23,162,34113,1,2,3:2:0:0:
23,162,34191,1,0,3:2:0:0:
23,162,34270,2,0,L|16:84,1,50,2|0,1:2|3:2,0:0:0:0:
98,247,34427,2,0,L|104:169,3,50,0|2|8|0,3:2|3:2|3:2|3:2,0:0:0:0:
15,287,34741,1,2,3:2:0:0:
132,349,34898,6,0,P|113:256|90:238,1,100,2|0,0:0|0:0,0:0:0:0:
204,108,35212,2,0,P|223:201|246:219,1,119.999996337891,6|0,1:2|0:0,0:0:0:0:
411,146,35526,2,0,L|254:133,1,119.999996337891,2|2,1:2|0:0,0:0:0:0:
316,280,35840,1,0,1:2:0:0:
340,37,35998,2,0,P|289:104|300:157,1,119.999996337891,2|0,0:0|1:2,0:0:0:0:
446,221,36312,2,0,P|497:154|466:95,1,119.999996337891,2|0,0:0|1:2,0:0:0:0:
432,63,36626,1,0,0:0:0:0:
446,221,36783,6,0,L|452:297,3,59.9999981689454,2|0|0|0,1:2|0:0|0:0|0:0,0:0:0:0:
313,288,37097,1,2,1:2:0:0:
300,296,37175,1,2,0:0:0:0:
288,305,37254,1,2,0:0:0:0:
276,313,37332,1,2,0:0:0:0:
266,321,37411,2,0,P|232:257|251:203,1,119.999996337891,2|0,1:2|0:0,0:0:0:0:
87,86,37725,2,0,P|121:150|102:204,1,119.999996337891,2|0,1:2|0:0,0:0:0:0:
3,27,38039,1,2,1:2:0:0:
120,185,38196,2,0,P|130:128|98:79,1,119.999996337891,2|0,0:0|1:2,0:0:0:0:
24,186,38511,6,0,P|58:261|129:273,1,119.999996337891,2|0,1:2|0:0,0:0:0:0:
241,217,38825,1,2,1:2:0:0:
241,217,38903,1,0,0:0:0:0:
241,217,38982,2,0,P|242:124|233:106,3,59.9999981689454,0|0|0|0,0:0|0:0|1:2|0:0,0:0:0:0:
229,146,39296,2,0,P|210:87|261:14,1,119.999996337891,2|0,0:0|1:2,0:0:0:0:
245,26,39610,2,0,P|186:34|148:79,1,119.999996337891,2|0,0:0|1:2,0:0:0:0:
298,92,39846,5,0,1:2:0:0:
298,92,39924,2,0,L|426:104,1,119.999996337891,6|0,1:2|1:2,0:0:0:0:
229,146,40238,1,2,1:2:0:0:
350,24,40395,6,0,P|383:73|365:147,1,119.999996337891,2|0,1:2|1:2,0:0:0:0:
314,232,40710,2,0,P|306:290|339:338,1,119.999996337891,2|0,1:2|1:2,0:0:0:0:
497,234,41024,2,0,B|412:241|412:241|372:291,1,119.999996337891,2|0,1:2|0:0,0:0:0:0:
339,338,41338,1,0,3:2:0:0:
339,338,41416,1,0,3:2:0:0:
339,338,41495,2,0,P|402:353|433:342,3,59.9999981689454,2|2|2|2,3:2|3:2|3:2|3:2,0:0:0:0:
237,293,41809,2,0,P|255:355|280:376,3,59.9999981689454,0|0|0|0,3:2|3:2|3:2|3:2,0:0:0:0:
224,182,42123,2,0,P|179:229|173:261,3,59.9999981689454,8|8|8|8,3:2|3:2|3:2|3:2,0:0:0:0:
236,176,42437,5,6,1:2:0:0:
141,304,42594,1,2,1:2:0:0:
240,169,42909,5,6,1:2:0:0:
136,310,43066,1,2,1:2:0:0:
245,163,43380,5,6,1:2:0:0:
131,316,43537,1,2,1:2:0:0:
54,145,43851,6,0,P|44:213|67:240,3,59.9999981689454,2|0|0|0,3:2|3:2|3:2|3:2,0:0:0:0:
147,172,44165,1,0,3:2:0:0:
147,172,44244,1,0,3:2:0:0:
147,172,44322,2,0,P|144:112|124:90,1,59.9999981689454,6|0,1:2|0:0,0:0:0:0:
59,0,44558,5,6,1:2:0:0:
251,164,44793,1,6,1:2:0:0:
256,192,45265,12,0,47071,0:0:0:0:
256,192,47149,12,0,48327,0:0:0:0:
256,192,48406,12,4,49348,1:2:0:0:
167,156,49662,5,2,0:0:0:0:
144,124,49819,1,2,0:0:0:0:
181,136,49977,1,2,0:0:0:0:
144,148,50134,1,2,0:0:0:0:
167,117,50291,1,2,0:0:0:0:
169,163,50605,5,2,0:0:0:0:
137,119,50762,1,2,0:0:0:0:
189,135,50920,1,2,0:0:0:0:
137,152,51077,1,2,0:0:0:0:
169,109,51234,1,2,0:0:0:0:
172,171,51547,5,2,0:0:0:0:
130,114,51704,1,2,0:0:0:0:
197,135,51862,1,0,0:0:0:0:
130,157,52019,1,2,0:0:0:0:
172,101,52176,1,2,0:0:0:0:
174,179,52490,5,2,0:0:0:0:
124,109,52647,1,2,0:0:0:0:
205,135,52805,1,2,0:0:0:0:
124,162,52962,1,2,0:0:0:0:
235,57,53118,2,0,P|270:80|284:116,1,59.9999981689454,2|0,0:0|0:0,0:0:0:0:
256,192,53354,12,0,54296,0:0:0:0:
235,132,54374,5,6,1:2:0:0:
202,26,54532,1,2,1:2:0:0:
260,115,54846,5,6,1:2:0:0:
284,6,55004,1,2,1:2:0:0:
290,113,55317,5,6,1:2:0:0:
366,31,55475,1,2,1:2:0:0:
389,134,55631,2,0,P|356:189|314:206,1,89.9999972534181,0|0,0:0|0:0,0:0:0:0:
328,199,55945,1,0,1:2:0:0:
473,169,56102,1,0,1:2:0:0:
424,290,56259,5,8,0:0:0:0:
424,290,56338,1,0,1:2:0:0:
424,290,56416,2,0,P|440:224|449:215,1,50,0|0,1:2|1:2,0:0:0:0:
510,306,56573,2,0,P|421:372|346:330,1,200,6|8,1:2|0:0,0:0:0:0:
228,207,57045,6,0,L|352:197,1,100,0|2,1:2|3:2,0:0:0:0:
152,127,57359,1,0,3:2:0:0:
152,127,57437,1,2,3:2:0:0:
152,127,57516,2,0,P|145:192|157:210,3,50,8|0|2|0,3:2|3:2|3:2|3:2,0:0:0:0:
234,102,57830,2,0,P|197:52|102:46,1,150,2|2,1:2|1:2,0:0:0:0:
110,47,58144,5,0,0:0:0:0:
12,133,58301,1,2,1:2:0:0:
139,174,58458,6,0,P|114:180|93:193,3,50,0|0|8|8,3:2|3:2|0:0|0:0,0:0:0:0:
31,261,58772,2,0,P|52:273|76:280,1,50,0|0,3:2|3:2,0:0:0:0:
76,280,58929,1,0,3:2:0:0:
76,280,59008,1,0,3:2:0:0:
76,280,59087,5,6,1:2:0:0:
181,384,59244,1,2,1:2:0:0:
282,363,59558,5,6,1:2:0:0:
177,259,59715,1,2,1:2:0:0:
278,238,60029,5,6,1:2:0:0:
383,342,60186,1,2,1:2:0:0:
367,200,60343,2,0,P|314:146|245:148,1,100,2|0,0:0|0:0,0:0:0:0:
110,118,60657,2,0,P|163:64|232:66,1,100,2|0,0:0|0:0,0:0:0:0:
330,59,60971,1,0,3:2:0:0:
330,59,61050,1,0,3:2:0:0:
330,59,61128,1,8,0:0:0:0:
292,140,61285,6,0,L|193:149,1,100,6|0,1:2|0:0,0:0:0:0:
33,165,61600,1,8,0:0:0:0:
184,58,61757,1,0,1:2:0:0:
123,215,61914,5,2,3:2:0:0:
123,215,61992,1,0,3:2:0:0:
123,215,62071,2,0,P|124:282|134:296,3,50,0|2|8|0,3:2|3:2|3:2|3:2,0:0:0:0:
220,384,62385,1,2,3:2:0:0:
220,384,62463,1,0,3:2:0:0:
220,384,62542,2,0,P|206:305|173:281,1,100,2|2,1:2|0:0,0:0:0:0:
39,232,62856,1,0,0:0:0:0:
137,355,63013,1,2,1:2:0:0:
214,211,63170,6,0,P|261:244|267:279,3,50,0|0|0|0,0:0|1:2|0:0|0:0,0:0:0:0:
315,301,63484,2,0,P|362:268|368:233,3,50,8|8|8|8,1:2|0:0|0:0|1:2,0:0:0:0:
419,218,63799,5,2,1:2:0:0:
419,218,63877,1,2,1:2:0:0:
419,218,63956,1,2,1:2:0:0:
419,218,64034,1,2,1:2:0:0:
419,218,64113,2,0,L|409:92,1,110.000003356934,6|0,1:2|0:0,0:0:0:0:
328,13,64427,2,0,P|318:75|260:115,1,110.000003356934,0|2,1:2|0:0,0:0:0:0:
214,211,64741,2,0,P|165:171|159:101,1,110.000003356934,2|2,1:2|0:0,0:0:0:0:
103,17,65055,2,0,P|161:-5|225:24,1,110.000003356934,2|0,1:2|0:0,0:0:0:0:
285,106,65369,5,0,1:2:0:0:
285,106,65526,2,0,L|297:239,1,110.000003356934,2|0,0:0|1:2,0:0:0:0:
212,266,65840,2,0,L|205:329,1,55.0000016784668,2|0,0:0|0:0,0:0:0:0:
225,320,65998,2,0,L|211:182,1,110.000003356934,2|0,1:2|0:0,0:0:0:0:
399,185,66312,5,6,1:2:0:0:
213,210,66469,1,2,1:2:0:0:
295,96,66626,1,0,0:0:0:0:
295,96,66704,1,0,0:0:0:0:
295,96,66783,1,2,0:0:0:0:
213,210,66940,5,6,1:2:0:0:
399,185,67097,1,2,1:2:0:0:
315,309,67254,1,2,0:0:0:0:
312,281,67332,1,0,0:0:0:0:
310,254,67411,2,0,L|304:183,1,55.0000016784668,2|0,0:0|0:0,0:0:0:0:
170,133,67568,6,0,P|125:189|140:254,1,110.000003356934,6|0,1:2|0:0,0:0:0:0:
196,115,67882,2,0,P|125:104|76:149,1,110.000003356934,6|0,1:2|0:0,0:0:0:0:
222,97,68196,2,0,P|196:30|132:10,1,110.000003356934,6|0,1:2|0:0,0:0:0:0:
125,224,68511,6,0,L|138:362,1,134.999995880127,6|0,1:2|0:0,0:0:0:0:
317,299,69139,5,0,0:0:0:0:
267,240,69296,1,0,0:0:0:0:
242,313,69453,1,0,0:0:0:0:
353,293,70081,5,2,1:2:0:0:
279,205,70238,1,2,0:0:0:0:
242,313,70395,1,2,0:0:0:0:
256,192,70474,12,0,71259,0:0:0:0:
437,104,71338,6,0,P|439:173|387:219,1,100,6|0,1:2|1:2,0:0:0:0:
298,113,71652,2,0,P|295:43|347:-2,1,100,0|0,1:2|1:2,0:0:0:0:
443,103,71966,2,0,P|446:172|394:217,1,100,0|0,1:2|1:2,0:0:0:0:
291,113,72280,1,2,0:0:0:0:
282,64,72358,1,2,0:0:0:0:
303,20,72437,1,2,0:0:0:0:
328,206,72594,6,0,L|203:195,1,100,2|0,1:2|1:2,0:0:0:0:
155,328,72909,2,0,L|30:338,1,100,0|0,1:2|1:2,0:0:0:0:
336,199,73223,2,0,L|199:187,1,100,0|0,1:2|1:2,0:0:0:0:
46,342,73538,2,0,L|146:334,1,100,2|0,0:0|0:0,0:0:0:0:
152,178,73851,6,0,P|172:133|216:110,1,100,2|0,1:2|1:2,0:0:0:0:
400,266,74165,2,0,P|379:221|335:198,1,100,0|0,1:2|1:2,0:0:0:0:
139,173,74479,2,0,P|162:124|210:98,1,100,0|0,1:2|1:2,0:0:0:0:
351,197,74793,2,0,P|392:224|412:270,1,100,2|2,0:0|0:0,0:0:0:0:
317,287,75107,6,0,P|347:331|357:334,3,50,2|2|2|2,1:2|1:2|1:2|1:2,0:0:0:0:
375,156,75422,2,0,P|351:203|354:214,3,50,2|2|2|2,1:2|1:2|1:2|1:2,0:0:0:0:
512,135,75736,2,0,P|458:138|451:146,3,50,0|0|0|0,1:2|1:2|1:2|1:2,0:0:0:0:
416,273,76050,1,0,1:2:0:0:
416,273,76128,1,0,1:2:0:0:
416,273,76207,1,0,1:2:0:0:
308,103,76364,2,0,P|380:73|432:92,1,100,0|0,3:2|3:2,0:0:0:0:
251,209,76678,2,0,P|201:208|159:181,1,100,0|0,3:2|3:2,0:0:0:0:
85,119,76992,2,0,L|78:198,3,50,2|2|2|2,0:0|0:0|0:0|0:0,0:0:0:0:
159,181,77306,5,0,0:0:0:0:
161,206,77384,1,0,0:0:0:0:
163,231,77463,1,0,0:0:0:0:
165,256,77541,1,0,0:0:0:0:
168,281,77620,1,4,1:2:0:0:
256,192,77699,12,0,79898,0:0:0:0:
427,223,79977,6,0,P|445:164|412:107,1,100,2|0,1:2|0:0,0:0:0:0:
320,28,80291,5,6,1:2:0:0:
320,28,80448,2,0,L|309:163,1,100,6|0,1:2|0:0,0:0:0:0:
166,276,80762,6,0,L|158:186,3,50,0|0|0|0,0:0|0:0|0:0|0:0,0:0:0:0:
107,224,81076,2,0,L|145:143,3,50,0|0|0|0,0:0|0:0|0:0|0:0,0:0:0:0:
81,149,81390,2,0,L|154:98,3,50,0|0|0|0,0:0|0:0|0:0|0:0,0:0:0:0:
95,71,81704,2,0,L|184:63,3,50,0|0|0|0,0:0|0:0|0:0|0:0,0:0:0:0:
214,147,82018,1,8,0:0:0:0:
231,165,82096,1,8,0:0:0:0:
243,186,82175,1,8,0:0:0:0:
250,210,82253,1,8,0:0:0:0:
250,237,82333,2,0,L|240:317,2,50,8|8|0,0:0|0:0|0:0,0:0:0:0:
354,52,82647,6,0,P|387:123|327:221,1,165.000005035401,6|0,1:2|1:2,0:0:0:0:
208,0,83118,1,0,1:2:0:0:
362,60,83275,2,0,P|395:131|335:229,1,165.000005035401,2|0,1:2|1:2,0:0:0:0:
207,0,83746,1,0,1:2:0:0:
370,68,83903,2,0,P|403:139|343:237,1,165.000005035401,2|0,1:2|1:2,0:0:0:0:
249,329,84374,5,0,1:2:0:0:
249,329,84453,1,0,0:0:0:0:
249,329,84532,1,2,1:2:0:0:
230,246,84689,1,2,1:2:0:0:
230,246,84768,1,0,0:0:0:0:
230,246,84846,2,0,P|296:256|332:311,1,110.000003356934,0|0,1:2|0:0,0:0:0:0:
137,259,85160,6,0,P|147:192|202:156,1,110.000003356934,6|0,1:2|0:0,0:0:0:0:
188,163,85395,2,0,L|101:144,1,55.0000016784668,0|0,1:2|0:0,0:0:0:0:
249,329,85631,1,0,1:2:0:0:
127,249,85788,6,0,P|137:182|192:146,1,110.000003356934,2|0,1:2|0:0,0:0:0:0:
178,153,86023,2,0,L|91:134,1,55.0000016784668,0|0,1:2|0:0,0:0:0:0:
249,329,86259,1,0,1:2:0:0:
117,239,86417,6,0,P|127:172|182:136,2,110.000003356934,2|0|0,0:0|0:0|0:0,0:0:0:0:
437,12,87045,6,0,P|441:98|401:133,1,110.000003356934,2|2,1:2|1:2,0:0:0:0:
362,170,87359,5,2,1:2:0:0:
362,170,87516,1,2,0:0:0:0:
212,51,87673,6,0,L|203:142,1,55.0000016784668,6|0,1:2|0:0,0:0:0:0:
199,37,87830,2,0,P|142:57|117:147,1,110.000003356934,0|2,0:0|0:0,0:0:0:0:
22,193,88144,6,0,L|30:284,1,55.0000016784668,2|0,1:2|0:0,0:0:0:0:
35,179,88301,2,0,P|92:199|117:289,1,110.000003356934,0|2,0:0|0:0,0:0:0:0:
225,65,88615,6,0,L|216:156,1,55.0000016784668,2|0,1:2|0:0,0:0:0:0:
212,51,88772,2,0,P|155:71|130:161,1,110.000003356934,0|2,0:0|0:0,0:0:0:0:
35,207,89086,6,0,L|43:298,1,55.0000016784668,2|0,1:2|0:0,0:0:0:0:
48,193,89243,2,0,P|105:213|130:303,1,110.000003356934,0|2,0:0|0:0,0:0:0:0:
224,325,89558,1,2,1:2:0:0:
224,325,89636,1,0,0:0:0:0:
224,325,89715,2,0,P|285:335|304:324,1,55.0000016784668,0|0,0:0|0:0,0:0:0:0:
306,259,89872,1,2,1:2:0:0:
306,259,89950,1,2,0:0:0:0:
306,259,90029,2,0,P|367:249|386:260,1,55.0000016784668,2|2,0:0|0:0,0:0:0:0:
415,323,90186,6,0,P|448:271|411:168,1,165.000005035401,2|0,0:0|0:0,0:0:0:0:
414,168,90500,2,0,L|504:175,1,55.0000016784668,4|0,1:2|0:0,0:0:0:0:
512,96,90657,2,0,L|357:109,1,110.000003356934,8|0,0:0|0:0,0:0:0:0:
325,11,90971,1,0,1:2:0:0:
325,11,91050,1,0,0:0:0:0:
325,11,91128,2,0,L|407:18,3,55.0000016784668,8|0|0|0,0:0|0:0|1:2|0:0,0:0:0:0:
260,82,91443,2,0,L|295:157,3,55.0000016784668,0|0|0|0,1:2|0:0|0:0|0:0,0:0:0:0:
166,61,91757,2,0,L|118:128,3,55.0000016784668,8|0|0|0,0:0|0:0|1:2|1:2,0:0:0:0:
59,74,92071,6,0,P|63:153|119:178,1,110.000003356934,8|0,1:2|1:2,0:0:0:0:
106,192,92306,1,0,1:2:0:0:
129,214,92385,2,0,P|161:257|158:313,1,110.000003356934,8|0,0:0|1:2,0:0:0:0:
71,332,92699,2,0,P|102:262|116:256,1,55.0000016784668,4|0,1:2|0:0,0:0:0:0:
152,319,92856,2,0,P|195:380|206:382,3,55.0000016784668,0|0|8|0,0:0|0:0|0:0|0:0,0:0:0:0:
173,368,93170,1,2,1:2:0:0:
247,241,93327,1,2,0:0:0:0:
321,368,93484,1,2,1:2:0:0:
394,240,93641,2,0,L|402:144,3,55.0000016784668,10|0|0|0,0:0|0:0|0:0|0:0,0:0:0:0:
318,67,93956,5,0,1:2:0:0:
318,67,94034,1,0,0:0:0:0:
318,67,94113,2,0,P|326:146|342:163,1,55.0000016784668,0|0,0:0|0:0,0:0:0:0:
401,92,94270,1,8,0:0:0:0:
236,59,94427,1,2,1:2:0:0:
398,185,94584,1,2,0:0:0:0:
401,9,94741,2,0,P|324:51|315:80,1,110.000003356934,2|10,1:2|0:0,0:0:0:0:
401,92,95055,1,0,1:2:0:0:
308,209,95212,6,0,P|372:268|384:268,1,55.0000016784668,2|0,1:2|0:0,0:0:0:0:
405,312,95369,1,0,1:2:0:0:
405,312,95448,1,0,0:2:0:0:
405,312,95526,2,0,P|315:294|291:323,1,110.000003356934,2|0,1:2|1:2,0:0:0:0:
198,289,95840,6,0,L|331:300,1,110.000003356934,2|2,1:2|1:2,0:0:0:0:
17,159,96155,2,0,L|150:147,1,110.000003356934,2|2,1:2|1:2,0:0:0:0:
191,74,96469,2,0,P|218:133|216:152,3,55.0000016784668,2|0|2|0,1:2|1:2|1:2|1:2,0:0:0:0:
126,149,96783,2,0,P|117:174|100:196,3,55.0000016784668,10|8|10|8,1:2|1:2|1:2|1:2,0:0:0:0:
103,61,97097,1,2,1:2:0:0:
110,33,97176,1,2,0:0:0:0:
133,13,97254,1,2,0:0:0:0:
304,116,97411,2,0,P|285:177|213:205,1,110.000003356934,10|10,0:0|0:0,0:0:0:0:
396,13,97725,6,0,L|389:104,1,55.0000016784668,6|0,1:2|0:0,0:0:0:0:
411,1,97882,2,0,P|463:30|472:123,1,110.000003356934,0|10,0:0|0:0,0:0:0:0:
408,152,98196,6,0,L|325:191,1,55.0000016784668,2|0,1:2|0:0,0:0:0:0:
426,159,98353,2,0,P|426:219|350:273,1,110.000003356934,0|10,0:0|1:2,0:0:0:0:
294,232,98668,6,0,L|218:180,1,55.0000016784668,2|0,1:2|0:0,0:0:0:0:
297,251,98825,2,0,P|245:281|160:243,1,110.000003356934,0|10,0:0|0:0,0:0:0:0:
166,172,99139,6,0,L|172:80,1,55.0000016784668,2|0,1:2|0:0,0:0:0:0:
152,184,99296,2,0,P|99:154|90:61,1,110.000003356934,0|10,0:0|0:0,0:0:0:0:
13,41,99610,1,2,1:2:0:0:
13,41,99688,1,0,0:0:0:0:
13,41,99767,2,0,P|3:102|14:121,1,55.0000016784668,0|0,0:0|0:0,0:0:0:0:
60,178,99924,1,2,1:2:0:0:
60,178,100002,1,2,0:0:0:0:
60,178,100081,2,0,P|70:239|59:258,1,55.0000016784668,2|2,0:0|0:0,0:0:0:0:
0,283,100238,2,0,P|95:315|161:237,1,165.000005035401,0|0,0:0|0:0,0:0:0:0:
154,271,100552,6,0,L|146:355,1,55.0000016784668,6|0,1:2|0:0,0:0:0:0:
234,297,100710,2,0,L|221:148,1,110.000003356934,8|0,0:0|0:0,0:0:0:0:
307,104,101024,1,0,1:2:0:0:
307,104,101102,1,0,0:0:0:0:
307,104,101181,2,0,L|299:192,3,55.0000016784668,8|0|0|0,0:0|0:0|0:0|0:0,0:0:0:0:
232,39,101495,6,0,P|214:113|242:152,1,73.3333355712891,2|0,1:2|0:0,0:0:0:0:
395,66,101704,2,0,P|339:13|292:18,1,73.3333355712891,2|0,1:2|0:0,0:0:0:0:
232,39,101914,2,0,P|214:113|242:152,1,73.3333355712891,2|0,1:2|0:0,0:0:0:0:
402,65,102123,6,0,P|341:8|290:13,1,73.3333355712891,2|0,1:2|0:0,0:0:0:0:
225,36,102333,2,0,P|206:116|236:159,1,73.3333355712891,2|0,1:2|0:0,0:0:0:0:
402,65,102542,2,0,P|341:8|290:13,1,73.3333355712891,2|0,1:2|0:0,0:0:0:0:
307,104,102751,6,0,L|289:297,1,165.000005035401,2|0,0:0|0:0,0:0:0:0:
292,268,103066,1,6,1:2:0:0:
292,268,103144,1,0,0:0:0:0:
292,268,103223,1,2,1:2:0:0:
225,353,103380,2,0,P|195:292|197:274,1,55.0000016784668,2|0,1:2|0:0,0:0:0:0:
217,211,103537,1,2,1:2:0:0:
99,289,103694,2,0,P|136:232|153:225,3,55.0000016784668,2|0|0|0,1:2|0:0|0:0|0:0,0:0:0:0:
217,211,104008,6,0,P|110:147|86:155,1,110.000003356934,0|0,1:2|1:2,0:0:0:0:
44,119,104322,1,0,1:2:0:0:
56,94,104400,1,0,0:0:0:0:
74,74,104479,1,2,1:2:0:0:
98,60,104557,1,0,0:0:0:0:
124,53,104636,5,2,1:2:0:0:
217,211,104793,1,2,1:2:0:0:
252,40,104950,5,2,0:0:0:0:
225,218,105107,1,2,1:2:0:0:
371,97,105265,6,0,P|421:174|395:261,1,165.000005035401,0|0,1:2|0:0,0:0:0:0:
408,241,105579,2,0,L|492:248,3,55.0000016784668,0|0|0|0,1:2|0:0|0:0|0:0,0:0:0:0:
309,285,105893,2,0,L|305:340,3,55.0000016784668,0|0|0|0,1:2|0:0|0:0|0:0,0:0:0:0:
225,218,106207,2,0,L|170:213,3,55.0000016784668,0|0|0|2,1:2|0:0|0:0|0:2,0:0:0:0:
304,137,106521,5,10,1:2:0:0:
328,170,106599,1,2,1:2:0:0:
337,209,106678,1,2,1:2:0:0:
331,250,106756,1,10,1:2:0:0:
309,285,106835,2,0,L|305:340,3,55.0000016784668,2|2|10|2,1:2|1:2|1:2|1:2,0:0:0:0:
225,218,107149,1,10,0:0:0:0:
197,215,107227,1,2,0:0:0:0:
170,213,107306,1,10,0:0:0:0:
304,137,107463,1,10,0:0:0:0:
224,303,107621,1,2,0:0:0:0:
82,206,107778,5,6,1:2:0:0:
82,206,107856,1,0,0:0:0:0:
82,206,107935,2,0,P|103:273|159:299,1,110.000003356934,0|10,0:0|0:0,0:0:0:0:
118,125,108249,5,2,1:2:0:0:
118,125,108327,1,0,0:0:0:0:
118,125,108406,2,0,P|159:160|170:213,1,110.000003356934,0|10,0:0|0:2,0:0:0:0:
30,118,108720,5,2,1:2:0:0:
30,118,108798,1,0,0:0:0:0:
30,118,108877,2,0,P|51:185|107:211,1,110.000003356934,0|10,0:0|0:0,0:0:0:0:
66,37,109191,5,2,1:2:0:0:
66,37,109269,1,0,0:0:0:0:
66,37,109348,2,0,P|107:71|117:124,1,110.000003356934,0|10,0:0|0:2,0:0:0:0:
193,54,109662,6,0,L|186:-12,3,55.0000016784668,2|0|0|0,1:2|0:0|0:0|0:0,0:0:0:0:
271,114,109977,2,0,L|298:52,3,55.0000016784668,2|2|2|2,0:0|0:0|1:2|1:2,0:0:0:0:
308,204,110291,1,2,1:2:0:0:
308,204,110369,1,0,0:0:0:0:
308,204,110448,2,0,L|362:164,1,55.0000016784668,0|0,0:0|0:0,0:0:0:0:
397,139,110605,1,2,1:2:0:0:
397,139,110683,1,2,0:0:0:0:
397,139,110762,2,0,L|298:210,1,110.000003356934,10|0,0:0|0:0,0:0:0:0:
290,341,111076,1,2,1:2:0:0:
312,324,111154,1,2,0:0:0:0:
334,308,111233,1,10,0:0:0:0:
356,292,111311,1,2,0:0:0:0:
379,276,111390,1,2,1:2:0:0:
223,215,111547,6,0,P|275:275|290:274,3,55.0000016784668,0|0|0|0,1:2|0:0|1:2|0:0,0:0:0:0:
164,147,111861,2,0,P|138:222|146:234,3,55.0000016784668,2|0|0|0,3:2|3:2|3:2|3:2,0:0:0:0:
193,61,112176,1,2,1:2:0:0:
193,61,112254,1,0,1:2:0:0:
193,61,112333,2,0,P|115:76|108:89,1,55.0000016784668,0|0,1:2|0:0,0:0:0:0:
249,132,112490,2,0,P|281:88|261:6,1,110.000003356934,2|0,1:2|0:0,0:0:0:0:
53,157,112804,6,0,P|47:211|105:272,1,110.000003356934,6|0,1:2|0:0,0:0:0:0:
156,317,113118,1,8,1:2:0:0:
132,189,113275,1,2,0:0:0:0:
71,342,113432,1,2,1:2:0:0:
206,239,113589,2,0,P|239:283|240:337,1,110.000003356934,2|10,0:0|1:2,0:0:0:0:
313,227,113903,5,0,0:0:0:0:
313,227,113982,1,0,0:0:0:0:
319,227,114060,2,0,L|392:207,3,55.0000016784668,0|0|0|0,1:2|0:0|0:0|0:0,0:0:0:0:
455,200,114374,1,8,1:2:0:0:
316,138,114532,1,2,0:0:0:0:
410,289,114689,1,2,1:2:0:0:
501,119,114846,2,0,P|422:116|378:148,1,110.000003356934,2|10,0:0|1:2,0:0:0:0:
316,138,115160,5,0,1:2:0:0:
316,138,115238,1,0,1:2:0:0:
316,138,115317,2,0,P|265:157|211:148,1,110.000003356934,2|0,1:2|1:2,0:0:0:0:
179,227,115631,2,0,P|136:193|117:142,1,110.000003356934,2|0,1:2|1:2,0:0:0:0:
168,69,115945,5,2,1:2:0:0:
271,233,116102,1,2,1:2:0:0:
271,47,116259,5,2,1:2:0:0:
278,239,116416,1,2,1:2:0:0:
317,135,116573,5,2,1:2:0:0:
352,156,116651,1,0,1:2:0:0:
377,188,116730,1,2,1:2:0:0:
388,227,116808,1,0,1:2:0:0:
384,268,116888,2,0,L|375:393,1,110.000003356934,2|0,1:2|0:0,0:0:0:0:
289,384,117202,1,2,1:2:0:0:
287,367,117280,1,2,0:0:0:0:
286,348,117359,2,0,L|278:251,1,55.0000016784668,2|2,0:0|0:0,0:0:0:0:
278,239,117516,1,10,0:0:0:0:
376,377,117673,1,10,0:0:0:0:
190,254,117830,5,6,1:2:0:0:
190,254,117909,1,0,0:0:0:0:
190,254,117987,2,0,P|217:170|249:153,1,110.000003356934,0|10,0:0|1:2,0:0:0:0:
174,98,118301,5,2,1:2:0:0:
174,98,118380,1,0,0:0:0:0:
174,98,118458,2,0,P|260:79|290:98,1,110.000003356934,0|10,0:0|1:2,0:0:0:0:
301,6,118772,5,2,1:2:0:0:
301,6,118851,1,0,0:0:0:0:
301,6,118929,2,0,P|360:71|358:107,1,110.000003356934,0|10,0:0|1:2,0:0:0:0:
444,69,119244,5,2,1:2:0:0:
444,69,119323,1,0,0:0:0:0:
444,69,119401,2,0,P|417:153|385:169,1,110.000003356934,0|10,0:0|1:2,0:0:0:0:
333,242,119715,6,0,L|425:250,3,55.0000016784668,2|0|8|0,1:2|0:0|0:0|0:2,0:0:0:0:
270,318,120029,2,0,L|215:322,3,55.0000016784668,2|0|10|2,1:2|0:0|1:2|0:0,0:0:0:0:
159,254,120343,2,0,P|128:313|149:375,1,110.000003356934,2|0,0:0|0:0,0:0:0:0:
245,239,120657,1,2,1:2:0:0:
245,239,120736,1,2,0:0:0:0:
245,239,120814,2,0,P|211:186|125:177,1,110.000003356934,10|0,0:0|0:0,0:0:0:0:
0,308,121128,5,0,1:2:0:0:
0,308,121207,1,0,0:0:0:0:
0,308,121285,2,0,L|8:202,1,55.0000016784668,8|0,0:0|0:0,0:0:0:0:
77,215,121443,1,0,1:2:0:0:
77,215,121522,1,0,0:0:0:0:
77,215,121600,6,0,L|71:142,1,73.3333355712891,2|0,1:2|0:0,0:0:0:0:
168,145,121809,2,0,L|162:71,1,73.3333355712891,2|0,1:2|0:0,0:0:0:0:
258,74,122018,2,0,L|252:0,1,73.3333355712891,2|0,1:2|0:0,0:0:0:0:
84,230,122228,6,0,L|78:156,1,73.3333355712891,2|0,1:2|0:0,0:0:0:0:
174,160,122437,2,0,L|168:86,1,73.3333355712891,2|0,1:2|0:0,0:0:0:0:
264,89,122646,2,0,L|258:15,1,73.3333355712891,2|0,1:2|0:0,0:0:0:0:
356,80,122856,2,0,P|329:154|259:179,1,146.666671142578,6|0,1:2|0:0,0:0:0:0:
265,183,123170,1,2,1:2:0:0:
432,131,123327,1,2,1:2:0:0:
264,89,123484,1,2,1:2:0:0:
431,32,123641,2,0,P|508:71|528:124,1,110.000003356934,2|2,1:2|1:2,0:0:0:0:
432,131,123956,5,0,1:2:0:0:
432,131,124034,1,0,1:2:0:0:
432,131,124113,2,0,L|421:256,1,110.000003356934,0|0,1:2|1:2,0:0:0:0:
302,383,124427,2,0,L|291:257,1,110.000003356934,0|2,1:2|1:2,0:0:0:0:
280,120,124741,1,2,1:2:0:0:
389,324,124898,1,2,1:2:0:0:
208,300,125055,2,0,P|219:217|256:192,1,110.000003356934,2|2,1:2|1:2,0:0:0:0:
338,191,125369,6,0,L|157:175,1,165.000005035401,0|0,1:2|0:0,0:0:0:0:
165,176,125683,1,4,1:2:0:0:
292,273,125840,1,0,1:2:0:0:
281,119,125998,2,0,L|274:44,3,55.0000016784668,0|0|0|0,1:2|1:0|1:2|1:2,0:0:0:0:
169,121,126312,2,0,L|162:195,3,55.0000016784668,0|0|2|2,1:2|1:2|1:2|1:2,0:0:0:0:
60,223,126626,5,2,1:2:0:0:
61,241,126704,1,2,1:2:0:0:
63,259,126783,1,2,1:2:0:0:
64,277,126861,1,2,1:2:0:0:
66,296,126940,1,10,1:2:0:0:
67,314,127018,1,2,1:2:0:0:
69,332,127097,2,0,L|147:325,1,55.0000016784668,2|10,1:2|1:2,0:0:0:0:
189,274,127254,5,2,1:2:0:0:
216,276,127332,1,2,1:2:0:0:
243,278,127411,1,2,1:2:0:0:
271,281,127489,1,2,1:2:0:0:
298,283,127568,1,8,0:0:0:0:
169,121,127882,1,6,1:2:0:0:
256,192,127961,12,0,129924,0:0:0:0:
323,283,130238,5,0,0:0:0:0:
222,103,130552,5,2,1:2:0:0:
210,228,130710,1,10,0:0:0:0:
207,255,130788,1,10,0:0:0:0:
205,282,130867,1,10,0:0:0:0:
203,310,130945,1,10,0:0:0:0:
201,337,131024,6,0,P|108:314|90:277,1,110.000003356934,6|0,1:2|1:2,0:0:0:0:
24,193,131338,2,0,P|117:216|135:253,1,110.000003356934,6|0,1:2|1:2,0:0:0:0:
186,352,131652,2,0,P|92:328|74:291,1,110.000003356934,6|0,1:2|1:2,0:0:0:0:
8,208,131966,2,0,P|101:231|119:268,1,110.000003356934,6|0,1:2|0:0,0:0:0:0:
209,227,132280,6,0,L|214:173,3,55.0000016784668,2|2|2|2,1:2|0:0|1:2|0:0,0:0:0:0:
294,101,132594,5,2,1:2:0:0:
295,114,132673,1,2,0:2:0:0:
296,128,132751,1,2,1:2:0:0:
297,142,132830,1,2,0:0:0:0:
299,156,132908,1,2,1:2:0:0:
379,84,133066,6,0,L|384:30,3,55.0000016784668,2|2|2|2,1:2|0:2|1:2|0:2,0:0:0:0:
299,156,133380,5,2,1:2:0:0:
298,142,133459,1,2,0:0:0:0:
297,129,133537,1,2,1:2:0:0:
296,115,133616,1,2,0:2:0:0:
295,101,133694,1,2,1:2:0:0:
214,172,133851,5,10,1:2:0:0:
215,186,133929,1,2,1:2:0:0:
216,200,134008,1,2,1:2:0:0:
217,213,134086,1,2,1:2:0:0:
218,227,134165,6,0,L|223:281,3,55.0000016784668,10|2|2|2,1:2|1:2|1:2|1:2,0:0:0:0:
299,156,134479,1,10,1:2:0:0:
229,366,134793,5,4,1:2:0:0:
256,192,134872,12,0,139505,0:0:0:0:
