osu file format v14

[General]
AudioFilename: audio.mp3
AudioLeadIn: 0
PreviewTime: 87055
Countdown: 0
SampleSet: Soft
StackLeniency: 0.3
Mode: 0
LetterboxInBreaks: 0
WidescreenStoryboard: 1

[Editor]
Bookmarks: 77621,79977
DistanceSpacing: 0.5
BeatDivisor: 4
GridSize: 16
TimelineZoom: 3.899998

[Metadata]
Title:Lemuria
TitleUnicode:Lemuria
Artist:Festa
ArtistUnicode:Festa
Creator:QuiescentRabbit
Version:Elcheer's Extra
Source:BMS
Tags:blastthekidd side crazyrabbitkge nayarii elcheer mentai xi piano artcore electronic deathstream rsi evolved chronicles
BeatmapID:1766008
BeatmapSetID:835474

[Difficulty]
HPDrainRate:5
CircleSize:3.5
OverallDifficulty:8.3
ApproachRate:9.3
SliderMultiplier:1.7
SliderTickRate:1

[Events]
//Background and Video events
0,0,"background.jpg",0,0
//Break Periods
//Storyboard Layer 0 (Background)
//Storyboard Layer 1 (Fail)
//Storyboard Layer 2 (Pass)
//Storyboard Layer 3 (Foreground)
//Storyboard Sound Samples

[TimingPoints]
991,314.13612565445,4,2,1,50,1,0
1148,-100,4,2,10,60,0,0
1305,-100,4,2,11,60,0,0
1462,-100,4,2,12,60,0,0
1619,-100,4,2,13,60,0,0
1776,-100,4,2,14,60,0,0
2090,-100,4,2,10,64,0,0
2247,-100,4,2,11,64,0,0
2404,-100,4,2,12,64,0,0
2561,-100,4,2,13,64,0,0
2718,-100,4,2,14,64,0,0
3032,-100,4,2,10,68,0,0
3189,-100,4,2,11,68,0,0
3347,-100,4,2,12,68,0,0
3504,-100,4,2,13,68,0,0
3661,-100,4,2,14,68,0,0
3975,-100,4,2,10,68,0,0
4132,-100,4,2,11,68,0,0
4289,-100,4,2,12,68,0,0
4446,-100,4,2,1,50,0,0
4760,-100,4,2,3,60,0,0
7430,-125,4,2,3,60,0,0
8216,-100,4,2,3,60,0,0
11671,-100,4,2,3,70,0,0
14498,-100,4,2,1,70,0,0
14812,-100,4,2,3,70,0,0
14891,-100,4,2,1,70,0,0
15127,-100,4,2,1,75,0,0
15598,331.491712707182,4,2,1,75,1,0
16095,350.877192982456,4,2,1,75,1,0
16445,372.670807453416,4,2,3,60,1,0
16817,425.531914893617,4,2,1,85,1,0
16817,-133.333333333333,4,2,1,85,0,0
17413,458.015267175573,4,2,1,85,1,0
17413,-200,4,2,1,85,0,0
18100,540.540540540541,4,2,1,85,1,0
18100,-149.253731343284,4,2,1,85,0,0
18640,588.235294117647,4,2,1,85,1,0
19820,314.13612565445,4,2,99,70,1,0
19820,-384.615384615385,4,2,99,70,0,0
19898,-100,4,2,99,25,0,0
21940,-100,4,2,99,5,0,0
22018,-100,4,2,99,60,0,0
22333,-100,4,2,1,72,0,0
23903,-100,4,2,1,70,0,0
24217,-100,4,2,3,62,0,0
24532,-100,4,2,2,54,0,0
24846,-153.846153846154,4,2,1,45,0,0
25081,-153.846153846154,4,2,1,5,0,0
25160,-83.3333333333333,4,2,1,70,0,0
25474,-100,4,2,1,70,0,0
26416,-100,4,2,3,70,0,0
26730,-100,4,2,1,70,0,0
29244,-100,4,2,3,70,0,0
29872,-100,4,2,1,70,0,0
31443,-100,4,2,3,70,0,0
31757,-100,4,2,1,70,0,0
34113,-100,4,2,3,70,0,0
34898,-71.4285714285715,4,2,1,60,0,1
35212,-83.3333333333333,4,2,1,85,0,1
35369,-83.3333333333333,4,2,1,85,0,1
41259,-83.3333333333333,4,2,1,85,0,1
41338,-83.3333333333333,4,2,3,85,0,1
42437,-83.3333333333333,4,2,1,85,0,1
43851,-83.3333333333333,4,2,3,85,0,1
44008,-83.3333333333333,4,2,3,85,0,1
44322,-55.5555555555556,4,2,1,85,0,1
45265,-100,4,2,99,70,0,0
45343,-100,4,2,99,35,0,0
47071,-100,4,2,99,5,0,0
47149,-100,4,2,1,70,0,0
47228,-100,4,2,1,35,0,0
48327,-100,4,2,1,5,0,0
48406,-133.333333333333,4,2,1,70,0,0
48484,-133.333333333333,4,2,1,35,0,0
48956,-133.333333333333,4,2,1,5,0,0
49034,-100,4,2,1,70,0,0
49113,-100,4,2,1,35,0,0
49270,-100,4,2,1,5,0,0
49348,-100,4,2,99,70,0,0
49662,-100,4,2,10,60,0,0
49819,-100,4,2,21,60,0,0
49977,-100,4,2,22,60,0,0
50134,-100,4,2,14,60,0,0
50291,-100,4,2,24,60,0,0
50605,-100,4,2,10,64,0,0
50762,-100,4,2,21,64,0,0
50919,-100,4,2,22,64,0,0
51076,-100,4,2,14,64,0,0
51233,-100,4,2,24,64,0,0
51547,-100,4,2,20,68,0,0
51704,-100,4,2,21,68,0,0
51861,-100,4,2,22,68,0,0
52018,-100,4,2,14,68,0,0
52176,-100,4,2,24,68,0,0
52490,-100,4,2,20,72,0,0
52647,-100,4,2,21,72,0,0
52804,-100,4,2,22,72,0,0
52961,-100,4,2,14,72,0,0
53118,-100,4,2,24,72,0,0
54296,-100,4,2,24,5,0,0
54374,-100,4,2,1,70,0,0
56573,-90.9090909090909,4,2,1,64,0,0
57202,-90.9090909090909,4,2,3,64,0,0
57830,-90.9090909090909,4,2,1,64,0,0
58458,-90.9090909090909,4,2,3,64,0,0
59087,-90.9090909090909,4,2,1,70,0,0
60343,-90.9090909090909,4,2,3,70,0,0
61285,-90.9090909090909,4,2,1,64,0,0
61914,-90.9090909090909,4,2,3,64,0,0
62542,-90.9090909090909,4,2,1,64,0,0
63799,-76.9230769230769,4,2,1,64,0,0
64113,-66.6666666666667,4,2,1,85,0,1
64191,-66.6666666666667,4,2,1,82,0,1
64427,-83.3333333333333,4,2,1,82,0,1
65055,-83.3333333333333,4,2,1,82,0,1
65134,-83.3333333333333,4,2,1,82,0,1
66312,-83.3333333333333,4,2,1,88,0,1
66390,-83.3333333333333,4,2,1,88,0,1
66469,-83.3333333333333,4,2,1,88,0,1
66547,-83.3333333333333,4,2,1,88,0,1
66940,-83.3333333333333,4,2,1,88,0,1
67018,-83.3333333333333,4,2,1,88,0,1
67097,-83.3333333333333,4,2,1,88,0,1
67176,-83.3333333333333,4,2,1,88,0,1
67254,-80,4,2,1,82,0,1
67568,-80,4,2,1,82,0,1
67647,-80,4,2,1,82,0,1
67882,-80,4,2,1,86,0,1
67961,-80,4,2,1,86,0,1
68196,-80,4,2,1,90,0,1
68275,-80,4,2,1,90,0,1
68511,-500,4,2,1,94,0,1
68589,-500,4,2,1,70,0,1
68982,-100,4,2,1,62,0,0
70709,-100,4,2,1,70,0,0
75107,-100,4,2,1,76,0,0
75422,-100,4,2,1,72,0,0
75736,-100,4,2,1,68,0,0
76050,-100,4,2,1,64,0,0
76364,-100,4,2,3,80,0,0
76678,-100,4,2,3,78,0,0
76992,-100,4,2,2,86,0,0
77306,-100,4,2,2,84,0,0
77621,-100,4,2,2,70,0,0
77778,-100,4,2,1,70,0,0
79819,-100,4,2,1,5,0,0
79977,-100,4,2,1,70,0,0
80291,-66.6666666666667,4,2,1,85,0,0
80369,-66.6666666666667,4,2,1,70,0,0
80448,-66.6666666666667,4,2,1,85,0,0
80526,-66.6666666666667,4,2,1,70,0,0
80762,-66.6666666666667,4,2,1,76,0,0
82647,-66.6666666666667,4,2,1,85,0,0
86416,-66.6666666666667,4,2,1,72,0,0
87673,-76.9230769230769,4,2,3,90,0,1
89872,-76.9230769230769,4,2,1,90,0,1
90186,-250,4,2,1,78,0,1
90422,-250,4,2,1,5,0,1
90500,-71.4285714285714,4,2,1,90,0,1
90971,-83.3333333333333,4,2,1,90,0,1
93170,-83.3333333333333,4,2,1,90,0,1
93484,-83.3333333333333,4,2,1,90,0,1
93641,-83.3333333333333,4,2,1,90,0,1
94427,-83.3333333333333,4,2,1,90,0,1
94505,-83.3333333333333,4,2,1,90,0,1
94584,-83.3333333333333,4,2,1,90,0,1
94662,-83.3333333333333,4,2,1,90,0,1
94741,-83.3333333333333,4,2,1,90,0,1
94819,-83.3333333333333,4,2,1,90,0,1
95840,-83.3333333333333,4,2,1,90,0,1
97097,-83.3333333333333,4,2,1,90,0,1
97725,-83.3333333333333,4,2,3,90,0,1
99924,-83.3333333333333,4,2,1,90,0,1
100238,-250,4,2,1,78,0,1
100474,-250,4,2,1,5,0,1
100552,-83.3333333333333,4,2,1,90,0,1
101495,-83.3333333333333,4,2,1,90,0,1
102123,-66.6666666666667,4,2,1,90,0,1
102751,-142.857142857143,4,2,1,78,0,1
102987,-142.857142857143,4,2,1,5,0,1
103066,-83.3333333333333,4,2,1,90,0,1
107778,-83.3333333333333,4,2,3,90,0,1
108092,-80,4,2,3,90,0,1
109977,-80,4,2,1,90,0,1
111704,-80,4,2,1,95,0,1
111861,-80,4,2,1,95,0,1
112176,-80,4,2,1,90,0,1
113275,-80,4,2,1,90,0,1
113511,-80,4,2,1,90,0,1
113589,-80,4,2,1,90,0,1
113668,-80,4,2,1,90,0,1
114532,-80,4,2,1,90,0,1
114767,-80,4,2,1,90,0,1
114846,-80,4,2,1,90,0,1
114924,-80,4,2,1,90,0,1
115003,-80,4,3,3,90,0,1
115317,-80,4,2,1,90,0,1
115945,-80,4,2,1,90,0,1
116024,-80,4,2,1,90,0,1
116102,-80,4,2,1,90,0,1
116181,-80,4,2,1,90,0,1
116259,-80,4,2,1,90,0,1
116338,-80,4,2,1,90,0,1
116416,-80,4,2,1,90,0,1
116495,-80,4,2,1,90,0,1
116573,-80,4,2,1,90,0,1
117123,-80,4,2,1,90,0,1
117830,-80,4,2,3,90,0,1
119872,-80,4,2,1,90,0,1
120186,-80,4,2,1,90,0,1
121600,-80,4,2,1,95,0,1
122228,-80,4,2,1,90,0,1
122856,-80,4,2,1,85,0,1
123092,-80,4,2,1,5,0,1
123170,-80,4,2,1,90,0,1
125369,-80,4,2,1,100,0,1
127882,-333.333333333333,4,2,99,82,0,1
128982,-333.333333333333,4,2,1,75,0,1
130552,-333.333333333333,4,2,1,85,0,1
130710,-100,4,2,1,85,0,0
132280,-100,4,2,1,90,0,0
133066,-100,4,2,1,95,0,0
133851,-100,4,2,1,100,0,0
134793,-666.666666666667,4,2,99,85,0,0
139505,-666.666666666667,4,2,1,5,0,0

[Colours]
Combo1 : 184,192,199
Combo2 : 148,204,235
Combo3 : 12,104,180

[HitObjects]
512,184,991,6,0,P|517:134|494:89,1,85,4|2,1:2|0:0,0:0:0:0:
444,42,1305,1,2,0:0:0:0:
362,63,1462,1,2,0:0:0:0:
340,144,1619,1,2,0:0:0:0:
280,84,1776,1,2,0:0:0:0:
422,123,1933,6,0,P|427:173|404:218,1,85,0|2,0:0|0:0,0:0:0:0:
354,265,2247,1,2,0:0:0:0:
272,244,2404,1,2,0:0:0:0:
250,163,2561,1,2,0:0:0:0:
190,223,2718,1,2,0:0:0:0:
332,185,2875,6,0,P|337:135|314:90,1,85,0|2,0:0|0:0,0:0:0:0:
264,43,3189,1,2,0:0:0:0:
182,64,3346,1,2,0:0:0:0:
160,145,3503,1,2,0:0:0:0:
100,85,3660,1,2,0:0:0:0:
242,123,3818,6,0,P|247:173|224:218,1,85,0|2,0:0|0:0,0:0:0:0:
174,265,4132,1,2,0:0:0:0:
92,244,4289,1,2,0:0:0:0:
70,163,4446,1,6,1:2:0:0:
66,133,4524,1,0,0:0:0:0:
74,105,4603,1,0,0:0:0:0:
93,82,4681,1,0,0:0:0:0:
120,70,4760,5,6,0:0:0:0:
184,125,4917,2,0,L|267:111,1,85,0|0,0:0|0:0,0:0:0:0:
334,58,5231,1,0,0:0:0:0:
390,121,5388,2,0,L|404:213,1,85,2|0,0:0|0:0,0:0:0:0:
350,272,5703,1,0,0:0:0:0:
285,216,5860,6,0,P|230:199|152:223,1,127.5,0|0,0:0|0:0,0:0:0:0:
144,238,6174,1,0,0:0:0:0:
141,208,6252,1,0,0:0:0:0:
139,178,6331,1,0,0:0:0:0:
137,148,6409,1,0,0:0:0:0:
135,119,6488,2,0,L|131:50,1,42.5,0|0,0:0|0:0,0:0:0:0:
132,46,6645,5,2,0:0:0:0:
144,238,6802,1,0,0:0:0:0:
152,246,7116,1,0,0:0:0:0:
152,246,7195,1,0,0:0:0:0:
152,246,7273,5,2,0:0:0:0:
178,278,7351,1,0,0:0:0:0:
218,292,7430,2,0,P|272:271|344:279,1,102,0|0,0:0|0:0,0:0:0:0:
334,284,7744,2,0,L|343:189,1,68,0|2,0:0|0:0,0:0:0:0:
348,134,8059,1,0,0:0:0:0:
427,70,8216,6,0,P|365:35|293:48,1,127.5,0|0,1:2|0:0,0:0:0:0:
289,60,8530,1,2,0:0:0:0:
211,26,8687,1,0,0:0:0:0:
220,110,8844,1,0,0:0:0:0:
142,76,9001,1,0,0:0:0:0:
289,60,9158,1,2,0:0:0:0:
154,162,9315,1,0,0:0:0:0:
154,162,9394,1,0,0:0:0:0:
154,162,9472,5,0,0:0:0:0:
135,185,9550,1,0,0:0:0:0:
125,213,9629,1,0,0:0:0:0:
125,242,9707,1,0,0:0:0:0:
138,269,9786,5,2,0:0:0:0:
173,255,9864,1,0,0:0:0:0:
211,248,9943,1,0,0:0:0:0:
249,249,10021,1,0,0:0:0:0:
286,257,10100,1,0,0:0:0:0:
261,356,10258,1,0,0:0:0:0:
219,169,10415,1,2,0:0:0:0:
364,278,10572,6,0,P|420:291|444:197,3,170,0|0|0|0,0:0|0:0|0:0|0:0,0:0:0:0:
381,149,11671,5,6,1:2:0:0:
364,278,11828,1,0,0:0:0:0:
456,120,11985,2,0,P|425:84|371:69,1,85,0|0,1:2|0:0,0:0:0:0:
297,165,12299,2,0,L|393:146,1,85,2|0,0:0|0:0,0:0:0:0:
476,19,12614,1,0,1:2:0:0:
299,49,12771,6,0,P|275:114|313:179,1,127.5,0|0,0:0|0:0,0:0:0:0:
316,186,13085,1,0,0:0:0:0:
329,213,13163,1,0,0:0:0:0:
332,242,13242,1,0,1:2:0:0:
325,271,13320,1,0,0:0:0:0:
308,295,13399,1,0,0:0:0:0:
285,313,13477,1,0,0:0:0:0:
256,321,13556,1,2,0:0:0:0:
188,209,13713,1,0,0:0:0:0:
126,324,13870,5,0,1:2:0:0:
106,301,13948,1,0,0:0:0:0:
93,275,14027,1,0,0:0:0:0:
88,245,14105,1,0,0:0:0:0:
91,216,14184,1,2,1:2:0:0:
106,186,14262,1,0,0:0:0:0:
110,152,14341,1,0,0:0:0:0:
103,119,14419,1,0,0:0:0:0:
78,96,14498,5,2,1:2:0:0:
62,135,14576,1,2,0:0:0:0:
81,173,14655,1,2,0:0:0:0:
120,188,14733,1,2,0:0:0:0:
154,162,14812,1,2,1:2:0:0:
195,157,14890,1,2,0:0:0:0:
234,172,14969,1,2,0:0:0:0:
258,206,15047,1,2,0:0:0:0:
263,248,15127,6,0,L|268:300,1,42.5,6|0,1:2|0:0,0:0:0:0:
445,338,15284,2,0,L|448:295,1,42.5,2|0,1:2|0:0,0:0:0:0:
258,206,15598,6,0,L|262:257,1,42.5,6|0,1:2|0:0,0:0:0:0:
441,380,15763,2,0,L|444:337,1,42.5,2|0,1:2|0:0,0:0:0:0:
253,164,16095,6,0,L|266:309,1,127.5,6|0,1:2|0:0,0:0:0:0:
248,333,16445,2,0,L|204:324,3,42.5,2|0|0|0,0:0|0:0|0:0|0:0,0:0:0:0:
175,310,16817,6,0,L|132:324,1,31.8750012159348,6|0,1:2|0:0,0:0:0:0:
226,169,17029,2,0,L|256:178,1,31.8750012159348,2|0,1:2|0:0,0:0:0:0:
144,320,17413,6,0,L|108:330,1,21.25,6|0,1:2|0:0,0:0:0:0:
256,178,17642,2,0,L|277:184,1,21.25,2|0,1:2|0:0,0:0:0:0:
123,325,18100,6,0,P|87:288|104:207,1,113.899994612274,6|0,1:2|1:2,0:0:0:0:
140,162,18934,1,0,0:0:0:0:
206,214,19228,1,0,0:0:0:0:
285,183,19522,1,0,0:0:0:0:
298,100,19816,5,4,0:0:0:0:
256,192,19898,12,0,21861,0:0:0:0:
207,112,22018,5,0,0:0:0:0:
204,141,22096,1,0,0:0:0:0:
202,171,22175,1,0,0:0:0:0:
200,201,22253,1,0,0:0:0:0:
196,229,22333,6,0,L|191:283,1,42.5,6|0,1:2|0:0,0:0:0:0:
259,336,22490,2,0,L|316:321,3,42.5,2|10|10|0,0:0|0:0|0:0|0:0,0:0:0:0:
196,229,22804,6,0,L|191:283,1,42.5,6|0,1:2|0:0,0:0:0:0:
259,336,22961,2,0,L|316:321,3,42.5,2|10|10|0,0:0|0:0|0:0|0:0,0:0:0:0:
196,229,23275,6,0,L|191:283,1,42.5,6|0,1:2|0:0,0:0:0:0:
331,179,23432,2,0,L|327:136,1,42.5,2|0,1:2|0:0,0:0:0:0:
291,63,23589,5,10,0:0:0:0:
240,83,23667,1,10,0:0:0:0:
203,123,23746,1,10,0:0:0:0:
187,175,23824,1,10,0:0:0:0:
196,229,23903,5,10,0:0:0:0:
181,268,23981,1,10,0:0:0:0:
146,290,24060,1,10,0:0:0:0:
104,287,24138,1,10,0:0:0:0:
73,259,24217,5,8,0:0:0:0:
56,235,24295,1,8,0:0:0:0:
47,207,24374,1,0,1:2:0:0:
47,177,24452,1,0,1:2:0:0:
57,149,24532,5,10,0:0:0:0:
67,135,24610,1,2,0:0:0:0:
74,120,24689,1,2,0:0:0:0:
77,103,24767,1,2,0:0:0:0:
76,89,24846,6,0,L|180:100,1,82.8749962062838,2|0,0:0|0:0,0:0:0:0:
173,76,25160,6,0,L|190:237,1,152.999995330811,14|0,0:0|0:0,0:0:0:0:
195,254,25474,1,2,0:0:0:0:
273,189,25631,1,2,1:2:0:0:
100,219,25788,1,8,0:0:0:0:
291,290,25945,2,0,P|344:265|371:210,1,85,2|0,1:2|0:0,0:0:0:0:
269,146,26259,2,0,L|276:225,1,42.5,2|0,1:2|0:0,0:0:0:0:
366,146,26416,5,8,3:2:0:0:
363,110,26494,1,0,3:2:0:0:
361,74,26573,1,2,1:2:0:0:
359,39,26651,1,0,3:2:0:0:
357,3,26730,2,0,P|303:44|256:41,1,85,2|0,0:2|1:2,0:0:0:0:
196,184,27045,2,0,P|251:148|298:148,1,85,10|0,0:0|0:0,0:0:0:0:
338,182,27280,1,0,0:0:0:0:
338,182,27359,6,0,L|333:288,1,85,2|0,1:2|0:0,0:0:0:0:
186,354,27673,2,0,L|190:269,1,85,10|0,0:0|1:2,0:0:0:0:
315,349,27987,1,2,0:0:0:0:
338,182,28144,1,2,1:2:0:0:
190,269,28301,1,8,0:0:0:0:
333,266,28458,2,0,L|417:263,1,85,2|0,1:2|0:0,0:0:0:0:
508,263,28772,1,0,1:2:0:0:
454,181,28929,1,8,0:0:0:0:
464,328,29087,1,0,1:2:0:0:
369,187,29244,5,2,3:2:0:0:
372,157,29322,1,0,3:2:0:0:
385,131,29401,1,0,1:2:0:0:
407,110,29479,1,0,3:2:0:0:
434,99,29558,2,0,P|384:93|340:58,1,85,10|0,3:2|3:2,0:0:0:0:
315,10,29793,1,0,3:2:0:0:
315,10,29872,6,0,P|319:67|291:115,1,85,2|0,1:2|0:0,0:0:0:0:
162,153,30186,2,0,P|209:121|264:121,1,85,10|0,0:0|1:2,0:0:0:0:
209,246,30500,1,2,0:0:0:0:
69,149,30657,1,2,1:2:0:0:
235,117,30814,1,8,0:0:0:0:
125,299,30971,2,0,P|109:249|118:211,1,85,2|0,1:2|0:0,0:0:0:0:
235,117,31285,1,2,1:2:0:0:
375,205,31443,5,8,3:2:0:0:
387,231,31521,1,0,3:2:0:0:
390,261,31600,1,0,1:2:0:0:
385,290,31678,1,0,3:2:0:0:
371,316,31757,2,0,L|273:331,1,85,2|0,1:2|1:2,0:0:0:0:
174,212,32071,2,0,L|258:224,1,85,10|0,0:0|0:0,0:0:0:0:
364,130,32385,6,0,P|386:53|370:21,1,85,2|0,1:2|0:0,0:0:0:0:
230,37,32699,2,0,L|330:83,1,85,10|0,0:0|1:2,0:0:0:0:
448,145,33013,1,2,0:0:0:0:
329,0,33170,1,2,1:2:0:0:
361,219,33327,1,8,0:0:0:0:
500,50,33484,2,0,P|443:39|396:55,1,85,2|0,1:2|0:0,0:0:0:0:
311,134,33799,5,2,1:2:0:0:
283,165,33877,1,0,0:0:0:0:
245,185,33956,1,8,0:0:0:0:
203,188,34034,1,0,0:0:0:0:
163,175,34113,1,0,1:2:0:0:
131,148,34191,1,0,0:2:0:0:
111,111,34270,5,2,3:2:0:0:
107,166,34348,1,0,3:2:0:0:
104,221,34427,1,0,3:2:0:0:
100,276,34505,1,2,3:2:0:0:
96,331,34584,1,8,3:2:0:0:
142,301,34662,1,0,3:2:0:0:
196,291,34741,1,2,3:2:0:0:
250,301,34819,1,0,3:2:0:0:
296,331,34898,6,0,P|375:272|451:315,1,178.499994552612,2|0,0:0|0:0,0:0:0:0:
376,348,35212,6,0,L|385:210,1,101.999996887207,6|0,1:2|0:0,0:0:0:0:
389,144,35526,1,2,1:2:0:0:
466,303,35683,1,2,0:0:0:0:
480,99,35840,1,0,1:2:0:0:
382,246,35998,1,2,0:0:0:0:
305,87,36155,6,0,P|247:59|198:67,1,101.999996887207,0|2,1:2|0:0,0:0:0:0:
169,228,36469,2,0,P|222:191|239:145,1,101.999996887207,0|0,1:2|0:0,0:0:0:0:
211,62,36783,1,2,1:2:0:0:
334,184,36940,1,0,0:0:0:0:
154,133,37097,5,2,1:2:0:0:
131,105,37175,1,2,0:0:0:0:
122,71,37254,1,2,0:0:0:0:
126,36,37332,1,2,0:0:0:0:
144,5,37411,2,0,P|89:35|34:35,1,101.999996887207,2|0,1:2|0:0,0:0:0:0:
0,0,37647,1,0,0:0:0:0:
0,0,37725,6,0,L|-3:122,1,101.999996887207,2|0,1:2|0:0,0:0:0:0:
54,186,38039,1,2,1:2:0:0:
126,36,38196,1,2,0:0:0:0:
0,104,38354,1,0,1:2:0:0:
149,174,38511,2,0,P|192:217|206:280,1,101.999996887207,2|0,1:2|0:0,0:0:0:0:
156,344,38825,5,2,1:2:0:0:
183,301,38903,1,0,0:0:0:0:
227,276,38982,1,2,1:2:0:0:
277,273,39060,1,0,0:0:0:0:
320,300,39139,1,0,1:2:0:0:
368,314,39217,1,0,0:0:0:0:
414,291,39296,5,2,1:2:0:0:
268,370,39453,1,0,1:2:0:0:
268,370,39531,1,0,0:0:0:0:
268,370,39610,5,2,1:2:0:0:
360,223,39767,1,0,1:2:0:0:
360,223,39845,1,0,1:2:0:0:
360,223,39924,5,6,1:2:0:0:
190,258,40081,1,0,1:2:0:0:
321,99,40238,1,2,1:2:0:0:
321,99,40317,1,2,0:0:0:0:
321,99,40395,1,2,1:2:0:0:
140,133,40552,1,0,1:2:0:0:
295,249,40710,1,2,1:2:0:0:
125,301,40867,1,0,1:2:0:0:
125,301,40945,1,0,0:0:0:0:
125,301,41024,6,0,P|112:239|206:276,1,203.999993774414,2|0,1:2|3:2,0:0:0:0:
214,296,41416,1,0,3:2:0:0:
257,323,41494,1,2,3:2:0:0:
307,326,41573,1,2,3:2:0:0:
352,302,41651,1,2,3:2:0:0:
378,260,41730,1,2,3:2:0:0:
367,209,41809,5,0,3:2:0:0:
327,178,41887,1,0,3:2:0:0:
323,128,41966,1,0,3:2:0:0:
354,90,42044,1,0,3:2:0:0:
405,84,42123,5,8,3:2:0:0:
367,118,42201,1,8,3:2:0:0:
320,96,42280,1,8,3:2:0:0:
285,59,42358,1,8,3:2:0:0:
252,19,42437,6,0,P|254:51|242:85,1,50.9999984436036,6|0,1:2|0:0,0:0:0:0:
141,177,42594,2,0,P|139:145|151:111,1,50.9999984436036,2|0,1:2|0:0,0:0:0:0:
295,17,42909,6,0,P|285:47|263:75,1,50.9999984436036,6|0,1:2|0:0,0:0:0:0:
98,179,43067,2,0,P|107:148|129:120,1,50.9999984436036,2|0,1:2|0:0,0:0:0:0:
336,29,43380,6,0,P|316:54|285:73,1,50.9999984436036,6|0,1:2|0:0,0:0:0:0:
56,166,43537,2,0,P|75:140|106:121,1,50.9999984436036,2|0,1:2|0:0,0:0:0:0:
370,54,43851,5,2,3:2:0:0:
339,94,43929,1,0,3:2:0:0:
297,123,44008,1,0,3:2:0:0:
249,136,44087,1,0,3:2:0:0:
287,169,44165,1,0,3:2:0:0:
306,216,44244,1,0,3:2:0:0:
302,266,44322,6,0,B|294:321|236:355|236:355|212:295,1,152.999995330811,6|0,1:2|0:0,0:0:0:0:
204,243,44558,6,0,B|130:222|97:241|97:241|125:243|153:272,1,152.999995330811,6|0,1:2|0:0,0:0:0:0:
29,202,44793,6,0,P|27:275|87:319,1,152.999995330811,6|8,1:2|0:0,0:0:0:0:
177,76,45265,5,4,1:2:0:0:
256,192,45343,12,0,46992,0:0:0:0:
256,192,47149,5,0,1:2:0:0:
256,192,47228,12,0,48249,0:0:0:0:
297,233,48406,6,0,P|253:138|216:233,1,255.000009727478,0|0,1:2|1:2,0:0:0:0:
256,64,49348,5,4,1:2:0:0:
256,192,49427,12,0,53118,0:0:0:0:
202,132,54374,6,0,L|194:192,1,42.5,6|0,1:2|0:0,0:0:0:0:
302,266,54532,2,0,L|310:206,1,42.5,2|0,1:2|0:0,0:0:0:0:
168,106,54846,6,0,L|181:165,1,42.5,6|0,1:2|0:0,0:0:0:0:
336,292,55004,2,0,L|322:232,1,42.5,2|0,1:2|0:0,0:0:0:0:
127,93,55317,6,0,L|159:144,1,42.5,6|0,1:2|0:0,0:0:0:0:
376,304,55474,2,0,L|343:252,1,42.5,2|0,1:2|0:0,0:0:0:0:
296,174,55631,5,0,0:0:0:0:
252,305,55788,1,0,0:0:0:0:
392,178,55945,1,0,1:2:0:0:
209,218,56102,1,0,1:2:0:0:
376,304,56259,1,8,0:0:0:0:
281,139,56416,1,0,1:2:0:0:
281,139,56495,1,0,0:0:0:0:
281,139,56573,6,0,P|205:110|114:162,1,187.000005706787,6|8,1:2|0:0,0:0:0:0:
82,244,57045,1,0,1:2:0:0:
27,128,57202,6,0,L|4:76,3,46.7500014266968,2|0|0|2,3:2|3:2|3:2|3:2,0:0:0:0:
49,99,57516,6,0,L|76:158,2,62.3333352355958,8|0|0,3:2|0:0|0:0,0:0:0:0:
53,64,57830,6,0,P|90:28|201:43,2,140.25000428009,2|2|2,1:2|1:2|1:2,0:0:0:0:
26,175,58458,5,0,3:2:0:0:
25,221,58536,1,0,3:2:0:0:
47,262,58615,1,0,3:0:0:0:
85,288,58693,1,0,3:0:0:0:
131,293,58772,5,0,3:2:0:0:
165,279,58850,1,0,3:2:0:0:
202,271,58929,1,0,3:2:0:0:
239,272,59007,1,0,3:2:0:0:
275,280,59087,6,0,P|309:291|329:310,1,46.7500014266968,6|0,1:2|0:0,0:0:0:0:
420,207,59244,2,0,P|400:219|377:224,1,46.7500014266968,2|0,1:2|0:0,0:0:0:0:
272,301,59558,6,0,P|300:322|312:347,1,46.7500014266968,6|0,1:2|0:0,0:0:0:0:
408,172,59715,2,0,P|393:190|374:203,1,46.7500014266968,2|0,1:2|0:0,0:0:0:0:
261,319,60029,6,0,P|279:349|283:376,1,46.7500014266968,6|0,1:2|0:0,0:0:0:0:
408,135,60186,2,0,P|388:147|365:152,1,46.7500014266968,2|0,1:2|0:0,0:0:0:0:
267,110,60343,5,2,0:0:0:0:
344,237,60500,1,0,0:0:0:0:
348,50,60657,1,2,0:0:0:0:
226,197,60814,1,0,0:0:0:0:
408,135,60971,1,0,3:2:0:0:
236,30,61128,1,0,3:0:0:0:
236,30,61207,1,0,3:0:0:0:
236,30,61285,6,0,P|182:22|132:140,1,187.000005706787,6|8,1:2|0:0,0:0:0:0:
226,197,61757,1,0,1:2:0:0:
126,274,61914,6,0,P|95:299|76:340,3,46.7500014266968,2|0|0|2,3:2|3:2|3:2|3:2,0:0:0:0:
66,331,62228,6,0,P|67:273|58:245,2,62.3333352355958,8|0|0,3:2|0:0|0:0,0:0:0:0:
46,365,62542,6,0,P|24:283|38:213,2,140.25000428009,2|2|2,1:2|1:2|1:2,0:0:0:0:
147,379,63170,5,0,1:2:0:0:
193,381,63248,1,0,1:2:0:0:
235,362,63327,1,0,1:2:0:0:
263,325,63405,1,0,1:2:0:0:
270,279,63484,5,8,1:2:0:0:
248,229,63562,1,8,0:0:0:0:
265,177,63641,1,8,0:0:0:0:
312,149,63719,1,8,1:2:0:0:
366,159,63799,6,0,L|391:255,3,55.2499974708558,2|2|2|2,1:2|1:2|1:2|1:2,0:0:0:0:
390,243,64113,6,0,P|416:168|469:272,1,255.000009727478,6|0,1:2|1:2,0:0:0:0:
419,341,64584,1,2,0:0:0:0:
305,249,64741,2,0,L|203:262,1,101.999996887207,2|2,1:2|0:0,0:0:0:0:
335,162,65055,2,0,L|121:188,1,203.999993774414,2|0,1:2|1:2,0:0:0:0:
10,118,65526,6,0,P|14:52|117:76,1,152.999995330811,2|0,0:0|0:0,0:0:0:0:
115,36,65840,2,0,P|99:72|97:89,2,33.9999989624024,2|0|0,0:0|0:0|0:0,0:0:0:0:
132,59,65998,1,2,1:2:0:0:
157,226,66155,1,2,0:0:0:0:
132,59,66312,5,6,1:2:0:0:
163,270,66469,1,2,1:2:0:0:
290,121,66626,1,0,0:0:0:0:
326,103,66704,1,0,0:0:0:0:
366,103,66783,1,0,0:0:0:0:
402,122,66861,1,0,0:0:0:0:
424,156,66940,5,6,1:2:0:0:
439,369,67097,1,2,1:2:0:0:
289,246,67254,6,0,L|222:234,2,35.4166666666667,0|0|0,0:0|0:0|0:0,0:0:0:0:
318,266,67411,2,0,L|385:254,2,35.4166666666667,0|0|0,0:0|0:0|0:0,0:0:0:0:
289,287,67568,5,6,1:2:0:0:
253,324,67646,1,0,0:0:0:0:
201,326,67725,1,0,1:0:0:0:
164,290,67803,1,0,0:0:0:0:
163,238,67882,5,6,1:2:0:0:
193,188,67960,1,0,0:0:0:0:
173,132,68039,1,0,1:0:0:0:
118,111,68117,1,0,0:0:0:0:
60,138,68196,5,6,1:2:0:0:
106,181,68274,1,0,0:0:0:0:
167,200,68353,1,0,1:0:0:0:
226,179,68431,1,0,0:0:0:0:
269,134,68511,6,0,P|287:116|314:104,1,51,6|0,1:2|0:0,0:0:0:0:
381,131,69139,5,0,0:0:0:0:
430,210,69296,1,0,0:0:0:0:
386,291,69453,1,0,0:0:0:0:
398,122,70081,5,2,1:2:0:0:
454,212,70238,1,2,0:0:0:0:
404,304,70395,2,0,P|355:327|239:270,1,170,2|0,0:0|0:0,0:0:0:0:
167,206,70867,1,2,0:0:0:0:
149,295,71024,1,2,0:0:0:0:
87,236,71181,1,2,0:0:0:0:
253,188,71338,5,6,1:2:0:0:
149,295,71495,1,0,1:2:0:0:
108,153,71652,1,0,1:2:0:0:
232,271,71809,1,0,1:2:0:0:
274,105,71966,1,0,1:2:0:0:
167,206,72123,1,0,1:2:0:0:
129,70,72280,5,2,0:0:0:0:
95,68,72358,1,2,0:0:0:0:
63,80,72437,1,2,0:0:0:0:
39,104,72515,1,2,0:0:0:0:
26,135,72594,5,2,1:2:0:0:
68,321,72751,1,0,1:2:0:0:
108,153,72909,1,0,1:2:0:0:
5,261,73065,1,0,1:2:0:0:
167,206,73222,1,0,1:2:0:0:
130,380,73380,1,0,1:2:0:0:
108,153,73537,5,2,0:0:0:0:
135,133,73615,1,0,0:0:0:0:
168,126,73694,1,2,0:0:0:0:
201,132,73772,1,0,0:0:0:0:
230,151,73851,5,2,1:2:0:0:
259,316,74008,1,0,1:2:0:0:
167,206,74165,1,0,1:2:0:0:
325,262,74322,1,0,1:2:0:0:
325,262,74401,1,0,0:0:0:0:
325,262,74479,5,0,1:2:0:0:
180,288,74636,1,0,1:2:0:0:
311,180,74793,1,2,0:0:0:0:
196,370,74950,1,2,0:0:0:0:
196,370,75029,1,0,0:0:0:0:
196,370,75107,5,2,1:2:0:0:
154,367,75185,1,2,1:2:0:0:
118,345,75264,1,2,1:2:0:0:
97,308,75342,1,2,1:2:0:0:
97,266,75421,1,2,1:2:0:0:
121,231,75500,1,2,1:2:0:0:
129,190,75579,1,2,1:2:0:0:
119,149,75657,1,2,1:2:0:0:
94,115,75736,5,0,1:2:0:0:
64,144,75814,1,0,1:2:0:0:
53,185,75893,1,0,1:2:0:0:
63,225,75971,1,0,1:2:0:0:
93,255,76050,1,0,1:2:0:0:
133,266,76128,1,0,1:2:0:0:
174,254,76207,1,0,1:2:0:0:
203,224,76285,1,0,1:2:0:0:
215,183,76364,5,0,3:2:0:0:
252,149,76442,1,0,3:2:0:0:
301,140,76521,1,0,3:2:0:0:
348,159,76599,1,0,3:2:0:0:
378,199,76678,1,0,3:2:0:0:
364,248,76756,1,0,3:2:0:0:
373,297,76835,1,0,3:2:0:0:
413,326,76913,1,0,3:2:0:0:
462,312,76992,5,2,0:0:0:0:
476,296,77070,1,2,0:0:0:0:
484,276,77149,1,2,0:0:0:0:
485,255,77227,1,2,0:0:0:0:
478,235,77306,1,0,0:0:0:0:
472,215,77385,1,0,0:0:0:0:
464,195,77464,1,0,0:0:0:0:
463,174,77542,1,0,0:0:0:0:
470,154,77621,5,4,1:2:0:0:
259,250,79977,6,0,L|248:111,1,127.5,2|0,1:2|0:0,0:0:0:0:
245,94,80291,5,6,1:2:0:0:
262,278,80448,1,6,1:2:0:0:
256,192,80526,12,0,82333,0:0:0:0:
258,292,82647,6,0,B|239:206|267:135|267:135|284:172,2,191.250007295609,6|0|0,1:2|1:2|1:2,0:0:0:0:
353,106,83275,2,0,P|286:53|172:124,2,191.250007295609,2|0|0,1:2|1:2|1:2,0:0:0:0:
407,222,83903,2,0,B|410:250|438:282|438:282|487:210|448:151,2,191.250007295609,2|0|0,1:2|1:2|1:2,0:0:0:0:
353,106,84532,5,2,1:2:0:0:
279,210,84689,1,2,1:2:0:0:
247,248,84767,1,2,1:2:0:0:
198,255,84846,1,0,1:2:0:0:
158,226,84924,1,2,1:2:0:0:
149,177,85003,1,2,1:2:0:0:
176,135,85081,1,0,1:2:0:0:
224,124,85160,6,0,B|299:128|299:128|413:196,2,191.250007295609,6|0|0,1:2|1:2|1:2,0:0:0:0:
78,228,85788,2,0,P|65:315|144:308,2,191.250007295609,2|0|0,1:2|1:2|1:2,0:0:0:0:
224,124,86416,5,2,0:0:0:0:
321,306,86573,1,2,0:0:0:0:
321,306,86652,1,0,0:0:0:0:
321,306,86730,1,2,0:0:0:0:
321,306,87045,5,2,1:2:0:0:
381,119,87202,1,2,1:2:0:0:
381,119,87280,1,2,1:2:0:0:
381,119,87359,1,2,1:2:0:0:
226,213,87516,1,2,0:0:0:0:
445,176,87673,5,6,1:2:0:0:
464,137,87751,1,0,0:0:0:0:
464,93,87830,1,0,0:0:0:0:
443,54,87908,1,2,0:0:0:0:
406,30,87987,1,2,0:0:0:0:
445,176,88144,5,2,1:2:0:0:
464,137,88222,1,0,0:0:0:0:
464,93,88301,1,0,0:0:0:0:
443,54,88379,1,2,0:0:0:0:
406,30,88458,1,2,0:0:0:0:
445,176,88615,5,2,1:2:0:0:
464,137,88693,1,0,0:0:0:0:
464,93,88772,1,0,0:0:0:0:
443,54,88850,1,2,0:0:0:0:
406,30,88929,1,2,0:0:0:0:
445,176,89087,5,2,1:2:0:0:
464,137,89165,1,0,0:0:0:0:
464,93,89244,1,0,0:0:0:0:
443,54,89322,1,2,0:0:0:0:
406,30,89401,1,2,0:0:0:0:
445,176,89558,5,2,1:2:0:0:
464,137,89636,1,0,0:0:0:0:
464,93,89715,1,0,0:0:0:0:
443,54,89793,1,0,0:0:0:0:
406,30,89872,5,2,1:2:0:0:
374,60,89950,1,2,0:0:0:0:
333,77,90029,1,2,0:0:0:0:
289,80,90107,1,2,0:0:0:0:
247,67,90186,6,0,P|206:50|186:52,1,51,2|0,0:0|0:0,0:0:0:0:
163,54,90500,5,4,1:2:0:0:
89,184,90657,2,0,P|77:247|171:215,1,178.499994552612,8|0,0:0|0:0,0:0:0:0:
178,217,90971,5,0,1:2:0:0:
219,188,91049,1,0,1:0:0:0:
269,190,91128,1,8,1:2:0:0:
301,228,91207,1,0,1:0:0:0:
351,232,91286,1,0,1:2:0:0:
389,200,91364,1,0,1:0:0:0:
394,151,91443,6,0,L|383:89,3,50.9999984436036,0|0|2|2,1:2|0:0|0:0|0:0,0:0:0:0:
350,123,91757,2,0,L|318:68,3,50.9999984436036,10|0|2|0,0:0|0:0|0:0|0:0,0:0:0:0:
299,111,92071,5,2,1:2:0:0:
257,83,92149,1,0,1:0:0:0:
208,91,92228,1,0,1:2:0:0:
178,130,92306,1,0,1:0:0:0:
183,180,92385,1,8,1:2:0:0:
213,219,92463,1,0,1:0:0:0:
215,271,92542,1,0,1:2:0:0:
171,297,92620,1,0,1:0:0:0:
122,290,92699,5,6,1:2:0:0:
79,263,92777,1,2,0:0:0:0:
67,215,92856,1,2,0:0:0:0:
91,172,92934,1,2,0:0:0:0:
138,157,93013,1,10,0:0:0:0:
183,179,93091,1,2,0:0:0:0:
232,193,93170,6,0,P|261:201|293:193,1,50.9999984436036,2|0,1:2|0:0,0:0:0:0:
376,133,93327,2,0,P|347:125|315:133,1,50.9999984436036,2|0,0:0|0:0,0:0:0:0:
264,218,93484,2,0,P|293:215|321:197,1,50.9999984436036,2|0,1:2|0:0,0:0:0:0:
340,102,93641,5,10,1:2:0:0:
371,86,93719,1,0,1:0:0:0:
406,90,93798,1,0,1:0:0:0:
435,111,93876,1,0,1:0:0:0:
448,143,93956,5,2,1:2:0:0:
441,193,94034,1,2,0:0:0:0:
403,225,94113,1,2,0:0:0:0:
353,225,94191,1,2,0:0:0:0:
315,193,94270,1,10,0:0:0:0:
308,143,94348,1,2,0:0:0:0:
340,102,94427,6,0,P|359:75|367:42,1,50.9999984436036,2|0,1:2|0:0,0:0:0:0:
234,104,94584,2,0,P|215:131|207:164,1,50.9999984436036,2|0,0:0|0:0,0:0:0:0:
365,94,94741,2,0,P|384:67|392:34,1,50.9999984436036,2|0,1:2|0:0,0:0:0:0:
194,127,94898,5,10,0:0:0:0:
175,157,94976,1,0,1:0:0:0:
165,191,95055,1,0,1:2:0:0:
163,227,95133,1,0,1:0:0:0:
170,262,95212,5,2,1:2:0:0:
209,230,95290,1,0,1:0:0:0:
259,228,95369,1,0,1:2:0:0:
301,256,95447,1,0,1:0:0:0:
318,303,95526,1,2,1:2:0:0:
353,338,95604,1,0,1:0:0:0:
403,339,95683,1,0,1:2:0:0:
439,305,95761,1,0,1:0:0:0:
442,255,95840,6,0,P|438:236|419:191,1,50.9999984436036,2|0,1:2|0:0,0:0:0:0:
336,117,95998,2,0,P|340:136|359:181,1,50.9999984436036,2|0,1:2|0:0,0:0:0:0:
468,263,96155,2,0,P|463:243|444:198,1,50.9999984436036,2|0,1:2|0:0,0:0:0:0:
310,109,96313,2,0,P|314:128|333:173,1,50.9999984436036,2|0,1:2|0:0,0:0:0:0:
465,63,96469,5,2,1:2:0:0:
436,21,96547,1,0,1:2:0:0:
392,0,96626,1,2,1:2:0:0:
341,0,96704,1,0,1:2:0:0:
297,22,96783,5,10,1:2:0:0:
256,51,96861,1,8,1:2:0:0:
207,65,96940,1,10,1:2:0:0:
157,60,97018,1,8,1:2:0:0:
111,38,97097,6,0,P|126:103|114:145,1,101.999996887207,2|2,0:0|0:0,0:0:0:0:
91,168,97306,2,0,L|123:182,1,33.9999989624024,0|0,0:0|0:0,0:0:0:0:
68,196,97411,2,0,P|46:255|60:322,1,101.999996887207,10|10,0:0|0:0,0:0:0:0:
160,357,97725,5,6,1:2:0:0:
200,353,97803,1,0,0:0:0:0:
241,349,97882,1,0,0:0:0:0:
281,346,97960,1,2,0:0:0:0:
322,342,98039,1,10,0:0:0:0:
160,357,98196,5,2,1:2:0:0:
200,353,98274,1,0,0:0:0:0:
241,349,98353,1,0,0:0:0:0:
281,346,98431,1,2,0:0:0:0:
322,342,98510,1,10,1:2:0:0:
160,357,98668,5,2,1:2:0:0:
200,353,98746,1,0,0:0:0:0:
241,349,98825,1,0,0:0:0:0:
281,346,98903,1,2,0:0:0:0:
322,342,98982,1,10,0:0:0:0:
160,357,99139,5,2,1:2:0:0:
200,353,99217,1,0,0:0:0:0:
241,349,99296,1,0,0:0:0:0:
281,346,99374,1,2,0:0:0:0:
322,342,99453,1,10,0:0:0:0:
160,357,99610,5,2,1:2:0:0:
200,353,99688,1,0,0:0:0:0:
241,349,99767,1,0,0:0:0:0:
281,346,99845,1,0,0:0:0:0:
322,342,99924,5,2,1:2:0:0:
349,312,100002,1,2,0:0:0:0:
362,273,100081,1,2,0:0:0:0:
348,234,100159,1,2,0:0:0:0:
323,195,100238,6,0,P|318:156|325:131,1,51,0|0,0:0|0:0,0:0:0:0:
332,102,100552,5,6,1:2:0:0:
214,40,100710,2,0,P|163:37|110:127,1,152.999995330811,8|0,0:0|0:0,0:0:0:0:
134,144,101024,5,2,1:2:0:0:
161,184,101102,1,2,0:0:0:0:
151,233,101181,1,10,0:0:0:0:
108,258,101259,1,2,0:0:0:0:
61,243,101338,1,2,0:0:0:0:
39,199,101416,1,2,0:0:0:0:
45,158,101495,5,2,1:2:0:0:
305,104,101704,1,2,1:2:0:0:
191,351,101914,1,2,1:2:0:0:
92,55,102123,5,2,1:2:0:0:
377,218,102332,1,2,1:2:0:0:
82,353,102542,1,2,1:2:0:0:
219,94,102751,6,0,P|262:90|312:109,1,89.2499972763062,2|0,0:0|0:0,0:0:0:0:
345,125,103066,5,6,1:2:0:0:
370,168,103144,1,0,1:0:0:0:
377,218,103223,1,2,1:2:0:0:
365,267,103301,1,0,1:0:0:0:
334,308,103380,6,0,P|315:340|309:381,1,50.9999984436036,2|0,1:2|0:0,0:0:0:0:
225,254,103537,2,0,P|244:285|250:326,1,50.9999984436036,2|0,1:2|0:0,0:0:0:0:
350,330,103694,2,0,P|330:361|324:402,1,50.9999984436036,2|0,1:2|0:0,0:0:0:0:
209,275,103851,2,0,P|228:306|234:347,1,50.9999984436036,0|0,1:0|0:0,0:0:0:0:
302,197,104008,6,0,P|278:153|204:125,1,101.999996887207,0|0,1:2|1:2,0:0:0:0:
164,165,104244,1,0,0:0:0:0:
164,165,104322,2,0,L|149:220,1,50.9999984436036,0|0,1:2|0:0,0:0:0:0:
234,127,104479,6,0,L|220:77,1,50.9999984436036,2|0,1:2|0:0,0:0:0:0:
148,18,104636,2,0,L|134:67,1,50.9999984436036,2|0,1:2|0:0,0:0:0:0:
262,146,104793,2,0,L|248:96,1,50.9999984436036,2|0,1:2|0:0,0:0:0:0:
120,37,104950,5,2,1:2:0:0:
108,76,105028,1,2,0:0:0:0:
96,115,105107,1,2,1:2:0:0:
85,154,105185,1,2,0:0:0:0:
73,193,105265,5,2,1:2:0:0:
30,287,105423,1,0,1:2:0:0:
176,184,105579,1,0,1:2:0:0:
14,109,105736,1,0,1:2:0:0:
133,278,105893,1,0,1:2:0:0:
220,91,106050,1,0,1:2:0:0:
73,193,106207,1,0,1:2:0:0:
280,176,106364,1,2,1:2:0:0:
280,176,106443,1,2,1:2:0:0:
280,176,106521,5,10,1:2:0:0:
327,159,106599,1,2,1:2:0:0:
377,170,106678,1,2,1:2:0:0:
415,203,106756,1,10,1:2:0:0:
422,253,106835,1,2,1:2:0:0:
379,225,106913,1,2,1:2:0:0:
377,170,106992,1,10,1:2:0:0:
407,129,107070,1,2,1:2:0:0:
444,93,107149,6,0,P|382:99|330:78,1,101.999996887207,2|2,0:0|0:0,0:0:0:0:
316,67,107359,2,0,L|296:99,1,33.9999989624024,0|0,0:0|0:0,0:0:0:0:
286,39,107463,2,0,P|228:21|168:30,1,101.999996887207,10|2,0:0|0:0,0:0:0:0:
122,102,107778,5,6,1:2:0:0:
96,133,107856,1,0,0:0:0:0:
82,171,107935,1,0,0:0:0:0:
80,212,108013,1,2,0:0:0:0:
92,251,108092,2,0,P|115:279|149:294,1,53.125,10|0,0:0|0:0,0:0:0:0:
122,102,108249,5,2,1:2:0:0:
96,133,108327,1,0,0:0:0:0:
82,171,108406,1,0,0:0:0:0:
80,212,108484,1,2,0:0:0:0:
92,251,108563,2,0,P|115:279|149:294,1,53.125,10|0,1:2|0:0,0:0:0:0:
122,102,108720,5,2,1:2:0:0:
96,133,108798,1,0,0:0:0:0:
82,171,108877,1,0,0:0:0:0:
80,212,108955,1,2,0:0:0:0:
92,251,109034,2,0,P|115:279|149:294,1,53.125,10|0,0:0|0:0,0:0:0:0:
122,102,109191,5,2,1:2:0:0:
96,133,109269,1,0,0:0:0:0:
82,171,109348,1,0,0:0:0:0:
80,212,109426,1,2,0:0:0:0:
92,251,109505,2,0,P|115:279|149:294,1,53.125,10|0,1:2|0:0,0:0:0:0:
122,102,109662,5,2,1:2:0:0:
96,133,109740,1,0,1:0:0:0:
82,171,109819,1,0,1:0:0:0:
80,212,109897,1,0,1:0:0:0:
92,251,109977,5,2,1:2:0:0:
139,227,110055,1,2,0:0:0:0:
191,230,110134,1,2,0:2:0:0:
235,258,110212,1,2,0:2:0:0:
260,305,110291,6,0,P|275:340|278:377,1,53.125,2|0,0:2|0:0,0:0:0:0:
362,247,110448,2,0,P|347:281|344:318,1,53.125,2|0,0:0|0:0,0:0:0:0:
284,180,110605,1,2,1:2:0:0:
284,180,110683,1,2,0:0:0:0:
284,180,110762,6,0,P|336:145|450:189,1,159.375,10|0,0:0|0:0,0:0:0:0:
455,194,111076,1,2,1:2:0:0:
455,194,111155,1,2,0:0:0:0:
455,194,111233,5,10,0:0:0:0:
418,156,111311,1,2,0:0:0:0:
415,104,111390,1,2,1:2:0:0:
446,62,111468,1,2,0:0:0:0:
497,50,111547,5,0,1:2:0:0:
473,97,111625,1,0,1:0:0:0:
415,104,111704,1,2,1:2:0:0:
368,78,111782,1,2,1:2:0:0:
322,49,111861,1,2,1:2:0:0:
269,47,111939,1,2,1:2:0:0:
221,72,112018,1,2,1:2:0:0:
181,107,112096,1,2,1:2:0:0:
168,159,112176,6,0,L|187:215,3,53.125,2|0|0|0,1:2|1:0|1:2|1:0,0:0:0:0:
225,195,112490,2,0,L|260:240,3,53.125,2|0|0|0,1:2|1:2|1:2|1:2,0:0:0:0:
269,191,112804,5,6,1:2:0:0:
307,155,112882,1,2,0:0:0:0:
359,154,112961,1,2,0:0:0:0:
398,187,113039,1,2,0:0:0:0:
406,238,113118,1,10,1:2:0:0:
378,282,113196,1,2,0:0:0:0:
329,297,113275,6,0,P|300:302|264:327,1,53.125,2|0,0:0|0:0,0:0:0:0:
381,367,113432,2,0,P|409:361|445:336,1,53.125,2|0,1:2|0:0,0:0:0:0:
303,276,113589,2,0,P|274:281|238:306,1,53.125,2|0,0:0|0:0,0:0:0:0:
425,383,113746,5,10,1:2:0:0:
466,374,113824,1,0,1:0:0:0:
496,345,113903,1,0,1:0:0:0:
508,305,113981,1,0,1:0:0:0:
497,265,114060,5,2,1:2:0:0:
451,239,114138,1,2,0:0:0:0:
432,191,114217,1,2,0:0:0:0:
447,141,114295,1,2,0:0:0:0:
499,129,114374,1,10,1:2:0:0:
482,179,114452,1,2,0:0:0:0:
432,191,114532,6,0,P|393:178|366:155,1,53.125,2|0,0:0|0:0,0:0:0:0:
271,33,114689,2,0,P|310:46|337:69,1,53.125,2|0,1:2|0:0,0:0:0:0:
414,211,114846,2,0,P|375:198|348:175,1,53.125,2|0,0:0|0:0,0:0:0:0:
267,4,115003,5,10,1:2:0:0:
225,6,115081,1,0,0:0:0:0:
190,30,115160,1,0,1:2:0:0:
171,67,115238,1,0,0:0:0:0:
173,109,115317,5,2,1:2:0:0:
202,153,115395,1,0,1:0:0:0:
213,205,115474,1,0,1:2:0:0:
204,257,115552,1,0,1:0:0:0:
176,302,115631,1,2,1:2:0:0:
137,267,115709,1,0,1:0:0:0:
129,215,115788,1,0,1:2:0:0:
152,168,115866,1,0,1:0:0:0:
202,153,115945,5,2,1:2:0:0:
254,157,116023,1,0,1:0:0:0:
294,190,116102,1,2,1:2:0:0:
333,223,116180,1,0,1:0:0:0:
387,219,116259,1,2,1:2:0:0:
431,191,116337,1,0,1:0:0:0:
448,142,116416,1,2,1:2:0:0:
431,93,116494,1,0,1:0:0:0:
387,65,116573,6,0,P|364:55|317:51,1,53.125,2|0,1:2|1:2,0:0:0:0:
218,111,116730,2,0,P|243:113|289:100,1,53.125,2|0,1:2|1:2,0:0:0:0:
342,12,116888,2,0,P|316:18|278:46,1,53.125,2|0,1:2|1:2,0:0:0:0:
254,157,117045,2,0,P|275:141|302:103,1,53.125,2|0,1:2|1:2,0:0:0:0:
186,30,117202,6,0,P|142:70|140:157,1,106.25,2|2,0:0|0:0,0:0:0:0:
147,152,117411,2,0,L|115:185,1,35.4166666666667,0|0,0:0|0:0,0:0:0:0:
173,184,117516,2,0,P|197:239|177:301,1,106.25,10|10,0:0|0:0,0:0:0:0:
105,349,117830,5,6,1:2:0:0:
143,330,117908,1,0,0:0:0:0:
184,321,117987,1,0,0:0:0:0:
227,321,118065,1,2,1:2:0:0:
268,330,118144,2,0,P|306:343|324:361,1,53.125,10|0,1:2|0:0,0:0:0:0:
105,349,118301,5,2,1:2:0:0:
143,330,118379,1,0,0:0:0:0:
184,321,118458,1,0,0:0:0:0:
227,321,118536,1,2,1:2:0:0:
268,330,118615,2,0,P|306:343|324:361,1,53.125,10|0,1:2|0:0,0:0:0:0:
105,349,118772,5,2,1:2:0:0:
143,330,118850,1,0,0:0:0:0:
184,321,118929,1,0,0:0:0:0:
227,321,119007,1,2,1:2:0:0:
268,330,119086,2,0,P|306:343|324:361,1,53.125,10|0,1:2|0:0,0:0:0:0:
105,349,119244,5,2,1:2:0:0:
143,330,119322,1,0,0:0:0:0:
184,321,119401,1,0,0:0:0:0:
227,321,119479,1,2,1:2:0:0:
268,330,119558,2,0,P|306:343|324:361,1,53.125,10|0,1:2|0:0,0:0:0:0:
105,349,119715,5,2,1:2:0:0:
143,330,119793,1,0,1:2:0:0:
184,321,119872,1,2,1:2:0:0:
227,321,119950,1,0,1:2:0:0:
268,330,120029,5,2,1:2:0:0:
312,356,120107,1,2,0:0:0:0:
364,351,120186,1,2,0:2:0:0:
402,316,120264,1,2,0:0:0:0:
412,264,120343,6,0,P|409:227|395:200,1,53.125,2|0,1:2|0:0,0:0:0:0:
312,138,120500,2,0,P|314:174|328:201,1,53.125,0|0,0:0|0:0,0:0:0:0:
410,93,120657,1,2,1:2:0:0:
410,93,120736,1,2,0:0:0:0:
410,93,120814,6,0,P|359:41|243:50,1,159.375,10|0,0:0|0:0,0:0:0:0:
240,57,121128,1,0,1:2:0:0:
200,91,121206,1,0,1:0:0:0:
189,142,121285,1,8,1:2:0:0:
211,189,121364,1,0,1:0:0:0:
250,223,121442,1,0,1:2:0:0:
261,274,121521,1,0,1:0:0:0:
239,321,121599,5,2,1:2:0:0:
91,106,121809,1,2,1:2:0:0:
338,200,122018,1,2,1:2:0:0:
37,264,122228,5,2,1:2:0:0:
179,13,122437,1,2,1:2:0:0:
239,321,122647,1,2,1:2:0:0:
21,28,122856,6,0,L|211:11,1,159.375,6|0,1:2|0:0,0:0:0:0:
215,23,123170,6,0,P|243:83|239:98,1,53.125,2|0,1:2|0:0,0:0:0:0:
203,147,123327,1,2,1:2:0:0:
203,147,123406,1,0,0:0:0:0:
203,147,123484,2,0,P|192:187|196:227,1,53.125,2|0,1:2|0:0,0:0:0:0:
256,293,123641,2,0,P|267:253|263:213,1,53.125,2|0,1:2|0:0,0:0:0:0:
164,156,123799,5,2,1:2:0:0:
147,195,123877,1,0,1:0:0:0:
138,236,123956,1,0,1:2:0:0:
137,278,124034,1,0,1:0:0:0:
143,321,124113,5,2,1:2:0:0:
183,287,124191,1,2,0:0:0:0:
235,286,124270,1,2,1:2:0:0:
277,318,124348,1,2,0:0:0:0:
290,368,124427,1,2,1:2:0:0:
340,384,124505,1,2,0:0:0:0:
388,364,124584,2,0,P|410:337|423:300,1,53.125,2|0,1:2|0:0,0:0:0:0:
409,206,124741,2,0,P|387:233|374:270,1,53.125,2|0,1:2|0:0,0:0:0:0:
403,384,124898,2,0,P|424:356|437:319,1,53.125,2|0,1:2|0:0,0:0:0:0:
362,215,125055,5,2,1:2:0:0:
337,181,125133,1,0,1:0:0:0:
299,162,125212,1,2,1:2:0:0:
257,164,125290,1,0,1:0:0:0:
215,191,125369,5,2,1:2:0:0:
185,233,125447,1,0,1:0:0:0:
134,240,125526,1,2,1:2:0:0:
95,206,125604,1,0,1:0:0:0:
94,158,125683,1,4,1:2:0:0:
122,114,125761,1,0,1:0:0:0:
173,106,125840,1,0,1:2:0:0:
212,139,125918,1,0,1:0:0:0:
215,191,125997,5,0,1:2:0:0:
207,242,126076,1,0,1:0:0:0:
237,284,126155,1,0,1:2:0:0:
288,292,126233,1,0,1:0:0:0:
327,257,126312,1,0,1:2:0:0:
339,207,126390,1,0,1:0:0:0:
385,183,126469,1,2,1:2:0:0:
433,201,126547,1,2,1:2:0:0:
452,249,126626,5,2,1:2:0:0:
439,299,126704,1,2,1:2:0:0:
393,323,126783,1,2,1:2:0:0:
345,305,126861,1,2,1:2:0:0:
327,257,126940,1,10,1:2:0:0:
339,207,127018,1,10,1:2:0:0:
329,155,127097,1,10,1:2:0:0:
293,117,127175,1,10,1:2:0:0:
243,102,127254,6,0,P|170:119|138:187,1,106.25,2|2,0:0|0:0,0:0:0:0:
133,169,127463,2,0,L|181:192,1,35.4166666666667,0|0,0:0|0:0,0:0:0:0:
124,210,127568,2,0,P|139:245|34:222,1,212.5,8|6,0:0|1:2,0:0:0:0:
256,192,127961,12,0,130552,0:0:0:0:
103,212,130710,5,10,0:0:0:0:
137,188,130788,1,10,0:0:0:0:
179,182,130867,1,10,0:0:0:0:
219,194,130945,1,10,0:0:0:0:
250,222,131024,6,0,P|298:246|354:237,1,85,6|0,1:2|1:2,0:0:0:0:
381,188,131259,1,0,0:0:0:0:
381,188,131338,2,0,L|371:97,1,85,6|0,1:2|1:2,0:0:0:0:
323,47,131573,1,0,0:0:0:0:
323,47,131652,2,0,P|269:67|218:60,1,85,6|0,1:2|1:2,0:0:0:0:
167,10,131966,2,0,P|147:70|181:134,1,127.5,6|0,1:2|0:0,0:0:0:0:
214,147,132280,5,2,1:2:0:0:
235,183,132358,1,2,0:0:0:0:
241,225,132437,1,2,1:2:0:0:
232,266,132515,1,2,0:0:0:0:
207,300,132594,5,2,1:2:0:0:
206,326,132672,1,2,0:2:0:0:
213,350,132751,1,2,1:2:0:0:
230,370,132829,1,2,0:0:0:0:
251,381,132908,5,2,1:2:0:0:
291,368,132987,1,0,0:0:0:0:
320,337,133066,5,2,1:2:0:0:
328,296,133144,1,2,0:0:0:0:
315,257,133223,1,2,1:2:0:0:
282,230,133301,1,2,0:0:0:0:
241,225,133380,5,2,1:2:0:0:
199,229,133458,1,2,0:0:0:0:
161,248,133537,5,10,1:2:0:0:
142,265,133615,1,2,1:2:0:0:
118,272,133694,1,2,1:2:0:0:
93,270,133772,1,0,1:0:0:0:
69,256,133851,5,10,1:2:0:0:
42,223,133929,1,2,1:2:0:0:
35,182,134008,1,2,1:2:0:0:
52,143,134086,1,2,1:2:0:0:
87,119,134165,5,10,1:2:0:0:
110,129,134243,1,2,1:2:0:0:
134,138,134322,1,2,1:2:0:0:
158,148,134400,1,2,1:2:0:0:
181,157,134479,1,10,1:2:0:0:
395,69,134793,5,4,1:2:0:0:
256,192,134872,12,0,139505,0:0:0:0:
