osu file format v14

[General]
AudioFilename: audio.mp3
AudioLeadIn: 0
PreviewTime: 87055
Countdown: 0
SampleSet: Soft
StackLeniency: 0.3
Mode: 0
LetterboxInBreaks: 0
WidescreenStoryboard: 1

[Editor]
DistanceSpacing: 1
BeatDivisor: 4
GridSize: 8
TimelineZoom: 2.5

[Metadata]
Title:Lemuria
TitleUnicode:Lemuria
Artist:Festa
ArtistUnicode:Festa
Creator:QuiescentRabbit
Version:Crazyrabbit's Hard
Source:BMS
Tags:blastthekidd side crazyrabbitkge nayarii elcheer mentai xi piano artcore electronic deathstream rsi evolved chronicles
BeatmapID:1756027
BeatmapSetID:835474

[Difficulty]
HPDrainRate:5
CircleSize:3.8
OverallDifficulty:6
ApproachRate:8
SliderMultiplier:1.4
SliderTickRate:1

[Events]
//Background and Video events
0,0,"background.jpg",0,0
//Break Periods
2,77820,79541
2,128082,130274
//Storyboard Layer 0 (Background)
//Storyboard Layer 1 (Fail)
//Storyboard Layer 2 (Pass)
//Storyboard Layer 3 (Foreground)
//Storyboard Sound Samples

[TimingPoints]
991,314.13612565445,4,2,1,50,1,0
991,-90.9090909090909,4,2,1,50,0,0
1148,-100,4,2,10,60,0,0
1305,-90.9090909090909,4,2,11,60,0,0
1462,-90.9090909090909,4,2,12,60,0,0
1619,-90.9090909090909,4,2,13,60,0,0
1776,-90.9090909090909,4,2,14,60,0,0
2090,-90.9090909090909,4,2,10,64,0,0
2247,-90.9090909090909,4,2,11,64,0,0
2404,-90.9090909090909,4,2,12,64,0,0
2561,-90.9090909090909,4,2,13,64,0,0
2718,-90.9090909090909,4,2,14,64,0,0
3032,-90.9090909090909,4,2,10,68,0,0
3189,-90.9090909090909,4,2,11,68,0,0
3347,-90.9090909090909,4,2,12,68,0,0
3504,-90.9090909090909,4,2,13,68,0,0
3661,-90.9090909090909,4,2,14,68,0,0
3975,-90.9090909090909,4,2,10,68,0,0
4132,-90.9090909090909,4,2,11,68,0,0
4289,-90.9090909090909,4,2,12,68,0,0
4446,-90.9090909090909,4,2,1,50,0,0
4760,-90.9090909090909,4,2,3,60,0,0
11671,-90.9090909090909,4,2,3,70,0,0
14498,-90.9090909090909,4,2,1,70,0,0
14812,-90.9090909090909,4,2,3,70,0,0
14891,-90.9090909090909,4,2,1,70,0,0
15127,-100,4,2,1,75,0,0
15598,331.491712707182,4,2,1,75,1,0
16095,350.877192982456,4,2,1,75,1,0
16445,372.670807453416,4,2,3,60,1,0
16817,425.531914893617,4,2,1,85,1,0
17413,458.015267175573,4,2,1,85,1,0
18100,540.540540540541,4,2,1,85,1,0
18640,588.235294117647,4,2,1,85,1,0
19820,314.13612565445,4,2,99,70,1,0
19898,-100,4,2,99,25,0,0
21940,-100,4,2,99,5,0,0
22018,-100,4,2,99,60,0,0
22333,-90.9090909090909,4,2,1,72,0,0
23903,-90.9090909090909,4,2,1,70,0,0
24217,-90.9090909090909,4,2,3,62,0,0
24532,-90.9090909090909,4,2,2,54,0,0
24846,-133.333333333333,4,2,1,45,0,0
25081,-133.333333333333,4,2,1,5,0,0
25160,-90.9090909090909,4,2,1,70,0,0
26416,-90.9090909090909,4,2,3,70,0,0
26730,-90.9090909090909,4,2,1,70,0,0
29244,-90.9090909090909,4,2,3,70,0,0
29872,-90.9090909090909,4,2,1,70,0,0
31443,-90.9090909090909,4,2,3,70,0,0
31757,-90.9090909090909,4,2,1,70,0,0
34113,-90.9090909090909,4,2,3,70,0,0
34898,-133.333333333333,4,2,1,60,0,0
35212,-90.9090909090909,4,2,1,85,0,0
35369,-90.9090909090909,4,2,1,85,0,0
41338,-90.9090909090909,4,2,3,85,0,0
42437,-90.9090909090909,4,2,1,85,0,0
43851,-90.9090909090909,4,2,3,85,0,0
44008,-90.9090909090909,4,2,3,85,0,0
44322,-90.9090909090909,4,2,1,85,0,0
45265,-90.9090909090909,4,2,99,70,0,0
45343,-90.9090909090909,4,2,99,35,0,0
47071,-90.9090909090909,4,2,99,5,0,0
47149,-90.9090909090909,4,2,2,70,0,0
47228,-90.9090909090909,4,2,1,35,0,0
48327,-90.9090909090909,4,2,1,5,0,0
48406,-90.9090909090909,4,2,1,70,0,0
48484,-90.9090909090909,4,2,1,35,0,0
48956,-90.9090909090909,4,2,1,5,0,0
49034,-90.9090909090909,4,2,1,70,0,0
49113,-90.9090909090909,4,2,1,35,0,0
49270,-90.9090909090909,4,2,1,5,0,0
49348,-90.9090909090909,4,2,99,70,0,0
49662,-90.9090909090909,4,2,10,60,0,0
49819,-90.9090909090909,4,2,21,60,0,0
49977,-90.9090909090909,4,2,22,60,0,0
50134,-90.9090909090909,4,2,14,60,0,0
50291,-90.9090909090909,4,2,24,60,0,0
50605,-90.9090909090909,4,2,10,64,0,0
50762,-90.9090909090909,4,2,21,64,0,0
50919,-90.9090909090909,4,2,22,64,0,0
51076,-90.9090909090909,4,2,14,64,0,0
51233,-90.9090909090909,4,2,24,64,0,0
51547,-90.9090909090909,4,2,20,68,0,0
51704,-90.9090909090909,4,2,21,68,0,0
51861,-90.9090909090909,4,2,22,68,0,0
52018,-90.9090909090909,4,2,14,68,0,0
52176,-90.9090909090909,4,2,24,68,0,0
52490,-90.9090909090909,4,2,20,72,0,0
52647,-90.9090909090909,4,2,21,72,0,0
52804,-90.9090909090909,4,2,22,72,0,0
52961,-90.9090909090909,4,2,14,72,0,0
53118,-90.9090909090909,4,2,24,72,0,0
54296,-90.9090909090909,4,2,24,5,0,0
54374,-90.9090909090909,4,2,1,70,0,0
56573,-90.9090909090909,4,2,1,64,0,0
57202,-90.9090909090909,4,2,3,64,0,0
57830,-90.9090909090909,4,2,1,64,0,0
58458,-90.9090909090909,4,2,3,64,0,0
59087,-90.9090909090909,4,2,1,70,0,0
60343,-90.9090909090909,4,2,3,70,0,0
61285,-90.9090909090909,4,2,1,64,0,0
61914,-90.9090909090909,4,2,3,64,0,0
62542,-90.9090909090909,4,2,1,64,0,0
64113,-90.9090909090909,4,2,1,85,0,0
64191,-90.9090909090909,4,2,1,82,0,0
65055,-90.9090909090909,4,2,1,82,0,0
65134,-90.9090909090909,4,2,1,82,0,0
66312,-90.9090909090909,4,2,1,88,0,0
66390,-90.9090909090909,4,2,1,88,0,0
66469,-90.9090909090909,4,2,1,88,0,0
66547,-90.9090909090909,4,2,1,88,0,0
66940,-90.9090909090909,4,2,1,88,0,0
67018,-90.9090909090909,4,2,1,88,0,0
67097,-90.9090909090909,4,2,1,88,0,0
67176,-90.9090909090909,4,2,1,88,0,0
67254,-90.9090909090909,4,2,1,82,0,0
67568,-90.9090909090909,4,2,1,82,0,0
67647,-90.9090909090909,4,2,1,82,0,0
67882,-90.9090909090909,4,2,1,86,0,0
67961,-90.9090909090909,4,2,1,86,0,0
68196,-90.9090909090909,4,2,1,90,0,0
68275,-90.9090909090909,4,2,1,90,0,0
68511,-90.9090909090909,4,2,1,94,0,0
68589,-90.9090909090909,4,2,1,70,0,0
68982,-90.9090909090909,4,2,1,62,0,0
70709,-90.9090909090909,4,2,1,70,0,0
75107,-90.9090909090909,4,2,1,76,0,0
75422,-90.9090909090909,4,2,1,72,0,0
75736,-90.9090909090909,4,2,1,68,0,0
76050,-90.9090909090909,4,2,1,64,0,0
76364,-90.9090909090909,4,2,3,80,0,0
76678,-90.9090909090909,4,2,3,78,0,0
76992,-90.9090909090909,4,2,2,86,0,0
77306,-90.9090909090909,4,2,2,84,0,0
77621,-90.9090909090909,4,2,2,70,0,0
77778,-90.9090909090909,4,2,1,70,0,0
79819,-90.9090909090909,4,2,1,5,0,0
79977,-90.9090909090909,4,2,1,70,0,0
80291,-90.9090909090909,4,2,1,85,0,0
80369,-90.9090909090909,4,2,1,70,0,0
80448,-90.9090909090909,4,2,1,85,0,0
80526,-90.9090909090909,4,2,1,70,0,0
80762,-90.9090909090909,4,2,1,76,0,0
82647,-90.9090909090909,4,2,1,85,0,0
86416,-90.9090909090909,4,2,1,72,0,0
87673,-90.9090909090909,4,2,3,90,0,0
89872,-90.9090909090909,4,2,1,90,0,0
90186,-90.9090909090909,4,2,1,78,0,0
90422,-90.9090909090909,4,2,1,5,0,0
90500,-90.9090909090909,4,2,1,90,0,1
93170,-90.9090909090909,4,2,1,90,0,1
93484,-90.9090909090909,4,2,1,90,0,1
93641,-90.9090909090909,4,2,1,90,0,1
94427,-90.9090909090909,4,2,1,90,0,1
94505,-90.9090909090909,4,2,1,90,0,1
94584,-90.9090909090909,4,2,1,90,0,1
94662,-90.9090909090909,4,2,1,90,0,1
94741,-90.9090909090909,4,2,1,90,0,1
94819,-90.9090909090909,4,2,1,90,0,1
95840,-90.9090909090909,4,2,1,90,0,1
97097,-90.9090909090909,4,2,1,90,0,0
97725,-90.9090909090909,4,2,3,90,0,1
99924,-90.9090909090909,4,2,1,90,0,1
100238,-90.9090909090909,4,2,1,78,0,0
100474,-90.9090909090909,4,2,1,5,0,0
100552,-90.9090909090909,4,2,1,90,0,1
101495,-90.9090909090909,4,2,1,90,0,0
102751,-90.9090909090909,4,2,1,78,0,0
103066,-90.9090909090909,4,2,1,90,0,1
107149,-90.9090909090909,4,2,1,90,0,0
107778,-90.9090909090909,4,2,3,90,0,1
109977,-90.9090909090909,4,2,1,90,0,1
110291,-90.9090909090909,4,2,1,90,0,0
110605,-90.9090909090909,4,2,1,90,0,1
111861,-90.9090909090909,4,2,3,95,0,1
112176,-90.9090909090909,4,2,1,90,0,1
113275,-90.9090909090909,4,2,1,90,0,1
113511,-90.9090909090909,4,2,1,90,0,1
113589,-90.9090909090909,4,2,1,90,0,1
113668,-90.9090909090909,4,2,1,90,0,1
114532,-90.9090909090909,4,2,1,90,0,1
114767,-90.9090909090909,4,2,1,90,0,1
114846,-90.9090909090909,4,2,1,90,0,1
114924,-90.9090909090909,4,2,1,90,0,1
115945,-90.9090909090909,4,2,1,90,0,1
116024,-90.9090909090909,4,2,1,90,0,1
116102,-90.9090909090909,4,2,1,90,0,1
116181,-90.9090909090909,4,2,1,90,0,1
116259,-90.9090909090909,4,2,1,90,0,1
116338,-90.9090909090909,4,2,1,90,0,1
116416,-90.9090909090909,4,2,1,90,0,1
116495,-90.9090909090909,4,2,1,90,0,1
116573,-90.9090909090909,4,2,1,90,0,1
117123,-90.9090909090909,4,2,1,90,0,1
117202,-90.9090909090909,4,2,1,90,0,0
117830,-90.9090909090909,4,2,3,90,0,1
120186,-90.9090909090909,4,2,1,90,0,1
120343,-90.9090909090909,4,2,1,90,0,0
120657,-90.9090909090909,4,2,1,90,0,1
121600,-90.9090909090909,4,2,1,95,0,0
122228,-90.9090909090909,4,2,1,90,0,0
122856,-90.9090909090909,4,2,1,85,0,0
123170,-90.9090909090909,4,2,1,90,0,1
125369,-133.333333333333,4,2,1,100,0,0
125683,-90.9090909090909,4,2,1,100,0,1
127882,-90.9090909090909,4,2,99,82,0,0
128982,-90.9090909090909,4,2,1,75,0,0
130552,-90.9090909090909,4,2,1,85,0,0
132280,-90.9090909090909,4,2,1,90,0,0
133066,-90.9090909090909,4,2,1,95,0,0
133851,-90.9090909090909,4,2,1,100,0,0
134793,-90.9090909090909,4,2,99,85,0,0
139505,-90.9090909090909,4,2,1,5,0,0

[Colours]
Combo1 : 184,192,199
Combo2 : 148,204,235
Combo3 : 12,104,180

[HitObjects]
147,130,991,6,0,L|72:150,2,77.0000023498536,4|2|2,1:2|0:0|0:0,0:0:0:0:
218,112,1462,2,0,P|199:78|167:58,2,77.0000023498536,2|2|2,0:0|0:0|0:0,0:0:0:0:
147,256,2090,6,0,L|72:236,2,77.0000023498536,2|2|2,0:0|0:0|0:0,0:0:0:0:
168,327,2561,2,0,P|200:307|218:273,1,77.0000023498536,2|2,0:0|0:0,0:0:0:0:
367,256,3032,6,0,L|442:236,2,77.0000023498536,2|2|2,0:0|0:0|0:0,0:0:0:0:
346,327,3503,2,0,P|313:307|295:273,1,77.0000023498536,2|2,0:0|0:0,0:0:0:0:
367,130,3975,6,0,L|442:150,2,77.0000023498536,2|2|2,0:0|0:0|0:0,0:0:0:0:
295,112,4446,2,0,L|305:74,3,38.5000011749268,6|0|0|0,1:2|0:0|0:0|0:0,0:0:0:0:
313,36,4760,6,0,P|345:54|383:54,1,77.0000023498536,6|0,0:0|0:0,0:0:0:0:
435,0,5074,1,0,0:0:0:0:
394,177,5388,1,2,0:0:0:0:
466,157,5545,2,0,P|466:195|448:228,1,77.0000023498536,0|0,0:0|0:0,0:0:0:0:
376,248,5860,6,0,L|450:267,1,77.0000023498536,0|2,0:0|0:0,0:0:0:0:
432,338,6174,2,0,L|283:298,1,154.000004699707,0|0,0:0|0:0,0:0:0:0:
230,351,6645,2,0,P|210:318|209:280,1,77.0000023498536,2|0,0:0|0:0,0:0:0:0:
228,210,6959,2,0,P|172:217|138:261,1,115.50000352478,0|0,0:0|0:0,0:0:0:0:
131,295,7273,6,0,L|117:347,2,38.5000011749268,2|0|0,0:0|0:0|0:0,0:0:0:0:
0,384,7744,2,0,L|19:309,1,77.0000023498536,0|2,0:0|0:0,0:0:0:0:
38,234,8059,1,0,0:0:0:0:
138,262,8216,2,0,L|157:187,1,77.0000023498536,0|0,1:2|0:0,0:0:0:0:
175,116,8530,5,2,0:0:0:0:
104,136,8687,1,0,0:0:0:0:
51,85,8844,2,0,P|50:46|68:13,1,77.0000023498536,0|0,0:0|0:0,0:0:0:0:
142,32,9158,2,0,L|216:51,1,77.0000023498536,2|0,0:0|0:0,0:0:0:0:
253,60,9394,1,0,0:0:0:0:
253,60,9472,2,0,P|260:115|304:149,1,115.50000352478,0|0,0:0|0:0,0:0:0:0:
342,158,9786,6,0,L|361:83,1,77.0000023498536,2|0,0:0|0:0,0:0:0:0:
413,30,10100,2,0,P|432:62|433:100,1,77.0000023498536,0|0,0:0|0:0,0:0:0:0:
413,175,10415,1,2,0:0:0:0:
470,258,10572,1,0,0:0:0:0:
287,250,10886,6,0,L|212:230,1,77.0000023498536,0|2,0:0|0:0,0:0:0:0:
232,155,11200,2,0,L|306:174,1,77.0000023498536,0|0,0:0|0:0,0:0:0:0:
360,228,11514,1,0,0:0:0:0:
341,339,11671,6,0,P|302:339|269:321,1,77.0000023498536,6|0,1:2|0:0,0:0:0:0:
200,356,11985,2,0,L|125:336,1,77.0000023498536,0|0,1:2|0:0,0:0:0:0:
50,356,12299,1,2,0:0:0:0:
70,281,12456,2,0,L|90:206,1,77.0000023498536,0|0,0:0|1:2,0:0:0:0:
14,186,12771,2,0,L|34:111,1,77.0000023498536,0|2,0:0|0:0,0:0:0:0:
86,58,13085,2,0,P|52:40|14:40,2,77.0000023498536,0|0|0,0:0|1:2|0:0,0:0:0:0:
105,129,13556,5,2,0:0:0:0:
161,46,13713,1,0,0:0:0:0:
180,117,13870,2,0,L|217:127,3,38.5000011749268,0|0|0|0,1:2|0:0|0:0|0:0,0:0:0:0:
250,106,14184,2,0,L|325:126,1,77.0000023498536,2|0,1:2|0:0,0:0:0:0:
344,51,14498,2,0,L|419:71,1,77.0000023498536,2|2,1:2|0:0,0:0:0:0:
469,17,14812,2,0,P|488:49|489:88,1,77.0000023498536,2|2,1:2|0:0,0:0:0:0:
469,164,15127,6,0,L|450:231,1,70,6|2,1:2|1:2,0:0:0:0:
306,193,15598,2,0,L|324:125,1,70,6|2,1:2|1:2,0:0:0:0:
178,87,16095,2,0,L|159:154,1,70,6|0,1:2|0:0,0:0:0:0:
141,220,16445,6,0,P|100:188|49:195,1,105,2|0,0:0|0:0,0:0:0:0:
18,212,16817,6,0,L|0:279,1,70,6|2,1:2|1:2,0:0:0:0:
145,319,17413,2,0,L|163:251,1,70,6|2,1:2|1:2,0:0:0:0:
308,290,18100,2,0,L|290:358,1,70,6|0,1:2|0:0,0:0:0:0:
444,362,18640,6,0,L|462:294,3,70,0|0|0|0,1:2|0:0|0:0|0:0,0:0:0:0:
484,209,19820,1,4,1:2:0:0:
256,192,19898,12,0,22018,0:0:0:0:
161,105,22333,6,0,L|235:85,1,77.0000023498536,6|2,1:2|0:0,0:0:0:0:
309,65,22647,1,10,0:0:0:0:
290,149,22804,6,0,L|364:129,1,77.0000023498536,6|2,1:2|0:0,0:0:0:0:
438,109,23118,1,10,0:0:0:0:
419,193,23275,5,6,1:2:0:0:
512,168,23432,1,2,1:2:0:0:
487,261,23589,6,0,L|449:270,3,38.5000011749268,10|10|10|10,0:0|0:0|0:0|0:0,0:0:0:0:
429,303,23903,2,0,L|391:312,3,38.5000011749268,10|10|10|10,0:0|0:0|0:0|0:0,0:0:0:0:
371,345,24217,1,8,0:0:0:0:
304,306,24374,1,0,1:2:0:0:
230,379,24531,2,0,P|237:323|202:278,1,115.50000352478,10|0,0:0|0:0,0:0:0:0:
168,258,24846,6,0,L|222:243,1,52.5000020027161,2|0,0:0|0:0,0:0:0:0:
114,309,25160,6,0,P|96:276|96:238,1,77.0000023498536,14|0,0:0|1:2,0:0:0:0:
149,186,25474,1,2,0:0:0:0:
77,165,25631,2,0,L|2:184,1,77.0000023498536,2|8,1:2|0:0,0:0:0:0:
18,107,25945,2,0,L|92:87,1,77.0000023498536,2|0,1:2|0:0,0:0:0:0:
166,67,26259,1,2,1:2:0:0:
218,127,26416,2,0,L|227:164,3,38.5000011749268,8|0|2|0,3:2|3:2|1:2|3:2,0:0:0:0:
238,201,26730,2,0,P|276:201|309:182,1,77.0000023498536,2|0,0:0|1:2,0:0:0:0:
380,200,27045,2,0,P|378:161|360:128,1,77.0000023498536,10|0,0:0|0:0,0:0:0:0:
304,70,27359,6,0,L|379:50,1,77.0000023498536,2|0,1:2|0:0,0:0:0:0:
452,30,27673,2,0,L|471:104,1,77.0000023498536,10|0,0:0|1:2,0:0:0:0:
451,181,27987,1,2,0:0:0:0:
380,200,28144,2,0,P|399:232|431:252,1,77.0000023498536,2|8,1:2|0:0,0:0:0:0:
490,314,28458,2,0,L|415:334,1,77.0000023498536,2|0,1:2|0:0,0:0:0:0:
340,352,28772,1,0,1:1:0:0:
321,281,28929,2,0,P|288:300|269:332,1,77.0000023498536,8|0,0:0|1:2,0:0:0:0:
268,371,29165,1,0,0:0:0:0:
268,371,29243,2,0,L|230:381,3,38.5000011749268,2|0|0|0,3:2|3:2|1:2|3:2,0:0:0:0:
196,360,29558,2,0,L|121:380,1,77.0000023498536,10|0,3:2|3:2,0:0:0:0:
50,360,29872,6,0,P|69:327|102:307,1,77.0000023498536,2|0,1:2|0:0,0:0:0:0:
176,288,30186,2,0,L|156:213,1,77.0000023498536,10|0,0:0|1:2,0:0:0:0:
101,158,30500,1,2,0:0:0:0:
81,229,30657,2,0,P|48:209|28:176,1,77.0000023498536,2|8,1:2|0:0,0:0:0:0:
45,98,30971,2,0,L|120:78,1,77.0000023498536,2|0,1:2|0:0,0:0:0:0:
175,138,31285,1,2,1:2:0:0:
193,58,31442,2,0,L|268:38,1,77.0000023498536,8|0,3:2|1:2,0:0:0:0:
304,29,31678,1,0,3:2:0:0:
304,29,31757,2,0,P|304:67|323:100,1,77.0000023498536,2|0,1:2|1:2,0:0:0:0:
304,171,32071,2,0,P|342:171|375:152,1,77.0000023498536,10|0,0:0|0:0,0:0:0:0:
394,80,32385,6,0,P|413:47|446:27,1,77.0000023498536,2|0,1:2|0:0,0:0:0:0:
465,99,32699,2,0,L|485:173,1,77.0000023498536,10|0,0:0|1:2,0:0:0:0:
429,227,33013,1,2,0:0:0:0:
500,246,33170,2,0,P|480:278|447:298,1,77.0000023498536,2|8,1:2|0:0,0:0:0:0:
376,279,33484,1,2,1:2:0:0:
394,350,33641,6,0,L|357:360,3,38.5000011749268,0|0|2|0,0:0|0:0|1:2|0:0,0:0:0:0:
318,370,33956,2,0,L|298:296,1,77.0000023498536,8|2,0:0|3:2,0:0:0:0:
278,224,34270,2,0,P|245:243|226:275,1,77.0000023498536,2|0,1:2|3:2,0:0:0:0:
225,314,34505,1,2,3:2:0:0:
225,314,34584,2,0,L|151:334,1,77.0000023498536,8|2,3:2|3:2,0:0:0:0:
75,354,34898,6,0,L|20:368,1,52.5000020027161,2|0,0:0|0:0,0:0:0:0:
56,278,35212,6,0,L|130:258,1,77.0000023498536,6|0,1:2|0:0,0:0:0:0:
149,186,35526,1,2,1:2:0:0:
220,205,35683,2,0,P|220:167|201:134,1,77.0000023498536,2|0,0:0|1:2,0:0:0:0:
129,114,35997,2,0,L|55:134,1,77.0000023498536,2|0,0:0|1:2,0:0:0:0:
74,53,36312,2,0,L|0:73,2,77.0000023498536,2|0|0,0:0|1:2|0:0,0:0:0:0:
148,32,36783,1,2,1:2:0:0:
222,51,36940,1,0,0:0:0:0:
276,104,37097,2,0,L|313:94,3,38.5000011749268,2|2|2|2,1:2|0:0|0:0|0:0,0:0:0:0:
340,65,37411,6,0,L|360:139,1,77.0000023498536,2|0,1:2|0:0,0:0:0:0:
370,176,37647,1,0,0:0:0:0:
370,176,37725,2,0,P|332:176|299:195,1,77.0000023498536,2|0,1:2|0:0,0:0:0:0:
278,266,38039,1,2,1:2:0:0:
350,247,38196,2,0,L|370:321,1,77.0000023498536,2|0,0:0|1:2,0:0:0:0:
315,375,38511,1,2,1:2:0:0:
483,328,38825,6,0,L|473:291,3,38.5000011749268,2|0|0|0,1:2|0:0|0:0|0:0,0:0:0:0:
444,262,39139,1,0,1:2:0:0:
500,198,39296,2,0,L|480:124,1,77.0000023498536,2|0,0:0|1:2,0:0:0:0:
468,85,39531,1,0,0:0:0:0:
468,85,39610,2,0,P|430:85|397:104,1,77.0000023498536,2|0,0:0|1:2,0:0:0:0:
336,162,39924,6,0,L|316:88,1,77.0000023498536,6|0,1:2|1:2,0:0:0:0:
296,16,40238,1,2,1:2:0:0:
296,16,40317,1,2,0:0:0:0:
296,16,40395,2,0,P|263:35|244:67,1,77.0000023498536,2|0,1:2|1:2,0:0:0:0:
224,138,40709,2,0,P|191:118|172:85,1,77.0000023498536,2|0,1:2|1:2,0:0:0:0:
151,10,41024,1,2,1:2:0:0:
29,127,41338,6,0,L|66:117,3,38.5000011749268,0|0|2|2,3:2|3:2|3:2|3:2,0:0:0:0:
103,125,41652,1,2,3:2:0:0:
83,199,41809,1,0,3:2:0:0:
137,253,41966,1,0,3:2:0:0:
117,326,42123,2,0,P|136:359|168:378,1,77.0000023498536,8|8,3:2|3:2,0:0:0:0:
242,357,42437,6,0,L|316:337,1,77.0000023498536,6|2,1:2|1:2,0:0:0:0:
276,188,42908,2,0,L|202:208,1,77.0000023498536,6|2,1:2|1:2,0:0:0:0:
161,59,43380,2,0,L|235:39,1,77.0000023498536,6|2,1:2|1:2,0:0:0:0:
386,67,43851,6,0,L|349:77,3,38.5000011749268,2|0|0|0,3:2|3:2|3:2|3:2,0:0:0:0:
320,104,44165,1,0,3:2:0:0:
388,140,44322,2,0,B|467:118|467:118|499:127,2,115.50000352478,6|6|6,1:2|1:2|1:2,0:0:0:0:
347,205,44950,1,8,0:0:0:0:
463,306,45264,5,4,1:2:0:0:
256,192,45343,12,0,47071,0:0:0:0:
256,192,47149,12,0,48406,1:2:0:0:
256,192,49034,5,0,1:2:0:0:
256,40,49348,1,4,1:2:0:0:
256,192,49427,12,0,53118,0:0:0:0:
410,53,54374,6,0,L|391:127,1,77.0000023498536,6|2,1:2|1:2,0:0:0:0:
256,88,54846,2,0,L|256:11,1,77.0000023498536,6|2,1:2|1:2,0:0:0:0:
104,54,55318,2,0,L|124:129,1,77.0000023498536,6|0,1:2|0:0,0:0:0:0:
52,149,55631,6,0,P|71:181|103:200,1,77.0000023498536,0|0,0:0|0:0,0:0:0:0:
176,181,55945,1,0,1:2:0:0:
156,253,56102,1,0,1:2:0:0:
228,233,56259,2,0,L|302:213,1,77.0000023498536,8|0,0:0|1:2,0:0:0:0:
339,203,56495,1,0,1:2:0:0:
339,203,56573,6,0,P|357:170|390:151,1,77.0000023498536,6|0,1:2|0:0,0:0:0:0:
443,99,56887,2,0,P|462:131|462:170,1,77.0000023498536,8|0,0:0|1:2,0:0:0:0:
409,221,57202,2,0,L|418:258,3,38.5000011749268,2|0|0|2,3:2|3:2|3:2|3:2,0:0:0:0:
444,285,57516,2,0,L|370:305,1,77.0000023498536,8|2,3:2|3:2,0:0:0:0:
350,376,57830,2,0,P|317:357|298:324,1,77.0000023498536,2|2,1:2|0:0,0:0:0:0:
287,286,58065,1,2,1:2:0:0:
287,286,58144,2,0,L|213:306,1,77.0000023498536,0|2,0:0|1:2,0:0:0:0:
142,287,58458,2,0,P|123:320|90:339,1,77.0000023498536,0|8,3:2|0:0,0:0:0:0:
70,267,58772,2,0,L|59:230,3,38.5000011749268,0|0|0|0,3:2|3:2|3:2|3:2,0:0:0:0:
68,191,59086,6,0,L|87:116,1,77.0000023498536,6|2,1:2|1:2,0:0:0:0:
255,172,59558,2,0,L|255:249,1,77.0000023498536,6|2,1:2|1:2,0:0:0:0:
444,191,60029,2,0,L|424:116,1,77.0000023498536,6|2,1:2|1:2,0:0:0:0:
494,97,60343,6,0,P|475:63|442:45,1,77.0000023498536,2|0,0:0|0:0,0:0:0:0:
372,64,60657,2,0,L|297:83,1,77.0000023498536,2|0,0:0|0:0,0:0:0:0:
222,63,60971,1,0,3:2:0:0:
147,82,61128,1,8,0:0:0:0:
147,82,61207,1,8,0:0:0:0:
147,82,61285,6,0,P|128:48|95:30,1,77.0000023498536,6|0,1:2|0:0,0:0:0:0:
24,48,61600,2,0,P|4:81|4:119,1,77.0000023498536,8|0,0:0|1:2,0:0:0:0:
55,169,61914,2,0,L|103:156,3,38.5000011749268,2|0|0|2,3:2|3:2|3:2|3:2,0:0:0:0:
129,149,62228,2,0,L|148:224,1,77.0000023498536,8|2,3:2|3:2,0:0:0:0:
166,294,62542,2,0,P|128:294|95:274,1,77.0000023498536,2|2,1:2|0:0,0:0:0:0:
75,242,62778,1,2,1:2:0:0:
75,242,62856,2,0,P|41:260|23:293,1,77.0000023498536,0|2,0:0|1:2,0:0:0:0:
41,366,63170,2,0,L|89:353,3,38.5000011749268,0|0|0|0,0:0|1:2|0:0|0:0,0:0:0:0:
105,382,63484,2,0,L|180:363,1,77.0000023498536,8|8,1:2|0:0,0:0:0:0:
249,331,63798,5,2,1:2:0:0:
249,331,63877,1,2,1:2:0:0:
249,331,63956,1,2,1:2:0:0:
249,331,64034,1,2,1:2:0:0:
249,331,64113,2,0,L|324:312,1,77.0000023498536,6|0,1:2|0:0,0:0:0:0:
375,363,64427,2,0,P|394:330|393:292,1,77.0000023498536,0|2,1:2|0:0,0:0:0:0:
463,272,64741,2,0,P|444:238|411:220,1,77.0000023498536,2|2,1:2|0:0,0:0:0:0:
341,239,65055,6,0,L|322:164,1,77.0000023498536,2|0,1:2|0:0,0:0:0:0:
303,89,65369,1,0,1:2:0:0:
377,110,65526,6,0,L|452:91,1,77.0000023498536,2|0,0:0|1:2,0:0:0:0:
432,16,65840,1,2,0:0:0:0:
432,16,65919,1,0,0:0:0:0:
432,16,65997,2,0,L|357:35,1,77.0000023498536,2|2,1:2|0:0,0:0:0:0:
282,13,66312,5,6,1:2:0:0:
232,94,66469,1,2,1:2:0:0:
151,45,66626,2,0,L|111:55,3,38.5000011749268,0|0|0|0,0:0|0:0|0:0|0:0,0:0:0:0:
75,63,66940,5,6,1:2:0:0:
25,144,67097,1,2,1:2:0:0:
106,194,67254,2,0,L|143:184,3,38.5000011749268,0|0|0|0,0:0|0:0|0:0|0:0,0:0:0:0:
180,194,67568,6,0,L|255:175,1,77.0000023498536,6|0,1:2|0:0,0:0:0:0:
291,166,67804,1,0,0:0:0:0:
291,166,67882,2,0,P|290:204|310:236,1,77.0000023498536,6|0,1:2|0:0,0:0:0:0:
362,303,68196,2,0,L|287:322,1,77.0000023498536,6|0,1:2|0:0,0:0:0:0:
249,330,68432,1,0,0:0:0:0:
249,330,68511,1,6,1:2:0:0:
256,192,68589,12,2,71024,0:0:0:0:
170,21,71338,6,0,P|151:53|151:92,1,77.0000023498536,6|0,1:2|1:2,0:0:0:0:
80,111,71652,2,0,P|98:143|131:162,1,77.0000023498536,0|0,1:2|1:2,0:0:0:0:
112,234,71966,2,0,P|149:234|182:214,1,77.0000023498536,0|0,1:2|1:2,0:0:0:0:
201,143,72280,1,2,0:0:0:0:
342,21,72594,6,0,P|361:53|361:92,1,77.0000023498536,2|0,1:2|1:2,0:0:0:0:
432,111,72908,2,0,P|413:143|380:162,1,77.0000023498536,0|0,1:2|1:2,0:0:0:0:
400,234,73222,2,0,P|362:234|329:214,1,77.0000023498536,0|0,1:2|1:2,0:0:0:0:
311,143,73536,1,2,0:0:0:0:
470,214,73851,6,0,P|470:251|450:284,1,77.0000023498536,2|0,1:2|1:2,0:0:0:0:
502,336,74165,2,0,P|470:355|431:355,1,77.0000023498536,0|0,1:2|1:2,0:0:0:0:
380,303,74479,2,0,L|305:322,1,77.0000023498536,0|0,1:2|1:2,0:0:0:0:
253,270,74793,2,0,L|178:289,1,77.0000023498536,2|2,0:0|0:0,0:0:0:0:
159,360,75107,6,0,P|126:341|107:308,1,77.0000023498536,2|2,1:2|1:2,0:0:0:0:
35,327,75422,2,0,P|34:288|54:255,1,77.0000023498536,2|2,1:2|1:2,0:0:0:0:
125,235,75736,2,0,L|115:197,3,38.5000011749268,0|0|0|0,1:2|1:2|1:2|1:2,0:0:0:0:
87,169,76050,2,0,L|77:131,3,38.5000011749268,0|0|0|0,1:2|1:2|1:2|1:2,0:0:0:0:
49,103,76364,6,0,P|87:103|119:83,1,77.0000023498536,0|0,3:2|3:2,0:0:0:0:
185,120,76678,2,0,P|217:101|255:101,1,77.0000023498536,0|0,3:2|3:2,0:0:0:0:
236,171,76992,1,2,0:0:0:0:
240,175,77071,1,2,0:0:0:0:
244,179,77149,2,0,L|254:217,2,38.5000011749268,2|2|0,0:0|0:0|0:0,0:0:0:0:
318,160,77463,1,0,0:0:0:0:
341,249,77620,5,4,1:2:0:0:
256,152,80291,6,0,L|256:229,1,77.0000023498536,6|6,1:2|1:2,0:0:0:0:
256,192,80526,12,8,82332,0:0:0:0:
402,138,82647,6,0,P|401:99|382:67,1,77.0000023498536,6|0,1:2|0:0,0:0:0:0:
345,77,82883,1,0,1:2:0:0:
345,77,82961,2,0,P|325:44|292:25,1,77.0000023498536,0|0,0:0|1:2,0:0:0:0:
218,45,83275,6,0,L|144:65,1,77.0000023498536,2|0,1:2|0:0,0:0:0:0:
115,92,83511,1,0,1:2:0:0:
115,91,83590,2,0,P|115:130|134:162,1,77.0000023498536,0|0,0:0|0:0,0:0:0:0:
110,246,83903,6,0,P|110:284|129:316,1,77.0000023498536,2|0,1:2|0:0,0:0:0:0:
167,307,84139,1,0,1:2:0:0:
167,307,84217,2,0,P|186:339|219:358,1,77.0000023498536,0|0,0:0|1:2,0:0:0:0:
294,339,84531,6,0,L|368:319,1,77.0000023498536,2|2,1:2|1:2,0:0:0:0:
397,292,84767,1,2,1:2:0:0:
396,292,84846,2,0,P|396:253|377:221,1,77.0000023498536,0|0,1:2|0:0,0:0:0:0:
328,168,85160,5,6,1:2:0:0:
309,241,85317,1,0,0:0:0:0:
309,241,85396,1,0,1:2:0:0:
308,242,85474,2,0,P|276:262|237:261,1,77.0000023498536,0|0,0:0|1:2,0:0:0:0:
185,214,85788,5,2,1:2:0:0:
203,142,85945,1,0,0:0:0:0:
203,142,86024,1,0,1:2:0:0:
203,142,86102,2,0,P|235:122|275:122,1,77.0000023498536,0|0,0:0|1:2,0:0:0:0:
255,191,86416,5,2,0:0:0:0:
237,261,86573,1,2,0:0:0:0:
288,311,86730,5,2,0:0:0:0:
161,374,87045,6,0,L|87:354,1,77.0000023498536,2|2,1:2|1:2,0:0:0:0:
50,344,87280,1,2,1:2:0:0:
50,344,87359,2,0,P|17:324|-1:291,1,77.0000023498536,2|2,1:2|0:0,0:0:0:0:
70,274,87673,5,6,1:2:0:0:
143,293,87830,2,0,L|189:305,2,38.5000011749268,0|2|2,0:0|0:0|0:0,0:0:0:0:
123,221,88144,5,2,1:2:0:0:
50,202,88301,2,0,L|3:189,2,38.5000011749268,0|2|2,0:0|0:0|0:0,0:0:0:0:
103,149,88615,5,2,1:2:0:0:
176,168,88772,2,0,L|222:180,2,38.5000011749268,0|2|2,0:0|0:0|0:0,0:0:0:0:
156,96,89086,5,2,1:2:0:0:
83,77,89243,2,0,L|36:64,2,38.5000011749268,0|2|2,0:0|0:0|0:0,0:0:0:0:
136,24,89557,5,2,1:2:0:0:
209,43,89715,1,0,0:0:0:0:
213,47,89793,1,0,0:0:0:0:
217,51,89872,2,0,L|263:63,3,38.5000011749268,2|2|2|2,1:2|0:0|0:0|0:0,0:0:0:0:
291,69,90186,6,0,L|271:143,1,77.0000023498536,2|0,0:0|0:0,0:0:0:0:
249,217,90500,1,4,1:2:0:0:
194,271,90657,2,0,P|193:309|213:341,1,77.0000023498536,8|0,0:0|0:0,0:0:0:0:
287,361,90971,1,0,1:2:0:0:
287,361,91050,1,0,0:0:0:0:
287,361,91128,2,0,L|324:371,3,38.5000011749268,8|0|0|0,0:0|0:0|1:2|0:0,0:0:0:0:
361,381,91442,6,0,P|380:348|380:310,1,77.0000023498536,0|0,1:2|0:0,0:0:0:0:
370,272,91678,1,0,1:2:0:0:
370,272,91757,2,0,P|389:239|389:201,1,77.0000023498536,8|0,0:0|1:2,0:0:0:0:
369,118,92071,2,0,L|443:138,1,77.0000023498536,8|0,1:2|1:2,0:0:0:0:
463,63,92385,2,0,L|389:43,1,77.0000023498536,8|0,0:0|1:2,0:0:0:0:
313,61,92699,6,0,P|275:59|242:79,1,77.0000023498536,4|0,1:2|0:0,0:0:0:0:
222,111,92935,1,0,0:0:0:0:
222,111,93013,2,0,L|148:91,1,77.0000023498536,8|2,0:0|1:2,0:0:0:0:
108,23,93327,1,2,0:0:0:0:
41,61,93484,1,2,1:2:0:0:
80,128,93641,2,0,L|60:202,1,77.0000023498536,10|0,0:0|0:0,0:0:0:0:
4,256,93956,6,0,P|3:294|23:326,1,77.0000023498536,0|0,1:2|0:0,0:0:0:0:
60,336,94191,1,0,0:0:0:0:
60,336,94270,2,0,L|134:356,1,77.0000023498536,8|2,0:0|1:2,0:0:0:0:
208,376,94584,1,2,0:0:0:0:
228,301,94741,1,2,1:2:0:0:
153,281,94898,2,0,L|173:207,1,77.0000023498536,10|0,0:0|1:2,0:0:0:0:
155,123,95212,6,0,L|229:143,1,77.0000023498536,2|0,1:2|1:2,0:0:0:0:
266,153,95448,1,0,1:2:0:0:
266,153,95526,2,0,P|284:186|318:203,1,77.0000023498536,2|0,1:2|1:2,0:0:0:0:
387,182,95840,5,2,1:2:0:0:
335,132,95997,1,2,1:2:0:0:
419,108,96154,5,2,1:2:0:0:
356,48,96311,1,2,1:2:0:0:
438,22,96469,6,0,P|473:39|497:69,1,77.0000023498536,2|2,1:2|1:2,0:0:0:0:
490,155,96783,2,0,L|470:229,1,77.0000023498536,10|10,1:2|1:2,0:0:0:0:
491,313,97097,2,0,L|417:293,1,77.0000023498536,2|2,1:2|0:0,0:0:0:0:
378,281,97332,1,10,0:0:0:0:
378,281,97411,2,0,P|360:313|325:331,1,77.0000023498536,10|10,0:0|0:0,0:0:0:0:
250,310,97725,5,6,1:2:0:0:
269,237,97882,2,0,L|281:191,2,38.5000011749268,0|2|10,0:0|0:0|0:0,0:0:0:0:
197,257,98196,5,2,1:2:0:0:
178,330,98353,2,0,L|165:377,2,38.5000011749268,0|2|10,0:0|0:0|1:2,0:0:0:0:
125,277,98667,5,2,1:2:0:0:
144,204,98824,2,0,L|156:158,2,38.5000011749268,0|2|10,0:0|0:0|0:0,0:0:0:0:
72,224,99139,5,2,1:2:0:0:
53,297,99296,2,0,L|40:344,2,38.5000011749268,0|2|10,0:0|0:0|0:0,0:0:0:0:
0,244,99610,5,2,1:2:0:0:
19,171,99767,1,0,0:0:0:0:
19,171,99846,1,0,0:0:0:0:
19,171,99924,2,0,L|31:125,3,38.5000011749268,2|2|2|2,1:2|0:0|0:0|0:0,0:0:0:0:
37,95,100238,6,0,P|75:95|107:76,1,77.0000023498536,0|0,0:0|0:0,0:0:0:0:
56,24,100552,1,6,1:2:0:0:
126,5,100709,2,0,L|200:25,1,77.0000023498536,8|0,0:0|0:0,0:0:0:0:
274,45,101024,1,0,1:2:0:0:
274,45,101102,1,0,0:0:0:0:
274,45,101181,2,0,L|264:82,3,38.5000011749268,8|0|0|0,0:0|0:0|0:0|0:0,0:0:0:0:
252,119,101495,6,0,L|140:89,2,115.50000352478,2|0|0,1:2|0:0|0:0,0:0:0:0:
232,193,102123,2,0,L|120:163,2,115.50000352478,2|0|0,1:2|0:0|0:0,0:0:0:0:
212,267,102751,2,0,L|124:243,1,77.0000023498536,2|0,0:0|0:0,0:0:0:0:
99,237,102987,1,0,0:0:0:0:
99,237,103065,6,0,P|79:269|80:307,1,77.0000023498536,6|2,1:2|1:2,0:0:0:0:
131,358,103380,1,2,1:2:0:0:
201,376,103537,1,2,1:2:0:0:
270,355,103694,2,0,L|294:267,1,77.0000023498536,2|0,1:2|0:0,0:0:0:0:
310,205,104008,6,0,L|334:117,1,77.0000023498536,0|0,1:2|1:2,0:0:0:0:
340,93,104243,1,0,0:0:0:0:
340,93,104322,2,0,P|339:54|357:21,1,77.0000023498536,0|2,1:2|1:2,0:0:0:0:
412,74,104636,1,2,1:2:0:0:
482,92,104793,1,2,1:2:0:0:
501,162,104950,2,0,L|480:236,1,77.0000023498536,2|2,1:2|1:2,0:0:0:0:
499,306,105264,6,0,P|461:307|428:287,1,77.0000023498536,0|0,1:2|1:2,0:0:0:0:
377,339,105579,2,0,P|357:306|358:268,1,77.0000023498536,0|0,1:2|0:0,0:0:0:0:
378,194,105893,2,0,L|304:173,1,77.0000023498536,0|0,1:2|0:0,0:0:0:0:
228,150,106207,1,0,1:2:0:0:
247,225,106364,1,2,1:2:0:0:
251,229,106442,1,2,1:2:0:0:
255,233,106521,6,0,L|234:306,1,77.0000023498536,10|2,1:2|1:2,0:0:0:0:
165,343,106835,2,0,P|127:344|94:324,1,77.0000023498536,10|10,1:2|1:2,0:0:0:0:
56,256,107149,2,0,L|80:168,1,77.0000023498536,10|10,0:0|0:0,0:0:0:0:
66,144,107384,1,10,0:0:0:0:
66,144,107463,2,0,P|64:104|82:72,1,77.0000023498536,10|2,0:0|0:0,0:0:0:0:
150,50,107778,5,6,1:2:0:0:
223,69,107935,2,0,L|269:81,2,38.5000011749268,0|2|10,0:0|0:0|0:0,0:0:0:0:
170,122,108249,5,2,1:2:0:0:
151,195,108406,2,0,L|139:241,2,38.5000011749268,0|2|10,0:0|0:0|1:2,0:0:0:0:
223,174,108720,5,2,1:2:0:0:
296,193,108877,2,0,L|342:205,2,38.5000011749268,0|2|10,0:0|0:0|0:0,0:0:0:0:
243,246,109191,5,2,1:2:0:0:
224,319,109348,2,0,L|212:365,2,38.5000011749268,0|2|10,0:0|0:0|1:2,0:0:0:0:
296,298,109662,5,2,1:2:0:0:
369,317,109819,1,0,0:0:0:0:
369,317,109898,1,0,0:0:0:0:
369,317,109976,2,0,L|415:329,3,38.5000011749268,2|2|2|2,0:0|0:0|1:2|1:2,0:0:0:0:
433,353,110291,6,0,L|457:265,1,77.0000023498536,2|0,1:2|0:0,0:0:0:0:
473,203,110605,1,2,1:2:0:0:
473,203,110683,1,2,0:0:0:0:
473,203,110762,2,0,L|385:179,1,77.0000023498536,10|0,0:0|0:0,0:0:0:0:
326,203,111076,2,0,P|325:164|343:131,1,77.0000023498536,2|10,1:2|0:0,0:0:0:0:
415,110,111390,1,2,1:2:0:0:
396,38,111547,5,0,1:2:0:0:
323,57,111704,1,0,1:2:0:0:
323,57,111783,1,0,0:0:0:0:
323,57,111861,2,0,L|285:47,3,38.5000011749268,2|0|0|0,3:2|3:2|3:2|3:2,0:0:0:0:
257,19,112175,2,0,L|169:-5,1,77.0000023498536,2|0,1:2|1:2,0:0:0:0:
161,74,112490,2,0,L|73:50,1,77.0000023498536,2|0,1:2|0:0,0:0:0:0:
15,37,112804,6,0,P|16:75|36:107,1,77.0000023498536,6|0,1:2|0:0,0:0:0:0:
69,125,113039,1,0,0:0:0:0:
69,125,113118,2,0,P|89:157|90:195,1,77.0000023498536,8|2,1:2|0:0,0:0:0:0:
23,233,113432,1,2,1:2:0:0:
61,299,113589,1,2,0:0:0:0:
128,261,113746,2,0,L|202:281,1,77.0000023498536,10|0,1:2|0:0,0:0:0:0:
253,228,114060,6,0,P|273:261|274:298,1,77.0000023498536,0|0,1:2|0:0,0:0:0:0:
263,335,114296,1,0,0:0:0:0:
263,335,114374,2,0,L|337:355,1,77.0000023498536,8|2,1:2|0:0,0:0:0:0:
411,375,114689,1,2,1:2:0:0:
477,336,114846,1,2,0:0:0:0:
438,270,115003,2,0,L|458:196,1,77.0000023498536,10|0,1:2|1:2,0:0:0:0:
512,132,115317,6,0,L|438:112,1,77.0000023498536,2|0,1:2|1:2,0:0:0:0:
399,100,115552,1,0,0:0:0:0:
399,100,115631,2,0,P|397:61|378:29,1,77.0000023498536,2|0,1:2|1:2,0:0:0:0:
306,11,115945,5,2,1:2:0:0:
327,82,116102,1,2,1:2:0:0:
240,61,116259,5,2,1:2:0:0:
265,146,116416,1,2,1:2:0:0:
179,126,116573,6,0,L|105:106,1,77.0000023498536,2|2,1:2|1:2,0:0:0:0:
83,36,116887,2,0,P|50:56|33:90,1,77.0000023498536,2|2,1:2|1:2,0:0:0:0:
54,158,117202,6,0,L|34:232,1,77.0000023498536,2|2,0:0|0:0,0:0:0:0:
22,269,117437,1,10,0:0:0:0:
22,269,117516,2,0,P|23:307|42:339,1,77.0000023498536,10|10,0:0|0:0,0:0:0:0:
116,359,117830,5,6,1:2:0:0:
135,286,117987,2,0,L|147:240,2,38.5000011749268,0|2|10,0:0|1:2|1:2,0:0:0:0:
188,338,118301,5,2,1:2:0:0:
261,357,118458,2,0,L|307:369,2,38.5000011749268,0|2|10,0:0|1:2|1:2,0:0:0:0:
240,284,118772,5,2,1:2:0:0:
259,211,118929,2,0,L|271:165,2,38.5000011749268,0|2|10,0:0|1:2|1:2,0:0:0:0:
312,263,119243,5,2,1:2:0:0:
385,282,119400,2,0,L|431:294,2,38.5000011749268,0|2|10,0:0|1:2|1:2,0:0:0:0:
364,209,119714,5,2,1:2:0:0:
383,136,119872,1,8,0:0:0:0:
383,136,119950,1,8,1:2:0:0:
383,136,120029,2,0,L|395:90,3,38.5000011749268,0|8|10|2,0:0|0:0|1:2|0:0,0:0:0:0:
402,60,120343,6,0,L|476:80,1,77.0000023498536,2|0,0:0|0:0,0:0:0:0:
455,154,120657,1,2,1:2:0:0:
459,158,120736,1,2,0:0:0:0:
463,162,120814,2,0,L|443:236,1,77.0000023498536,10|0,0:0|0:0,0:0:0:0:
496,287,121128,2,0,P|497:325|479:358,1,77.0000023498536,0|8,1:2|0:0,0:0:0:0:
409,379,121442,1,0,1:2:0:0:
333,358,121600,6,0,L|214:326,2,115.50000352478,2|0|0,1:2|0:0|0:0,0:0:0:0:
353,283,122228,2,0,L|234:251,2,115.50000352478,2|0|0,1:2|0:0|0:0,0:0:0:0:
373,208,122856,2,0,L|286:184,1,77.0000023498536,6|0,1:2|0:0,0:0:0:0:
261,177,123092,1,2,1:2:0:0:
261,177,123170,6,0,P|259:138|277:105,1,77.0000023498536,2|2,1:2|1:2,0:0:0:0:
347,83,123484,1,2,1:2:0:0:
293,33,123641,1,2,1:2:0:0:
222,54,123798,2,0,L|135:30,1,77.0000023498536,2|0,1:2|1:2,0:0:0:0:
72,12,124113,6,0,L|48:98,1,77.0000023498536,0|0,1:2|1:2,0:0:0:0:
40,123,124348,1,2,1:2:0:0:
40,123,124427,2,0,P|78:121|111:139,1,77.0000023498536,0|2,1:2|1:2,0:0:0:0:
132,209,124741,1,2,1:2:0:0:
82,263,124898,1,2,1:2:0:0:
31,316,125055,2,0,P|64:334|103:333,1,77.0000023498536,2|2,1:2|1:2,0:0:0:0:
176,313,125369,6,0,L|189:262,1,52.5000020027161,0|0,1:2|0:0,0:0:0:0:
197,383,125683,6,0,P|229:362|247:329,1,77.0000023498536,4|0,1:2|1:2,0:0:0:0:
267,254,125997,2,0,L|287:179,1,77.0000023498536,0|0,1:2|1:2,0:0:0:0:
267,104,126312,1,0,1:2:0:0:
341,124,126469,1,2,1:2:0:0:
345,128,126547,1,2,1:2:0:0:
349,132,126626,6,0,L|423:152,1,77.0000023498536,2|2,1:2|1:2,0:0:0:0:
497,172,126940,2,0,L|477:246,1,77.0000023498536,10|10,1:2|1:2,0:0:0:0:
497,317,127254,2,0,P|459:318|426:300,1,77.0000023498536,2|10,1:2|1:2,0:0:0:0:
398,272,127490,1,2,1:2:0:0:
398,272,127568,2,0,P|364:253|326:254,1,77.0000023498536,8|0,0:0|0:0,0:0:0:0:
347,325,127882,5,6,1:2:0:0:
84,250,131024,6,0,L|158:230,1,77.0000023498536,6|0,1:2|1:2,0:0:0:0:
195,218,131259,1,0,0:0:0:0:
195,218,131338,2,0,P|227:237|265:238,1,77.0000023498536,6|0,1:2|1:2,0:0:0:0:
336,260,131652,2,0,P|336:221|318:188,1,77.0000023498536,6|0,1:2|1:2,0:0:0:0:
247,166,131966,6,0,B|225:87|225:87|234:55,2,115.50000352478,6|2|2,1:2|1:2|1:2,0:0:0:0:
311,111,132594,2,0,B|390:89|390:89|422:98,1,115.50000352478,2|2,0:0|0:0,0:0:0:0:
459,107,132908,2,0,L|479:181,1,77.0000023498536,2|2,1:2|0:0,0:0:0:0:
489,218,133144,1,2,1:2:0:0:
489,218,133223,6,0,L|499:255,3,38.5000011749268,2|2|2|2,1:2|0:0|1:2|0:0,0:0:0:0:
461,245,133537,2,0,L|471:282,3,38.5000011749268,2|2|2|0,1:2|1:2|1:2|0:0,0:0:0:0:
433,272,133851,2,0,L|443:309,3,38.5000011749268,10|2|10|10,1:2|1:2|1:2|1:2,0:0:0:0:
405,299,134165,2,0,L|415:336,3,38.5000011749268,2|10|10|2,1:2|1:2|1:2|1:2,0:0:0:0:
256,338,134793,5,4,1:2:0:0:
256,192,134872,12,0,139505,0:0:0:0:
