osu file format v14

[General]
AudioFilename: audio.mp3
AudioLeadIn: 0
PreviewTime: 87055
Countdown: 0
SampleSet: Soft
StackLeniency: 0.3
Mode: 0
LetterboxInBreaks: 0
WidescreenStoryboard: 1

[Editor]
DistanceSpacing: 1
BeatDivisor: 4
GridSize: 8
TimelineZoom: 2.5

[Metadata]
Title:Lemuria
TitleUnicode:Lemuria
Artist:Festa
ArtistUnicode:Festa
Creator:QuiescentRabbit
Version:Crazyrabbit's Advanced
Source:BMS
Tags:blastthekidd side crazyrabbitkge nayarii elcheer mentai xi piano artcore electronic deathstream rsi evolved chronicles
BeatmapID:1883417
BeatmapSetID:835474

[Difficulty]
HPDrainRate:5
CircleSize:3.4
OverallDifficulty:5
ApproachRate:7.5
SliderMultiplier:1.6
SliderTickRate:1

[Events]
//Background and Video events
0,0,"background.jpg",0,0
//Break Periods
//Storyboard Layer 0 (Background)
//Storyboard Layer 1 (Fail)
//Storyboard Layer 2 (Pass)
//Storyboard Layer 3 (Foreground)
//Storyboard Sound Samples
Sample,1148,0,"soft-hitwhistle10.wav",60
Sample,2247,0,"soft-hitwhistle11.wav",64
Sample,3189,0,"soft-hitwhistle11.wav",68

[TimingPoints]
991,314.13612565445,4,2,1,50,1,0
1148,-100,4,2,10,60,0,0
1305,-100,4,2,11,60,0,0
1462,-100,4,2,12,60,0,0
1619,-100,4,2,13,60,0,0
1776,-100,4,2,14,60,0,0
2090,-100,4,2,10,64,0,0
2247,-100,4,2,11,64,0,0
2404,-100,4,2,12,64,0,0
2561,-100,4,2,13,64,0,0
2718,-100,4,2,14,64,0,0
3032,-100,4,2,10,68,0,0
3189,-100,4,2,11,68,0,0
3347,-100,4,2,12,68,0,0
3504,-100,4,2,13,68,0,0
3661,-100,4,2,14,68,0,0
3975,-100,4,2,10,68,0,0
4132,-100,4,2,11,68,0,0
4289,-100,4,2,12,68,0,0
4446,-100,4,2,1,50,0,0
4760,-100,4,2,3,60,0,0
11671,-100,4,2,3,70,0,0
14498,-100,4,2,1,70,0,0
14812,-100,4,2,3,70,0,0
14891,-100,4,2,1,70,0,0
15127,-100,4,2,1,75,0,0
15598,331.491712707182,4,2,1,75,1,0
16095,350.877192982456,4,2,1,75,1,0
16445,372.670807453416,4,2,3,60,1,0
16817,425.531914893617,4,2,1,85,1,0
17413,458.015267175573,4,2,1,85,1,0
18100,540.540540540541,4,2,1,85,1,0
18640,588.235294117647,4,2,1,85,1,0
19820,314.13612565445,4,2,99,70,1,0
19898,-100,4,2,99,25,0,0
21940,-100,4,2,99,5,0,0
22018,-100,4,2,99,60,0,0
22333,-100,4,2,1,72,0,0
23903,-100,4,2,1,70,0,0
24217,-100,4,2,3,62,0,0
24532,-100,4,2,2,54,0,0
24846,-100,4,2,1,45,0,0
25081,-100,4,2,1,5,0,0
25160,-100,4,2,1,70,0,0
26416,-100,4,2,3,70,0,0
26730,-100,4,2,1,70,0,0
29244,-100,4,2,3,70,0,0
29872,-100,4,2,1,70,0,0
31443,-100,4,2,3,70,0,0
31757,-100,4,2,1,70,0,0
34113,-100,4,2,3,70,0,0
34898,-100,4,2,1,60,0,0
35212,-100,4,2,1,85,0,0
35369,-100,4,2,1,85,0,0
41338,-100,4,2,3,85,0,0
42437,-100,4,2,1,85,0,0
43851,-100,4,2,3,85,0,0
44008,-100,4,2,3,85,0,0
44322,-100,4,2,1,85,0,0
45265,-100,4,2,99,70,0,0
45343,-100,4,2,99,35,0,0
47071,-100,4,2,99,5,0,0
47149,-100,4,2,1,70,0,0
47228,-100,4,2,1,35,0,0
48327,-100,4,2,1,5,0,0
48406,-100,4,2,1,70,0,0
48484,-100,4,2,1,35,0,0
48956,-100,4,2,1,5,0,0
49034,-100,4,2,1,70,0,0
49113,-100,4,2,1,35,0,0
49270,-100,4,2,1,5,0,0
49348,-100,4,2,99,70,0,0
49662,-100,4,2,10,60,0,0
49819,-100,4,2,21,60,0,0
49977,-100,4,2,22,60,0,0
50134,-100,4,2,14,60,0,0
50291,-100,4,2,24,60,0,0
50605,-100,4,2,10,64,0,0
50762,-100,4,2,21,64,0,0
50919,-100,4,2,22,64,0,0
51076,-100,4,2,14,64,0,0
51233,-100,4,2,24,64,0,0
51547,-100,4,2,20,68,0,0
51704,-100,4,2,21,68,0,0
51861,-100,4,2,22,68,0,0
52018,-100,4,2,14,68,0,0
52176,-100,4,2,24,68,0,0
52490,-100,4,2,20,72,0,0
52647,-100,4,2,21,72,0,0
52804,-100,4,2,22,72,0,0
52961,-100,4,2,14,72,0,0
53118,-100,4,2,24,72,0,0
54296,-100,4,2,24,5,0,0
54374,-100,4,2,1,70,0,0
56573,-100,4,2,1,64,0,0
57202,-100,4,2,3,64,0,0
57830,-100,4,2,1,64,0,0
58458,-100,4,2,3,64,0,0
59087,-100,4,2,1,70,0,0
60343,-100,4,2,3,70,0,0
61285,-100,4,2,1,64,0,0
61914,-100,4,2,3,64,0,0
62542,-100,4,2,1,64,0,0
64113,-100,4,2,1,85,0,0
64191,-100,4,2,1,82,0,0
65055,-100,4,2,1,82,0,0
65134,-100,4,2,1,82,0,0
66312,-100,4,2,1,88,0,0
66390,-100,4,2,1,88,0,0
66469,-100,4,2,1,88,0,0
66547,-100,4,2,1,88,0,0
66940,-100,4,2,1,88,0,0
67018,-100,4,2,1,88,0,0
67097,-100,4,2,1,88,0,0
67176,-100,4,2,1,88,0,0
67254,-100,4,2,1,82,0,0
67568,-100,4,2,1,82,0,0
67647,-100,4,2,1,82,0,0
67882,-100,4,2,1,86,0,0
67961,-100,4,2,1,86,0,0
68196,-100,4,2,1,90,0,0
68275,-100,4,2,1,90,0,0
68511,-100,4,2,1,94,0,0
68589,-100,4,2,1,70,0,0
68982,-100,4,2,1,62,0,0
70709,-100,4,2,1,70,0,0
75107,-100,4,2,1,76,0,0
75422,-100,4,2,1,72,0,0
75736,-100,4,2,1,68,0,0
76050,-100,4,2,1,64,0,0
76364,-100,4,2,3,80,0,0
76678,-100,4,2,3,78,0,0
76992,-100,4,2,2,86,0,0
77306,-100,4,2,2,84,0,0
77621,-100,4,2,2,70,0,0
77778,-100,4,2,1,70,0,0
79819,-100,4,2,1,5,0,0
79977,-100,4,2,1,70,0,0
80291,-100,4,2,1,85,0,0
80369,-100,4,2,1,70,0,0
80448,-100,4,2,1,85,0,0
80526,-100,4,2,1,70,0,0
80762,-100,4,2,1,76,0,0
82647,-100,4,2,1,85,0,0
86416,-100,4,2,1,72,0,0
87673,-100,4,2,3,90,0,0
89872,-100,4,2,1,90,0,0
90186,-100,4,2,1,78,0,0
90422,-100,4,2,1,5,0,0
90500,-100,4,2,1,90,0,1
93170,-100,4,2,1,90,0,1
93484,-100,4,2,1,90,0,1
93641,-100,4,2,1,90,0,1
94427,-100,4,2,1,90,0,1
94505,-100,4,2,1,90,0,1
94584,-100,4,2,1,90,0,1
94662,-100,4,2,1,90,0,1
94741,-100,4,2,1,90,0,1
94819,-100,4,2,1,90,0,1
95840,-100,4,2,1,90,0,1
97097,-100,4,2,1,90,0,0
97725,-100,4,2,3,90,0,1
99924,-100,4,2,1,90,0,1
100238,-100,4,2,1,78,0,0
100474,-100,4,2,1,5,0,0
100552,-100,4,2,1,90,0,1
101495,-100,4,2,1,90,0,0
102751,-100,4,2,1,78,0,0
102987,-100,4,2,1,5,0,0
103066,-100,4,2,1,90,0,1
107149,-100,4,2,1,90,0,0
107778,-100,4,2,3,90,0,1
109977,-100,4,2,1,90,0,1
110291,-100,4,2,1,90,0,0
110605,-100,4,2,1,90,0,1
111861,-100,4,2,3,95,0,1
112176,-100,4,2,1,90,0,1
113275,-100,4,2,1,90,0,1
113511,-100,4,2,1,90,0,1
113589,-100,4,2,1,90,0,1
113668,-100,4,2,1,90,0,1
114532,-100,4,2,1,90,0,1
114767,-100,4,2,1,90,0,1
114846,-100,4,2,1,90,0,1
114924,-100,4,2,1,90,0,1
115945,-100,4,2,1,90,0,1
116024,-100,4,2,1,90,0,1
116102,-100,4,2,1,90,0,1
116181,-100,4,2,1,90,0,1
116259,-100,4,2,1,90,0,1
116338,-100,4,2,1,90,0,1
116416,-100,4,2,1,90,0,1
116495,-100,4,2,1,90,0,1
116573,-100,4,2,1,90,0,1
117123,-100,4,2,1,90,0,1
117202,-100,4,2,1,90,0,0
117830,-100,4,2,3,90,0,1
120186,-100,4,2,1,90,0,1
120343,-100,4,2,1,90,0,0
120657,-100,4,2,1,90,0,1
121600,-100,4,2,1,95,0,0
122228,-100,4,2,1,90,0,0
122856,-100,4,2,1,85,0,0
123092,-100,4,2,1,5,0,0
123170,-100,4,2,1,90,0,1
125369,-100,4,2,1,100,0,0
125683,-100,4,2,1,100,0,1
127882,-100,4,2,99,82,0,0
128982,-100,4,2,1,75,0,0
130552,-100,4,2,1,85,0,0
132280,-100,4,2,1,90,0,0
133066,-100,4,2,1,95,0,0
133851,-100,4,2,1,100,0,0
134793,-100,4,2,99,85,0,0
139505,-100,4,2,1,5,0,0

[Colours]
Combo1 : 184,192,199
Combo2 : 148,204,235
Combo3 : 12,104,180

[HitObjects]
124,17,991,6,0,P|185:64|263:54,1,160,4|2,1:2|0:0,0:0:0:0:
318,0,1462,2,0,P|337:34|337:73,2,80,2|2|2,0:0|0:0|0:0,0:0:0:0:
252,145,2090,6,0,P|329:134|390:182,1,160,2|2,0:0|0:0,0:0:0:0:
410,257,2561,2,0,P|444:237|464:203,1,80,2|2,0:0|0:0,0:0:0:0:
462,360,3032,6,0,P|401:312|323:323,1,160,2|2,0:0|0:0,0:0:0:0:
269,377,3503,2,0,P|249:342|249:303,1,80,2|2,0:0|0:0,0:0:0:0:
90,331,3975,6,0,L|167:351,2,80,2|2|2,0:0|0:0|0:0,0:0:0:0:
10,342,4446,2,0,P|45:296|37:237,1,120,6|0,1:2|0:0,0:0:0:0:
17,202,4760,6,0,L|109:226,1,80,6|0,0:0|0:0,0:0:0:0:
171,242,5074,1,0,0:0:0:0:
67,120,5388,2,0,L|42:27,1,80,2|0,0:0|0:0,0:0:0:0:
144,140,5860,6,0,P|221:151|282:103,1,160,0|0,0:0|0:0,0:0:0:0:
302,68,6252,1,0,0:0:0:0:
302,68,6331,2,0,L|326:160,1,80,0|0,0:0|0:0,0:0:0:0:
389,85,6645,2,0,L|364:-7,1,80,2|0,0:0|0:0,0:0:0:0:
458,28,6959,6,0,B|468:66|468:66|475:90|467:122|449:140,1,120,0|0,0:0|0:0,0:0:0:0:
409,162,7273,2,0,L|423:216,2,40,2|0|0,0:0|0:0|0:0,0:0:0:0:
507,251,7744,2,0,P|430:240|369:288,1,160,0|0,0:0|0:0,0:0:0:0:
456,338,8216,5,0,1:2:0:0:
318,375,8530,6,0,P|279:364|251:336,1,80,2|0,0:0|0:0,0:0:0:0:
184,375,8844,2,0,P|174:336|184:298,1,80,0|0,0:0|0:0,0:0:0:0:
251,260,9158,2,0,L|226:167,1,80,2|0,0:0|0:0,0:0:0:0:
219,143,9394,1,0,0:0:0:0:
219,143,9472,6,0,L|285:75,1,80,0|0,0:0|0:0,0:0:0:0:
250,0,9786,2,0,L|194:57,1,80,2|0,0:0|0:0,0:0:0:0:
126,125,10100,2,0,L|104:48,2,80,0|0|2,0:0|0:0|0:0,0:0:0:0:
147,201,10572,5,0,0:0:0:0:
154,208,10886,1,0,0:0:0:0:
161,215,11200,2,0,P|84:204|23:252,1,160,0|0,0:0|0:0,0:0:0:0:
24,331,11671,6,0,P|62:320|90:292,1,80,6|0,1:2|0:0,0:0:0:0:
161,337,11985,2,0,P|188:308|227:297,1,80,0|0,1:2|0:0,0:0:0:0:
302,341,12299,1,2,0:0:0:0:
302,341,12456,2,0,P|339:354|379:351,1,80,0|0,0:0|1:2,0:0:0:0:
473,379,12771,6,0,L|427:208,1,160,0|0,0:0|0:0,0:0:0:0:
420,185,13163,1,0,0:0:0:0:
420,185,13242,2,0,L|512:209,1,80,0|0,1:2|0:0,0:0:0:0:
472,110,13556,2,0,L|395:90,1,80,2|0,0:0|0:0,0:0:0:0:
324,158,13870,6,0,L|295:186,3,40,0|0|0|0,1:2|0:0|0:0|0:0,0:0:0:0:
267,214,14184,2,0,P|209:206|162:243,1,120,2|0,1:2|0:0,0:0:0:0:
142,276,14498,2,0,L|119:190,1,80,2|2,1:2|0:0,0:0:0:0:
44,219,14812,2,0,L|21:133,1,80,2|2,1:2|0:0,0:0:0:0:
0,46,15127,6,0,L|77:66,1,80,6|2,1:2|1:2,0:0:0:0:
226,34,15598,2,0,L|169:90,1,80,6|2,1:2|1:2,0:0:0:0:
119,221,16095,2,0,L|77:66,1,160,6|2,1:2|0:0,0:0:0:0:
225,34,16817,6,0,L|245:111,1,80,6|2,1:2|1:2,0:0:0:0:
214,260,17413,2,0,L|270:203,1,80,6|2,1:2|1:2,0:0:0:0:
400,153,18100,2,0,L|245:111,1,160,6|0,1:2|1:2,0:0:0:0:
269,27,19228,2,0,L|346:48,1,80,0|0,0:0|0:0,0:0:0:0:
424,69,19816,5,4,0:0:0:0:
256,192,19898,12,0,21704,0:0:0:0:
508,109,22333,6,0,P|446:60|369:71,1,160,6|10,1:2|0:0,0:0:0:0:
286,119,22804,2,0,P|208:129|147:81,1,160,6|10,1:2|0:0,0:0:0:0:
73,21,23275,2,0,L|52:98,1,80,6|2,1:2|1:2,0:0:0:0:
93,168,23589,6,0,L|58:188,3,40,10|10|10|10,0:0|0:0|0:0|0:0,0:0:0:0:
23,208,23903,2,0,L|3:285,1,80,10|10,0:0|0:0,0:0:0:0:
89,266,24217,2,0,L|69:344,1,80,8|0,0:0|1:2,0:0:0:0:
155,324,24532,1,10,0:0:0:0:
188,148,24846,5,2,0:0:0:0:
195,155,25160,6,0,P|229:136|268:136,1,80,14|0,0:0|1:2,0:0:0:0:
322,190,25474,1,2,0:0:0:0:
343,117,25631,2,0,P|378:97|416:98,1,80,2|8,1:2|0:0,0:0:0:0:
437,26,25945,2,0,P|491:79|470:153,1,160,2|2,1:2|1:2,0:0:0:0:
449,229,26416,6,0,P|483:249|501:282,1,80,8|2,3:2|1:2,0:0:0:0:
512,321,26652,1,0,3:2:0:0:
512,321,26730,2,0,L|411:347,1,80,2|0,0:0|1:2,0:0:0:0:
378,285,27045,2,0,L|277:311,1,80,10|0,0:0|0:0,0:0:0:0:
280,379,27359,6,0,P|245:358|227:325,1,80,2|0,1:2|0:0,0:0:0:0:
153,343,27673,2,0,P|153:302|173:270,1,80,10|0,0:0|1:2,0:0:0:0:
246,250,27987,1,2,0:0:0:0:
226,178,28144,2,0,L|206:100,1,80,2|8,1:2|0:0,0:0:0:0:
260,47,28458,2,0,P|186:27|132:81,1,160,2|0,1:2|1:2,0:0:0:0:
58,60,28929,6,0,P|78:95|77:133,1,80,8|0,1:2|1:2,0:0:0:0:
56,167,29165,1,0,0:0:0:0:
56,167,29244,2,0,L|76:245,1,80,2|0,3:2|0:0,0:0:0:0:
2,267,29558,2,0,P|37:313|96:320,1,120,10|0,3:2|3:2,0:0:0:0:
133,309,29872,6,0,P|152:275|186:256,1,80,2|0,1:2|0:0,0:0:0:0:
168,182,30186,2,0,P|206:181|242:202,1,80,10|0,0:0|1:2,0:0:0:0:
260,274,30500,1,2,0:0:0:0:
315,222,30657,2,0,L|393:202,1,80,2|8,1:2|0:0,0:0:0:0:
413,129,30971,2,0,P|466:183|446:256,1,160,2|2,1:2|1:2,0:0:0:0:
499,313,31443,6,0,P|465:332|426:332,1,80,8|0,3:2|0:0,0:0:0:0:
390,310,31678,1,0,3:2:0:0:
390,310,31757,2,0,L|297:334,1,80,2|0,1:2|1:2,0:0:0:0:
255,271,32071,2,0,L|162:295,1,80,10|0,0:0|0:0,0:0:0:0:
156,365,32385,6,0,P|122:345|103:311,1,80,2|0,1:2|0:0,0:0:0:0:
28,329,32699,2,0,P|28:289|48:256,1,80,10|0,0:0|1:2,0:0:0:0:
122,236,33013,1,2,0:0:0:0:
68,182,33170,2,0,L|44:89,1,80,2|8,1:2|0:0,0:0:0:0:
116,46,33484,2,0,L|135:123,1,80,2|0,1:2|0:0,0:0:0:0:
223,141,33799,6,0,L|200:55,2,80,2|0|2,1:2|0:0|3:2,0:0:0:0:
290,181,34270,2,0,P|244:217|186:209,2,120,2|2|2,1:2|3:2|3:2,0:0:0:0:
329,113,34898,5,2,0:0:0:0:
329,113,35212,6,0,P|349:79|383:60,1,80,6|0,1:2|0:0,0:0:0:0:
456,79,35526,1,2,1:2:0:0:
402,133,35683,2,0,L|422:210,1,80,2|0,0:0|1:2,0:0:0:0:
496,233,35998,2,0,P|476:267|442:286,1,80,2|0,0:0|1:2,0:0:0:0:
367,263,36312,2,0,L|290:283,2,80,2|0|0,0:0|1:2|0:0,0:0:0:0:
387,340,36783,2,0,L|310:360,1,80,2|0,1:2|0:0,0:0:0:0:
230,379,37097,6,0,L|202:350,3,40,2|2|2|2,1:2|0:0|0:0|0:0,0:0:0:0:
211,311,37411,2,0,P|211:271|190:237,1,80,2|0,1:2|0:0,0:0:0:0:
155,216,37647,1,0,0:0:0:0:
155,216,37725,2,0,P|134:182|134:142,1,80,2|0,1:2|0:0,0:0:0:0:
155,65,38039,2,0,L|232:44,2,80,2|2|0,1:2|0:0|1:2,0:0:0:0:
77,85,38511,5,2,1:2:0:0:
207,161,38825,6,0,L|284:140,1,80,2|0,1:2|0:0,0:0:0:0:
361,117,39139,1,0,1:2:0:0:
341,39,39296,2,0,P|380:39|415:57,1,80,2|0,0:0|1:2,0:0:0:0:
435,135,39610,2,0,L|459:227,1,80,2|0,0:0|1:2,0:0:0:0:
489,302,39924,6,0,P|427:253|350:264,1,160,6|2,1:2|1:2,0:0:0:0:
330,340,40395,2,0,L|237:364,1,80,2|0,1:2|1:2,0:0:0:0:
194,294,40710,2,0,L|271:273,1,80,2|0,1:2|1:2,0:0:0:0:
289,187,41024,2,0,L|134:228,1,160,2|0,1:2|3:2,0:0:0:0:
115,304,41495,2,0,P|80:285|60:250,1,80,2|2,3:2|3:2,0:0:0:0:
39,173,41809,1,0,3:2:0:0:
95,116,41966,1,0,3:2:0:0:
17,95,42123,2,0,L|-2:18,1,80,8|8,3:2|3:2,0:0:0:0:
84,35,42437,6,0,B|238:-6|238:-6|307:33,2,240,6|6|6,1:2|1:2|1:2,0:0:0:0:
328,109,43851,6,0,L|405:89,2,80,2|0|0,3:2|3:2|3:2,0:0:0:0:
349,187,44322,2,0,L|472:154,2,120,6|6|6,1:2|1:2|1:2,0:0:0:0:
264,200,44950,1,8,0:0:0:0:
271,207,45265,5,4,1:2:0:0:
256,192,45343,12,0,47149,1:2:0:0:
256,192,47228,12,0,48406,1:2:0:0:
256,192,49034,5,0,1:2:0:0:
256,192,49348,12,2,53118,0:0:0:0:
278,85,54374,6,0,B|291:31|349:-2|403:14|403:14|480:35,2,240,6|6|6,1:2|1:2|1:2,0:0:0:0:
285,92,55631,2,0,L|362:112,1,80,0|0,0:0|0:0,0:0:0:0:
439,132,55945,1,0,1:2:0:0:
439,132,56102,1,0,1:2:0:0:
512,151,56259,2,0,P|477:197|419:205,1,120,8|0,0:0|1:2,0:0:0:0:
380,194,56573,6,0,L|359:271,1,80,6|0,1:2|0:0,0:0:0:0:
272,289,56888,2,0,L|293:212,1,80,8|0,0:0|1:2,0:0:0:0:
314,138,57202,2,0,P|275:137|240:156,1,80,2|0,3:2|3:2,0:0:0:0:
215,190,57437,1,2,3:2:0:0:
215,190,57516,2,0,L|129:167,1,80,8|2,3:2|3:2,0:0:0:0:
59,148,57830,6,0,P|50:90|86:44,2,120,2|2|2,1:2|1:2|1:2,0:0:0:0:
81,225,58458,2,0,P|89:282|53:329,1,120,0|8,3:2|0:0,0:0:0:0:
18,349,58772,2,0,L|95:369,1,80,0|0,3:2|3:2,0:0:0:0:
174,311,59087,6,0,B|195:234|195:234|211:180|178:122|124:109,2,240,6|6|6,1:2|1:2|1:2,0:0:0:0:
181,318,60343,2,0,L|266:340,1,80,2|0,0:0|0:0,0:0:0:0:
278,261,60657,2,0,L|363:283,1,80,2|0,0:0|0:0,0:0:0:0:
377,355,60971,2,0,P|409:337|430:301,1,80,0|8,3:2|0:0,0:0:0:0:
429,260,61207,1,8,0:0:0:0:
429,260,61285,6,0,L|451:175,1,80,6|0,1:2|0:0,0:0:0:0:
508,116,61600,2,0,L|423:94,1,80,8|0,0:0|1:2,0:0:0:0:
409,21,61914,2,0,P|377:39|356:74,1,80,2|0,3:2|3:2,0:0:0:0:
357,116,62150,1,2,3:2:0:0:
357,116,62228,2,0,L|272:94,1,80,8|2,3:2|3:2,0:0:0:0:
205,76,62542,6,0,P|239:29|297:21,2,120,2|2|2,1:2|1:2|1:2,0:0:0:0:
185,150,63170,2,0,P|138:116|130:58,1,120,0|0,0:0|0:0,0:0:0:0:
141,20,63484,2,0,L|63:0,1,80,8|8,1:2|0:0,0:0:0:0:
7,55,63799,6,0,L|-5:101,3,40,2|2|2|2,1:2|1:2|1:2|1:2,0:0:0:0:
16,128,64113,2,0,B|36:162|36:162|15:239,1,120,6|0,1:2|0:0,0:0:0:0:
3,277,64427,6,0,P|39:265|78:276,1,80,0|2,1:2|0:0,0:0:0:0:
118,210,64741,2,0,P|146:237|156:276,1,80,2|2,1:2|0:0,0:0:0:0:
114,343,65055,2,0,L|276:386,1,160,2|0,1:2|1:2,0:0:0:0:
337,344,65526,2,0,P|315:270|368:215,1,160,2|2,0:0|0:0,0:0:0:0:
406,225,65919,1,0,0:0:0:0:
406,225,65998,2,0,P|439:244|478:245,1,80,2|0,1:2|0:0,0:0:0:0:
460,170,66312,6,0,L|484:77,1,80,6|2,1:2|1:2,0:0:0:0:
499,18,66626,2,0,P|441:25|405:73,1,120,0|0,0:0|0:0,0:0:0:0:
394,109,66940,2,0,L|301:85,1,80,6|2,1:2|1:2,0:0:0:0:
335,14,67254,2,0,P|277:21|241:69,1,120,0|0,0:0|0:0,0:0:0:0:
229,105,67568,6,0,L|136:81,1,80,6|0,1:2|0:0,0:0:0:0:
131,162,67882,2,0,L|208:181,1,80,6|0,1:2|0:0,0:0:0:0:
187,257,68196,2,0,L|110:238,1,80,6|0,1:2|0:0,0:0:0:0:
32,218,68511,5,6,1:2:0:0:
256,192,68589,12,2,70081,1:2:0:0:
170,3,71338,6,0,L|192:88,1,80,6|0,1:2|1:2,0:0:0:0:
262,27,71652,2,0,L|284:112,1,80,0|0,1:2|1:2,0:0:0:0:
354,51,71966,2,0,L|376:136,1,80,0|0,1:2|1:2,0:0:0:0:
446,75,72280,1,2,0:0:0:0:
400,228,72594,6,0,L|378:143,1,80,2|0,1:2|1:2,0:0:0:0:
308,204,72908,2,0,L|286:119,1,80,0|0,1:2|1:2,0:0:0:0:
216,180,73222,2,0,L|194:95,1,80,0|0,1:2|1:2,0:0:0:0:
124,156,73536,1,2,0:0:0:0:
170,3,73851,6,0,L|192:88,1,80,2|0,1:2|1:2,0:0:0:0:
262,27,74165,2,0,L|284:112,1,80,0|0,1:2|1:2,0:0:0:0:
354,51,74479,2,0,L|395:212,1,160,0|2,1:2|0:0,0:0:0:0:
414,282,74950,1,2,0:0:0:0:
341,303,75107,6,0,P|394:357|468:337,2,160,2|2|0,1:2|1:2|1:2,0:0:0:0:
320,227,75893,1,0,1:2:0:0:
264,283,76050,2,0,L|186:303,1,80,0|0,1:2|1:2,0:0:0:0:
165,380,76364,6,0,B|140:374|118:352|110:326|110:326|89:248,1,160,0|0,3:2|3:2,0:0:0:0:
69,171,76835,1,0,3:2:0:0:
146,193,76992,2,0,L|300:151,2,160,2|0|4,0:0|0:0|1:2,0:0:0:0:
256,192,80291,5,6,1:2:0:0:
256,192,80448,1,6,1:2:0:0:
256,192,80526,12,6,82647,1:2:0:0:
144,117,83275,6,0,P|179:71|171:12,2,120,2|0|0,1:2|1:2|1:2,0:0:0:0:
68,118,83903,2,0,P|90:171|145:193,2,120,2|0|0,1:2|1:2|1:2,0:0:0:0:
105,51,84531,2,0,P|47:43|0:80,2,120,2|2|2,1:2|1:2|1:2,0:0:0:0:
144,117,85160,6,0,L|275:152,1,120,6|0,1:2|1:2,0:0:0:0:
297,158,85474,2,0,P|297:197|277:231,1,80,0|0,0:0|1:2,0:0:0:0:
203,251,85788,6,0,L|71:215,1,120,2|0,1:2|1:2,0:0:0:0:
49,210,86102,2,0,P|29:244|28:283,1,80,0|0,0:0|1:2,0:0:0:0:
83,337,86416,6,0,L|161:358,2,80,2|2|2,0:0|0:0|0:0,0:0:0:0:
237,377,87045,5,2,1:2:0:0:
284,5,87673,6,0,L|191:29,1,80,6|0,1:2|0:0,0:0:0:0:
128,43,87987,1,2,0:0:0:0:
184,101,88144,6,0,L|159:193,1,80,2|0,1:2|0:0,0:0:0:0:
141,255,88458,1,2,0:0:0:0:
219,235,88615,6,0,L|286:302,1,80,2|0,1:2|0:0,0:0:0:0:
331,348,88929,1,2,0:0:0:0:
352,271,89087,6,0,L|444:246,1,80,2|0,1:2|0:0,0:0:0:0:
506,229,89401,1,2,0:0:0:0:
450,172,89558,6,0,L|474:79,1,80,2|0,1:2|0:0,0:0:0:0:
490,8,89872,2,0,L|397:33,1,80,2|2,1:2|0:0,0:0:0:0:
334,50,90186,5,2,0:0:0:0:
327,57,90500,5,4,1:2:0:0:
348,131,90657,2,0,B|307:143|263:118|253:77|253:77|241:31,1,160,8|0,0:0|1:2,0:0:0:0:
233,3,91050,1,0,0:0:0:0:
233,3,91128,2,0,L|140:28,1,80,8|0,0:0|1:2,0:0:0:0:
81,4,91443,6,0,P|81:43|100:77,1,80,0|0,1:2|0:0,0:0:0:0:
135,96,91678,1,0,1:2:0:0:
135,96,91757,2,0,P|154:130|154:169,1,80,8|0,0:0|1:2,0:0:0:0:
80,150,92071,2,0,L|-13:175,1,80,8|0,1:2|1:2,0:0:0:0:
22,244,92385,2,0,L|99:223,1,80,8|0,0:0|1:2,0:0:0:0:
172,203,92699,6,0,P|165:261|118:296,1,120,4|0,1:2|0:0,0:0:0:0:
79,306,93013,2,0,P|44:325|24:360,1,80,8|2,0:0|1:2,0:0:0:0:
98,380,93327,2,0,L|175:359,1,80,2|2,0:0|1:2,0:0:0:0:
252,337,93641,2,0,L|329:316,1,80,10|0,0:0|0:0,0:0:0:0:
383,371,93956,6,0,B|402:354|411:321|403:296|403:296|386:234,1,120,0|0,1:2|0:0,0:0:0:0:
381,219,94270,2,0,L|304:240,1,80,8|2,0:0|1:2,0:0:0:0:
225,261,94584,2,0,L|204:184,1,80,2|2,0:0|1:2,0:0:0:0:
182,107,94898,2,0,L|161:30,1,80,10|0,0:0|1:2,0:0:0:0:
255,53,95212,6,0,L|332:32,1,80,2|0,1:2|1:2,0:0:0:0:
370,20,95448,1,0,1:2:0:0:
370,20,95526,2,0,P|409:19|443:39,1,80,2|0,1:2|1:2,0:0:0:0:
389,93,95840,5,2,1:2:0:0:
462,112,95998,1,2,1:2:0:0:
408,166,96155,2,0,L|331:187,1,80,2|2,1:2|1:2,0:0:0:0:
310,113,96469,2,0,P|276:132|256:166,1,80,2|2,1:2|1:2,0:0:0:0:
181,147,96783,2,0,P|180:185|199:220,1,80,10|10,1:2|1:2,0:0:0:0:
147,276,97097,6,0,P|179:296|220:295,1,80,2|2,1:2|0:0,0:0:0:0:
258,285,97333,1,10,0:0:0:0:
258,285,97411,2,0,P|297:284|331:305,1,80,10|10,0:0|0:0,0:0:0:0:
350,382,97725,6,0,L|443:358,1,80,6|0,1:2|0:0,0:0:0:0:
506,344,98039,1,10,0:0:0:0:
450,285,98196,6,0,L|475:193,1,80,2|0,1:2|0:0,0:0:0:0:
493,132,98510,1,10,1:2:0:0:
415,152,98667,6,0,L|348:85,1,80,2|0,1:2|0:0,0:0:0:0:
303,39,98981,1,10,0:0:0:0:
282,116,99139,6,0,L|189:141,1,80,2|0,1:2|0:0,0:0:0:0:
128,158,99453,1,10,0:0:0:0:
184,215,99610,6,0,L|160:308,1,80,2|0,1:2|0:0,0:0:0:0:
144,379,99924,2,0,L|237:354,1,80,2|2,1:2|0:0,0:0:0:0:
300,337,100238,5,0,0:0:0:0:
307,330,100552,5,6,1:2:0:0:
390,346,100710,2,0,B|380:309|380:309|370:268|326:243|285:255,1,160,8|0,0:0|1:2,0:0:0:0:
246,264,101102,1,0,0:0:0:0:
246,264,101181,2,0,L|168:284,1,80,8|0,0:0|0:0,0:0:0:0:
82,271,101495,6,0,L|109:374,2,106.666666666667,2|2|2,1:2|1:2|1:2,0:0:0:0:
96,184,102123,2,0,L|-7:211,2,106.666666666667,2|2|2,1:2|1:2|1:2,0:0:0:0:
199,156,102751,1,2,0:0:0:0:
54,16,103066,6,0,P|20:35|0:69,1,80,6|0,1:2|0:0,0:0:0:0:
75,90,103380,2,0,L|153:70,1,80,2|2,1:2|1:2,0:0:0:0:
231,50,103694,2,0,L|309:30,1,80,2|0,1:2|0:0,0:0:0:0:
381,10,104008,6,0,P|374:68|327:103,1,120,0|0,1:2|0:0,0:0:0:0:
288,112,104322,2,0,P|254:131|234:165,1,80,0|2,1:2|1:2,0:0:0:0:
307,185,104636,2,0,L|385:165,1,80,2|2,1:2|1:2,0:0:0:0:
461,145,104950,2,0,L|481:223,1,80,2|2,0:0|1:2,0:0:0:0:
499,299,105265,6,0,P|446:244|372:264,1,160,0|0,1:2|0:0,0:0:0:0:
354,346,105736,1,0,1:2:0:0:
293,289,105893,2,0,L|215:309,1,80,0|0,1:2|0:0,0:0:0:0:
195,383,106207,2,0,P|160:363|141:328,1,80,0|0,1:2|0:0,0:0:0:0:
130,290,106443,1,2,1:2:0:0:
130,290,106521,6,0,P|55:269|37:195,1,160,10|10,1:2|1:2,0:0:0:0:
90,141,106992,1,10,1:2:0:0:
16,121,107149,2,0,P|36:86|71:67,1,80,10|10,0:0|0:0,0:0:0:0:
110,68,107385,1,10,0:0:0:0:
110,68,107463,2,0,L|187:46,1,80,10|2,0:0|0:0,0:0:0:0:
264,65,107778,6,0,L|341:43,1,80,6|0,1:2|0:0,0:0:0:0:
418,18,108092,1,10,0:0:0:0:
398,98,108249,6,0,L|454:154,1,80,2|0,1:2|0:0,0:0:0:0:
512,209,108563,1,10,1:2:0:0:
435,230,108720,6,0,L|414:307,1,80,2|0,1:2|0:0,0:0:0:0:
394,384,109034,1,10,0:0:0:0:
338,327,109192,6,0,L|260:347,1,80,2|0,1:2|0:0,0:0:0:0:
182,368,109506,1,10,1:2:0:0:
203,291,109663,6,0,L|147:233,1,80,2|0,1:2|0:0,0:0:0:0:
87,169,109977,2,0,L|164:148,1,80,2|2,0:0|1:2,0:0:0:0:
145,74,110291,6,0,B|185:62|229:87|239:128|239:128|251:174,1,160,2|2,1:2|1:2,0:0:0:0:
258,203,110683,1,2,0:0:0:0:
258,203,110762,2,0,P|312:149|385:170,1,160,10|2,0:0|1:2,0:0:0:0:
459,151,111233,2,0,P|459:190|439:224,1,80,10|2,0:0|1:2,0:0:0:0:
494,279,111547,6,0,P|459:298|420:299,1,80,0|0,1:2|1:2,0:0:0:0:
385,279,111783,1,0,0:0:0:0:
385,279,111861,2,0,L|307:299,1,80,2|0,3:2|3:2,0:0:0:0:
219,280,112176,2,0,L|240:358,1,80,2|0,1:2|0:0,0:0:0:0:
152,341,112490,2,0,L|131:263,1,80,2|0,1:2|0:0,0:0:0:0:
168,197,112804,6,0,P|110:189|64:225,1,120,6|0,1:2|0:0,0:0:0:0:
44,259,113118,2,0,L|23:181,1,80,8|2,1:2|0:0,0:0:0:0:
2,104,113432,2,0,L|79:83,1,80,2|2,1:2|0:0,0:0:0:0:
156,62,113746,2,0,L|233:41,1,80,10|0,1:2|0:0,0:0:0:0:
307,21,114060,6,0,P|300:79|253:114,1,120,0|0,1:2|0:0,0:0:0:0:
214,124,114374,2,0,P|180:145|160:179,1,80,8|2,1:2|0:0,0:0:0:0:
180,256,114689,2,0,L|257:235,1,80,2|2,1:2|0:0,0:0:0:0:
334,214,115003,2,0,L|411:193,1,80,10|0,1:2|1:2,0:0:0:0:
431,119,115317,6,0,P|465:138|485:172,1,80,2|0,1:2|1:2,0:0:0:0:
486,214,115552,1,0,0:0:0:0:
490,218,115631,2,0,L|511:295,1,80,2|0,1:2|1:2,0:0:0:0:
490,372,115945,5,2,1:2:0:0:
433,316,116102,1,2,1:2:0:0:
356,337,116259,2,0,L|279:358,1,80,2|2,1:2|1:2,0:0:0:0:
205,378,116573,2,0,P|170:359|150:324,1,80,2|2,1:2|1:2,0:0:0:0:
169,250,116888,2,0,P|203:230|242:229,1,80,2|0,1:2|0:0,0:0:0:0:
320,208,117202,6,0,P|285:188|265:155,1,80,2|2,0:0|0:0,0:0:0:0:
253,115,117437,1,10,0:0:0:0:
253,115,117516,2,0,P|272:80|271:40,1,80,10|10,0:0|0:0,0:0:0:0:
197,21,117830,6,0,L|119:40,1,80,6|0,1:2|0:0,0:0:0:0:
40,57,118144,1,10,1:2:0:0:
97,116,118301,6,0,L|76:192,1,80,2|0,1:2|0:0,0:0:0:0:
54,269,118615,1,10,1:2:0:0:
131,249,118772,6,0,L|187:305,1,80,2|0,1:2|0:0,0:0:0:0:
243,362,119086,1,10,1:2:0:0:
263,284,119244,6,0,L|340:262,1,80,2|0,1:2|0:0,0:0:0:0:
419,242,119558,1,10,1:2:0:0:
362,186,119715,6,0,L|381:107,1,80,2|8,1:2|0:0,0:0:0:0:
402,22,120029,2,0,L|324:42,1,80,0|10,0:0|1:2,0:0:0:0:
266,96,120343,6,0,P|192:115|139:61,1,160,2|2,0:0|1:2,0:0:0:0:
128,21,120736,1,2,0:0:0:0:
128,21,120814,2,0,B|87:30|61:74|73:114|73:114|86:160,1,160,10|0,0:0|1:2,0:0:0:0:
30,207,121285,2,0,P|64:226|103:226,1,80,8|0,0:0|1:2,0:0:0:0:
181,206,121600,6,0,L|289:177,2,106.666666666667,2|2|2,1:2|1:2|1:2,0:0:0:0:
201,283,122228,2,0,L|92:311,2,106.666666666667,2|2|2,1:2|1:2|1:2,0:0:0:0:
278,262,122856,2,0,P|336:268|371:315,1,120,6|0,1:2|0:0,0:0:0:0:
382,354,123170,6,0,L|467:331,1,80,2|2,1:2|1:2,0:0:0:0:
499,264,123484,2,0,L|478:187,1,80,2|2,1:2|1:2,0:0:0:0:
457,110,123798,2,0,L|436:33,1,80,2|0,1:2|1:2,0:0:0:0:
365,82,124113,6,0,P|325:82|291:62,1,80,0|0,1:2|1:2,0:0:0:0:
280,23,124348,1,0,0:0:0:0:
280,23,124427,2,0,L|203:44,1,80,0|2,1:2|1:2,0:0:0:0:
135,104,124741,2,0,L|114:27,1,80,2|2,1:2|1:2,0:0:0:0:
36,47,125055,2,0,L|57:124,1,80,2|2,1:2|1:2,0:0:0:0:
36,201,125369,6,0,P|108:180|162:235,1,160,0|4,1:2|1:2,0:0:0:0:
141,308,125840,1,0,1:2:0:0:
67,288,125998,2,0,P|67:327|86:361,1,80,0|0,1:2|0:0,0:0:0:0:
160,381,126312,2,0,P|193:361|213:328,1,80,0|2,1:2|1:2,0:0:0:0:
223,287,126547,1,2,1:2:0:0:
223,287,126626,6,0,L|300:307,1,80,2|2,1:2|1:2,0:0:0:0:
320,230,126940,2,0,L|397:250,1,80,10|10,1:2|1:2,0:0:0:0:
450,197,127254,2,0,P|471:270|417:323,2,160,2|8|6,1:2|0:0|1:2,0:0:0:0:
231,119,131024,6,0,B|115:150|115:150|80:130,2,160,6|6|6,1:2|1:2|1:2,0:0:0:0:
377,78,131966,6,0,P|342:32|283:25,2,120,6|2|2,1:2|1:2|1:2,0:0:0:0:
416,224,132673,2,0,P|462:189|470:131,2,120,2|2|2,1:2|1:2|1:2,0:0:0:0:
377,234,133223,6,0,L|387:195,3,40,2|2|2|2,1:2|0:0|1:2|0:0,0:0:0:0:
339,245,133537,2,0,L|349:206,3,40,2|2|2|0,1:2|1:2|1:2|0:0,0:0:0:0:
300,255,133851,2,0,L|279:332,1,80,10|10,1:2|1:2,0:0:0:0:
214,277,134165,2,0,L|193:354,1,80,2|10,1:2|1:2,0:0:0:0:
425,292,134793,5,4,1:2:0:0:
256,192,134872,12,0,139505,0:0:0:0:
