osu file format v14

[General]
AudioFilename: audio.ogg
AudioLeadIn: 0
PreviewTime: 86957
Countdown: 0
SampleSet: Soft
StackLeniency: 0.7
Mode: 3
LetterboxInBreaks: 0
SpecialStyle: 0
WidescreenStoryboard: 1

[Editor]
Bookmarks: 12,76355,106127,132428
DistanceSpacing: 0.8
BeatDivisor: 16
GridSize: 32
TimelineZoom: 2.239999

[Metadata]
Title:Lemuria
TitleUnicode:Lemuria
Artist:Festa
ArtistUnicode:Festa
Creator:ArtZone
Version:[Seo-a]'s Insane
Source:BOFU2016
Tags:[seo-a] zoy_ xi lifestream Evolved Chronicles electronic artcore instrumental DVSP-0169 Comic Market 91 Comiket 96 C91 C96 nmcd-0016 のらねこさい まとめ ねこみりん nekomimi style piano 鑓田 THE BMS OF FIGHTERS ULTIMATE 2016 Legendary Again
BeatmapID:3625702
BeatmapSetID:1771125

[Difficulty]
HPDrainRate:8
CircleSize:4
OverallDifficulty:8
ApproachRate:5
SliderMultiplier:1.4
SliderTickRate:1

[Events]
//Background and Video events
0,0,"BG.jpg",0,0
//Break Periods
//Storyboard Layer 0 (Background)
//Storyboard Layer 1 (Fail)
//Storyboard Layer 2 (Pass)
//Storyboard Layer 3 (Foreground)
//Storyboard Layer 4 (Overlay)
//Storyboard Sound Samples

[TimingPoints]
940,314.13612565445,4,2,1,50,1,0
4709,314.13612565445,4,2,1,50,1,0
10363,314.13612565445,4,2,1,50,1,0
15075,314.13612565445,4,2,1,50,1,0
15547,331.491712707182,4,2,1,50,1,0
15547,-105.263157894737,4,2,1,50,0,0
16044,350.877192982456,4,2,1,50,1,0
16044,-95.2380952380954,4,2,1,50,0,0
16394,372.670807453416,4,2,1,50,1,0
16394,-90.9090909090909,4,2,1,50,0,0
16766,397.350993377483,4,2,1,50,1,0
16766,-80,4,2,1,50,0,0
17362,458.015267175573,4,2,1,50,1,0
17362,-76.9230769230769,4,2,1,50,0,0
18049,540.540540540541,4,2,1,50,1,0
18049,-68.9655172413793,4,2,1,50,0,0
18589,588.235294117647,4,2,1,50,1,0
18589,-64.5161290322581,4,2,1,50,0,0
19765,314.13612565445,4,2,1,50,1,0
19765,-117.647058823529,4,2,1,50,0,0
20550,-111.111111111111,4,2,1,50,0,0
21178,-105.263157894737,4,2,1,50,0,0
21963,-100,4,2,1,50,0,0
24791,-135.135135135135,4,2,1,50,0,0
24987,-80,4,2,1,50,0,0
25026,-66.6666666666667,4,2,1,50,0,0
25065,-57.1428571428571,4,2,1,50,0,0
25105,-100,4,2,1,50,0,0
34843,-135.135135135135,4,2,1,50,0,0
35039,-80,4,2,1,50,0,0
35079,-64.5161290322581,4,2,1,50,0,0
35118,-57.1428571428571,4,2,1,50,0,0
35157,-100,4,2,1,50,0,0
42382,-58.8235294117647,4,2,1,50,0,0
42422,-111.111111111111,4,2,1,50,0,0
42539,-58.8235294117647,4,2,1,50,0,0
42579,-111.111111111111,4,2,1,50,0,0
42696,-100,4,2,1,50,0,0
42854,-58.8235294117647,4,2,1,50,0,0
42893,-111.111111111111,4,2,1,50,0,0
43011,-58.8235294117647,4,2,1,50,0,0
43050,-111.111111111111,4,2,1,50,0,0
43168,-100,4,2,1,50,0,0
43325,-58.8235294117647,4,2,1,50,0,0
43364,-111.111111111111,4,2,1,50,0,0
43482,-58.8235294117647,4,2,1,50,0,0
43521,-111.111111111111,4,2,1,50,0,0
43639,-100,4,2,1,50,0,0
44267,-71.4285714285714,4,2,1,50,0,0
44346,-117.647058823529,4,2,1,50,0,0
44503,-71.4285714285714,4,2,1,50,0,0
44581,-117.647058823529,4,2,1,50,0,0
44738,-71.4285714285714,4,2,1,50,0,0
44778,-117.647058823529,4,2,1,50,0,0
44895,-100,4,2,1,50,0,0
45210,314.13612565445,6,2,1,50,1,0
49293,314.13612565445,4,2,1,50,1,0
49922,-111.111111111111,4,2,1,50,0,0
51178,-117.647058823529,4,2,1,50,0,0
52435,-125,4,2,1,50,0,0
53063,-66.6666666666667,4,2,1,50,0,0
53141,-500,4,2,1,50,0,0
54005,-250,4,2,1,50,0,0
54084,-166.666666666667,4,2,1,50,0,0
54162,-125,4,2,1,50,0,0
54241,-100,4,2,1,50,0,0
54319,314.13612565445,7,2,1,50,1,0
54319,-58.8235294117647,4,2,1,50,0,0
54359,-111.111111111111,4,2,1,50,0,0
54477,-58.8235294117647,4,2,1,50,0,0
54516,-111.111111111111,4,2,1,50,0,0
54634,-100,4,2,1,50,0,0
54791,-58.8235294117647,4,2,1,50,0,0
54830,-111.111111111111,4,2,1,50,0,0
54948,-58.8235294117647,4,2,1,50,0,0
54987,-111.111111111111,4,2,1,50,0,0
55105,-100,4,2,1,50,0,0
55262,-58.8235294117647,4,2,1,50,0,0
55301,-125,4,2,1,50,0,0
55419,-58.8235294117647,4,2,1,50,0,0
55458,-111.111111111111,4,2,1,50,0,0
55576,-100,4,2,1,50,0,0
56517,314.13612565445,4,2,1,50,1,0
59030,314.13612565445,7,2,1,50,1,0
59030,-58.8235294117647,4,2,1,50,0,0
59069,-111.111111111111,4,2,1,50,0,0
59187,-58.8235294117647,4,2,1,50,0,0
59226,-111.111111111111,4,2,1,50,0,0
59344,-100,4,2,1,50,0,0
59501,-58.8235294117647,4,2,1,50,0,0
59540,-111.111111111111,4,2,1,50,0,0
59658,-58.8235294117647,4,2,1,50,0,0
59697,-111.111111111111,4,2,1,50,0,0
59817,-100,4,2,1,50,0,0
59972,-58.8235294117647,4,2,1,50,0,0
60011,-111.111111111111,4,2,1,50,0,0
60129,-58.8235294117647,4,2,1,50,0,0
60168,-100,4,2,1,50,0,0
61228,314.13612565445,4,2,1,50,1,0
64055,-200,4,2,1,50,0,0
64133,-133.333333333333,4,2,1,50,0,0
64212,-80,4,2,1,50,0,0
64290,-71.4285714285714,4,2,1,50,0,0
64369,-100,4,2,1,50,0,0
68453,-285.714285714284,4,2,1,50,0,0
68767,-250,4,2,1,50,0,0
68806,-208.333333333333,4,2,1,50,0,0
68845,-181.818181818182,4,2,1,50,0,0
68884,-158.730158730159,4,2,1,50,0,0
68924,-142.857142857143,4,2,1,50,0,0
68963,-128.205128205128,4,2,1,50,0,0
69002,-117.647058823529,4,2,1,50,0,0
69041,-107.52688172043,4,2,1,50,0,0
69081,-100,4,2,1,50,0,0
77563,-117.647058823529,4,2,1,50,0,0
79919,-50,4,2,1,50,0,0
79958,-111.111111111111,4,2,1,50,0,0
80233,-45.4545454545455,4,2,1,50,0,0
80272,-125,4,2,1,50,0,0
80390,-45.4545454545455,4,2,1,50,0,0
80429,-125,4,2,1,50,0,0
80520,-142.857142857143,4,2,1,50,0,0
80612,-111.111111111111,4,2,1,50,0,0
80704,-100,4,2,1,50,0,0
82589,-71.4285714285714,4,2,1,50,0,0
82647,-117.647058823529,4,2,1,50,0,0
82824,-71.4285714285714,4,2,1,50,0,0
82903,-117.647058823529,4,2,1,50,0,0
83060,-71.4285714285714,4,2,1,50,0,0
83112,-117.647058823529,4,2,1,50,0,0
83217,-71.4285714285714,4,2,1,50,0,0
83275,-117.647058823529,4,2,1,50,0,0
83452,-71.4285714285714,4,2,1,50,0,0
83531,-117.647058823529,4,2,1,50,0,0
83688,-71.4285714285714,4,2,1,50,0,0
83740,-117.647058823529,4,2,1,50,0,0
83845,-71.4285714285714,4,2,1,50,0,0
83903,-117.647058823529,4,2,1,50,0,0
84080,-71.4285714285714,4,2,1,50,0,0
84159,-117.647058823529,4,2,1,50,0,0
84316,-71.4285714285714,4,2,1,50,0,0
84369,-117.647058823529,4,2,1,50,0,0
84474,-71.4285714285714,4,2,1,50,0,0
84526,-117.647058823529,4,2,1,50,0,0
84631,-100,4,2,1,50,0,0
85102,-71.4285714285714,4,2,1,50,0,0
85160,-117.647058823529,4,2,1,50,0,0
85337,-71.4285714285714,4,2,1,50,0,0
85416,-117.647058823529,4,2,1,50,0,0
85573,-71.4285714285714,4,2,1,50,0,0
85625,-117.647058823529,4,2,1,50,0,0
85730,-71.4285714285714,4,2,1,50,0,0
85788,-117.647058823529,4,2,1,50,0,0
85965,-71.4285714285714,4,2,1,50,0,0
86044,-117.647058823529,4,2,1,50,0,0
86201,-71.4285714285714,4,2,1,50,0,0
86253,-117.647058823529,4,2,1,50,0,0
86358,-58.8235294117647,4,2,1,50,0,0
86397,-111.111111111111,4,2,1,50,0,0
86672,-41.6666666666667,4,2,1,50,0,0
86711,-142.857142857143,4,2,1,50,0,0
86802,-125,4,2,1,50,0,0
86894,-111.111111111111,4,2,1,50,0,0
86986,-100,4,2,1,50,0,0
87615,-100,4,2,1,50,0,1
90128,-250,4,2,1,50,0,1
90207,-133.333333333333,4,2,1,50,0,1
90285,-80,4,2,1,50,0,1
90364,-66.6666666666667,4,2,1,50,0,1
90442,-100,4,2,1,50,0,1
92641,-100,4,2,1,50,0,0
97667,-100,4,2,1,50,0,1
100180,-250,4,2,1,50,0,1
100259,-133.333333333333,4,2,1,50,0,1
100337,-80,4,2,1,50,0,1
100416,-66.6666666666667,4,2,1,50,0,1
100494,-100,4,2,1,50,0,1
101437,-55.5555555555556,4,2,1,50,0,1
101489,-200,4,2,1,50,0,1
101542,-166.666666666667,4,2,1,50,0,1
101594,-142.857142857143,4,2,1,50,0,1
101646,-55.5555555555556,4,2,1,50,0,1
101699,-200,4,2,1,50,0,1
101751,-166.666666666667,4,2,1,50,0,1
101803,-142.857142857143,4,2,1,50,0,1
101856,-55.5555555555556,4,2,1,50,0,1
101908,-200,4,2,1,50,0,1
101960,-166.666666666667,4,2,1,50,0,1
102013,-142.857142857143,4,2,1,50,0,1
102065,-55.5555555555556,4,2,1,50,0,1
102118,-200,4,2,1,50,0,1
102170,-166.666666666667,4,2,1,50,0,1
102222,-142.857142857143,4,2,1,50,0,1
102275,-55.5555555555556,4,2,1,50,0,1
102327,-200,4,2,1,50,0,1
102379,-166.666666666667,4,2,1,50,0,1
102432,-142.857142857143,4,2,1,50,0,1
102484,-58.8235294117647,4,2,1,50,0,1
102536,-200,4,2,1,50,0,1
102589,-166.666666666667,4,2,1,50,0,1
102641,-142.857142857143,4,2,1,50,0,1
102693,-100,4,2,1,50,0,0
107720,-100,4,2,1,50,0,1
112746,-100,4,2,1,50,0,0
117772,-100,4,2,1,50,0,1
121542,-55.5555555555556,4,2,1,50,0,1
121594,-200,4,2,1,50,0,1
121647,-166.666666666667,4,2,1,50,0,1
121699,-142.857142857143,4,2,1,50,0,1
121751,-55.5555555555556,4,2,1,50,0,1
121804,-200,4,2,1,50,0,1
121856,-166.666666666667,4,2,1,50,0,1
121908,-142.857142857143,4,2,1,50,0,1
121961,-55.5555555555556,4,2,1,50,0,1
122013,-200,4,2,1,50,0,1
122065,-166.666666666667,4,2,1,50,0,1
122118,-142.857142857143,4,2,1,50,0,1
122170,-55.5555555555556,4,2,1,50,0,1
122223,-200,4,2,1,50,0,1
122275,-166.666666666667,4,2,1,50,0,1
122327,-142.857142857143,4,2,1,50,0,1
122380,-55.5555555555556,4,2,1,50,0,1
122432,-200,4,2,1,50,0,1
122484,-166.666666666667,4,2,1,50,0,1
122537,-142.857142857143,4,2,1,50,0,1
122589,-58.8235294117647,4,2,1,50,0,1
122641,-200,4,2,1,50,0,1
122694,-166.666666666667,4,2,1,50,0,1
122746,-142.857142857143,4,2,1,50,0,1
122798,-100,4,2,1,50,0,0
130966,314.13612565445,4,2,1,50,1,0
137641,-181.818181818181,4,2,1,50,0,0

[HitObjects]
64,192,940,5,2,0:0:0:0:
448,192,940,1,0,0:0:0:60:LR_CymbalG.wav
448,192,1097,1,0,0:0:0:0:
64,192,1254,1,0,0:0:0:0:
192,192,1411,1,0,0:0:0:0:
448,192,1568,1,0,0:0:0:0:
320,192,1725,1,0,0:0:0:0:
64,192,2039,1,0,0:0:0:0:
192,192,2196,1,0,0:0:0:0:
320,192,2353,1,0,0:0:0:0:
448,192,2510,1,0,0:0:0:0:
64,192,2667,1,0,0:0:0:0:
320,192,2981,1,0,0:0:0:0:
448,192,3138,1,0,0:0:0:0:
192,192,3296,1,0,0:0:0:0:
64,192,3453,1,0,0:0:0:0:
448,192,3610,1,0,0:0:0:0:
320,192,3924,1,0,0:0:0:0:
192,192,4081,1,0,0:0:0:0:
64,192,4238,1,0,0:0:0:0:
448,192,4395,1,0,0:0:0:0:
320,192,4474,1,0,0:0:0:0:
64,192,4552,1,0,0:0:0:0:
192,192,4631,1,0,0:0:0:0:
64,192,4709,1,2,0:0:0:0:
320,192,4709,1,0,0:0:0:60:LR_CymbalG.wav
448,192,4709,1,0,0:0:0:60:Clock.wav
320,192,4866,1,0,0:0:0:0:
448,192,4866,1,0,0:0:0:0:
192,192,5023,1,0,0:0:0:0:
320,192,5023,1,0,0:0:0:0:
64,192,5337,1,0,0:0:0:60:Clock.wav
192,192,5337,1,0,0:0:0:0:
192,192,5494,1,0,0:0:0:0:
320,192,5494,1,0,0:0:0:0:
64,192,5808,1,0,0:0:0:0:
448,192,5808,1,0,0:0:0:0:
192,192,6122,1,0,0:0:0:0:
320,192,6201,1,0,0:0:0:0:
192,192,6279,1,0,0:0:0:0:
64,192,6436,1,0,0:0:0:0:
320,192,6593,1,0,0:0:0:60:Clock.wav
448,192,6593,1,0,0:0:0:0:
64,192,6750,1,0,0:0:0:0:
448,192,6750,1,0,0:0:0:0:
192,192,6907,1,0,0:0:0:0:
320,192,6986,1,0,0:0:0:0:
448,192,7065,1,0,0:0:0:0:
192,192,7143,1,0,0:0:0:0:
64,192,7222,1,0,0:0:0:60:Clock.wav
448,192,7222,1,0,0:0:0:0:
192,192,7300,1,0,0:0:0:0:
320,192,7379,1,0,0:0:0:0:
448,192,7379,1,0,0:0:0:0:
64,192,7693,1,0,0:0:0:0:
448,192,7693,1,0,0:0:0:0:
192,192,8007,1,0,0:0:0:0:
320,192,8007,1,0,0:0:0:0:
64,192,8164,1,2,0:0:0:0:
192,192,8164,1,0,0:0:0:0:
448,192,8164,1,0,0:0:0:0:
448,192,8478,1,0,0:0:0:60:Clock.wav
320,192,8635,1,0,0:0:0:0:
64,192,8792,1,0,0:0:0:0:
192,192,8949,1,0,0:0:0:0:
320,192,9106,1,0,0:0:0:60:Clock.wav
320,192,9263,1,0,0:0:0:0:
192,192,9342,1,0,0:0:0:0:
320,192,9421,1,0,0:0:0:0:
448,192,9499,1,0,0:0:0:0:
192,192,9578,1,0,0:0:0:0:
64,192,9656,1,0,0:0:0:0:
320,192,9735,1,0,0:0:0:60:Clock.wav
192,192,9813,1,0,0:0:0:0:
448,192,9892,1,0,0:0:0:0:
320,192,9970,1,0,0:0:0:0:
192,192,10049,1,0,0:0:0:0:
64,192,10206,1,0,0:0:0:0:
320,192,10363,1,0,0:0:0:60:Clock.wav
64,192,10520,1,0,0:0:0:0:
192,192,10520,1,0,0:0:0:0:
192,192,10834,1,0,0:0:0:0:
320,192,10834,1,0,0:0:0:0:
320,192,11148,1,0,0:0:0:0:
448,192,11148,1,0,0:0:0:0:
192,192,11462,1,0,0:0:0:0:
320,192,11462,1,0,0:0:0:0:
64,192,11619,1,2,0:0:0:0:
192,192,11619,1,0,0:0:0:60:LR_CymbalG.wav
448,192,11619,1,0,0:0:0:60:Clock.wav
320,192,11776,1,0,0:0:0:0:
448,192,11776,1,0,0:0:0:0:
192,192,11933,1,2,0:0:0:0:
320,192,11933,1,0,0:0:0:0:
64,192,12090,1,8,0:0:0:0:
448,192,12090,1,0,0:0:0:0:
64,192,12247,1,0,0:0:0:60:Clock.wav
192,192,12247,1,0,0:0:0:0:
192,192,12404,1,0,0:0:0:0:
320,192,12404,1,0,0:0:0:0:
64,192,12561,1,2,0:0:0:0:
448,192,12561,1,0,0:0:0:0:
192,192,12719,1,0,0:0:0:0:
320,192,12719,1,0,0:0:0:0:
64,192,12876,1,8,0:0:0:0:
320,192,12876,1,0,0:0:0:60:Clock.wav
448,192,13033,1,0,0:0:0:0:
320,192,13111,1,0,0:0:0:0:
64,192,13190,1,2,0:0:0:0:
192,192,13190,1,0,0:0:0:0:
320,192,13347,128,0,13425:0:0:0:0:
192,192,13504,128,2,13582:0:0:0:0:
320,192,13504,1,0,0:0:0:60:Clock.wav
64,192,13661,1,8,0:0:0:0:
448,192,13661,128,0,13739:0:0:0:0:
320,192,13818,128,0,13897:0:0:0:0:
64,192,13897,128,0,13975:0:0:0:0:
192,192,13975,128,0,14054:0:0:0:0:
320,192,14054,128,0,14132:0:0:0:0:
64,192,14132,128,2,14211:0:0:0:0:
448,192,14132,1,0,0:0:0:60:Clock.wav
192,192,14211,128,0,14289:0:0:0:0:
320,192,14289,128,0,14368:0:0:0:0:
448,192,14368,128,0,14446:0:0:0:0:
64,192,14446,128,8,14525:0:0:0:0:
192,192,14446,1,0,0:0:0:0:
320,192,14525,128,0,14603:0:0:0:0:
192,192,14603,128,0,14682:0:0:0:0:
448,192,14682,128,0,14760:0:0:0:0:
64,192,14760,128,2,14839:0:0:0:0:
320,192,14760,1,0,0:0:0:60:Clock.wav
192,192,14839,128,0,14917:0:0:0:0:
448,192,14917,128,0,14996:0:0:0:0:
320,192,14996,128,0,15075:0:0:0:0:
64,192,15075,1,2,0:0:0:0:
192,192,15075,1,8,0:0:0:0:
448,192,15075,1,0,0:0:0:0:
64,192,15232,1,2,0:0:0:0:
192,192,15232,1,8,0:0:0:0:
448,192,15232,1,0,0:0:0:0:
192,192,15547,1,2,0:0:0:0:
320,192,15547,1,8,0:0:0:0:
448,192,15547,1,0,0:0:0:0:
192,192,15712,1,2,0:0:0:0:
320,192,15712,1,8,0:0:0:0:
448,192,15712,1,0,0:0:0:0:
64,192,16044,128,2,16394:0:0:0:0:
192,192,16044,128,0,16394:0:0:0:0:
448,192,16044,1,0,0:0:0:0:
320,192,16394,1,8,0:0:0:0:
448,192,16394,1,2,0:0:0:0:
192,192,16487,1,0,0:0:0:0:
64,192,16580,1,0,0:0:0:0:
192,192,16673,1,0,0:0:0:0:
64,192,16766,1,8,0:0:0:0:
320,192,16766,1,2,0:0:0:0:
448,192,16766,1,0,0:0:0:0:
64,192,16964,1,8,0:0:0:0:
320,192,16964,1,2,0:0:0:0:
448,192,16964,1,0,0:0:0:0:
64,192,17362,1,8,0:0:0:0:
192,192,17362,1,2,0:0:0:0:
320,192,17362,1,0,0:0:0:0:
64,192,17591,1,8,0:0:0:0:
192,192,17591,1,2,0:0:0:0:
320,192,17591,1,0,0:0:0:0:
64,192,18049,128,2,18589:0:0:0:0:
192,192,18049,128,0,18589:0:0:0:0:
448,192,18049,1,0,0:0:0:0:
320,192,18589,1,2,0:0:0:0:
448,192,18589,128,8,19177:0:0:0:0:
192,192,18883,128,0,19177:0:0:0:0:
64,192,19177,128,0,19765:0:0:0:0:
320,192,19471,128,0,19765:0:0:0:0:
192,192,19765,1,2,0:0:0:0:
448,192,19765,128,0,21963:0:0:0:60:LR_CymbalG.wav
192,192,20079,1,0,0:0:0:0:
192,192,20236,1,0,0:0:0:0:
192,192,20550,1,0,0:0:0:0:
192,192,20707,1,0,0:0:0:0:
192,192,21021,1,0,0:0:0:0:
192,192,21178,1,0,0:0:0:0:
192,192,21492,1,0,0:0:0:0:
192,192,21649,1,0,0:0:0:0:
64,192,21963,1,0,0:0:0:0:
192,192,22042,1,0,0:0:0:0:
320,192,22121,1,0,0:0:0:0:
448,192,22199,1,0,0:0:0:0:
64,192,22278,1,2,0:0:0:0:
192,192,22278,1,8,0:0:0:0:
320,192,22278,1,0,0:0:0:0:
64,192,22435,1,8,0:0:0:0:
192,192,22513,1,0,0:0:0:0:
320,192,22592,1,0,0:0:0:0:
64,192,22749,1,2,0:0:0:0:
192,192,22749,1,8,0:0:0:0:
448,192,22749,1,0,0:0:0:0:
448,192,22906,1,0,0:0:0:0:
320,192,22984,1,0,0:0:0:0:
192,192,23063,1,8,0:0:0:0:
64,192,23220,1,8,0:0:0:0:
320,192,23220,1,2,0:0:0:0:
448,192,23220,1,0,0:0:0:0:
64,192,23377,1,2,0:0:0:0:
320,192,23377,1,8,0:0:0:0:
448,192,23377,1,0,0:0:0:0:
320,192,23534,1,0,0:0:0:60:LR_Drum Rpd.wav
448,192,23534,1,0,0:0:0:0:
192,192,23613,1,0,0:0:0:60:LR_Drum Rpd.wav
64,192,23691,1,0,0:0:0:60:LR_Drum Rpd.wav
448,192,23770,1,0,0:0:0:60:LR_Drum Rpd.wav
320,192,23848,1,0,0:0:0:60:LR_Drum Rpd.wav
64,192,23927,1,0,0:0:0:60:LR_Drum Rpd.wav
192,192,24005,1,0,0:0:0:60:LR_Drum Rpd.wav
320,192,24084,1,0,0:0:0:60:LR_Drum Rpd.wav
448,192,24162,1,0,0:0:0:60:LR_Drum Rpd.wav
192,192,24241,1,0,0:0:0:60:LR_Drum Rpd.wav
64,192,24319,1,0,0:0:0:60:LR_Drum Rpd.wav
320,192,24398,1,0,0:0:0:60:LR_Drum Rpd.wav
64,192,24477,1,0,0:0:0:60:LR_Clap DS.wav
448,192,24477,1,0,0:0:0:0:
192,192,24555,1,0,0:0:0:0:
320,192,24634,1,0,0:0:0:0:
448,192,24712,1,0,0:0:0:0:
320,192,24791,128,0,25105:0:0:0:0:
64,192,25105,1,8,0:0:0:0:
192,192,25105,1,0,0:0:0:60:LR_CymbalG.wav
448,192,25105,128,0,25262:0:0:0:0:
64,192,25262,1,2,0:0:0:0:
192,192,25262,1,0,0:0:0:0:
320,192,25419,1,0,0:0:0:0:
64,192,25576,1,2,0:0:0:0:
192,192,25576,128,0,25733:0:0:0:0:
320,192,25733,1,8,0:0:0:0:
448,192,25733,1,0,0:0:0:0:
64,192,25890,1,2,0:0:0:0:
448,192,25890,128,0,26204:0:0:0:0:
64,192,26204,1,2,0:0:0:0:
320,192,26204,128,0,26361:0:0:0:0:
64,192,26361,1,8,0:0:0:0:
192,192,26361,1,0,0:0:0:0:
320,192,26518,1,2,0:0:0:0:
448,192,26518,1,0,0:0:0:0:
192,192,26597,1,0,0:0:0:0:
64,192,26675,128,0,26833:0:0:0:0:
320,192,26833,1,2,0:0:0:0:
448,192,26833,1,0,0:0:0:0:
64,192,26990,1,8,0:0:0:0:
448,192,26990,128,0,27147:0:0:0:0:
320,192,27147,1,0,0:0:0:0:
64,192,27304,1,2,0:0:0:0:
192,192,27304,128,0,27618:0:0:0:0:
64,192,27618,1,8,0:0:0:0:
320,192,27618,1,0,0:0:0:0:
448,192,27618,128,0,27775:0:0:0:0:
64,192,27775,1,2,0:0:0:0:
320,192,27775,1,0,0:0:0:0:
192,192,27932,1,0,0:0:0:0:
320,192,28089,1,2,0:0:0:0:
448,192,28089,128,0,28246:0:0:0:0:
64,192,28246,1,8,0:0:0:0:
192,192,28246,1,0,0:0:0:0:
64,192,28403,1,2,0:0:0:0:
320,192,28403,128,0,28717:0:0:0:0:
64,192,28717,1,2,0:0:0:0:
192,192,28717,128,0,28874:0:0:0:0:
320,192,28874,1,8,0:0:0:0:
448,192,28874,1,0,0:0:0:0:
64,192,29032,1,2,0:0:0:0:
192,192,29032,1,0,0:0:0:0:
448,192,29189,128,0,29346:0:0:0:0:
192,192,29267,1,0,0:0:0:0:
64,192,29346,1,0,0:0:0:0:
320,192,29424,1,0,0:0:0:0:
192,192,29503,128,8,29660:0:0:0:0:
448,192,29503,1,0,0:0:0:0:
64,192,29581,1,0,0:0:0:0:
320,192,29660,1,0,0:0:0:0:
448,192,29738,1,0,0:0:0:0:
64,192,29817,128,2,30131:0:0:0:0:
192,192,29817,1,0,0:0:0:0:
192,192,30131,1,8,0:0:0:0:
320,192,30131,1,0,0:0:0:0:
448,192,30131,128,0,30288:0:0:0:0:
192,192,30288,1,2,0:0:0:0:
320,192,30288,1,0,0:0:0:0:
64,192,30445,1,0,0:0:0:0:
320,192,30602,128,2,30759:0:0:0:0:
448,192,30602,1,0,0:0:0:0:
64,192,30759,1,8,0:0:0:0:
192,192,30759,1,0,0:0:0:0:
320,192,30916,1,2,0:0:0:0:
448,192,30916,128,0,31230:0:0:0:0:
64,192,31230,128,2,31388:0:0:0:0:
192,192,31230,1,0,0:0:0:0:
320,192,31388,1,8,0:0:0:0:
448,192,31388,1,0,0:0:0:0:
64,192,31545,1,0,0:0:0:0:
192,192,31545,1,0,0:0:0:0:
320,192,31623,1,0,0:0:0:0:
192,192,31702,1,2,0:0:0:0:
448,192,31702,128,0,31859:0:0:0:0:
64,192,31859,1,2,0:0:0:0:
320,192,31859,1,0,0:0:0:0:
192,192,31937,1,0,0:0:0:0:
64,192,32016,1,8,0:0:0:0:
320,192,32016,128,0,32173:0:0:0:0:
448,192,32094,1,0,0:0:0:0:
192,192,32173,1,0,0:0:0:0:
64,192,32251,1,0,0:0:0:0:
320,192,32330,1,2,0:0:0:0:
448,192,32330,128,0,32644:0:0:0:0:
64,192,32644,1,8,0:0:0:0:
192,192,32644,1,0,0:0:0:0:
320,192,32644,128,0,32801:0:0:0:0:
64,192,32801,1,2,0:0:0:0:
192,192,32801,1,0,0:0:0:0:
448,192,32958,1,0,0:0:0:0:
64,192,33115,128,2,33272:0:0:0:0:
192,192,33115,1,0,0:0:0:0:
320,192,33272,1,8,0:0:0:0:
448,192,33272,1,0,0:0:0:0:
64,192,33429,1,2,0:0:0:0:
192,192,33429,1,0,0:0:0:0:
64,192,33586,1,2,0:0:0:0:
448,192,33586,1,0,0:0:0:0:
192,192,33665,1,2,0:0:0:0:
320,192,33744,1,2,0:0:0:0:
448,192,33744,1,0,0:0:0:0:
192,192,33822,1,2,0:0:0:0:
64,192,33901,1,8,0:0:0:0:
448,192,33901,1,0,0:0:0:0:
320,192,33979,1,2,0:0:0:0:
64,192,34058,1,2,0:0:0:0:
192,192,34058,1,0,0:0:0:0:
320,192,34136,1,2,0:0:0:0:
192,192,34215,1,8,0:0:0:0:
448,192,34215,1,0,0:0:0:0:
64,192,34372,1,2,0:0:0:0:
320,192,34372,1,0,0:0:0:0:
192,192,34450,1,2,0:0:0:0:
320,192,34529,1,8,0:0:0:0:
448,192,34529,1,0,0:0:0:0:
64,192,34686,1,2,0:0:0:0:
192,192,34686,1,0,0:0:0:0:
320,192,34764,1,2,0:0:0:0:
192,192,34843,128,0,35157:0:0:0:0:
320,192,35157,1,8,0:0:0:0:
448,192,35157,1,0,0:0:0:60:LR_CymbalG.wav
192,192,35314,1,0,0:0:0:0:
320,192,35393,1,0,0:0:0:0:
64,192,35471,1,2,0:0:0:0:
192,192,35471,1,0,0:0:0:0:
448,192,35628,1,0,0:0:0:0:
320,192,35707,1,0,0:0:0:0:
64,192,35785,1,8,0:0:0:0:
192,192,35785,1,0,0:0:0:0:
448,192,35864,1,0,0:0:0:0:
320,192,35943,1,0,0:0:0:0:
192,192,36021,1,0,0:0:0:0:
320,192,36100,1,2,0:0:0:0:
448,192,36100,1,0,0:0:0:0:
64,192,36178,1,0,0:0:0:0:
192,192,36257,1,0,0:0:0:0:
448,192,36335,1,0,0:0:0:0:
192,192,36414,1,8,0:0:0:0:
320,192,36414,1,0,0:0:0:0:
64,192,36492,1,0,0:0:0:0:
320,192,36571,1,0,0:0:0:0:
448,192,36649,1,0,0:0:0:0:
64,192,36728,1,2,0:0:0:0:
192,192,36728,1,0,0:0:0:0:
320,192,36806,1,0,0:0:0:0:
448,192,36885,1,0,0:0:0:0:
320,192,36963,1,0,0:0:0:0:
64,192,37042,1,8,0:0:0:0:
192,192,37042,1,0,0:0:0:0:
448,192,37121,1,0,0:0:0:0:
320,192,37199,1,0,0:0:0:0:
192,192,37278,1,0,0:0:0:0:
64,192,37356,1,2,0:0:0:0:
448,192,37356,1,0,0:0:0:0:
320,192,37435,1,0,0:0:0:0:
192,192,37513,128,0,37592:0:0:0:0:
320,192,37592,128,0,37670:0:0:0:0:
64,192,37670,1,8,0:0:0:0:
448,192,37670,128,0,37984:0:0:0:0:
64,192,37984,128,2,38141:0:0:0:0:
320,192,37984,1,0,0:0:0:0:
192,192,38141,128,0,38456:0:0:0:0:
320,192,38299,1,2,0:0:0:0:
448,192,38299,1,0,0:0:0:0:
64,192,38456,128,2,38770:0:0:0:0:
448,192,38456,128,0,38770:0:0:0:40:LR_CymbalG.wav
192,192,38770,1,2,0:0:0:0:
320,192,38770,1,0,0:0:0:0:
64,192,38848,1,0,0:0:0:0:
192,192,38927,1,8,0:0:0:0:
320,192,39005,1,0,0:0:0:0:
64,192,39084,1,2,0:0:0:0:
448,192,39084,1,0,0:0:0:0:
192,192,39162,1,0,0:0:0:0:
320,192,39241,1,8,0:0:0:0:
448,192,39241,128,0,39398:0:0:0:0:
192,192,39398,1,2,0:0:0:0:
320,192,39398,1,0,0:0:0:0:
64,192,39555,128,8,39712:0:0:0:0:
192,192,39555,1,0,0:0:0:0:
320,192,39712,1,2,0:0:0:0:
448,192,39712,1,0,0:0:0:0:
64,192,39791,1,2,0:0:0:0:
192,192,39791,1,0,0:0:0:0:
320,192,39869,1,2,0:0:0:0:
448,192,39869,1,0,0:0:0:0:
64,192,40026,1,2,0:0:0:0:
192,192,40026,1,0,0:0:0:0:
64,192,40183,1,2,0:0:0:0:
448,192,40183,1,0,0:0:0:0:
320,192,40262,1,0,0:0:0:0:
192,192,40340,1,2,0:0:0:0:
448,192,40340,1,0,0:0:0:0:
64,192,40419,1,0,0:0:0:0:
320,192,40497,1,2,0:0:0:0:
448,192,40497,1,0,0:0:0:0:
192,192,40576,1,0,0:0:0:0:
64,192,40655,1,2,0:0:0:0:
320,192,40655,1,0,0:0:0:0:
64,192,40812,1,8,0:0:0:0:
448,192,40812,1,0,0:0:0:0:
192,192,40890,1,2,0:0:0:0:
320,192,40890,1,0,0:0:0:0:
64,192,40969,1,2,0:0:0:0:
448,192,40969,1,0,0:0:0:0:
320,192,41283,1,2,0:0:0:0:
448,192,41283,1,0,0:0:0:0:
192,192,41361,1,2,0:0:0:0:
64,192,41440,1,8,0:0:0:0:
448,192,41440,1,0,0:0:0:0:
320,192,41518,1,2,0:0:0:0:
192,192,41597,1,2,0:0:0:0:
448,192,41597,1,0,0:0:0:0:
64,192,41675,1,2,0:0:0:0:
192,192,41754,1,2,0:0:0:0:
320,192,41754,1,0,0:0:0:0:
64,192,41911,1,2,0:0:0:0:
448,192,41911,1,0,0:0:0:0:
192,192,41990,1,2,0:0:0:0:
320,192,42068,1,8,0:0:0:0:
448,192,42068,1,0,0:0:0:0:
192,192,42147,1,2,0:0:0:0:
64,192,42225,1,2,0:0:0:0:
448,192,42225,1,0,0:0:0:0:
320,192,42304,1,2,0:0:0:0:
64,192,42382,1,2,0:0:0:0:
192,192,42382,1,0,0:0:0:0:
448,192,42382,1,0,0:0:0:0:
64,192,42539,1,2,0:0:0:0:
192,192,42539,1,0,0:0:0:0:
448,192,42539,1,0,0:0:0:0:
64,192,42854,1,2,0:0:0:0:
320,192,42854,1,0,0:0:0:0:
448,192,42854,1,0,0:0:0:0:
64,192,43011,1,2,0:0:0:0:
320,192,43011,1,0,0:0:0:0:
448,192,43011,1,0,0:0:0:0:
64,192,43325,1,2,0:0:0:0:
192,192,43325,1,0,0:0:0:0:
320,192,43325,1,0,0:0:0:0:
192,192,43482,1,2,0:0:0:0:
320,192,43482,1,0,0:0:0:0:
448,192,43482,1,0,0:0:0:0:
64,192,43796,1,0,0:0:0:60:LR_Drum Rpd.wav
192,192,43796,1,0,0:0:0:0:
448,192,43874,1,0,0:0:0:60:LR_Drum Rpd.wav
192,192,43953,1,0,0:0:0:60:LR_Drum Rpd.wav
320,192,43953,1,0,0:0:0:0:
64,192,44032,1,0,0:0:0:60:LR_Drum Rpd.wav
320,192,44110,1,0,0:0:0:60:LR_Drum Rpd.wav
448,192,44110,1,0,0:0:0:0:
192,192,44189,1,0,0:0:0:60:LR_Drum Rpd.wav
64,192,44267,1,2,0:0:0:0:
320,192,44267,1,0,0:0:0:0:
448,192,44267,1,0,0:0:0:0:
64,192,44503,1,2,0:0:0:0:
192,192,44503,1,0,0:0:0:0:
320,192,44503,1,0,0:0:0:0:
192,192,44738,1,2,0:0:0:0:
320,192,44738,1,0,0:0:0:0:
448,192,44738,1,0,0:0:0:0:
64,192,44895,1,0,0:0:0:60:LR_Clap DS.wav
448,192,44895,1,0,0:0:0:0:
64,192,45210,128,8,45995:0:0:0:0:
192,192,45210,128,0,45995:0:0:0:40:LR_CymbalG.wav
448,192,45210,128,0,45995:0:0:0:0:
320,192,45995,128,0,46073:0:0:0:0:
448,192,46073,128,0,46152:0:0:0:0:
64,192,46152,128,0,46230:0:0:0:0:
192,192,46230,128,0,46309:0:0:0:0:
320,192,46309,128,0,46388:0:0:0:0:
448,192,46388,128,0,46466:0:0:0:0:
192,192,46466,128,0,46623:0:0:0:0:
448,192,46780,128,0,46937:0:0:0:0:
320,192,46937,128,0,47094:0:0:0:0:
64,192,47094,128,8,47723:0:0:0:0:
192,192,47094,128,0,47723:0:0:0:40:LR_CymbalG.wav
448,192,47094,128,0,47723:0:0:0:0:
320,192,47723,128,0,47801:0:0:0:0:
64,192,47801,128,0,47880:0:0:0:0:
192,192,47880,128,0,47958:0:0:0:0:
320,192,47958,128,0,48037:0:0:0:0:
448,192,48037,128,0,48194:0:0:0:0:
192,192,48194,128,0,48351:0:0:0:0:
64,192,48351,128,8,48508:0:0:0:0:
320,192,48351,128,0,48508:0:0:0:40:LR_CymbalG.wav
448,192,48351,128,0,48508:0:0:0:0:
192,192,48508,128,0,48586:0:0:0:0:
64,192,48586,128,0,48665:0:0:0:0:
448,192,48665,128,0,48744:0:0:0:0:
320,192,48744,128,0,48822:0:0:0:0:
192,192,48822,128,0,48901:0:0:0:0:
64,192,48901,128,0,48979:0:0:0:0:
320,192,48979,1,2,0:0:0:0:
448,192,48979,128,0,49293:0:0:0:0:
64,192,49293,1,2,0:0:0:0:
192,192,49293,1,0,0:0:0:40:LR_CymbalG.wav
320,192,49293,1,0,0:0:0:0:
64,192,49607,1,0,0:0:0:0:
192,192,49764,1,0,0:0:0:0:
320,192,49921,1,0,0:0:0:60:Clock.wav
448,192,49921,1,0,0:0:0:0:
64,192,50078,1,0,0:0:0:0:
192,192,50235,1,0,0:0:0:0:
448,192,50392,1,0,0:0:0:0:
64,192,50549,1,0,0:0:0:60:Clock.wav
192,192,50549,1,0,0:0:0:0:
320,192,50706,1,0,0:0:0:0:
448,192,50863,1,0,0:0:0:0:
64,192,51020,1,0,0:0:0:0:
192,192,51177,1,0,0:0:0:60:Clock.wav
320,192,51177,1,0,0:0:0:0:
448,192,51334,1,0,0:0:0:0:
320,192,51491,1,0,0:0:0:0:
192,192,51649,1,0,0:0:0:0:
64,192,51806,1,0,0:0:0:60:Clock.wav
448,192,51806,1,0,0:0:0:0:
320,192,51884,1,0,0:0:0:0:
192,192,51963,1,0,0:0:0:0:
64,192,52041,1,0,0:0:0:0:
320,192,52120,1,0,0:0:0:0:
192,192,52277,1,0,0:0:0:0:
320,192,52434,1,0,0:0:0:60:Clock.wav
448,192,52434,1,0,0:0:0:0:
64,192,52591,1,0,0:0:0:0:
192,192,52748,1,0,0:0:0:0:
320,192,52905,1,0,0:0:0:0:
448,192,53062,128,0,54319:0:0:0:0:
64,192,54319,1,2,0:0:0:0:
192,192,54319,1,0,0:0:0:40:LR_CymbalG.wav
320,192,54319,1,0,0:0:0:0:
64,192,54476,1,2,0:0:0:0:
192,192,54476,1,0,0:0:0:40:LR_CymbalG.wav
320,192,54476,1,0,0:0:0:0:
64,192,54790,1,2,0:0:0:0:
192,192,54790,1,0,0:0:0:40:LR_CymbalG.wav
448,192,54790,1,0,0:0:0:0:
64,192,54947,1,2,0:0:0:0:
192,192,54947,1,0,0:0:0:40:LR_CymbalG.wav
448,192,54947,1,0,0:0:0:0:
64,192,55261,1,2,0:0:0:0:
320,192,55261,1,0,0:0:0:40:LR_CymbalG.wav
448,192,55261,1,0,0:0:0:0:
64,192,55418,1,2,0:0:0:0:
320,192,55418,1,0,0:0:0:40:LR_CymbalG.wav
448,192,55418,1,0,0:0:0:0:
192,192,55575,1,0,0:0:0:40:Stick.wav
192,192,55732,1,0,0:0:0:40:Stick.wav
320,192,55889,1,2,0:0:0:0:
448,192,55889,1,0,0:0:0:40:Stick.wav
320,192,56046,1,2,0:0:0:0:
448,192,56046,1,0,0:0:0:40:Stick.wav
64,192,56203,1,8,0:0:0:0:
448,192,56203,1,0,0:0:0:40:Stick.wav
192,192,56360,1,2,0:0:0:0:
320,192,56360,1,0,0:0:0:0:
448,192,56439,1,2,0:0:0:0:
64,192,56517,128,2,57459:0:0:0:0:
192,192,56517,1,0,0:0:0:60:LR_CymbalG.wav
320,192,56674,1,0,0:0:0:0:
192,192,56831,1,8,0:0:0:0:
448,192,56831,1,0,0:0:0:0:
320,192,56988,1,2,0:0:0:0:
192,192,57145,1,0,0:0:0:0:
448,192,57223,1,0,0:0:0:0:
320,192,57302,1,8,0:0:0:0:
192,192,57380,1,0,0:0:0:0:
320,192,57459,1,0,0:0:0:0:
448,192,57459,128,0,57564:0:0:0:0:
192,192,57564,128,0,57668:0:0:0:0:
320,192,57668,128,0,57773:0:0:0:0:
64,192,57773,1,2,0:0:0:0:
448,192,57773,128,0,58951:0:0:0:0:
64,192,58009,1,2,0:0:0:0:
192,192,58009,1,0,0:0:0:0:
320,192,58087,1,8,0:0:0:0:
64,192,58244,1,2,0:0:0:0:
192,192,58244,1,0,0:0:0:0:
320,192,58401,1,0,0:0:0:0:
192,192,58480,1,0,0:0:0:0:
64,192,58558,1,8,0:0:0:0:
320,192,58637,1,2,0:0:0:0:
192,192,58715,1,8,0:0:0:0:
64,192,58794,1,8,0:0:0:0:
192,192,58873,1,2,0:0:0:0:
320,192,58951,1,8,0:0:0:0:
64,192,59030,1,2,0:0:0:0:
192,192,59030,1,0,0:0:0:40:LR_CymbalG.wav
448,192,59030,1,0,0:0:0:0:
64,192,59187,1,2,0:0:0:0:
192,192,59187,1,0,0:0:0:40:LR_CymbalG.wav
448,192,59187,1,0,0:0:0:0:
192,192,59501,1,2,0:0:0:0:
320,192,59501,1,0,0:0:0:40:LR_CymbalG.wav
448,192,59501,1,0,0:0:0:0:
192,192,59658,1,2,0:0:0:0:
320,192,59658,1,0,0:0:0:40:LR_CymbalG.wav
448,192,59658,1,0,0:0:0:0:
64,192,59972,1,2,0:0:0:0:
192,192,59972,1,0,0:0:0:40:LR_CymbalG.wav
448,192,59972,1,0,0:0:0:0:
64,192,60129,1,2,0:0:0:0:
192,192,60129,1,0,0:0:0:40:LR_CymbalG.wav
448,192,60129,1,0,0:0:0:0:
64,192,60286,128,0,60914:0:0:0:40:Stick.wav
320,192,60286,1,0,0:0:0:0:
320,192,60443,1,0,0:0:0:40:Stick.wav
320,192,60600,1,0,0:0:0:40:Stick.wav
320,192,60757,1,0,0:0:0:40:Stick.wav
192,192,60914,1,8,0:0:0:0:
448,192,60914,1,0,0:0:0:40:Stick.wav
320,192,61071,1,2,0:0:0:0:
448,192,61071,1,0,0:0:0:0:
192,192,61150,1,2,0:0:0:0:
64,192,61228,1,2,0:0:0:0:
448,192,61228,128,0,62170:0:0:0:0:
64,192,61385,1,0,0:0:0:0:
192,192,61542,1,8,0:0:0:0:
320,192,61542,1,0,0:0:0:0:
64,192,61699,1,2,0:0:0:0:
192,192,61699,1,0,0:0:0:0:
320,192,61856,1,0,0:0:0:0:
192,192,61934,1,0,0:0:0:0:
64,192,62013,1,8,0:0:0:0:
320,192,62091,1,0,0:0:0:0:
64,192,62170,128,0,62275:0:0:0:0:
192,192,62275,128,0,62379:0:0:0:0:
320,192,62379,128,0,62484:0:0:0:0:
64,192,62484,128,2,63426:0:0:0:0:
448,192,62484,1,0,0:0:0:0:
192,192,62720,1,2,0:0:0:0:
320,192,62798,1,8,0:0:0:0:
448,192,62798,1,0,0:0:0:0:
192,192,62955,1,2,0:0:0:0:
448,192,63112,1,0,0:0:0:60:LR_Drum Rpd.wav
320,192,63191,1,2,0:0:0:0:
192,192,63269,1,0,0:0:0:60:LR_Drum Rpd.wav
320,192,63348,1,0,0:0:0:60:LR_Drum Rpd.wav
448,192,63426,1,2,0:0:0:0:
192,192,63505,1,0,0:0:0:60:LR_Drum Rpd.wav
320,192,63505,1,0,0:0:0:0:
64,192,63584,1,0,0:0:0:60:LR_Drum Rpd.wav
320,192,63662,1,0,0:0:0:60:LR_Drum Rpd.wav
64,192,63741,1,2,0:0:0:0:
448,192,63741,1,0,0:0:0:0:
320,192,63819,1,2,0:0:0:0:
64,192,63898,1,2,0:0:0:0:
192,192,63898,1,0,0:0:0:0:
320,192,63976,1,2,0:0:0:0:
64,192,64055,128,8,64369:0:0:0:0:
448,192,64055,128,0,64369:0:0:0:60:LR_CymbalG.wav
192,192,64369,1,2,0:0:0:0:
320,192,64369,128,0,64526:0:0:0:0:
192,192,64526,128,0,64683:0:0:0:0:
64,192,64683,1,8,0:0:0:0:
320,192,64683,128,0,64840:0:0:0:0:
448,192,64840,128,0,64997:0:0:0:0:
64,192,64997,128,2,65311:0:0:0:0:
192,192,64997,128,0,65311:0:0:0:0:
320,192,65311,128,8,65468:0:0:0:0:
448,192,65311,1,0,0:0:0:0:
448,192,65468,128,0,65782:0:0:0:0:
64,192,65625,1,2,0:0:0:0:
192,192,65625,1,0,0:0:0:0:
320,192,65782,1,0,0:0:0:0:
192,192,65835,1,0,0:0:0:0:
320,192,65887,1,0,0:0:0:0:
64,192,65940,128,8,66254:0:0:0:0:
448,192,65940,1,0,0:0:0:0:
192,192,66097,128,0,66254:0:0:0:0:
320,192,66254,1,2,0:0:0:0:
448,192,66254,1,0,0:0:0:40:LR_CymbalG.wav
320,192,66411,1,2,0:0:0:0:
448,192,66411,1,0,0:0:0:40:LR_CymbalG.wav
64,192,66568,1,0,0:0:0:60:LR_Drum Rpd.wav
192,192,66568,1,0,0:0:0:0:
320,192,66646,1,0,0:0:0:60:LR_Drum Rpd.wav
448,192,66725,1,0,0:0:0:60:LR_Drum Rpd.wav
320,192,66803,1,0,0:0:0:60:LR_Drum Rpd.wav
64,192,66882,1,2,0:0:0:0:
192,192,66882,1,0,0:0:0:40:LR_CymbalG.wav
64,192,67039,1,2,0:0:0:0:
192,192,67039,1,0,0:0:0:40:LR_CymbalG.wav
320,192,67196,1,0,0:0:0:60:LR_Drum Rpd.wav
448,192,67196,1,0,0:0:0:0:
192,192,67275,1,0,0:0:0:60:LR_Drum Rpd.wav
64,192,67353,1,0,0:0:0:60:LR_Drum Rpd.wav
192,192,67432,1,0,0:0:0:60:LR_Drum Rpd.wav
320,192,67510,1,8,0:0:0:0:
448,192,67510,1,0,0:0:0:0:
448,192,67667,1,0,0:0:0:60:LR_Drum Rpd.wav
320,192,67746,1,0,0:0:0:60:LR_Drum Rpd.wav
64,192,67824,1,2,0:0:0:0:
192,192,67824,1,0,0:0:0:0:
64,192,67981,1,0,0:0:0:60:LR_Drum Rpd.wav
192,192,68060,1,0,0:0:0:60:LR_Drum Rpd.wav
320,192,68138,1,8,0:0:0:0:
448,192,68138,1,0,0:0:0:0:
320,192,68296,1,2,0:0:0:0:
448,192,68296,1,0,0:0:0:0:
192,192,68374,1,0,0:0:0:0:
64,192,68453,128,2,69081:0:0:0:0:
448,192,68453,128,0,69081:0:0:0:60:LR_CymbalG.wav
192,192,69081,128,0,69395:0:0:0:0:
320,192,69238,128,0,69395:0:0:0:0:
448,192,69395,128,0,69474:0:0:0:0:
320,192,69474,128,0,69552:0:0:0:0:
64,192,69552,128,0,69631:0:0:0:0:
192,192,69631,128,0,69709:0:0:0:0:
320,192,69709,128,0,69866:0:0:0:0:
448,192,69866,128,0,70023:0:0:0:0:
64,192,70023,128,2,70337:0:0:0:0:
192,192,70023,1,0,0:0:0:0:
448,192,70180,128,0,70337:0:0:0:0:
320,192,70337,128,0,70416:0:0:0:0:
192,192,70416,128,0,70495:0:0:0:0:
448,192,70495,128,0,70573:0:0:0:0:
320,192,70573,128,0,70652:0:0:0:0:
64,192,70652,128,8,70809:0:0:0:0:
192,192,70652,1,0,0:0:0:0:
192,192,70809,128,0,70966:0:0:0:0:
320,192,70966,128,8,71044:0:0:0:0:
448,192,71044,128,0,71123:0:0:0:0:
192,192,71123,128,0,71201:0:0:0:0:
320,192,71201,128,0,71280:0:0:0:0:
64,192,71280,1,2,0:0:0:0:
448,192,71280,1,0,0:0:0:0:
192,192,71437,1,0,0:0:0:70:LR_Drum Rpd.wav
320,192,71437,1,0,0:0:0:0:
64,192,71515,1,0,0:0:0:70:LR_Drum Rpd.wav
320,192,71594,1,2,0:0:0:0:
448,192,71594,1,0,0:0:0:0:
192,192,71751,1,0,0:0:0:70:LR_Drum Rpd.wav
320,192,71751,1,0,0:0:0:0:
448,192,71830,1,0,0:0:0:0:
64,192,71908,1,2,0:0:0:0:
192,192,71908,1,0,0:0:0:0:
320,192,72065,1,2,0:0:0:0:
448,192,72065,1,0,0:0:0:0:
64,192,72222,1,8,0:0:0:0:
192,192,72222,1,0,0:0:0:0:
448,192,72301,1,0,0:0:0:0:
320,192,72379,1,8,0:0:0:0:
192,192,72458,1,0,0:0:0:0:
64,192,72536,1,2,0:0:0:0:
448,192,72536,1,0,0:0:0:0:
192,192,72693,1,0,0:0:0:70:LR_Drum Rpd.wav
448,192,72693,1,0,0:0:0:0:
320,192,72772,1,0,0:0:0:70:LR_Drum Rpd.wav
64,192,72851,1,2,0:0:0:0:
192,192,72851,1,0,0:0:0:0:
64,192,73008,1,0,0:0:0:70:LR_Drum Rpd.wav
320,192,73008,1,0,0:0:0:0:
192,192,73086,1,0,0:0:0:0:
320,192,73165,1,2,0:0:0:0:
448,192,73165,1,0,0:0:0:0:
64,192,73322,1,2,0:0:0:0:
192,192,73322,1,0,0:0:0:0:
320,192,73479,1,8,0:0:0:0:
448,192,73479,1,0,0:0:0:0:
64,192,73557,1,0,0:0:0:0:
192,192,73636,1,8,0:0:0:0:
320,192,73714,1,0,0:0:0:0:
64,192,73793,1,2,0:0:0:0:
192,192,73793,1,0,0:0:0:0:
320,192,73950,1,0,0:0:0:60:LR_Drum Rpd.wav
448,192,73950,1,0,0:0:0:0:
192,192,74029,1,0,0:0:0:60:LR_Drum Rpd.wav
320,192,74107,1,2,0:0:0:0:
448,192,74107,1,0,0:0:0:0:
64,192,74264,1,0,0:0:0:60:LR_Drum Rpd.wav
192,192,74264,1,0,0:0:0:0:
320,192,74343,1,0,0:0:0:60:LR_Drum Rpd.wav
64,192,74421,1,2,0:0:0:0:
192,192,74421,1,0,0:0:0:0:
64,192,74578,1,0,0:0:0:60:LR_Drum Rpd.wav
448,192,74578,1,0,0:0:0:0:
320,192,74735,1,2,0:0:0:0:
448,192,74735,1,0,0:0:0:0:
192,192,74814,1,2,0:0:0:0:
448,192,74892,1,2,0:0:0:0:
320,192,74971,1,2,0:0:0:0:
64,192,75049,1,0,0:0:0:60:LR_Drum Rpd.wav
192,192,75049,1,0,0:0:0:0:
320,192,75128,1,2,0:0:0:0:
64,192,75207,1,2,0:0:0:0:
448,192,75207,1,0,0:0:0:0:
192,192,75285,1,2,0:0:0:0:
320,192,75364,1,0,0:0:0:60:LR_Drum Rpd.wav
448,192,75364,1,0,0:0:0:0:
192,192,75442,1,2,0:0:0:0:
64,192,75521,1,2,0:0:0:0:
448,192,75521,1,0,0:0:0:0:
320,192,75599,1,2,0:0:0:0:
64,192,75678,1,0,0:0:0:60:LR_Drum Rpd.wav
192,192,75678,1,0,0:0:0:0:
448,192,75756,1,2,0:0:0:0:
192,192,75835,1,2,0:0:0:0:
320,192,75835,1,0,0:0:0:0:
64,192,75913,1,2,0:0:0:0:
192,192,75992,1,0,0:0:0:60:LR_Drum Rpd.wav
320,192,75992,1,0,0:0:0:0:
448,192,76070,1,2,0:0:0:0:
64,192,76149,1,2,0:0:0:0:
320,192,76149,1,0,0:0:0:0:
192,192,76227,1,2,0:0:0:0:
320,192,76306,1,0,0:0:0:0:
448,192,76306,1,0,0:0:0:0:
192,192,76385,1,0,0:0:0:0:
64,192,76463,1,0,0:0:0:0:
320,192,76542,1,0,0:0:0:0:
192,192,76620,1,0,0:0:0:0:
448,192,76699,1,0,0:0:0:0:
320,192,76777,1,0,0:0:0:0:
192,192,76856,1,0,0:0:0:0:
448,192,76934,1,0,0:0:0:0:
320,192,77013,1,0,0:0:0:0:
192,192,77091,1,0,0:0:0:0:
64,192,77170,1,0,0:0:0:0:
320,192,77248,1,0,0:0:0:0:
448,192,77327,1,0,0:0:0:0:
192,192,77406,1,0,0:0:0:0:
320,192,77484,1,0,0:0:0:0:
64,192,77563,1,2,0:0:0:0:
448,192,77563,1,0,0:0:0:60:LR_CymbalG.wav
192,192,77720,1,0,0:0:0:0:
320,192,77877,1,0,0:0:0:0:
192,192,78034,1,0,0:0:0:0:
320,192,78348,1,0,0:0:0:0:
192,192,78819,1,0,0:0:0:0:
64,192,78976,1,0,0:0:0:0:
448,192,79133,1,0,0:0:0:0:
320,192,79290,1,0,0:0:0:0:
192,192,79604,1,0,0:0:0:0:
64,192,79919,1,2,0:0:0:0:
448,192,79919,1,0,0:0:0:0:
64,192,80233,1,2,0:0:0:0:
192,192,80233,1,8,0:0:0:0:
320,192,80233,1,0,0:0:0:40:LR_CymbalG.wav
448,192,80233,1,0,0:0:0:0:
64,192,80390,1,8,0:0:0:0:
192,192,80390,1,2,0:0:0:0:
320,192,80390,1,0,0:0:0:40:LR_CymbalG.wav
448,192,80390,1,0,0:0:0:0:
448,192,80704,1,0,0:0:0:0:
320,192,80782,1,0,0:0:0:0:
64,192,80861,1,0,0:0:0:0:
192,192,80940,1,0,0:0:0:0:
448,192,81018,1,0,0:0:0:0:
320,192,81097,1,0,0:0:0:0:
192,192,81175,1,0,0:0:0:0:
64,192,81254,1,0,0:0:0:0:
320,192,81332,1,0,0:0:0:0:
192,192,81411,1,0,0:0:0:0:
64,192,81489,1,0,0:0:0:0:
320,192,81568,1,0,0:0:0:0:
448,192,81646,1,0,0:0:0:0:
192,192,81725,1,0,0:0:0:0:
320,192,81803,1,0,0:0:0:0:
64,192,81882,1,0,0:0:0:0:
192,192,81960,1,0,0:0:0:60:LR_Drum Rpd.wav
320,192,82039,1,0,0:0:0:60:LR_Drum Rpd.wav
448,192,82118,1,0,0:0:0:60:LR_Drum Rpd.wav
192,192,82196,1,0,0:0:0:60:LR_Drum Rpd.wav
64,192,82275,1,0,0:0:0:60:LR_Drum Rpd.wav
320,192,82353,1,0,0:0:0:60:LR_Drum Rpd.wav
192,192,82432,1,0,0:0:0:60:LR_Drum Rpd.wav
320,192,82510,1,0,0:0:0:60:LR_Drum Rpd.wav
64,192,82589,1,8,0:0:0:0:
192,192,82589,1,0,0:0:0:40:LR_CymbalG.wav
448,192,82589,1,0,0:0:0:0:
192,192,82824,1,2,0:0:0:0:
320,192,82824,1,0,0:0:0:0:
320,192,83060,1,2,0:0:0:0:
448,192,83060,1,0,0:0:0:0:
64,192,83217,1,8,0:0:0:0:
192,192,83217,1,0,0:0:0:40:LR_CymbalG.wav
448,192,83217,1,0,0:0:0:0:
192,192,83453,1,2,0:0:0:0:
320,192,83453,1,0,0:0:0:0:
320,192,83688,1,2,0:0:0:0:
448,192,83688,1,0,0:0:0:0:
64,192,83845,1,8,0:0:0:0:
192,192,83845,1,0,0:0:0:40:LR_CymbalG.wav
448,192,83845,1,0,0:0:0:0:
192,192,84081,1,2,0:0:0:0:
320,192,84081,1,0,0:0:0:0:
320,192,84317,1,2,0:0:0:0:
448,192,84317,1,0,0:0:0:0:
64,192,84474,1,8,0:0:0:0:
192,192,84474,1,0,0:0:0:40:LR_CymbalG.wav
448,192,84474,1,0,0:0:0:0:
320,192,84631,1,2,0:0:0:0:
448,192,84631,1,0,0:0:0:60:LR_Drum Rpd.wav
64,192,84709,1,2,0:0:0:0:
192,192,84709,1,0,0:0:0:60:LR_Drum Rpd.wav
320,192,84788,1,2,0:0:0:0:
448,192,84788,1,0,0:0:0:60:LR_Drum Rpd.wav
64,192,84866,1,2,0:0:0:0:
192,192,84866,1,0,0:0:0:60:LR_Drum Rpd.wav
320,192,84945,1,2,0:0:0:0:
448,192,84945,1,0,0:0:0:60:LR_Drum Rpd.wav
192,192,85023,1,2,0:0:0:0:
64,192,85102,1,8,0:0:0:0:
320,192,85102,1,0,0:0:0:40:LR_CymbalG.wav
448,192,85102,1,0,0:0:0:0:
192,192,85337,1,2,0:0:0:0:
320,192,85337,1,0,0:0:0:60:LR_Drum Rpd.wav
64,192,85573,1,2,0:0:0:0:
192,192,85573,1,0,0:0:0:60:LR_Drum Rpd.wav
64,192,85730,1,8,0:0:0:0:
320,192,85730,1,0,0:0:0:40:LR_CymbalG.wav
448,192,85730,1,0,0:0:0:60:LR_Drum Rpd.wav
192,192,85966,1,2,0:0:0:0:
320,192,85966,1,0,0:0:0:60:LR_Drum Rpd.wav
64,192,86201,1,2,0:0:0:0:
192,192,86201,1,0,0:0:0:60:LR_Drum Rpd.wav
64,192,86358,1,2,0:0:0:0:
320,192,86358,1,0,0:0:0:40:LR_CymbalG.wav
448,192,86358,1,0,0:0:0:60:LR_Drum Rpd.wav
192,192,86673,1,0,0:0:0:60:LR_Clap DS.wav
320,192,86673,1,0,0:0:0:0:
64,192,86987,1,8,0:0:0:0:
448,192,86987,1,0,0:0:0:0:
64,192,87144,1,2,0:0:0:0:
448,192,87144,1,0,0:0:0:0:
192,192,87222,1,2,0:0:0:0:
320,192,87301,1,2,0:0:0:0:
448,192,87301,1,0,0:0:0:0:
192,192,87458,1,0,0:0:0:0:
64,192,87615,1,2,0:0:0:0:
320,192,87615,1,0,0:0:0:40:LR_CymbalG.wav
448,192,87615,1,0,0:0:0:0:
64,192,87772,128,0,87851:0:0:0:0:
192,192,87851,128,0,87929:0:0:0:0:
320,192,87929,128,0,88086:0:0:0:0:
448,192,87929,128,0,88086:0:0:0:0:
64,192,88086,1,2,0:0:0:0:
192,192,88086,1,0,0:0:0:40:LR_CymbalG.wav
448,192,88243,128,0,88322:0:0:0:0:
320,192,88322,128,0,88400:0:0:0:0:
64,192,88400,128,0,88557:0:0:0:0:
192,192,88400,128,0,88557:0:0:0:0:
320,192,88557,1,2,0:0:0:0:
448,192,88557,1,0,0:0:0:40:LR_CymbalG.wav
64,192,88714,128,0,88793:0:0:0:0:
192,192,88793,128,0,88871:0:0:0:0:
64,192,88871,128,0,89029:0:0:0:0:
320,192,88871,128,0,89029:0:0:0:0:
192,192,89029,1,2,0:0:0:0:
448,192,89029,1,0,0:0:0:40:LR_CymbalG.wav
448,192,89186,128,0,89264:0:0:0:0:
320,192,89264,128,0,89343:0:0:0:0:
192,192,89343,128,0,89500:0:0:0:0:
448,192,89343,128,0,89500:0:0:0:0:
64,192,89500,1,2,0:0:0:0:
320,192,89500,1,0,0:0:0:40:LR_CymbalG.wav
192,192,89657,128,0,89735:0:0:0:0:
320,192,89735,128,0,89814:0:0:0:0:
64,192,89814,128,2,89892:0:0:0:0:
448,192,89814,1,0,0:0:0:40:LR_CymbalG.wav
192,192,89892,128,0,89971:0:0:0:0:
448,192,89971,128,0,90049:0:0:0:0:
320,192,90049,128,0,90128:0:0:0:0:
64,192,90128,128,0,90442:0:0:0:0:
192,192,90128,128,0,90442:0:0:0:0:
320,192,90442,1,2,0:0:0:0:
448,192,90442,1,0,0:0:0:60:LR_CymbalG.wav
192,192,90599,128,8,90913:0:0:0:0:
448,192,90599,128,0,90913:0:0:0:60:LR_Clap DS.wav
64,192,90913,1,2,0:0:0:0:
320,192,90913,1,0,0:0:0:0:
192,192,90992,1,0,0:0:0:0:
320,192,91070,1,8,0:0:0:0:
448,192,91070,1,0,0:0:0:0:
64,192,91149,1,0,0:0:0:0:
192,192,91227,1,2,0:0:0:0:
320,192,91306,1,0,0:0:0:0:
64,192,91385,128,2,91542:0:0:0:0:
448,192,91385,1,0,0:0:0:0:
192,192,91542,1,0,0:0:0:60:LR_Drum Rpd.wav
320,192,91620,1,0,0:0:0:0:
64,192,91699,1,8,0:0:0:0:
448,192,91699,1,0,0:0:0:0:
192,192,91777,1,0,0:0:0:0:
320,192,91856,1,2,0:0:0:0:
448,192,91856,1,0,0:0:0:60:LR_Drum Rpd.wav
64,192,91934,1,2,0:0:0:0:
320,192,92013,1,2,0:0:0:0:
448,192,92013,128,0,92170:0:0:0:0:
64,192,92170,1,2,0:0:0:0:
192,192,92170,1,0,0:0:0:60:LR_Drum Rpd.wav
448,192,92248,1,2,0:0:0:0:
192,192,92327,1,8,0:0:0:0:
320,192,92327,1,0,0:0:0:0:
64,192,92406,1,2,0:0:0:0:
320,192,92484,1,2,0:0:0:0:
192,192,92563,1,2,0:0:0:0:
64,192,92641,1,2,0:0:0:0:
320,192,92641,128,0,92798:0:0:0:0:
448,192,92798,1,0,0:0:0:0:
320,192,92877,1,0,0:0:0:0:
64,192,92955,1,8,0:0:0:0:
192,192,92955,1,0,0:0:0:0:
320,192,93034,1,0,0:0:0:0:
64,192,93112,128,2,93191:0:0:0:0:
448,192,93112,1,0,0:0:0:0:
320,192,93191,1,0,0:0:0:0:
64,192,93269,128,0,93348:0:0:0:0:
320,192,93348,1,0,0:0:0:0:
64,192,93426,128,8,93505:0:0:0:0:
320,192,93505,1,0,0:0:0:0:
64,192,93584,128,8,93662:0:0:0:0:
320,192,93662,1,0,0:0:0:0:
192,192,93741,1,0,0:0:0:0:
64,192,93819,1,0,0:0:0:0:
320,192,93898,128,2,94055:0:0:0:0:
448,192,93898,1,0,0:0:0:0:
64,192,94055,1,0,0:0:0:0:
192,192,94133,1,0,0:0:0:0:
320,192,94212,1,8,0:0:0:0:
448,192,94212,1,0,0:0:0:0:
192,192,94290,1,0,0:0:0:0:
64,192,94369,1,2,0:0:0:0:
448,192,94369,128,0,94447:0:0:0:0:
192,192,94447,1,0,0:0:0:0:
448,192,94526,128,0,94604:0:0:0:0:
192,192,94604,1,0,0:0:0:0:
448,192,94683,128,8,94762:0:0:0:0:
192,192,94762,1,0,0:0:0:0:
448,192,94840,128,8,94919:0:0:0:0:
192,192,94919,1,0,0:0:0:0:
448,192,94997,1,0,0:0:0:0:
320,192,95076,1,0,0:0:0:0:
64,192,95154,128,2,95311:0:0:0:0:
192,192,95154,1,0,0:0:0:0:
320,192,95311,1,2,0:0:0:0:
448,192,95311,1,0,0:0:0:0:
192,192,95390,1,2,0:0:0:0:
64,192,95468,1,8,0:0:0:0:
320,192,95468,128,0,95625:0:0:0:0:
192,192,95625,1,2,0:0:0:0:
448,192,95625,1,0,0:0:0:0:
64,192,95782,128,2,95861:0:0:0:0:
448,192,95782,1,0,0:0:0:0:
192,192,95940,128,2,96018:0:0:0:0:
320,192,95940,1,0,0:0:0:0:
320,192,96097,128,8,96175:0:0:0:0:
448,192,96097,1,0,0:0:0:0:
192,192,96254,1,2,0:0:0:0:
448,192,96254,128,0,96332:0:0:0:0:
64,192,96411,1,2,0:0:0:0:
192,192,96411,1,0,0:0:0:0:
320,192,96489,1,2,0:0:0:0:
64,192,96568,1,2,0:0:0:0:
448,192,96568,1,0,0:0:0:0:
192,192,96646,1,2,0:0:0:0:
320,192,96725,1,8,0:0:0:0:
448,192,96725,1,0,0:0:0:0:
192,192,96803,1,2,0:0:0:0:
64,192,96882,1,2,0:0:0:0:
448,192,96882,1,0,0:0:0:0:
320,192,96960,1,2,0:0:0:0:
64,192,97039,1,2,0:0:0:0:
192,192,97039,1,0,0:0:0:0:
320,192,97118,1,2,0:0:0:0:
448,192,97118,1,0,0:0:0:0:
64,192,97196,1,2,0:0:0:0:
192,192,97196,1,0,0:0:0:0:
320,192,97275,1,2,0:0:0:0:
64,192,97353,1,8,0:0:0:0:
192,192,97353,1,0,0:0:0:60:LR_CymbalG.wav
448,192,97353,1,0,0:0:0:60:LR_Clap DS.wav
320,192,97510,128,0,97667:0:0:0:0:
64,192,97667,1,2,0:0:0:0:
192,192,97667,1,0,0:0:0:40:LR_CymbalG.wav
448,192,97667,1,0,0:0:0:0:
64,192,97824,128,0,97903:0:0:0:0:
192,192,97903,128,0,97981:0:0:0:0:
320,192,97981,128,8,98138:0:0:0:0:
448,192,97981,128,0,98138:0:0:0:0:
64,192,98138,1,2,0:0:0:0:
192,192,98138,1,0,0:0:0:40:LR_CymbalG.wav
448,192,98296,128,0,98374:0:0:0:0:
320,192,98374,128,0,98453:0:0:0:0:
64,192,98453,128,2,98610:0:0:0:0:
192,192,98453,128,0,98610:0:0:0:0:
320,192,98610,1,2,0:0:0:0:
448,192,98610,1,0,0:0:0:40:LR_CymbalG.wav
64,192,98767,128,0,98845:0:0:0:0:
192,192,98845,128,0,98924:0:0:0:0:
64,192,98924,128,8,99081:0:0:0:0:
320,192,98924,128,0,99081:0:0:0:0:
192,192,99081,1,2,0:0:0:0:
448,192,99081,1,0,0:0:0:40:LR_CymbalG.wav
448,192,99238,128,8,99317:0:0:0:0:
320,192,99317,128,0,99395:0:0:0:0:
64,192,99395,128,2,99552:0:0:0:0:
448,192,99395,128,0,99552:0:0:0:0:
192,192,99552,1,2,0:0:0:0:
320,192,99552,1,0,0:0:0:40:LR_CymbalG.wav
192,192,99709,128,2,99788:0:0:0:0:
320,192,99788,128,2,99866:0:0:0:0:
64,192,99866,128,8,99945:0:0:0:0:
448,192,99866,1,0,0:0:0:40:LR_CymbalG.wav
192,192,99945,128,0,100023:0:0:0:0:
448,192,100023,128,2,100102:0:0:0:0:
320,192,100102,128,2,100180:0:0:0:0:
64,192,100180,128,0,100495:0:0:0:0:
192,192,100180,128,0,100495:0:0:0:0:
320,192,100495,1,2,0:0:0:0:
448,192,100495,1,0,0:0:0:60:LR_CymbalG.wav
192,192,100652,128,8,100966:0:0:0:0:
320,192,100652,128,0,100966:0:0:0:60:LR_Clap DS.wav
64,192,100966,1,2,0:0:0:0:
448,192,100966,1,0,0:0:0:0:
192,192,101044,1,0,0:0:0:0:
320,192,101123,1,8,0:0:0:0:
448,192,101123,1,0,0:0:0:0:
64,192,101201,1,0,0:0:0:0:
192,192,101280,1,2,0:0:0:0:
320,192,101280,1,0,0:0:0:0:
448,192,101358,1,0,0:0:0:0:
64,192,101437,1,2,0:0:0:0:
192,192,101437,1,0,0:0:0:40:LR_CymbalG.wav
320,192,101437,1,0,0:0:0:0:
64,192,101646,1,2,0:0:0:0:
192,192,101646,1,0,0:0:0:40:LR_CymbalG.wav
448,192,101646,1,0,0:0:0:0:
192,192,101856,1,2,0:0:0:0:
320,192,101856,1,0,0:0:0:40:LR_CymbalG.wav
448,192,101856,1,0,0:0:0:0:
64,192,102065,1,2,0:0:0:0:
192,192,102065,1,0,0:0:0:40:LR_CymbalG.wav
320,192,102065,1,0,0:0:0:0:
64,192,102275,1,2,0:0:0:0:
320,192,102275,1,0,0:0:0:40:LR_CymbalG.wav
448,192,102275,1,0,0:0:0:0:
64,192,102484,1,2,0:0:0:0:
192,192,102484,1,0,0:0:0:40:LR_CymbalG.wav
448,192,102484,1,0,0:0:0:0:
448,192,102693,128,0,102851:0:0:0:0:
64,192,102851,1,0,0:0:0:0:
192,192,102929,1,0,0:0:0:0:
320,192,103008,1,2,0:0:0:0:
448,192,103008,1,0,0:0:0:60:LR_CymbalG.wav
192,192,103086,1,0,0:0:0:0:
64,192,103165,128,0,103243:0:0:0:0:
448,192,103165,1,0,0:0:0:0:
320,192,103243,1,2,0:0:0:0:
64,192,103322,128,2,103400:0:0:0:0:
320,192,103400,1,0,0:0:0:0:
64,192,103479,128,8,103557:0:0:0:0:
320,192,103557,1,0,0:0:0:0:
64,192,103636,128,8,103714:0:0:0:0:
320,192,103714,1,0,0:0:0:0:
64,192,103793,1,0,0:0:0:0:
192,192,103871,1,0,0:0:0:0:
320,192,103950,128,2,104107:0:0:0:0:
448,192,103950,1,0,0:0:0:0:
64,192,104107,1,0,0:0:0:0:
192,192,104186,1,0,0:0:0:0:
320,192,104264,1,8,0:0:0:0:
448,192,104264,1,0,0:0:0:0:
192,192,104343,1,0,0:0:0:0:
64,192,104421,1,0,0:0:0:0:
448,192,104421,128,0,104500:0:0:0:0:
192,192,104500,1,0,0:0:0:0:
448,192,104578,128,2,104657:0:0:0:0:
192,192,104657,1,0,0:0:0:0:
448,192,104735,128,8,104814:0:0:0:0:
192,192,104814,1,0,0:0:0:0:
448,192,104892,128,8,104971:0:0:0:0:
192,192,104971,1,0,0:0:0:0:
320,192,105049,1,2,0:0:0:0:
448,192,105128,1,2,0:0:0:0:
64,192,105207,128,2,105678:0:0:0:0:
192,192,105207,1,0,0:0:0:0:
320,192,105364,1,2,0:0:0:0:
448,192,105364,1,0,0:0:0:0:
320,192,105521,1,8,0:0:0:0:
448,192,105521,1,0,0:0:0:0:
320,192,105678,1,2,0:0:0:0:
192,192,105756,1,2,0:0:0:0:
64,192,105835,1,2,0:0:0:0:
448,192,105835,1,0,0:0:0:0:
192,192,105992,1,2,0:0:0:0:
320,192,106070,1,2,0:0:0:0:
64,192,106149,1,8,0:0:0:0:
448,192,106149,1,0,0:0:0:0:
192,192,106227,1,2,0:0:0:0:
320,192,106227,1,0,0:0:0:0:
64,192,106306,1,2,0:0:0:0:
448,192,106306,1,0,0:0:0:0:
192,192,106385,1,2,0:0:0:0:
320,192,106463,1,2,0:0:0:0:
448,192,106463,1,0,0:0:0:60:LR_Clap DS.wav
64,192,106542,1,2,0:0:0:0:
192,192,106620,1,2,0:0:0:0:
320,192,106620,1,0,0:0:0:0:
448,192,106699,1,2,0:0:0:0:
64,192,106777,1,2,0:0:0:0:
192,192,106777,1,0,0:0:0:60:LR_Clap DS.wav
320,192,106856,1,2,0:0:0:0:
64,192,106934,1,2,0:0:0:0:
448,192,106934,1,0,0:0:0:0:
192,192,107013,1,2,0:0:0:0:
64,192,107091,128,8,107248:0:0:0:0:
448,192,107091,128,0,107248:0:0:0:0:
320,192,107248,1,2,0:0:0:0:
192,192,107327,1,2,0:0:0:0:
320,192,107406,128,8,107563:0:0:0:0:
448,192,107406,1,0,0:0:0:60:LR_CymbalG.wav
192,192,107563,128,0,107720:0:0:0:0:
64,192,107720,1,2,0:0:0:0:
320,192,107720,1,0,0:0:0:40:LR_CymbalG.wav
448,192,107720,1,0,0:0:0:0:
64,192,107877,128,0,107955:0:0:0:0:
192,192,107955,128,0,108034:0:0:0:0:
320,192,108034,128,8,108191:0:0:0:0:
448,192,108034,128,0,108191:0:0:0:0:
64,192,108191,1,2,0:0:0:0:
192,192,108191,1,0,0:0:0:40:LR_CymbalG.wav
448,192,108348,128,0,108426:0:0:0:0:
320,192,108426,128,0,108505:0:0:0:0:
64,192,108505,128,8,108662:0:0:0:0:
192,192,108505,128,0,108662:0:0:0:0:
320,192,108662,1,2,0:0:0:0:
448,192,108662,1,0,0:0:0:40:LR_CymbalG.wav
64,192,108819,128,0,108898:0:0:0:0:
192,192,108898,128,0,108976:0:0:0:0:
64,192,108976,128,8,109133:0:0:0:0:
320,192,108976,128,0,109133:0:0:0:0:
192,192,109133,1,2,0:0:0:0:
448,192,109133,1,0,0:0:0:40:LR_CymbalG.wav
192,192,109290,128,8,109369:0:0:0:0:
320,192,109369,128,0,109447:0:0:0:0:
64,192,109447,128,2,109604:0:0:0:0:
448,192,109447,128,0,109604:0:0:0:0:
192,192,109604,1,2,0:0:0:0:
320,192,109604,1,8,0:0:0:0:
64,192,109762,128,2,109840:0:0:0:0:
192,192,109840,128,2,109919:0:0:0:0:
320,192,109919,1,8,0:0:0:0:
448,192,109919,128,0,109997:0:0:0:40:LR_CymbalG.wav
64,192,109997,128,0,110076:0:0:0:0:
192,192,110076,128,2,110154:0:0:0:0:
448,192,110154,128,2,110233:0:0:0:0:
64,192,110233,128,0,110390:0:0:0:0:
320,192,110233,128,0,110390:0:0:0:0:
192,192,110390,1,0,0:0:0:0:
448,192,110468,1,0,0:0:0:0:
192,192,110547,1,2,0:0:0:0:
320,192,110547,1,0,0:0:0:60:LR_CymbalG.wav
64,192,110625,1,0,0:0:0:0:
320,192,110704,128,8,111018:0:0:0:0:
448,192,110704,128,0,111018:0:0:0:60:LR_Clap DS.wav
64,192,111018,1,2,0:0:0:0:
192,192,111097,1,0,0:0:0:0:
320,192,111175,1,8,0:0:0:0:
448,192,111175,1,0,0:0:0:0:
192,192,111254,1,0,0:0:0:0:
64,192,111332,1,2,0:0:0:0:
448,192,111332,1,0,0:0:0:0:
192,192,111411,1,2,0:0:0:0:
320,192,111411,1,0,0:0:0:0:
64,192,111489,1,2,0:0:0:0:
448,192,111489,1,0,0:0:0:0:
320,192,111646,1,2,0:0:0:0:
448,192,111646,1,0,0:0:0:0:
64,192,111725,1,0,0:0:0:0:
192,192,111803,1,8,0:0:0:0:
320,192,111803,1,0,0:0:0:0:
448,192,111882,1,0,0:0:0:0:
64,192,111960,1,2,0:0:0:0:
192,192,111960,1,0,0:0:0:0:
320,192,112039,1,0,0:0:0:0:
64,192,112118,1,2,0:0:0:0:
448,192,112118,1,0,0:0:0:0:
64,192,112275,1,2,0:0:0:0:
192,192,112275,1,0,0:0:0:0:
320,192,112353,1,2,0:0:0:0:
448,192,112353,1,0,0:0:0:0:
64,192,112432,1,8,0:0:0:0:
192,192,112432,1,0,0:0:0:0:
448,192,112510,1,2,0:0:0:0:
192,192,112589,1,2,0:0:0:0:
320,192,112589,1,0,0:0:0:0:
64,192,112667,1,2,0:0:0:0:
320,192,112746,1,2,0:0:0:0:
448,192,112746,128,0,112903:0:0:0:0:
64,192,112903,1,0,0:0:0:0:
192,192,112981,1,0,0:0:0:0:
320,192,113060,1,8,0:0:0:0:
448,192,113060,1,0,0:0:0:0:
192,192,113138,1,0,0:0:0:0:
64,192,113217,128,0,113296:0:0:0:0:
448,192,113217,1,0,0:0:0:0:
320,192,113296,1,0,0:0:0:0:
64,192,113374,128,2,113453:0:0:0:0:
320,192,113453,1,0,0:0:0:60:LR_Drum Rpd.wav
64,192,113531,128,0,113610:0:0:0:60:LR_Drum Rpd.wav
320,192,113610,1,0,0:0:0:60:LR_Drum Rpd.wav
64,192,113688,128,8,113767:0:0:0:0:
320,192,113767,1,0,0:0:0:0:
192,192,113845,1,0,0:0:0:0:
64,192,113924,1,0,0:0:0:0:
320,192,114002,128,2,114159:0:0:0:0:
448,192,114002,1,0,0:0:0:0:
64,192,114159,1,0,0:0:0:0:
320,192,114238,1,0,0:0:0:0:
64,192,114317,1,8,0:0:0:0:
192,192,114317,1,0,0:0:0:0:
320,192,114395,1,0,0:0:0:0:
64,192,114474,1,0,0:0:0:0:
448,192,114474,128,0,114552:0:0:0:0:
192,192,114552,1,0,0:0:0:0:
448,192,114631,128,2,114709:0:0:0:0:
192,192,114709,1,0,0:0:0:60:LR_Drum Rpd.wav
448,192,114788,128,0,114866:0:0:0:60:LR_Drum Rpd.wav
192,192,114866,1,0,0:0:0:60:LR_Drum Rpd.wav
448,192,114945,128,8,115023:0:0:0:0:
192,192,115023,1,0,0:0:0:0:
320,192,115102,1,0,0:0:0:0:
448,192,115180,1,0,0:0:0:0:
64,192,115259,128,2,115416:0:0:0:0:
192,192,115259,1,0,0:0:0:0:
320,192,115416,1,2,0:0:0:0:
448,192,115416,1,0,0:0:0:0:
192,192,115495,1,0,0:0:0:0:
320,192,115573,128,8,115730:0:0:0:0:
448,192,115573,1,0,0:0:0:0:
64,192,115730,1,2,0:0:0:0:
192,192,115730,1,0,0:0:0:0:
64,192,115887,128,2,115966:0:0:0:0:
448,192,115887,1,0,0:0:0:0:
192,192,116044,128,2,116123:0:0:0:0:
320,192,116044,1,0,0:0:0:0:
320,192,116201,128,8,116280:0:0:0:0:
448,192,116201,1,0,0:0:0:0:
64,192,116358,1,2,0:0:0:0:
448,192,116358,128,0,116437:0:0:0:0:
64,192,116515,1,2,0:0:0:0:
192,192,116515,1,0,0:0:0:0:
320,192,116594,1,2,0:0:0:0:
448,192,116594,1,0,0:0:0:0:
64,192,116673,1,2,0:0:0:0:
192,192,116673,1,0,0:0:0:0:
320,192,116751,1,2,0:0:0:0:
64,192,116830,1,2,0:0:0:0:
448,192,116830,1,0,0:0:0:0:
192,192,116908,1,2,0:0:0:0:
320,192,116908,1,0,0:0:0:0:
64,192,116987,1,2,0:0:0:0:
448,192,116987,1,0,0:0:0:0:
192,192,117065,1,2,0:0:0:0:
320,192,117065,1,0,0:0:0:0:
64,192,117144,128,2,117301:0:0:0:0:
448,192,117144,128,0,117301:0:0:0:0:
192,192,117301,1,2,0:0:0:0:
448,192,117379,1,2,0:0:0:0:
64,192,117458,1,8,0:0:0:0:
192,192,117458,128,0,117615:0:0:0:60:LR_CymbalG.wav
320,192,117615,128,0,117772:0:0:0:0:
448,192,117615,1,0,0:0:0:0:
64,192,117772,1,2,0:0:0:0:
192,192,117772,1,0,0:0:0:40:LR_CymbalG.wav
448,192,117929,128,0,118008:0:0:0:0:
320,192,118008,128,0,118086:0:0:0:0:
64,192,118086,128,2,118243:0:0:0:0:
192,192,118086,128,0,118243:0:0:0:0:
320,192,118243,1,8,0:0:0:0:
448,192,118243,1,0,0:0:0:40:LR_CymbalG.wav
64,192,118400,128,0,118479:0:0:0:0:
192,192,118479,128,0,118557:0:0:0:0:
320,192,118557,128,2,118714:0:0:0:0:
448,192,118557,128,0,118714:0:0:0:0:
64,192,118714,1,8,0:0:0:0:
192,192,118714,1,0,0:0:0:40:LR_CymbalG.wav
448,192,118871,128,0,118950:0:0:0:0:
320,192,118950,128,0,119029:0:0:0:0:
192,192,119029,128,2,119186:0:0:0:0:
448,192,119029,128,0,119186:0:0:0:0:
64,192,119186,1,8,0:0:0:0:
320,192,119186,1,0,0:0:0:40:LR_CymbalG.wav
64,192,119343,1,2,0:0:0:0:
192,192,119343,128,0,119421:0:0:0:0:
320,192,119421,128,2,119500:0:0:0:0:
448,192,119421,1,0,0:0:0:0:
64,192,119500,128,2,119657:0:0:0:0:
192,192,119500,128,0,119657:0:0:0:0:
320,192,119657,1,8,0:0:0:0:
448,192,119657,1,0,0:0:0:40:LR_CymbalG.wav
64,192,119814,128,0,119892:0:0:0:0:
192,192,119892,128,2,119971:0:0:0:0:
320,192,119971,1,8,0:0:0:0:
448,192,119971,128,0,120049:0:0:0:40:LR_CymbalG.wav
64,192,120049,128,0,120128:0:0:0:0:
192,192,120128,128,8,120207:0:0:0:0:
320,192,120128,1,0,0:0:0:40:LR_CymbalG.wav
448,192,120207,1,0,0:0:0:60:LR_Drum Rpd.wav
320,192,120285,128,0,120442:0:0:0:0:
192,192,120442,1,0,0:0:0:0:
320,192,120521,1,0,0:0:0:0:
64,192,120599,1,2,0:0:0:0:
192,192,120599,1,0,0:0:0:60:LR_CymbalG.wav
320,192,120678,1,0,0:0:0:0:
64,192,120756,128,8,121070:0:0:0:0:
192,192,120756,128,0,121070:0:0:0:60:LR_Clap DS.wav
448,192,120756,1,0,0:0:0:0:
448,192,121070,1,2,0:0:0:0:
320,192,121149,1,0,0:0:0:0:
64,192,121227,1,8,0:0:0:0:
192,192,121227,1,0,0:0:0:0:
448,192,121306,1,0,0:0:0:0:
192,192,121385,1,2,0:0:0:0:
320,192,121385,1,0,0:0:0:0:
64,192,121463,1,2,0:0:0:0:
192,192,121542,1,2,0:0:0:0:
320,192,121542,1,0,0:0:0:40:LR_CymbalG.wav
448,192,121542,1,0,0:0:0:0:
64,192,121751,1,2,0:0:0:0:
192,192,121751,1,0,0:0:0:40:LR_CymbalG.wav
320,192,121751,1,0,0:0:0:0:
64,192,121960,1,2,0:0:0:0:
320,192,121960,1,0,0:0:0:40:LR_CymbalG.wav
448,192,121960,1,0,0:0:0:0:
64,192,122170,1,2,0:0:0:0:
192,192,122170,1,0,0:0:0:40:LR_CymbalG.wav
448,192,122170,1,0,0:0:0:0:
192,192,122379,1,2,0:0:0:0:
320,192,122379,1,0,0:0:0:40:LR_CymbalG.wav
448,192,122379,1,0,0:0:0:0:
64,192,122589,1,2,0:0:0:0:
192,192,122589,1,0,0:0:0:40:LR_CymbalG.wav
320,192,122589,1,0,0:0:0:0:
320,192,122798,128,2,122955:0:0:0:0:
448,192,122798,128,0,122955:0:0:0:0:
192,192,122955,1,0,0:0:0:0:
64,192,123034,1,0,0:0:0:0:
192,192,123112,1,8,0:0:0:0:
320,192,123112,1,0,0:0:0:60:LR_CymbalG.wav
448,192,123191,1,0,0:0:0:0:
64,192,123269,1,2,0:0:0:0:
192,192,123269,128,0,123348:0:0:0:0:
320,192,123348,1,0,0:0:0:0:
192,192,123426,128,2,123505:0:0:0:0:
320,192,123505,1,0,0:0:0:0:
192,192,123584,128,2,123662:0:0:0:0:
320,192,123662,1,0,0:0:0:0:
192,192,123741,128,2,123819:0:0:0:0:
320,192,123819,1,0,0:0:0:0:
64,192,123898,1,2,0:0:0:0:
192,192,123976,1,2,0:0:0:0:
320,192,124055,1,2,0:0:0:0:
448,192,124055,128,0,124212:0:0:0:0:
64,192,124212,1,2,0:0:0:0:
448,192,124290,1,0,0:0:0:0:
192,192,124369,1,8,0:0:0:0:
320,192,124369,1,0,0:0:0:0:
64,192,124447,1,0,0:0:0:0:
320,192,124526,128,2,124604:0:0:0:0:
448,192,124526,1,0,0:0:0:0:
192,192,124604,1,0,0:0:0:0:
320,192,124683,128,2,124762:0:0:0:0:
192,192,124762,1,0,0:0:0:0:
320,192,124840,128,2,124919:0:0:0:0:
192,192,124919,1,2,0:0:0:0:
320,192,124997,128,8,125076:0:0:0:0:
192,192,125076,1,2,0:0:0:0:
448,192,125154,1,2,0:0:0:0:
320,192,125233,1,2,0:0:0:0:
64,192,125311,128,2,126097:0:0:0:0:
192,192,125311,1,0,0:0:0:0:
192,192,125625,1,8,0:0:0:0:
320,192,125625,1,0,0:0:0:0:
448,192,125782,1,2,0:0:0:0:
320,192,125861,1,2,0:0:0:0:
192,192,125940,1,2,0:0:0:0:
192,192,126097,1,2,0:0:0:0:
320,192,126097,1,0,0:0:0:0:
448,192,126175,1,2,0:0:0:0:
64,192,126254,1,8,0:0:0:0:
192,192,126254,1,0,0:0:0:0:
320,192,126332,1,2,0:0:0:0:
448,192,126411,1,2,0:0:0:0:
320,192,126489,1,2,0:0:0:0:
64,192,126568,1,2,0:0:0:0:
192,192,126568,1,0,0:0:0:60:LR_Clap DS.wav
320,192,126646,1,2,0:0:0:0:
448,192,126646,1,0,0:0:0:0:
64,192,126725,1,2,0:0:0:0:
192,192,126725,1,0,0:0:0:0:
320,192,126803,1,2,0:0:0:0:
448,192,126803,1,0,0:0:0:0:
64,192,126882,1,8,0:0:0:0:
192,192,126882,1,0,0:0:0:60:LR_Clap DS.wav
320,192,126960,1,2,0:0:0:0:
64,192,127039,1,2,0:0:0:0:
448,192,127039,1,0,0:0:0:0:
192,192,127118,1,2,0:0:0:0:
320,192,127196,1,0,0:0:0:60:LR_Drum Rpd.wav
448,192,127196,1,0,0:0:0:0:
448,192,127353,1,2,0:0:0:0:
320,192,127432,1,2,0:0:0:0:
64,192,127510,1,8,0:0:0:0:
192,192,127510,1,0,0:0:0:60:LR_CymbalG.wav
64,192,127824,128,2,128924:0:0:0:0:
192,192,127824,1,0,0:0:0:60:LR_CymbalG.wav
448,192,127824,128,0,128924:0:0:0:0:
320,192,127981,1,0,0:0:0:0:
192,192,128138,1,0,0:0:0:0:
320,192,128296,1,0,0:0:0:0:
192,192,128453,1,8,0:0:0:0:
320,192,128453,1,0,0:0:0:0:
192,192,128610,1,0,0:0:0:0:
192,192,128924,1,2,0:0:0:0:
320,192,128924,1,0,0:0:0:0:
448,192,129238,1,0,0:0:0:0:
320,192,129317,1,0,0:0:0:0:
64,192,129395,1,2,0:0:0:0:
192,192,129395,1,0,0:0:0:0:
320,192,129552,1,0,0:0:0:0:
64,192,129709,1,8,0:0:0:0:
448,192,129709,1,0,0:0:0:0:
192,192,129866,1,2,0:0:0:0:
320,192,129866,1,0,0:0:0:0:
64,192,130180,1,8,0:0:0:0:
448,192,130180,1,0,0:0:0:0:
320,192,130337,1,0,0:0:0:0:
448,192,130416,1,0,0:0:0:0:
64,192,130495,1,2,0:0:0:0:
192,192,130495,1,0,0:0:0:0:
64,192,130652,1,0,0:0:0:60:LR_Drum Rpd.wav
448,192,130652,1,0,0:0:0:0:
320,192,130730,1,0,0:0:0:60:LR_Drum Rpd.wav
192,192,130809,1,0,0:0:0:60:LR_Drum Rpd.wav
64,192,130887,1,0,0:0:0:60:LR_Drum Rpd.wav
320,192,130966,1,8,0:0:0:0:
448,192,130966,1,0,0:0:0:40:LR_CymbalG.wav
192,192,131123,1,0,0:0:0:0:
320,192,131201,1,0,0:0:0:0:
64,192,131280,1,8,0:0:0:0:
448,192,131280,1,0,0:0:0:40:LR_CymbalG.wav
192,192,131358,1,2,0:0:0:0:
320,192,131437,1,2,0:0:0:0:
448,192,131437,1,0,0:0:0:0:
64,192,131515,1,2,0:0:0:0:
192,192,131594,1,8,0:0:0:0:
320,192,131594,1,0,0:0:0:40:LR_CymbalG.wav
448,192,131672,1,2,0:0:0:0:
320,192,131751,1,2,0:0:0:0:
192,192,131829,1,2,0:0:0:0:
64,192,131908,1,8,0:0:0:0:
448,192,131908,1,0,0:0:0:40:LR_CymbalG.wav
320,192,132144,1,8,0:0:0:0:
448,192,132144,1,0,0:0:0:60:LR_Drum Rpd.wav
192,192,132222,1,0,0:0:0:0:
64,192,132301,1,0,0:0:0:0:
192,192,132379,1,8,0:0:0:0:
320,192,132379,1,0,0:0:0:60:LR_Drum Rpd.wav
448,192,132458,1,0,0:0:0:0:
320,192,132536,1,0,0:0:0:0:
64,192,132615,1,8,0:0:0:0:
192,192,132615,1,0,0:0:0:60:LR_Drum Rpd.wav
448,192,132693,1,0,0:0:0:0:
320,192,132772,1,0,0:0:0:0:
64,192,132850,1,8,0:0:0:0:
192,192,132850,1,0,0:0:0:60:LR_Drum Rpd.wav
192,192,133086,1,8,0:0:0:0:
320,192,133086,1,0,0:0:0:60:LR_Drum Rpd.wav
64,192,133164,1,8,0:0:0:0:
448,192,133164,1,0,0:0:0:60:LR_Drum Rpd.wav
64,192,133322,1,8,0:0:0:0:
448,192,133322,1,0,0:0:0:60:LR_Drum Rpd.wav
192,192,133479,1,8,0:0:0:0:
320,192,133479,1,0,0:0:0:60:LR_Drum Rpd.wav
320,192,133636,1,8,0:0:0:0:
448,192,133636,128,0,133714:0:0:0:60:LR_Drum Rpd.wav
64,192,133714,1,8,0:0:0:0:
192,192,133714,128,0,133793:0:0:0:60:LR_Drum Rpd.wav
320,192,133793,128,0,133871:0:0:0:60:LR_Drum Rpd.wav
448,192,133793,1,0,0:0:0:0:
64,192,133871,128,0,133950:0:0:0:60:LR_Drum Rpd.wav
192,192,133871,1,0,0:0:0:0:
320,192,133950,1,8,0:0:0:0:
448,192,133950,128,0,134028:0:0:0:60:LR_Drum Rpd.wav
64,192,134028,1,8,0:0:0:0:
192,192,134028,128,0,134107:0:0:0:60:LR_Drum Rpd.wav
320,192,134107,128,8,134185:0:0:0:0:
448,192,134107,1,0,0:0:0:60:LR_Drum Rpd.wav
64,192,134185,128,8,134264:0:0:0:0:
192,192,134185,1,0,0:0:0:60:LR_Drum Rpd.wav
320,192,134264,1,8,0:0:0:0:
448,192,134264,128,0,134342:0:0:0:60:LR_Drum Rpd.wav
64,192,134342,1,0,0:0:0:60:LR_Drum Rpd.wav
192,192,134342,128,0,134421:0:0:0:0:
64,192,134735,128,8,135206:0:0:0:0:
192,192,134735,1,2,0:0:0:0:
320,192,134735,1,0,0:0:0:60:LR_CymbalG.wav
448,192,134735,128,0,139447:0:0:0:0:
192,192,135206,1,0,0:0:0:0:
320,192,135285,1,0,0:0:0:0:
64,192,135520,1,0,0:0:0:0:
320,192,135678,1,0,0:0:0:0:
192,192,135756,1,0,0:0:0:0:
64,192,135835,1,0,0:0:0:0:
192,192,135992,1,0,0:0:0:0:
320,192,136227,1,0,0:0:0:0:
192,192,136424,1,0,0:0:0:0:
64,192,136620,1,0,0:0:0:0:
320,192,136856,1,0,0:0:0:0:
192,192,137052,1,0,0:0:0:0:
64,192,137268,128,0,139447:0:0:0:0:
