osu file format v14

[General]
AudioFilename: audio.ogg
AudioLeadIn: 0
PreviewTime: 86979
Countdown: 0
SampleSet: Soft
StackLeniency: 0.7
Mode: 3
LetterboxInBreaks: 0
SpecialStyle: 0
WidescreenStoryboard: 0

[Editor]
DistanceSpacing: 1
BeatDivisor: 4
GridSize: 8
TimelineZoom: 2.2

[Metadata]
Title:Lemuria
TitleUnicode:Lemuria
Artist:Festa
ArtistUnicode:Festa
Creator:Alsty-
Version:Kyou's Another
Source:BOFU2016
Tags:xi lifestream Evolved Chronicles THE BMS OF FIGHTERS ULTIMATE 2016 Legendary Again electronic artcore instrumental DVSP-0169 Comic Market 91 Comiket 96 C91 C96 nmcd-0016 のらねこさい まとめ ねこみりん nekomimi style piano 鑓田 Another Lie Kyousuke- Critical_Star Kuo Kyoka
BeatmapID:1271426
BeatmapSetID:589614

[Difficulty]
HPDrainRate:8
CircleSize:7
OverallDifficulty:8
ApproachRate:5
SliderMultiplier:1.4
SliderTickRate:1

[Events]
//Background and Video events
0,0,"asd.jpg",0,0
//Break Periods
//Storyboard Layer 0 (Background)
//Storyboard Layer 1 (Fail)
//Storyboard Layer 2 (Pass)
//Storyboard Layer 3 (Foreground)
//Storyboard Layer 4 (Overlay)
//Storyboard Sound Samples
Sample,12241,0,"tick.wav",80
Sample,21642,0,"crash.wav",60
Sample,119492,0,"drum.wav",60
Sample,130879,0,"drum.wav",60
Sample,131194,0,"drum.wav",60

[TimingPoints]
305,314.13612565445,3,2,1,50,1,0
4074,314.13612565445,4,2,1,50,1,0
9728,314.13612565445,4,2,1,50,1,0
14440,314.13612565445,4,2,1,50,1,0
14911,331.491712707182,4,2,1,50,1,0
14911,-94.3396226415094,4,2,1,50,0,0
15408,350.877192982456,4,2,1,50,1,0
15408,-89.2857142857143,4,2,1,50,0,0
15758,372.670807453416,4,2,1,50,1,0
15758,-84.0336134453781,4,2,1,50,0,0
16130,397.350993377483,4,2,1,50,1,0
16130,-78.7401574803149,4,2,1,50,0,0
16726,458.015267175573,4,2,1,50,1,0
16726,-68.4931506849315,4,2,1,50,0,0
17413,540.540540540541,4,2,1,50,1,0
17413,-58.1395348837209,4,2,1,50,0,0
17953,1176.47058823529,4,2,1,50,1,0
17953,-26.6666666666667,4,2,1,50,0,0
19129,314.13612565445,4,2,1,50,1,0
24155,-166.666666666667,4,2,1,50,0,0
24312,-71.4285714285714,4,2,1,50,0,0
24469,-100,4,2,1,50,0,0
34207,-200,4,2,1,50,0,0
34364,-66.6666666666667,4,2,1,50,0,0
34521,-100,4,2,1,50,0,0
41746,-71.4285714285714,4,2,1,50,0,0
41825,-166.666666666667,4,2,1,50,0,0
41904,-100,4,2,1,50,0,0
42218,-71.4285714285714,4,2,1,50,0,0
42296,-166.666666666667,4,2,1,50,0,0
42375,-100,4,2,1,50,0,0
42689,-71.4285714285714,4,2,1,50,0,0
42767,-166.666666666667,4,2,1,50,0,0
42846,-100,4,2,1,50,0,0
43631,-166.666666666667,4,2,1,50,0,0
43788,-55.5555555555556,4,2,1,50,0,0
43867,-166.666666666667,4,2,1,50,0,0
44024,-55.5555555555556,4,2,1,50,0,0
44102,-111.111111111111,4,2,1,50,0,0
44181,-55.5555555555556,4,2,1,50,0,0
44259,-100,4,2,1,50,0,0
44416,-66.6666666666667,4,2,1,50,0,0
44574,314.13612565445,6,2,1,50,1,0
44574,-100,4,2,1,50,0,0
46458,314.13612565445,4,2,1,50,1,0
48342,-200,4,2,1,50,0,0
48499,-66.6666666666667,4,2,1,50,0,0
48656,314.13612565445,3,2,1,50,1,0
48656,-100,4,2,1,50,0,0
52426,314.13612565445,4,2,1,50,1,0
52426,-200,4,2,1,50,0,0
53683,314.13612565445,7,2,1,50,1,0
53683,-71.4285714285714,4,2,1,50,0,0
53761,-166.666666666667,4,2,1,50,0,0
53840,-125,4,2,1,50,0,0
53997,-83.3333333333333,4,2,1,50,0,0
54154,-71.4285714285714,4,2,1,50,0,0
54232,-166.666666666667,4,2,1,50,0,0
54311,-125,4,2,1,50,0,0
54468,-83.3333333333333,4,2,1,50,0,0
54625,-71.4285714285714,4,2,1,50,0,0
54704,-166.666666666667,4,2,1,50,0,0
54782,-100,4,2,1,50,0,0
55881,314.13612565445,4,2,1,50,1,0
58394,314.13612565445,7,2,1,50,1,0
58394,-71.4285714285714,4,2,1,50,0,0
58472,-166.666666666667,4,2,1,50,0,0
58551,-125,4,2,1,50,0,0
58708,-83.3333333333333,4,2,1,50,0,0
58865,-71.4285714285714,4,2,1,50,0,0
58943,-166.666666666667,4,2,1,50,0,0
59022,-125,4,2,1,50,0,0
59179,-83.3333333333333,4,2,1,50,0,0
59336,-71.4285714285714,4,2,1,50,0,0
59415,-166.666666666667,4,2,1,50,0,0
59493,-100,4,2,1,50,0,0
60592,314.13612565445,4,2,1,50,1,0
63419,-71.4285714285714,4,2,1,50,0,0
63497,-114.942528735632,4,2,1,50,0,0
63733,-100,4,2,1,50,0,0
65618,-71.4285714285714,4,2,1,50,0,0
65696,-166.666666666667,4,2,1,50,0,0
65775,-100,4,2,1,50,0,0
66246,-71.4285714285714,4,2,1,50,0,0
66325,-166.666666666667,4,2,1,50,0,0
66403,-100,4,2,1,50,0,0
79283,-166.666666666667,4,2,1,50,0,0
79440,-71.4285714285714,4,2,1,50,0,0
79597,-83.3333333333333,4,2,1,50,0,0
79675,-125,4,2,1,50,0,0
79754,-100,4,2,1,50,0,0
89492,-200,4,2,1,50,0,0
89571,-100,4,2,1,50,0,0
89963,-100,4,2,1,50,0,1
97031,-100,4,2,1,50,0,0
100016,-100,4,2,1,50,0,1
100801,-142.857142857143,4,2,1,50,0,1
100906,-71.4285714285714,4,2,1,50,0,1
101010,-142.857142857143,4,2,1,50,0,1
101115,-71.4285714285714,4,2,1,50,0,1
101220,-142.857142857143,4,2,1,50,0,1
101325,-71.4285714285714,4,2,1,50,0,1
101429,-142.857142857143,4,2,1,50,0,1
101534,-71.4285714285714,4,2,1,50,0,1
101639,-142.857142857143,4,2,1,50,0,1
101743,-71.4285714285714,4,2,1,50,0,1
101848,-166.666666666667,4,2,1,50,0,1
101953,-71.4285714285714,4,2,1,50,0,1
102058,-100,4,2,1,50,0,1
107084,-100,4,2,1,50,0,0
109911,-100,4,2,1,50,0,1
117136,-100,4,2,1,50,0,0
119963,-100,4,2,1,50,0,1
120906,-142.857142857143,4,2,1,50,0,1
121011,-71.4285714285714,4,2,1,50,0,1
121115,-142.857142857143,4,2,1,50,0,1
121220,-71.4285714285714,4,2,1,50,0,1
121325,-142.857142857143,4,2,1,50,0,1
121430,-71.4285714285714,4,2,1,50,0,1
121534,-142.857142857143,4,2,1,50,0,1
121639,-71.4285714285714,4,2,1,50,0,1
121744,-142.857142857143,4,2,1,50,0,1
121848,-71.4285714285714,4,2,1,50,0,1
121953,-166.666666666667,4,2,1,50,0,1
122058,-71.4285714285714,4,2,1,50,0,1
122163,-100,4,2,1,50,0,1
127188,-100,4,2,1,50,0,0
130016,314.13612565445,4,2,1,50,1,0

[HitObjects]
36,192,305,5,0,0:0:0:60:kick.wav
402,192,305,1,0,0:0:0:60:crash.wav
475,192,305,1,0,0:0:0:0:
256,192,462,1,0,0:0:0:0:
109,192,619,1,0,0:0:0:0:
329,192,776,1,0,0:0:0:0:
182,192,933,1,0,0:0:0:0:
402,192,1090,1,0,0:0:0:0:
36,192,1404,1,0,0:0:0:0:
109,192,1561,1,0,0:0:0:0:
182,192,1718,1,0,0:0:0:0:
256,192,1875,1,0,0:0:0:0:
36,192,2032,1,0,0:0:0:0:
329,192,2032,1,0,0:0:0:0:
109,192,2346,1,0,0:0:0:0:
182,192,2503,1,0,0:0:0:0:
256,192,2661,1,0,0:0:0:0:
329,192,2818,1,0,0:0:0:0:
109,192,2975,1,0,0:0:0:0:
402,192,2975,1,0,0:0:0:0:
256,192,3289,1,0,0:0:0:0:
329,192,3446,1,0,0:0:0:0:
402,192,3603,1,0,0:0:0:0:
109,192,3760,1,0,0:0:0:0:
475,192,3760,1,0,0:0:0:0:
182,192,3839,1,0,0:0:0:0:
256,192,3917,1,0,0:0:0:0:
329,192,3996,1,0,0:0:0:0:
36,192,4074,1,0,0:0:0:60:kick.wav
402,192,4074,1,0,0:0:0:60:crash.wav
475,192,4074,1,0,0:0:0:80:tick.wav
256,192,4231,1,0,0:0:0:0:
109,192,4388,1,0,0:0:0:0:
182,192,4702,1,0,0:0:0:80:tick.wav
402,192,4702,1,0,0:0:0:0:
329,192,4859,1,0,0:0:0:0:
36,192,5173,1,0,0:0:0:0:
256,192,5173,1,0,0:0:0:0:
109,192,5487,1,0,0:0:0:0:
182,192,5566,1,0,0:0:0:0:
256,192,5644,1,0,0:0:0:0:
329,192,5801,1,0,0:0:0:0:
36,192,5958,1,0,0:0:0:80:tick.wav
402,192,5958,1,0,0:0:0:0:
109,192,6115,1,0,0:0:0:0:
182,192,6272,1,0,0:0:0:0:
475,192,6272,1,0,0:0:0:0:
402,192,6351,1,0,0:0:0:0:
329,192,6430,1,0,0:0:0:0:
256,192,6508,1,0,0:0:0:0:
109,192,6587,1,0,0:0:0:80:tick.wav
182,192,6665,1,0,0:0:0:0:
256,192,6744,1,0,0:0:0:0:
402,192,6744,1,0,0:0:0:0:
329,192,7058,1,0,0:0:0:0:
475,192,7058,1,0,0:0:0:0:
109,192,7372,1,0,0:0:0:0:
256,192,7372,1,0,0:0:0:0:
36,192,7529,1,0,0:0:0:60:kick.wav
329,192,7529,1,0,0:0:0:0:
402,192,7529,1,0,0:0:0:0:
256,192,7843,1,0,0:0:0:80:tick.wav
182,192,8000,1,0,0:0:0:0:
329,192,8157,1,0,0:0:0:0:
36,192,8314,1,0,0:0:0:0:
256,192,8314,1,0,0:0:0:0:
109,192,8471,1,0,0:0:0:80:tick.wav
182,192,8628,1,0,0:0:0:0:
475,192,8628,1,0,0:0:0:0:
329,192,8707,1,0,0:0:0:0:
402,192,8786,1,0,0:0:0:0:
256,192,8864,1,0,0:0:0:0:
329,192,8943,1,0,0:0:0:0:
182,192,9021,1,0,0:0:0:0:
256,192,9100,1,0,0:0:0:80:tick.wav
402,192,9178,1,0,0:0:0:0:
109,192,9257,1,0,0:0:0:0:
329,192,9335,1,0,0:0:0:0:
182,192,9414,1,0,0:0:0:0:
109,192,9571,1,0,0:0:0:0:
36,192,9728,1,0,0:0:0:80:tick.wav
475,192,9728,1,0,0:0:0:0:
256,192,9885,1,0,0:0:0:0:
402,192,9885,1,0,0:0:0:0:
329,192,10199,1,0,0:0:0:0:
475,192,10199,1,0,0:0:0:0:
36,192,10513,1,0,0:0:0:0:
182,192,10513,1,0,0:0:0:0:
109,192,10827,1,0,0:0:0:0:
256,192,10827,1,0,0:0:0:0:
36,192,10984,1,0,0:0:0:60:kick.wav
402,192,10984,1,0,0:0:0:60:crash.wav
475,192,10984,128,0,12555:0:0:0:80:tick.wav
329,192,11141,1,0,0:0:0:0:
109,192,11298,1,0,0:0:0:60:kick.wav
182,192,11298,1,0,0:0:0:0:
256,192,11455,1,0,0:0:0:60:snare.wav
36,192,11612,1,0,0:0:0:80:tick.wav
109,192,11612,1,0,0:0:0:0:
182,192,11769,1,0,0:0:0:0:
256,192,11926,1,0,0:0:0:60:kick.wav
402,192,11926,1,0,0:0:0:0:
109,192,12084,1,0,0:0:0:0:
329,192,12084,1,0,0:0:0:0:
182,192,12241,1,0,0:0:0:60:snare.wav
256,192,12398,1,0,0:0:0:0:
36,192,12555,1,0,0:0:0:60:kick.wav
329,192,12555,1,0,0:0:0:0:
182,192,12712,128,0,12790:0:0:0:0:
256,192,12712,1,0,0:0:0:0:
36,192,12869,1,0,0:0:0:60:kick.wav
402,192,12869,128,0,12947:0:0:0:80:tick.wav
109,192,13026,128,0,13104:0:0:0:60:snare.wav
256,192,13026,1,0,0:0:0:0:
475,192,13026,1,0,0:0:0:0:
329,192,13183,128,0,13262:0:0:0:0:
475,192,13262,128,0,13340:0:0:0:0:
256,192,13340,128,0,13419:0:0:0:0:
402,192,13419,128,0,13497:0:0:0:0:
36,192,13497,128,0,13576:0:0:0:60:kick.wav
329,192,13497,1,0,0:0:0:80:tick.wav
109,192,13576,128,0,13654:0:0:0:0:
256,192,13654,128,0,13733:0:0:0:0:
182,192,13733,128,0,13811:0:0:0:0:
36,192,13811,1,0,0:0:0:60:snare.wav
402,192,13811,128,0,13890:0:0:0:0:
475,192,13811,1,0,0:0:0:0:
329,192,13890,128,0,13968:0:0:0:0:
109,192,13968,128,0,14047:0:0:0:0:
182,192,14047,128,0,14125:0:0:0:0:
256,192,14125,1,0,0:0:0:60:kick.wav
475,192,14125,128,0,14204:0:0:0:80:tick.wav
402,192,14204,128,0,14282:0:0:0:0:
329,192,14282,128,0,14361:0:0:0:0:
256,192,14361,128,0,14440:0:0:0:0:
36,192,14440,1,0,0:0:0:60:kick.wav
182,192,14440,1,0,0:0:0:60:crash.wav
475,192,14440,1,0,0:0:0:0:
36,192,14597,1,0,0:0:0:60:kick.wav
182,192,14597,1,0,0:0:0:60:crash.wav
475,192,14597,1,0,0:0:0:0:
109,192,14911,1,0,0:0:0:60:kick.wav
329,192,14911,1,0,0:0:0:60:crash.wav
402,192,14911,1,0,0:0:0:0:
109,192,15076,1,0,0:0:0:60:kick.wav
329,192,15076,1,0,0:0:0:60:crash.wav
402,192,15076,1,0,0:0:0:0:
36,192,15408,128,0,15758:0:0:0:60:kick.wav
256,192,15408,1,0,0:0:0:60:crash.wav
329,192,15408,128,0,15758:0:0:0:0:
109,192,15758,128,0,16130:0:0:0:60:kick.wav
475,192,15758,1,0,0:0:0:60:crash.wav
256,192,15851,1,0,0:0:0:0:
402,192,15944,1,0,0:0:0:0:
182,192,16037,1,0,0:0:0:0:
36,192,16130,1,0,0:0:0:60:kick.wav
329,192,16130,1,0,0:0:0:60:crash.wav
475,192,16130,1,0,0:0:0:0:
36,192,16328,1,0,0:0:0:60:kick.wav
329,192,16328,1,0,0:0:0:60:crash.wav
475,192,16328,1,0,0:0:0:0:
109,192,16726,1,0,0:0:0:60:kick.wav
182,192,16726,1,0,0:0:0:60:crash.wav
402,192,16726,1,0,0:0:0:0:
109,192,16955,1,0,0:0:0:60:kick.wav
182,192,16955,1,0,0:0:0:60:crash.wav
402,192,16955,1,0,0:0:0:0:
256,192,17413,1,0,0:0:0:60:kick.wav
329,192,17413,128,0,17953:0:0:0:60:crash.wav
475,192,17413,128,0,17953:0:0:0:0:
36,192,17953,128,0,19129:0:0:0:60:kick.wav
109,192,17953,128,0,18247:0:0:0:60:crash.wav
402,192,17953,1,0,0:0:0:0:
182,192,18247,128,0,18541:0:0:0:0:
402,192,18541,128,0,19129:0:0:0:0:
329,192,18835,128,0,19129:0:0:0:0:
109,192,19129,1,0,0:0:0:60:kick.wav
475,192,19129,128,0,21642:0:0:0:60:crash.wav
109,192,19443,128,0,19521:0:0:0:0:
109,192,19600,128,0,19678:0:0:0:0:
109,192,19914,128,0,19992:0:0:0:0:
109,192,20071,128,0,20149:0:0:0:0:
109,192,20385,128,0,20464:0:0:0:0:
109,192,20542,128,0,20621:0:0:0:0:
109,192,20856,128,0,20935:0:0:0:0:
109,192,21013,128,0,21092:0:0:0:0:
109,192,21327,128,0,21406:0:0:0:60:hihat.wav
182,192,21406,128,0,21485:0:0:0:60:hihat.wav
329,192,21485,128,0,21563:0:0:0:60:hihat.wav
256,192,21563,128,0,21642:0:0:0:60:hihat.wav
36,192,21642,1,0,0:0:0:60:kick.wav
182,192,21642,1,0,0:0:0:60:snare.wav
402,192,21720,1,0,0:0:0:0:
329,192,21799,1,0,0:0:0:60:hihat.wav
256,192,21877,1,0,0:0:0:0:
36,192,21956,1,0,0:0:0:60:snare.wav
182,192,21956,1,0,0:0:0:0:
109,192,22113,1,0,0:0:0:60:kick.wav
402,192,22113,1,0,0:0:0:60:snare.wav
475,192,22113,1,0,0:0:0:60:crash.wav
182,192,22191,1,0,0:0:0:0:
256,192,22270,1,0,0:0:0:60:hihat.wav
329,192,22348,1,0,0:0:0:0:
36,192,22427,1,0,0:0:0:60:snare.wav
402,192,22427,1,0,0:0:0:0:
109,192,22584,1,0,0:0:0:60:kick.wav
256,192,22584,1,0,0:0:0:60:snare.wav
475,192,22584,1,0,0:0:0:60:crash.wav
109,192,22741,1,0,0:0:0:60:kick.wav
256,192,22741,1,0,0:0:0:60:snare.wav
475,192,22741,1,0,0:0:0:60:crash.wav
329,192,22898,1,0,0:0:0:60:drum.wav
402,192,22898,1,0,0:0:0:0:
36,192,22977,1,0,0:0:0:60:drum.wav
256,192,23055,1,0,0:0:0:60:drum.wav
109,192,23134,1,0,0:0:0:60:drum.wav
329,192,23212,1,0,0:0:0:60:drum.wav
182,192,23291,1,0,0:0:0:60:drum.wav
402,192,23369,1,0,0:0:0:60:drum.wav
256,192,23448,1,0,0:0:0:60:drum.wav
475,192,23526,1,0,0:0:0:60:drum.wav
329,192,23605,1,0,0:0:0:60:drum.wav
109,192,23683,1,0,0:0:0:60:drum.wav
256,192,23762,1,0,0:0:0:60:drum.wav
36,192,23841,1,0,0:0:0:60:clap.wav
475,192,23841,1,0,0:0:0:0:
402,192,23919,1,0,0:0:0:0:
329,192,23998,1,0,0:0:0:0:
256,192,24076,1,0,0:0:0:0:
182,192,24155,128,0,24469:0:0:0:0:
36,192,24469,1,0,0:0:0:60:kick.wav
256,192,24469,1,0,0:0:0:60:crash.wav
475,192,24469,128,0,24547:0:0:0:0:
36,192,24626,1,0,0:0:0:60:kick.wav
256,192,24626,1,0,0:0:0:0:
475,192,24626,1,0,0:0:0:0:
329,192,24783,128,0,24861:0:0:0:0:
109,192,24940,128,0,25097:0:0:0:60:kick.wav
182,192,24940,128,0,25097:0:0:0:0:
256,192,25097,1,0,0:0:0:60:snare.wav
402,192,25097,1,0,0:0:0:0:
36,192,25254,1,0,0:0:0:60:kick.wav
182,192,25254,1,0,0:0:0:0:
475,192,25254,128,0,25568:0:0:0:0:
109,192,25568,128,0,25647:0:0:0:60:kick.wav
329,192,25568,1,0,0:0:0:0:
36,192,25725,1,0,0:0:0:60:snare.wav
256,192,25725,1,0,0:0:0:60:LR_Drum Click.wav
402,192,25804,1,0,0:0:0:60:LR_Drum EDge.wav
36,192,25882,1,0,0:0:0:60:kick.wav
182,192,25882,1,0,0:0:0:60:LR_Drum Click.wav
402,192,25961,1,0,0:0:0:60:LR_Drum EDge.wav
109,192,26039,128,0,26197:0:0:0:0:
329,192,26039,1,0,0:0:0:0:
256,192,26197,1,0,0:0:0:60:kick.wav
475,192,26197,1,0,0:0:0:0:
182,192,26354,128,0,26511:0:0:0:60:snare.wav
402,192,26354,128,0,26511:0:0:0:0:
36,192,26511,1,0,0:0:0:0:
109,192,26668,128,0,26982:0:0:0:60:kick.wav
256,192,26668,1,0,0:0:0:0:
475,192,26668,1,0,0:0:0:0:
36,192,26982,1,0,0:0:0:60:snare.wav
329,192,26982,1,0,0:0:0:0:
402,192,26982,128,0,27060:0:0:0:0:
36,192,27139,1,0,0:0:0:60:kick.wav
256,192,27139,1,0,0:0:0:0:
402,192,27139,1,0,0:0:0:0:
329,192,27296,128,0,27375:0:0:0:0:
109,192,27453,128,0,27610:0:0:0:60:kick.wav
182,192,27453,128,0,27610:0:0:0:0:
36,192,27610,1,0,0:0:0:60:snare.wav
402,192,27610,1,0,0:0:0:0:
256,192,27767,128,0,28081:0:0:0:60:kick.wav
329,192,27767,1,0,0:0:0:0:
475,192,27767,1,0,0:0:0:0:
109,192,28081,1,0,0:0:0:60:kick.wav
402,192,28081,128,0,28160:0:0:0:0:
109,192,28238,1,0,0:0:0:60:snare.wav
256,192,28238,1,0,0:0:0:0:
402,192,28238,1,0,0:0:0:0:
36,192,28396,1,0,0:0:0:60:kick.wav
329,192,28396,1,0,0:0:0:0:
182,192,28553,1,0,0:0:0:60:LR_Drum Click.wav
475,192,28553,1,0,0:0:0:0:
329,192,28631,1,0,0:0:0:60:LR_Drum EDge.wav
36,192,28710,1,0,0:0:0:60:LR_Drum Click.wav
182,192,28710,1,0,0:0:0:0:
329,192,28788,1,0,0:0:0:60:LR_Drum EDge.wav
36,192,28867,1,0,0:0:0:60:snare.wav
475,192,28867,1,0,0:0:0:0:
109,192,29024,1,0,0:0:0:0:
402,192,29024,1,0,0:0:0:0:
182,192,29181,128,0,29495:0:0:0:60:kick.wav
256,192,29181,1,0,0:0:0:0:
329,192,29181,1,0,0:0:0:0:
36,192,29495,128,0,29574:0:0:0:60:snare.wav
402,192,29495,1,0,0:0:0:0:
475,192,29495,1,0,0:0:0:0:
36,192,29652,1,0,0:0:0:60:kick.wav
256,192,29652,1,0,0:0:0:0:
475,192,29652,1,0,0:0:0:0:
329,192,29809,128,0,29888:0:0:0:0:
109,192,29966,128,0,30123:0:0:0:60:kick.wav
402,192,29966,128,0,30123:0:0:0:0:
182,192,30123,1,0,0:0:0:60:snare.wav
256,192,30123,1,0,0:0:0:0:
36,192,30280,1,0,0:0:0:60:kick.wav
329,192,30280,128,0,30594:0:0:0:0:
475,192,30280,1,0,0:0:0:0:
109,192,30594,128,0,30673:0:0:0:60:kick.wav
402,192,30594,1,0,0:0:0:0:
182,192,30752,1,0,0:0:0:60:snare.wav
475,192,30752,1,0,0:0:0:60:LR_Drum Click.wav
36,192,30909,1,0,0:0:0:60:LR_Drum Click.wav
402,192,30909,1,0,0:0:0:0:
329,192,30987,1,0,0:0:0:60:LR_Drum EDge.wav
109,192,31066,128,0,31223:0:0:0:60:kick.wav
256,192,31066,1,0,0:0:0:0:
402,192,31223,1,0,0:0:0:60:kick.wav
475,192,31223,1,0,0:0:0:0:
182,192,31380,128,0,31537:0:0:0:60:snare.wav
329,192,31380,128,0,31537:0:0:0:0:
36,192,31537,1,0,0:0:0:0:
109,192,31694,128,0,32008:0:0:0:60:kick.wav
256,192,31694,1,0,0:0:0:0:
402,192,31694,1,0,0:0:0:0:
329,192,32008,1,0,0:0:0:60:snare.wav
475,192,32008,128,0,32087:0:0:0:0:
109,192,32165,1,0,0:0:0:60:kick.wav
329,192,32165,1,0,0:0:0:0:
475,192,32165,1,0,0:0:0:0:
256,192,32322,128,0,32401:0:0:0:0:
329,192,32479,128,0,32636:0:0:0:60:kick.wav
475,192,32479,128,0,32636:0:0:0:0:
36,192,32636,1,0,0:0:0:60:snare.wav
182,192,32636,1,0,0:0:0:0:
109,192,32793,1,0,0:0:0:60:kick.wav
402,192,32793,1,0,0:0:0:0:
329,192,32950,1,0,0:0:0:60:kick.wav
475,192,32950,1,0,0:0:0:0:
256,192,33029,1,0,0:0:0:60:kick.wav
36,192,33108,1,0,0:0:0:60:kick.wav
182,192,33108,1,0,0:0:0:0:
256,192,33186,1,0,0:0:0:60:kick.wav
329,192,33265,1,0,0:0:0:60:kick.wav
475,192,33265,1,0,0:0:0:0:
182,192,33343,1,0,0:0:0:60:kick.wav
36,192,33422,1,0,0:0:0:60:kick.wav
109,192,33422,1,0,0:0:0:0:
329,192,33500,1,0,0:0:0:60:kick.wav
402,192,33579,1,0,0:0:0:60:kick.wav
475,192,33579,1,0,0:0:0:0:
256,192,33657,1,0,0:0:0:60:kick.wav
36,192,33736,1,0,0:0:0:60:kick.wav
182,192,33736,1,0,0:0:0:0:
329,192,33814,1,0,0:0:0:60:kick.wav
182,192,33893,1,0,0:0:0:60:kick.wav
475,192,33893,1,0,0:0:0:0:
36,192,33971,1,0,0:0:0:60:kick.wav
329,192,34050,1,0,0:0:0:60:kick.wav
475,192,34050,1,0,0:0:0:0:
256,192,34128,1,0,0:0:0:60:kick.wav
182,192,34207,128,0,34521:0:0:0:0:
36,192,34521,1,0,0:0:0:60:kick.wav
256,192,34521,1,0,0:0:0:60:snare.wav
475,192,34521,1,0,0:0:0:60:crash.wav
402,192,34678,1,0,0:0:0:60:hihat.wav
109,192,34835,1,0,0:0:0:60:kick.wav
182,192,34835,1,0,0:0:0:0:
329,192,34992,1,0,0:0:0:60:hihat.wav
36,192,35149,1,0,0:0:0:60:kick.wav
475,192,35149,1,0,0:0:0:0:
256,192,35307,1,0,0:0:0:60:hihat.wav
109,192,35464,1,0,0:0:0:60:kick.wav
402,192,35464,1,0,0:0:0:0:
182,192,35621,1,0,0:0:0:60:hihat.wav
36,192,35778,1,0,0:0:0:60:kick.wav
329,192,35778,1,0,0:0:0:0:
109,192,35935,1,0,0:0:0:60:hihat.wav
256,192,36092,1,0,0:0:0:60:kick.wav
475,192,36092,1,0,0:0:0:0:
402,192,36249,1,0,0:0:0:60:hihat.wav
36,192,36406,1,0,0:0:0:60:kick.wav
329,192,36406,1,0,0:0:0:0:
109,192,36485,1,0,0:0:0:60:hihat.wav
182,192,36563,1,0,0:0:0:60:hihat.wav
256,192,36642,1,0,0:0:0:0:
36,192,36720,1,0,0:0:0:60:kick.wav
329,192,36720,1,0,0:0:0:60:crash.wav
475,192,36720,1,0,0:0:0:0:
182,192,36877,128,0,37034:0:0:0:60:hihat.wav
256,192,36956,128,0,37034:0:0:0:0:
36,192,37034,1,0,0:0:0:60:kick.wav
329,192,37034,128,0,37348:0:0:0:0:
475,192,37034,1,0,0:0:0:0:
36,192,37348,1,0,0:0:0:60:kick.wav
109,192,37348,1,0,0:0:0:0:
475,192,37348,128,0,37663:0:0:0:0:
182,192,37505,128,0,37820:0:0:0:60:hihat.wav
36,192,37663,1,0,0:0:0:60:kick.wav
402,192,37663,1,0,0:0:0:0:
109,192,37820,1,0,0:0:0:60:kick.wav
329,192,37820,128,0,38134:0:0:0:60:crash.wav
475,192,37820,1,0,0:0:0:0:
36,192,38134,1,0,0:0:0:60:kick.wav
402,192,38134,1,0,0:0:0:0:
109,192,38212,1,0,0:0:0:0:
182,192,38291,1,0,0:0:0:60:snare.wav
475,192,38291,1,0,0:0:0:0:
256,192,38369,1,0,0:0:0:0:
36,192,38448,1,0,0:0:0:60:kick.wav
329,192,38448,1,0,0:0:0:0:
109,192,38526,1,0,0:0:0:0:
182,192,38605,1,0,0:0:0:60:snare.wav
402,192,38605,128,0,38919:0:0:0:0:
36,192,38762,1,0,0:0:0:60:kick.wav
256,192,38762,1,0,0:0:0:0:
109,192,38919,1,0,0:0:0:60:snare.wav
329,192,38919,1,0,0:0:0:0:
182,192,39076,1,0,0:0:0:60:kick.wav
475,192,39076,1,0,0:0:0:0:
109,192,39155,1,0,0:0:0:60:kick.wav
402,192,39155,1,0,0:0:0:0:
36,192,39233,1,0,0:0:0:60:kick.wav
329,192,39233,1,0,0:0:0:60:crash.wav
256,192,39390,1,0,0:0:0:60:kick.wav
475,192,39390,1,0,0:0:0:0:
36,192,39547,1,0,0:0:0:60:kick.wav
109,192,39547,1,0,0:0:0:0:
329,192,39704,1,0,0:0:0:60:kick.wav
402,192,39704,1,0,0:0:0:0:
109,192,39861,1,0,0:0:0:60:kick.wav
182,192,39861,1,0,0:0:0:0:
402,192,40019,1,0,0:0:0:60:kick.wav
475,192,40019,1,0,0:0:0:0:
36,192,40176,1,0,0:0:0:60:kick.wav
109,192,40176,1,0,0:0:0:0:
182,192,40254,1,0,0:0:0:60:kick.wav
256,192,40254,1,0,0:0:0:0:
329,192,40333,1,0,0:0:0:60:kick.wav
475,192,40333,1,0,0:0:0:60:crash.wav
182,192,40647,1,0,0:0:0:60:kick.wav
256,192,40647,1,0,0:0:0:0:
329,192,40725,1,0,0:0:0:60:kick.wav
402,192,40725,1,0,0:0:0:0:
109,192,40804,1,0,0:0:0:60:kick.wav
182,192,40804,1,0,0:0:0:0:
256,192,40882,1,0,0:0:0:60:kick.wav
329,192,40882,1,0,0:0:0:0:
36,192,40961,1,0,0:0:0:60:kick.wav
475,192,40961,1,0,0:0:0:0:
182,192,41039,1,0,0:0:0:60:kick.wav
329,192,41118,1,0,0:0:0:60:kick.wav
402,192,41118,1,0,0:0:0:0:
182,192,41197,1,0,0:0:0:60:kick.wav
36,192,41275,1,0,0:0:0:60:kick.wav
475,192,41275,1,0,0:0:0:0:
402,192,41314,1,0,0:0:0:60:kick.wav
329,192,41354,1,0,0:0:0:60:kick.wav
256,192,41393,1,0,0:0:0:60:kick.wav
109,192,41432,1,0,0:0:0:60:kick.wav
182,192,41432,1,0,0:0:0:0:
329,192,41511,1,0,0:0:0:60:kick.wav
402,192,41511,1,0,0:0:0:0:
109,192,41589,1,0,0:0:0:60:kick.wav
182,192,41589,1,0,0:0:0:0:
329,192,41668,1,0,0:0:0:60:kick.wav
402,192,41668,1,0,0:0:0:0:
36,192,41746,1,0,0:0:0:60:kick.wav
256,192,41746,1,0,0:0:0:60:crash.wav
475,192,41746,1,0,0:0:0:0:
36,192,41903,1,0,0:0:0:60:kick.wav
256,192,41903,1,0,0:0:0:60:crash.wav
475,192,41903,1,0,0:0:0:0:
109,192,42218,1,0,0:0:0:60:kick.wav
402,192,42218,1,0,0:0:0:60:crash.wav
475,192,42218,1,0,0:0:0:0:
109,192,42375,1,0,0:0:0:60:kick.wav
402,192,42375,1,0,0:0:0:60:crash.wav
475,192,42375,1,0,0:0:0:0:
36,192,42689,1,0,0:0:0:60:kick.wav
256,192,42689,1,0,0:0:0:60:crash.wav
329,192,42689,1,0,0:0:0:0:
36,192,42846,1,0,0:0:0:60:kick.wav
256,192,42846,1,0,0:0:0:60:crash.wav
329,192,42846,1,0,0:0:0:0:
182,192,43160,1,0,0:0:0:60:drum.wav
475,192,43160,1,0,0:0:0:0:
402,192,43238,1,0,0:0:0:60:drum.wav
109,192,43317,1,0,0:0:0:60:drum.wav
329,192,43317,1,0,0:0:0:0:
256,192,43396,1,0,0:0:0:60:drum.wav
36,192,43474,1,0,0:0:0:60:drum.wav
182,192,43474,1,0,0:0:0:0:
256,192,43553,1,0,0:0:0:60:drum.wav
109,192,43631,1,0,0:0:0:60:kick.wav
329,192,43631,1,0,0:0:0:60:crash.wav
402,192,43631,1,0,0:0:0:0:
182,192,43867,1,0,0:0:0:60:kick.wav
256,192,43867,1,0,0:0:0:60:crash.wav
475,192,43867,1,0,0:0:0:0:
36,192,44102,1,0,0:0:0:60:kick.wav
402,192,44102,1,0,0:0:0:60:crash.wav
475,192,44102,1,0,0:0:0:0:
109,192,44259,1,0,0:0:0:60:clap.wav
329,192,44259,1,0,0:0:0:0:
182,192,44574,1,0,0:0:0:60:kick.wav
256,192,44574,1,0,0:0:0:60:crash.wav
475,192,44574,128,0,45516:0:0:0:0:
182,192,45516,128,0,45594:0:0:0:0:
109,192,45594,128,0,45673:0:0:0:0:
329,192,45673,128,0,45752:0:0:0:0:
402,192,45752,128,0,45830:0:0:0:0:
256,192,45830,128,0,45987:0:0:0:60:clap.wav
182,192,46144,128,0,46301:0:0:0:0:
329,192,46301,128,0,46458:0:0:0:0:
36,192,46458,1,0,0:0:0:60:kick.wav
182,192,46458,128,0,47086:0:0:0:60:crash.wav
475,192,46458,1,0,0:0:0:60:clap.wav
402,192,47086,128,0,47164:0:0:0:60:clap.wav
329,192,47164,128,0,47243:0:0:0:0:
109,192,47243,128,0,47321:0:0:0:0:
182,192,47321,128,0,47400:0:0:0:0:
256,192,47400,128,0,47714:0:0:0:0:
329,192,47557,128,0,47871:0:0:0:0:
36,192,47714,1,0,0:0:0:60:kick.wav
109,192,47714,1,0,0:0:0:60:crash.wav
182,192,47714,128,0,48028:0:0:0:60:clap.wav
402,192,47871,128,0,48185:0:0:0:0:
109,192,48028,128,0,48342:0:0:0:0:
475,192,48185,128,0,48342:0:0:0:0:
36,192,48342,1,0,0:0:0:60:kick.wav
402,192,48342,128,0,48656:0:0:0:0:
36,192,48656,1,0,0:0:0:60:kick.wav
182,192,48656,1,0,0:0:0:60:crash.wav
329,192,48656,128,0,50854:0:0:0:80:tick.wav
109,192,48970,128,0,49127:0:0:0:0:
402,192,48970,128,0,49127:0:0:0:0:
182,192,49127,128,0,49284:0:0:0:0:
475,192,49127,128,0,49284:0:0:0:0:
36,192,49284,128,0,49441:0:0:0:80:tick.wav
256,192,49284,128,0,49441:0:0:0:0:
109,192,49441,128,0,49598:0:0:0:0:
402,192,49441,128,0,49598:0:0:0:0:
182,192,49598,128,0,49912:0:0:0:0:
475,192,49598,128,0,49912:0:0:0:0:
36,192,49912,128,0,50069:0:0:0:80:tick.wav
256,192,49912,128,0,50069:0:0:0:0:
109,192,50069,128,0,50226:0:0:0:0:
402,192,50069,128,0,50226:0:0:0:0:
182,192,50226,128,0,50383:0:0:0:0:
475,192,50226,128,0,50383:0:0:0:0:
36,192,50383,128,0,50540:0:0:0:0:
256,192,50383,128,0,50540:0:0:0:0:
109,192,50540,128,0,50854:0:0:0:80:tick.wav
402,192,50540,128,0,50854:0:0:0:0:
36,192,50854,128,0,51012:0:0:0:0:
256,192,50854,128,0,51012:0:0:0:0:
182,192,51012,128,0,51169:0:0:0:0:
475,192,51012,128,0,51169:0:0:0:0:
109,192,51169,128,0,51326:0:0:0:80:tick.wav
402,192,51169,128,0,51326:0:0:0:0:
36,192,51326,128,0,51483:0:0:0:0:
329,192,51326,128,0,51483:0:0:0:0:
256,192,51483,128,0,51797:0:0:0:0:
475,192,51483,128,0,51797:0:0:0:0:
182,192,51797,128,0,51954:0:0:0:80:tick.wav
402,192,51797,128,0,51954:0:0:0:0:
109,192,51954,128,0,52111:0:0:0:0:
329,192,51954,128,0,52111:0:0:0:0:
36,192,52111,128,0,52268:0:0:0:0:
256,192,52111,128,0,52268:0:0:0:0:
182,192,52268,128,0,52426:0:0:0:0:
475,192,52268,128,0,52426:0:0:0:0:
109,192,52426,128,0,53683:0:0:0:0:
402,192,52426,128,0,53683:0:0:0:0:
36,192,53682,1,0,0:0:0:60:kick.wav
329,192,53683,1,0,0:0:0:60:crash.wav
475,192,53683,1,0,0:0:0:0:
36,192,53840,1,0,0:0:0:60:kick.wav
329,192,53840,1,0,0:0:0:60:crash.wav
475,192,53840,1,0,0:0:0:0:
109,192,54154,1,0,0:0:0:60:kick.wav
256,192,54154,1,0,0:0:0:60:crash.wav
402,192,54154,1,0,0:0:0:0:
109,192,54311,1,0,0:0:0:60:kick.wav
256,192,54311,1,0,0:0:0:60:crash.wav
402,192,54311,1,0,0:0:0:0:
36,192,54625,1,0,0:0:0:60:kick.wav
182,192,54625,1,0,0:0:0:60:crash.wav
475,192,54625,1,0,0:0:0:0:
36,192,54782,1,0,0:0:0:60:kick.wav
182,192,54782,1,0,0:0:0:60:crash.wav
475,192,54782,1,0,0:0:0:0:
329,192,54939,1,0,0:0:0:60:LR_Drum EDge.wav
329,192,55096,1,0,0:0:0:60:LR_Drum EDge.wav
182,192,55253,1,0,0:0:0:60:kick.wav
256,192,55253,1,0,0:0:0:0:
182,192,55410,1,0,0:0:0:60:kick.wav
256,192,55410,1,0,0:0:0:0:
36,192,55567,1,0,0:0:0:60:snare.wav
109,192,55567,1,0,0:0:0:0:
329,192,55567,1,0,0:0:0:0:
182,192,55724,1,0,0:0:0:60:kick.wav
402,192,55724,1,0,0:0:0:0:
256,192,55803,1,0,0:0:0:60:kick.wav
36,192,55881,1,0,0:0:0:60:kick.wav
329,192,55881,1,0,0:0:0:60:crash.wav
475,192,55881,128,0,56823:0:0:0:0:
109,192,56038,1,0,0:0:0:0:
256,192,56195,1,0,0:0:0:60:snare.wav
182,192,56352,1,0,0:0:0:60:kick.wav
402,192,56352,1,0,0:0:0:0:
329,192,56509,1,0,0:0:0:60:LR_Drum EDge.wav
109,192,56587,1,0,0:0:0:60:LR_Drum EDge.wav
256,192,56666,1,0,0:0:0:60:snare.wav
36,192,56744,1,0,0:0:0:0:
182,192,56823,1,0,0:0:0:60:LR_Drum EDge.wav
329,192,56823,1,0,0:0:0:0:
109,192,56928,1,0,0:0:0:60:LR_Drum EDge.wav
402,192,56928,1,0,0:0:0:0:
36,192,57032,1,0,0:0:0:60:LR_Drum EDge.wav
256,192,57032,1,0,0:0:0:0:
182,192,57137,128,0,58394:0:0:0:60:kick.wav
329,192,57137,1,0,0:0:0:0:
475,192,57137,1,0,0:0:0:0:
109,192,57294,1,0,0:0:0:0:
256,192,57373,1,0,0:0:0:60:kick.wav
402,192,57373,1,0,0:0:0:0:
36,192,57451,1,0,0:0:0:60:snare.wav
475,192,57451,1,0,0:0:0:0:
329,192,57608,1,0,0:0:0:60:kick.wav
402,192,57608,1,0,0:0:0:0:
109,192,57765,1,0,0:0:0:0:
256,192,57922,1,0,0:0:0:60:kick.wav
402,192,57922,1,0,0:0:0:60:drum.wav
329,192,58001,1,0,0:0:0:60:drum.wav
36,192,58079,1,0,0:0:0:60:kick.wav
475,192,58079,1,0,0:0:0:60:drum.wav
256,192,58158,1,0,0:0:0:60:drum.wav
109,192,58237,1,0,0:0:0:60:kick.wav
402,192,58237,1,0,0:0:0:60:drum.wav
329,192,58315,1,0,0:0:0:60:drum.wav
36,192,58394,1,0,0:0:0:60:kick.wav
256,192,58394,1,0,0:0:0:60:crash.wav
475,192,58394,1,0,0:0:0:0:
36,192,58551,1,0,0:0:0:60:kick.wav
256,192,58551,1,0,0:0:0:60:crash.wav
475,192,58551,1,0,0:0:0:0:
109,192,58865,1,0,0:0:0:60:kick.wav
329,192,58865,1,0,0:0:0:60:crash.wav
402,192,58865,1,0,0:0:0:0:
109,192,59022,1,0,0:0:0:60:kick.wav
329,192,59022,1,0,0:0:0:60:crash.wav
402,192,59022,1,0,0:0:0:0:
182,192,59336,1,0,0:0:0:60:kick.wav
256,192,59336,1,0,0:0:0:60:crash.wav
475,192,59336,1,0,0:0:0:0:
182,192,59493,1,0,0:0:0:60:kick.wav
256,192,59493,1,0,0:0:0:60:crash.wav
475,192,59493,1,0,0:0:0:0:
109,192,59650,128,0,60278:0:0:0:60:LR_Drum Click.wav
329,192,59650,1,0,0:0:0:0:
329,192,59807,1,0,0:0:0:60:LR_Drum EDge.wav
329,192,59964,1,0,0:0:0:60:LR_Drum Click.wav
329,192,60121,1,0,0:0:0:60:LR_Drum EDge.wav
36,192,60278,1,0,0:0:0:60:snare.wav
402,192,60278,1,0,0:0:0:0:
475,192,60278,1,0,0:0:0:0:
182,192,60435,1,0,0:0:0:60:kick.wav
256,192,60435,1,0,0:0:0:0:
329,192,60514,1,0,0:0:0:60:kick.wav
36,192,60592,1,0,0:0:0:60:kick.wav
402,192,60592,1,0,0:0:0:60:crash.wav
475,192,60592,128,0,61534:0:0:0:0:
109,192,60749,1,0,0:0:0:0:
182,192,60906,1,0,0:0:0:60:snare.wav
329,192,60906,1,0,0:0:0:0:
36,192,61063,1,0,0:0:0:60:kick.wav
256,192,61063,1,0,0:0:0:0:
109,192,61220,1,0,0:0:0:60:LR_Drum EDge.wav
402,192,61298,1,0,0:0:0:60:LR_Drum EDge.wav
182,192,61377,1,0,0:0:0:60:snare.wav
329,192,61455,1,0,0:0:0:0:
36,192,61534,1,0,0:0:0:60:LR_Drum EDge.wav
256,192,61534,1,0,0:0:0:0:
109,192,61639,1,0,0:0:0:60:LR_Drum EDge.wav
329,192,61639,1,0,0:0:0:0:
182,192,61743,1,0,0:0:0:60:LR_Drum EDge.wav
402,192,61743,1,0,0:0:0:0:
36,192,61848,1,0,0:0:0:60:kick.wav
256,192,61848,128,0,62790:0:0:0:0:
475,192,61848,1,0,0:0:0:0:
329,192,62005,1,0,0:0:0:0:
109,192,62084,1,0,0:0:0:60:kick.wav
182,192,62084,1,0,0:0:0:0:
402,192,62162,1,0,0:0:0:60:snare.wav
475,192,62162,1,0,0:0:0:0:
36,192,62319,1,0,0:0:0:60:kick.wav
109,192,62319,1,0,0:0:0:0:
182,192,62476,1,0,0:0:0:0:
402,192,62555,1,0,0:0:0:60:kick.wav
475,192,62555,1,0,0:0:0:0:
36,192,62633,1,0,0:0:0:0:
182,192,62790,1,0,0:0:0:60:kick.wav
329,192,62790,1,0,0:0:0:60:drum.wav
109,192,62869,1,0,0:0:0:60:drum.wav
256,192,62948,1,0,0:0:0:60:drum.wav
402,192,62948,1,0,0:0:0:0:
182,192,63026,1,0,0:0:0:60:drum.wav
329,192,63105,1,0,0:0:0:60:kick.wav
475,192,63105,1,0,0:0:0:0:
36,192,63183,1,0,0:0:0:60:kick.wav
256,192,63183,1,0,0:0:0:0:
109,192,63262,1,0,0:0:0:60:kick.wav
402,192,63262,1,0,0:0:0:0:
182,192,63340,1,0,0:0:0:60:kick.wav
329,192,63340,1,0,0:0:0:0:
36,192,63419,1,0,0:0:0:60:kick.wav
256,192,63419,128,0,63733:0:0:0:60:crash.wav
475,192,63419,128,0,63890:0:0:0:0:
109,192,63733,1,0,0:0:0:60:kick.wav
182,192,63733,1,0,0:0:0:0:
36,192,63890,128,0,64047:0:0:0:0:
329,192,63890,128,0,64047:0:0:0:0:
182,192,64047,128,0,64204:0:0:0:60:kick.wav
402,192,64047,1,0,0:0:0:0:
329,192,64204,128,0,64361:0:0:0:0:
475,192,64204,128,0,64361:0:0:0:0:
36,192,64361,128,0,64832:0:0:0:60:kick.wav
109,192,64361,1,0,0:0:0:0:
256,192,64361,128,0,64675:0:0:0:0:
402,192,64675,1,0,0:0:0:60:kick.wav
475,192,64675,1,0,0:0:0:0:
182,192,64832,128,0,65146:0:0:0:0:
329,192,64832,1,0,0:0:0:0:
36,192,64989,1,0,0:0:0:60:kick.wav
475,192,64989,1,0,0:0:0:0:
109,192,65146,1,0,0:0:0:0:
402,192,65146,1,0,0:0:0:0:
329,192,65199,1,0,0:0:0:0:
256,192,65251,1,0,0:0:0:0:
36,192,65304,128,0,65618:0:0:0:60:kick.wav
182,192,65304,128,0,65618:0:0:0:0:
329,192,65461,128,0,65618:0:0:0:0:
475,192,65461,128,0,65618:0:0:0:0:
109,192,65618,1,0,0:0:0:60:kick.wav
256,192,65618,1,0,0:0:0:60:crash.wav
402,192,65618,1,0,0:0:0:0:
109,192,65775,1,0,0:0:0:60:kick.wav
256,192,65775,1,0,0:0:0:60:crash.wav
402,192,65775,1,0,0:0:0:0:
329,192,65932,1,0,0:0:0:60:drum.wav
475,192,65932,1,0,0:0:0:0:
182,192,66010,1,0,0:0:0:60:drum.wav
256,192,66089,1,0,0:0:0:60:drum.wav
402,192,66089,1,0,0:0:0:0:
109,192,66167,1,0,0:0:0:60:drum.wav
36,192,66246,1,0,0:0:0:60:kick.wav
329,192,66246,1,0,0:0:0:60:crash.wav
475,192,66246,1,0,0:0:0:0:
36,192,66403,1,0,0:0:0:60:kick.wav
329,192,66403,1,0,0:0:0:60:crash.wav
475,192,66403,1,0,0:0:0:0:
109,192,66560,1,0,0:0:0:60:drum.wav
256,192,66560,1,0,0:0:0:0:
402,192,66639,1,0,0:0:0:60:drum.wav
36,192,66717,1,0,0:0:0:60:drum.wav
182,192,66717,1,0,0:0:0:0:
256,192,66770,1,0,0:0:0:0:
329,192,66822,1,0,0:0:0:0:
109,192,66874,1,0,0:0:0:60:kick.wav
402,192,66874,1,0,0:0:0:60:crash.wav
475,192,66874,1,0,0:0:0:0:
182,192,66953,1,0,0:0:0:60:drum.wav
256,192,67031,1,0,0:0:0:60:drum.wav
329,192,67110,1,0,0:0:0:60:drum.wav
36,192,67188,1,0,0:0:0:60:kick.wav
109,192,67188,1,0,0:0:0:60:crash.wav
402,192,67188,1,0,0:0:0:0:
182,192,67267,1,0,0:0:0:60:drum.wav
256,192,67345,1,0,0:0:0:60:drum.wav
329,192,67424,1,0,0:0:0:60:drum.wav
36,192,67502,1,0,0:0:0:60:kick.wav
402,192,67502,1,0,0:0:0:60:crash.wav
475,192,67502,1,0,0:0:0:0:
109,192,67581,1,0,0:0:0:60:drum.wav
182,192,67660,1,0,0:0:0:60:kick.wav
329,192,67660,1,0,0:0:0:0:
402,192,67738,1,0,0:0:0:60:drum.wav
36,192,67817,128,0,69387:0:0:0:60:kick.wav
256,192,67817,1,0,0:0:0:60:crash.wav
475,192,67817,128,0,69387:0:0:0:0:
256,192,68445,128,0,68602:0:0:0:0:
182,192,68602,128,0,68759:0:0:0:0:
329,192,68602,128,0,68759:0:0:0:0:
109,192,68759,128,0,69387:0:0:0:0:
402,192,68759,128,0,69387:0:0:0:0:
182,192,69387,128,0,69544:0:0:0:60:kick.wav
256,192,69387,1,0,0:0:0:0:
329,192,69387,128,0,69544:0:0:0:0:
109,192,69544,128,0,69701:0:0:0:0:
402,192,69544,128,0,69701:0:0:0:0:
36,192,69701,128,0,70094:0:0:0:60:LR_Drum Click.wav
256,192,69701,128,0,70251:0:0:0:0:
475,192,69701,128,0,70408:0:0:0:0:
36,192,70173,128,0,70644:0:0:0:60:LR_Drum EDge.wav
256,192,70330,128,0,70644:0:0:0:60:LR_Drum Click.wav
475,192,70487,128,0,70644:0:0:0:60:LR_Drum EDge.wav
182,192,70644,1,0,0:0:0:60:kick.wav
329,192,70644,1,0,0:0:0:0:
109,192,70801,1,0,0:0:0:60:kick.wav
402,192,70801,1,0,0:0:0:0:
36,192,70958,1,0,0:0:0:60:kick.wav
475,192,70958,1,0,0:0:0:0:
182,192,71115,1,0,0:0:0:60:kick.wav
329,192,71115,1,0,0:0:0:0:
109,192,71272,1,0,0:0:0:60:kick.wav
402,192,71272,1,0,0:0:0:0:
36,192,71429,1,0,0:0:0:60:kick.wav
475,192,71429,1,0,0:0:0:0:
182,192,71586,1,0,0:0:0:60:clap.wav
256,192,71586,128,0,71900:0:0:0:0:
402,192,71665,1,0,0:0:0:0:
109,192,71743,1,0,0:0:0:60:clap.wav
329,192,71822,1,0,0:0:0:0:
36,192,71900,1,0,0:0:0:60:kick.wav
475,192,71900,1,0,0:0:0:0:
182,192,72057,1,0,0:0:0:60:kick.wav
402,192,72057,1,0,0:0:0:0:
109,192,72215,1,0,0:0:0:60:kick.wav
329,192,72215,1,0,0:0:0:0:
36,192,72372,1,0,0:0:0:60:kick.wav
402,192,72372,1,0,0:0:0:0:
109,192,72529,1,0,0:0:0:60:kick.wav
475,192,72529,1,0,0:0:0:0:
182,192,72686,1,0,0:0:0:60:kick.wav
329,192,72686,1,0,0:0:0:0:
256,192,72764,1,0,0:0:0:0:
402,192,72843,1,0,0:0:0:60:clap.wav
475,192,72843,128,0,73157:0:0:0:0:
109,192,72921,1,0,0:0:0:0:
182,192,73000,128,0,73157:0:0:0:60:clap.wav
256,192,73000,1,0,0:0:0:0:
36,192,73157,1,0,0:0:0:60:kick.wav
329,192,73157,1,0,0:0:0:0:
109,192,73314,1,0,0:0:0:60:kick.wav
402,192,73314,1,0,0:0:0:0:
182,192,73471,1,0,0:0:0:60:kick.wav
475,192,73471,1,0,0:0:0:0:
36,192,73628,1,0,0:0:0:60:kick.wav
329,192,73628,1,0,0:0:0:0:
182,192,73707,1,0,0:0:0:60:kick.wav
475,192,73707,1,0,0:0:0:0:
36,192,73785,1,0,0:0:0:60:kick.wav
329,192,73785,1,0,0:0:0:0:
109,192,73942,1,0,0:0:0:60:kick.wav
402,192,73942,1,0,0:0:0:0:
182,192,74099,1,0,0:0:0:60:kick.wav
475,192,74099,1,0,0:0:0:0:
329,192,74178,1,0,0:0:0:60:kick.wav
36,192,74256,1,0,0:0:0:60:kick.wav
182,192,74256,1,0,0:0:0:0:
329,192,74335,1,0,0:0:0:60:kick.wav
36,192,74413,1,0,0:0:0:60:drum.wav
475,192,74413,1,0,0:0:0:0:
182,192,74492,1,0,0:0:0:60:kick.wav
256,192,74492,1,0,0:0:0:0:
329,192,74571,1,0,0:0:0:60:kick.wav
402,192,74571,1,0,0:0:0:0:
109,192,74649,1,0,0:0:0:60:kick.wav
182,192,74649,1,0,0:0:0:0:
256,192,74728,1,0,0:0:0:60:drum.wav
329,192,74728,1,0,0:0:0:0:
36,192,74806,1,0,0:0:0:60:kick.wav
109,192,74806,1,0,0:0:0:0:
402,192,74885,1,0,0:0:0:60:kick.wav
475,192,74885,1,0,0:0:0:0:
182,192,74963,1,0,0:0:0:60:kick.wav
256,192,74963,1,0,0:0:0:0:
329,192,75042,1,0,0:0:0:60:drum.wav
402,192,75042,1,0,0:0:0:0:
109,192,75120,1,0,0:0:0:60:kick.wav
182,192,75120,1,0,0:0:0:0:
256,192,75199,1,0,0:0:0:60:kick.wav
329,192,75199,1,0,0:0:0:0:
36,192,75277,1,0,0:0:0:60:kick.wav
109,192,75277,1,0,0:0:0:0:
402,192,75356,1,0,0:0:0:60:drum.wav
475,192,75356,1,0,0:0:0:0:
36,192,75434,1,0,0:0:0:60:kick.wav
182,192,75434,1,0,0:0:0:0:
329,192,75513,1,0,0:0:0:60:kick.wav
475,192,75513,1,0,0:0:0:0:
36,192,75591,1,0,0:0:0:60:kick.wav
182,192,75591,1,0,0:0:0:0:
329,192,75670,128,0,76298:0:0:0:30:drum.wav
475,192,75670,128,0,76298:0:0:0:0:
36,192,76298,128,0,76927:0:0:0:30:drum.wav
182,192,76298,128,0,76927:0:0:0:0:
475,192,76612,128,0,76927:0:0:0:30:drum.wav
109,192,76927,1,0,0:0:0:60:kick.wav
329,192,76927,1,0,0:0:0:60:crash.wav
402,192,76927,1,0,0:0:0:0:
256,192,77084,1,0,0:0:0:0:
36,192,77241,1,0,0:0:0:0:
109,192,77398,1,0,0:0:0:0:
329,192,77398,1,0,0:0:0:0:
109,192,77712,1,0,0:0:0:0:
402,192,77712,1,0,0:0:0:0:
182,192,78183,1,0,0:0:0:0:
402,192,78183,1,0,0:0:0:0:
256,192,78340,1,0,0:0:0:0:
475,192,78497,1,0,0:0:0:0:
109,192,78654,1,0,0:0:0:0:
329,192,78654,1,0,0:0:0:0:
182,192,78968,1,0,0:0:0:0:
36,192,79283,1,0,0:0:0:60:kick.wav
256,192,79283,1,0,0:0:0:0:
475,192,79283,1,0,0:0:0:0:
36,192,79597,1,0,0:0:0:60:kick.wav
475,192,79597,1,0,0:0:0:60:crash.wav
36,192,79754,128,0,81953:0:0:0:60:kick.wav
182,192,79754,1,0,0:0:0:60:crash.wav
329,192,79754,1,0,0:0:0:0:
475,192,79754,128,0,81953:0:0:0:0:
402,192,80068,1,0,0:0:0:0:
329,192,80146,1,0,0:0:0:0:
256,192,80225,1,0,0:0:0:0:
182,192,80304,1,0,0:0:0:0:
329,192,80382,1,0,0:0:0:0:
256,192,80461,1,0,0:0:0:0:
182,192,80539,1,0,0:0:0:0:
109,192,80618,1,0,0:0:0:0:
402,192,80696,1,0,0:0:0:0:
329,192,80775,1,0,0:0:0:0:
256,192,80853,1,0,0:0:0:0:
109,192,80932,1,0,0:0:0:0:
182,192,81010,1,0,0:0:0:0:
256,192,81089,1,0,0:0:0:0:
329,192,81167,1,0,0:0:0:0:
256,192,81246,1,0,0:0:0:0:
182,192,81324,1,0,0:0:0:60:drum.wav
109,192,81403,1,0,0:0:0:60:drum.wav
402,192,81482,1,0,0:0:0:60:drum.wav
329,192,81560,1,0,0:0:0:60:drum.wav
256,192,81639,1,0,0:0:0:60:drum.wav
182,192,81717,1,0,0:0:0:60:drum.wav
329,192,81796,1,0,0:0:0:60:drum.wav
256,192,81874,1,0,0:0:0:60:drum.wav
109,192,81953,1,0,0:0:0:60:kick.wav
182,192,81953,1,0,0:0:0:60:crash.wav
402,192,81953,1,0,0:0:0:0:
182,192,82188,1,0,0:0:0:60:kick.wav
256,192,82188,1,0,0:0:0:0:
475,192,82188,1,0,0:0:0:0:
109,192,82424,1,0,0:0:0:60:kick.wav
329,192,82424,1,0,0:0:0:0:
402,192,82424,1,0,0:0:0:0:
36,192,82581,1,0,0:0:0:60:kick.wav
256,192,82581,1,0,0:0:0:60:crash.wav
475,192,82581,1,0,0:0:0:0:
109,192,82817,1,0,0:0:0:60:kick.wav
182,192,82817,1,0,0:0:0:0:
402,192,82817,1,0,0:0:0:0:
182,192,83052,1,0,0:0:0:60:kick.wav
256,192,83052,1,0,0:0:0:0:
475,192,83052,1,0,0:0:0:0:
36,192,83209,1,0,0:0:0:60:kick.wav
109,192,83209,1,0,0:0:0:60:crash.wav
402,192,83209,1,0,0:0:0:0:
182,192,83445,1,0,0:0:0:60:kick.wav
256,192,83445,1,0,0:0:0:0:
475,192,83445,1,0,0:0:0:0:
36,192,83681,1,0,0:0:0:60:kick.wav
256,192,83681,1,0,0:0:0:0:
329,192,83681,1,0,0:0:0:0:
109,192,83838,1,0,0:0:0:60:kick.wav
402,192,83838,1,0,0:0:0:60:crash.wav
475,192,83838,1,0,0:0:0:0:
36,192,83995,1,0,0:0:0:60:kick.wav
182,192,83995,1,0,0:0:0:0:
329,192,84073,1,0,0:0:0:60:hihat.wav
475,192,84073,1,0,0:0:0:0:
36,192,84152,1,0,0:0:0:60:kick.wav
182,192,84152,1,0,0:0:0:60:crash.wav
329,192,84230,1,0,0:0:0:60:kick.wav
402,192,84230,1,0,0:0:0:0:
109,192,84309,1,0,0:0:0:60:kick.wav
182,192,84309,1,0,0:0:0:0:
402,192,84387,1,0,0:0:0:60:kick.wav
475,192,84387,1,0,0:0:0:0:
36,192,84466,1,0,0:0:0:60:kick.wav
109,192,84466,1,0,0:0:0:60:crash.wav
256,192,84466,1,0,0:0:0:0:
182,192,84701,1,0,0:0:0:60:kick.wav
329,192,84701,1,0,0:0:0:0:
475,192,84701,1,0,0:0:0:0:
36,192,84937,1,0,0:0:0:60:kick.wav
256,192,84937,1,0,0:0:0:0:
402,192,84937,1,0,0:0:0:0:
109,192,85094,1,0,0:0:0:60:kick.wav
329,192,85094,1,0,0:0:0:60:crash.wav
475,192,85094,1,0,0:0:0:0:
36,192,85330,1,0,0:0:0:60:kick.wav
182,192,85330,1,0,0:0:0:0:
402,192,85330,1,0,0:0:0:0:
109,192,85565,1,0,0:0:0:60:kick.wav
256,192,85565,1,0,0:0:0:0:
475,192,85565,1,0,0:0:0:0:
36,192,85722,1,0,0:0:0:60:kick.wav
182,192,85722,1,0,0:0:0:60:crash.wav
329,192,85722,1,0,0:0:0:0:
402,192,85879,1,0,0:0:0:60:bell.wav
109,192,86037,1,0,0:0:0:60:bell.wav
256,192,86037,1,0,0:0:0:60:clap.wav
475,192,86037,1,0,0:0:0:0:
182,192,86351,1,0,0:0:0:60:kick.wav
402,192,86351,1,0,0:0:0:0:
109,192,86508,1,0,0:0:0:60:kick.wav
329,192,86508,1,0,0:0:0:0:
182,192,86586,1,0,0:0:0:60:kick.wav
475,192,86586,1,0,0:0:0:0:
36,192,86665,1,0,0:0:0:60:kick.wav
256,192,86665,1,0,0:0:0:0:
402,192,86665,1,0,0:0:0:0:
109,192,86822,1,0,0:0:0:0:
329,192,86822,1,0,0:0:0:0:
182,192,86979,128,0,87215:0:0:0:60:kick.wav
256,192,86979,128,0,87136:0:0:0:60:crash.wav
475,192,86979,1,0,0:0:0:0:
402,192,87136,128,0,87293:0:0:0:0:
329,192,87215,128,0,87372:0:0:0:0:
109,192,87293,128,0,87372:0:0:0:60:hihat.wav
256,192,87293,128,0,87372:0:0:0:0:
182,192,87450,128,0,87607:0:0:0:60:kick.wav
329,192,87450,128,0,87686:0:0:0:60:crash.wav
109,192,87607,128,0,87764:0:0:0:0:
256,192,87686,128,0,87843:0:0:0:0:
402,192,87764,128,0,87843:0:0:0:60:hihat.wav
475,192,87764,128,0,87843:0:0:0:0:
109,192,87921,128,0,88157:0:0:0:60:kick.wav
182,192,87921,128,0,88078:0:0:0:60:crash.wav
402,192,88078,128,0,88235:0:0:0:0:
329,192,88157,128,0,88314:0:0:0:0:
36,192,88235,128,0,88314:0:0:0:60:hihat.wav
256,192,88235,128,0,88314:0:0:0:0:
182,192,88393,128,0,88550:0:0:0:60:kick.wav
402,192,88393,128,0,88628:0:0:0:60:crash.wav
36,192,88550,128,0,88707:0:0:0:0:
256,192,88628,128,0,88785:0:0:0:0:
109,192,88707,128,0,88785:0:0:0:60:hihat.wav
329,192,88707,128,0,88785:0:0:0:0:
182,192,88864,128,0,89021:0:0:0:60:kick.wav
329,192,88864,128,0,89099:0:0:0:60:crash.wav
109,192,89021,128,0,89178:0:0:0:60:hihat.wav
256,192,89099,128,0,89256:0:0:0:60:hihat.wav
36,192,89178,128,0,89492:0:0:0:60:kick.wav
402,192,89178,128,0,89335:0:0:0:0:
182,192,89256,128,0,89492:0:0:0:60:hihat.wav
329,192,89335,128,0,89492:0:0:0:60:hihat.wav
475,192,89413,128,0,89492:0:0:0:60:hihat.wav
256,192,89492,1,0,0:0:0:0:
36,192,89806,1,0,0:0:0:60:kick.wav
329,192,89806,1,0,0:0:0:60:crash.wav
402,192,89806,128,0,90277:0:0:0:0:
109,192,89963,1,0,0:0:0:60:snare.wav
256,192,89963,128,0,90277:0:0:0:0:
182,192,90277,1,0,0:0:0:60:kick.wav
475,192,90277,1,0,0:0:0:0:
109,192,90356,1,0,0:0:0:0:
36,192,90434,1,0,0:0:0:60:snare.wav
329,192,90434,1,0,0:0:0:0:
402,192,90513,1,0,0:0:0:0:
182,192,90591,1,0,0:0:0:60:kick.wav
475,192,90591,1,0,0:0:0:0:
256,192,90670,1,0,0:0:0:0:
36,192,90749,1,0,0:0:0:60:kick.wav
329,192,90749,1,0,0:0:0:0:
402,192,90749,128,0,90906:0:0:0:0:
109,192,90906,1,0,0:0:0:0:
256,192,90984,1,0,0:0:0:0:
182,192,91063,1,0,0:0:0:60:snare.wav
475,192,91063,1,0,0:0:0:0:
329,192,91141,1,0,0:0:0:0:
36,192,91220,1,0,0:0:0:60:kick.wav
256,192,91220,1,0,0:0:0:0:
402,192,91298,1,0,0:0:0:60:kick.wav
475,192,91298,1,0,0:0:0:0:
109,192,91377,1,0,0:0:0:60:kick.wav
182,192,91377,1,0,0:0:0:0:
329,192,91377,128,0,91534:0:0:0:0:
36,192,91534,1,0,0:0:0:60:kick.wav
475,192,91534,1,0,0:0:0:0:
256,192,91612,1,0,0:0:0:60:kick.wav
182,192,91691,1,0,0:0:0:60:snare.wav
402,192,91691,1,0,0:0:0:0:
109,192,91770,1,0,0:0:0:60:kick.wav
329,192,91770,1,0,0:0:0:0:
36,192,91848,1,0,0:0:0:60:kick.wav
256,192,91848,1,0,0:0:0:0:
109,192,91927,1,0,0:0:0:60:kick.wav
475,192,91927,1,0,0:0:0:0:
182,192,92005,1,0,0:0:0:60:kick.wav
329,192,92005,1,0,0:0:0:0:
402,192,92005,128,0,92162:0:0:0:0:
109,192,92162,1,0,0:0:0:0:
256,192,92241,1,0,0:0:0:0:
36,192,92319,1,0,0:0:0:60:snare.wav
182,192,92319,1,0,0:0:0:0:
402,192,92398,1,0,0:0:0:0:
109,192,92476,1,0,0:0:0:60:kick.wav
256,192,92476,1,0,0:0:0:0:
475,192,92476,128,0,92555:0:0:0:0:
329,192,92555,1,0,0:0:0:0:
182,192,92633,1,0,0:0:0:0:
402,192,92633,128,0,92712:0:0:0:0:
256,192,92712,1,0,0:0:0:0:
109,192,92790,1,0,0:0:0:60:snare.wav
329,192,92790,128,0,92869:0:0:0:60:bell.wav
182,192,92869,1,0,0:0:0:0:
36,192,92948,1,0,0:0:0:60:snare.wav
256,192,92948,1,0,0:0:0:60:bell.wav
402,192,93026,1,0,0:0:0:0:
109,192,93105,1,0,0:0:0:60:kick.wav
475,192,93183,1,0,0:0:0:0:
182,192,93262,1,0,0:0:0:60:kick.wav
256,192,93262,1,0,0:0:0:0:
329,192,93262,128,0,93419:0:0:0:0:
36,192,93419,1,0,0:0:0:0:
109,192,93497,1,0,0:0:0:0:
182,192,93576,1,0,0:0:0:60:snare.wav
402,192,93576,1,0,0:0:0:0:
329,192,93654,1,0,0:0:0:0:
36,192,93733,1,0,0:0:0:60:kick.wav
256,192,93733,1,0,0:0:0:0:
475,192,93733,1,0,0:0:0:0:
182,192,93811,1,0,0:0:0:0:
109,192,93890,128,0,93968:0:0:0:0:
329,192,93890,1,0,0:0:0:0:
402,192,93968,1,0,0:0:0:0:
109,192,94047,128,0,94126:0:0:0:60:snare.wav
329,192,94047,1,0,0:0:0:60:bell.wav
402,192,94126,1,0,0:0:0:0:
36,192,94204,1,0,0:0:0:60:snare.wav
475,192,94204,1,0,0:0:0:60:bell.wav
182,192,94361,1,0,0:0:0:60:kick.wav
329,192,94361,1,0,0:0:0:0:
109,192,94518,1,0,0:0:0:60:kick.wav
256,192,94518,1,0,0:0:0:60:crash.wav
475,192,94518,128,0,94675:0:0:0:0:
36,192,94675,1,0,0:0:0:60:kick.wav
182,192,94675,1,0,0:0:0:0:
256,192,94754,1,0,0:0:0:60:kick.wav
109,192,94832,1,0,0:0:0:60:kick.wav
329,192,94832,1,0,0:0:0:0:
475,192,94832,128,0,94989:0:0:0:0:
182,192,94989,1,0,0:0:0:60:kick.wav
402,192,94989,1,0,0:0:0:0:
36,192,95146,1,0,0:0:0:60:kick.wav
256,192,95146,1,0,0:0:0:0:
475,192,95146,128,0,95225:0:0:0:0:
329,192,95225,1,0,0:0:0:0:
109,192,95304,1,0,0:0:0:60:kick.wav
182,192,95304,1,0,0:0:0:0:
402,192,95304,128,0,95382:0:0:0:0:
256,192,95382,1,0,0:0:0:0:
36,192,95461,1,0,0:0:0:60:kick.wav
109,192,95461,1,0,0:0:0:0:
329,192,95461,128,0,95539:0:0:0:0:
182,192,95539,1,0,0:0:0:0:
256,192,95618,128,0,95696:0:0:0:60:kick.wav
402,192,95618,1,0,0:0:0:0:
475,192,95618,1,0,0:0:0:0:
329,192,95696,1,0,0:0:0:0:
36,192,95775,1,0,0:0:0:60:kick.wav
182,192,95775,1,0,0:0:0:0:
402,192,95853,1,0,0:0:0:60:kick.wav
475,192,95853,1,0,0:0:0:0:
109,192,95932,1,0,0:0:0:60:kick.wav
256,192,95932,1,0,0:0:0:0:
329,192,96010,1,0,0:0:0:60:kick.wav
402,192,96010,1,0,0:0:0:0:
36,192,96089,1,0,0:0:0:60:kick.wav
182,192,96089,1,0,0:0:0:0:
256,192,96167,1,0,0:0:0:60:kick.wav
109,192,96246,1,0,0:0:0:60:kick.wav
475,192,96246,1,0,0:0:0:0:
402,192,96324,1,0,0:0:0:60:kick.wav
256,192,96403,128,0,96560:0:0:0:60:kick.wav
329,192,96403,1,0,0:0:0:0:
36,192,96560,1,0,0:0:0:60:kick.wav
109,192,96612,1,0,0:0:0:0:
182,192,96665,1,0,0:0:0:0:
36,192,96717,1,0,0:0:0:60:clap.wav
256,192,96717,1,0,0:0:0:0:
475,192,96717,1,0,0:0:0:0:
182,192,96874,1,0,0:0:0:60:kick.wav
329,192,96874,1,0,0:0:0:0:
109,192,97031,128,0,97267:0:0:0:60:kick.wav
256,192,97031,128,0,97188:0:0:0:60:crash.wav
402,192,97031,1,0,0:0:0:0:
475,192,97188,128,0,97345:0:0:0:0:
329,192,97267,128,0,97424:0:0:0:0:
36,192,97345,128,0,97424:0:0:0:60:snare.wav
182,192,97345,128,0,97424:0:0:0:0:
256,192,97502,128,0,97660:0:0:0:60:kick.wav
402,192,97502,128,0,97738:0:0:0:60:crash.wav
182,192,97660,128,0,97817:0:0:0:0:
329,192,97738,128,0,97895:0:0:0:0:
36,192,97817,128,0,97895:0:0:0:60:snare.wav
475,192,97817,128,0,97895:0:0:0:0:
36,192,97974,128,0,98209:0:0:0:60:kick.wav
475,192,97974,128,0,98131:0:0:0:60:crash.wav
329,192,98131,128,0,98288:0:0:0:0:
182,192,98209,128,0,98366:0:0:0:0:
109,192,98288,128,0,98366:0:0:0:60:snare.wav
402,192,98288,128,0,98366:0:0:0:0:
256,192,98445,128,0,98602:0:0:0:60:kick.wav
475,192,98445,128,0,98681:0:0:0:60:crash.wav
182,192,98602,128,0,98759:0:0:0:60:snare.wav
402,192,98681,128,0,98916:0:0:0:0:
36,192,98759,128,0,98916:0:0:0:60:kick.wav
109,192,98759,128,0,98838:0:0:0:0:
256,192,98838,1,0,0:0:0:60:kick.wav
182,192,98916,1,0,0:0:0:60:kick.wav
329,192,98916,1,0,0:0:0:0:
109,192,98995,1,0,0:0:0:60:kick.wav
36,192,99073,1,0,0:0:0:60:drum.wav
475,192,99073,1,0,0:0:0:0:
402,192,99112,1,0,0:0:0:60:drum.wav
329,192,99152,1,0,0:0:0:60:drum.wav
256,192,99191,1,0,0:0:0:60:drum.wav
109,192,99230,1,0,0:0:0:60:kick.wav
182,192,99230,1,0,0:0:0:0:
475,192,99309,1,0,0:0:0:0:
256,192,99387,1,0,0:0:0:60:kick.wav
329,192,99387,1,0,0:0:0:0:
36,192,99466,1,0,0:0:0:60:kick.wav
109,192,99466,1,0,0:0:0:0:
402,192,99544,1,0,0:0:0:0:
182,192,99859,1,0,0:0:0:60:kick.wav
329,192,99859,1,0,0:0:0:60:crash.wav
475,192,99859,1,0,0:0:0:0:
109,192,100016,128,0,100330:0:0:0:60:snare.wav
256,192,100016,1,0,0:0:0:0:
402,192,100016,1,0,0:0:0:0:
36,192,100330,1,0,0:0:0:60:kick.wav
329,192,100330,1,0,0:0:0:0:
402,192,100408,1,0,0:0:0:0:
256,192,100487,1,0,0:0:0:60:snare.wav
475,192,100487,1,0,0:0:0:0:
182,192,100565,1,0,0:0:0:0:
109,192,100644,1,0,0:0:0:60:kick.wav
329,192,100644,1,0,0:0:0:0:
256,192,100722,1,0,0:0:0:0:
36,192,100801,1,0,0:0:0:60:kick.wav
182,192,100801,1,0,0:0:0:60:crash.wav
475,192,100801,1,0,0:0:0:0:
109,192,101010,1,0,0:0:0:60:kick.wav
256,192,101010,1,0,0:0:0:60:crash.wav
475,192,101010,1,0,0:0:0:0:
182,192,101220,1,0,0:0:0:60:kick.wav
329,192,101220,1,0,0:0:0:60:crash.wav
402,192,101220,1,0,0:0:0:0:
182,192,101429,1,0,0:0:0:60:kick.wav
256,192,101429,1,0,0:0:0:60:crash.wav
329,192,101429,1,0,0:0:0:0:
109,192,101639,1,0,0:0:0:60:kick.wav
256,192,101639,1,0,0:0:0:60:crash.wav
402,192,101639,1,0,0:0:0:0:
36,192,101848,1,0,0:0:0:60:kick.wav
182,192,101848,1,0,0:0:0:60:crash.wav
402,192,101848,1,0,0:0:0:0:
256,192,102057,128,0,103000:0:0:0:0:
329,192,102057,128,0,102293:0:0:0:0:
475,192,102057,128,0,102293:0:0:0:0:
36,192,102372,1,0,0:0:0:60:kick.wav
329,192,102372,1,0,0:0:0:60:crash.wav
475,192,102372,1,0,0:0:0:0:
109,192,102450,1,0,0:0:0:0:
182,192,102529,1,0,0:0:0:0:
402,192,102529,1,0,0:0:0:0:
36,192,102607,1,0,0:0:0:60:kick.wav
329,192,102607,1,0,0:0:0:0:
109,192,102686,1,0,0:0:0:60:kick.wav
475,192,102686,1,0,0:0:0:0:
182,192,102843,1,0,0:0:0:60:kick.wav
402,192,102843,1,0,0:0:0:60:bell.wav
36,192,103000,1,0,0:0:0:60:snare.wav
329,192,103000,1,0,0:0:0:60:bell.wav
109,192,103157,1,0,0:0:0:60:kick.wav
256,192,103157,1,0,0:0:0:0:
402,192,103235,1,0,0:0:0:0:
182,192,103314,1,0,0:0:0:60:kick.wav
329,192,103314,128,0,103471:0:0:0:0:
475,192,103314,1,0,0:0:0:0:
256,192,103471,1,0,0:0:0:0:
182,192,103550,1,0,0:0:0:0:
36,192,103628,1,0,0:0:0:60:snare.wav
402,192,103628,1,0,0:0:0:0:
109,192,103707,1,0,0:0:0:0:
182,192,103785,1,0,0:0:0:0:
329,192,103785,128,0,103864:0:0:0:0:
36,192,103864,1,0,0:0:0:0:
182,192,103942,1,0,0:0:0:60:kick.wav
329,192,103942,128,0,104021:0:0:0:0:
36,192,104021,1,0,0:0:0:0:
256,192,104099,1,0,0:0:0:60:kick.wav
475,192,104099,1,0,0:0:0:60:bell.wav
109,192,104178,1,0,0:0:0:0:
182,192,104256,1,0,0:0:0:60:snare.wav
402,192,104256,1,0,0:0:0:60:bell.wav
329,192,104335,1,0,0:0:0:0:
36,192,104413,1,0,0:0:0:60:kick.wav
256,192,104413,1,0,0:0:0:0:
109,192,104492,1,0,0:0:0:60:kick.wav
475,192,104492,1,0,0:0:0:0:
182,192,104571,128,0,105513:0:0:0:60:kick.wav
329,192,104571,1,0,0:0:0:60:crash.wav
402,192,104571,1,0,0:0:0:0:
36,192,104728,1,0,0:0:0:60:kick.wav
256,192,104728,1,0,0:0:0:0:
402,192,104885,1,0,0:0:0:60:snare.wav
475,192,104885,1,0,0:0:0:0:
256,192,105042,1,0,0:0:0:60:kick.wav
329,192,105042,1,0,0:0:0:0:
36,192,105120,1,0,0:0:0:60:kick.wav
109,192,105120,1,0,0:0:0:0:
402,192,105199,1,0,0:0:0:60:kick.wav
475,192,105199,1,0,0:0:0:0:
36,192,105356,1,0,0:0:0:60:kick.wav
109,192,105356,1,0,0:0:0:0:
402,192,105434,1,0,0:0:0:60:kick.wav
475,192,105434,1,0,0:0:0:0:
256,192,105513,1,0,0:0:0:60:snare.wav
329,192,105513,1,0,0:0:0:0:
109,192,105591,1,0,0:0:0:60:kick.wav
475,192,105591,1,0,0:0:0:0:
36,192,105670,1,0,0:0:0:60:kick.wav
402,192,105670,1,0,0:0:0:0:
109,192,105749,1,0,0:0:0:60:kick.wav
329,192,105749,1,0,0:0:0:0:
182,192,105827,1,0,0:0:0:60:kick.wav
402,192,105827,1,0,0:0:0:60:crash.wav
475,192,105827,128,0,106455:0:0:0:0:
256,192,105906,1,0,0:0:0:60:kick.wav
36,192,105984,1,0,0:0:0:60:kick.wav
329,192,105984,1,0,0:0:0:0:
109,192,106063,1,0,0:0:0:60:kick.wav
182,192,106141,1,0,0:0:0:60:snare.wav
402,192,106141,1,0,0:0:0:0:
329,192,106220,1,0,0:0:0:60:kick.wav
109,192,106298,1,0,0:0:0:60:kick.wav
256,192,106298,1,0,0:0:0:0:
182,192,106377,1,0,0:0:0:60:kick.wav
36,192,106455,1,0,0:0:0:60:drum.wav
402,192,106455,1,0,0:0:0:0:
182,192,106612,1,0,0:0:0:60:kick.wav
256,192,106665,1,0,0:0:0:0:
329,192,106717,1,0,0:0:0:0:
109,192,106770,1,0,0:0:0:60:kick.wav
402,192,106770,1,0,0:0:0:60:clap.wav
475,192,106770,1,0,0:0:0:0:
182,192,106927,1,0,0:0:0:0:
256,192,106927,1,0,0:0:0:0:
36,192,107084,1,0,0:0:0:60:kick.wav
329,192,107084,128,0,107241:0:0:0:60:crash.wav
402,192,107084,128,0,107319:0:0:0:0:
109,192,107241,128,0,107398:0:0:0:0:
182,192,107319,128,0,107476:0:0:0:0:
256,192,107398,128,0,107476:0:0:0:60:snare.wav
475,192,107398,128,0,107476:0:0:0:0:
182,192,107555,128,0,107790:0:0:0:60:kick.wav
329,192,107555,128,0,107712:0:0:0:60:crash.wav
402,192,107712,128,0,107869:0:0:0:0:
256,192,107790,128,0,107948:0:0:0:0:
36,192,107869,128,0,107948:0:0:0:60:snare.wav
109,192,107869,128,0,107948:0:0:0:0:
36,192,108026,128,0,108183:0:0:0:60:kick.wav
329,192,108026,128,0,108262:0:0:0:60:crash.wav
109,192,108183,128,0,108340:0:0:0:0:
182,192,108262,128,0,108419:0:0:0:0:
256,192,108340,128,0,108419:0:0:0:60:snare.wav
402,192,108340,128,0,108419:0:0:0:0:
109,192,108497,128,0,108654:0:0:0:60:kick.wav
329,192,108497,128,0,108733:0:0:0:60:crash.wav
182,192,108654,128,0,108811:0:0:0:60:snare.wav
402,192,108733,128,0,108968:0:0:0:0:
256,192,108811,128,0,108890:0:0:0:60:kick.wav
475,192,108811,128,0,108968:0:0:0:0:
109,192,108890,1,0,0:0:0:60:kick.wav
36,192,108968,1,0,0:0:0:60:kick.wav
329,192,108968,1,0,0:0:0:60:crash.wav
402,192,109047,1,0,0:0:0:60:kick.wav
109,192,109126,1,0,0:0:0:60:drum.wav
475,192,109126,1,0,0:0:0:0:
182,192,109165,1,0,0:0:0:60:drum.wav
256,192,109204,1,0,0:0:0:60:drum.wav
329,192,109243,1,0,0:0:0:60:drum.wav
36,192,109283,1,0,0:0:0:60:drum.wav
402,192,109283,1,0,0:0:0:0:
182,192,109361,1,0,0:0:0:0:
329,192,109440,1,0,0:0:0:60:kick.wav
475,192,109440,1,0,0:0:0:0:
109,192,109518,1,0,0:0:0:60:kick.wav
256,192,109518,1,0,0:0:0:0:
402,192,109597,1,0,0:0:0:0:
36,192,109754,1,0,0:0:0:0:
109,192,109832,1,0,0:0:0:0:
182,192,109911,128,0,110382:0:0:0:60:kick.wav
402,192,109911,1,0,0:0:0:60:crash.wav
475,192,109911,1,0,0:0:0:0:
329,192,109989,1,0,0:0:0:0:
36,192,110068,1,0,0:0:0:60:kick.wav
256,192,110068,128,0,110382:0:0:0:0:
109,192,110382,1,0,0:0:0:60:kick.wav
475,192,110382,1,0,0:0:0:0:
402,192,110461,1,0,0:0:0:0:
36,192,110539,1,0,0:0:0:60:snare.wav
329,192,110539,1,0,0:0:0:0:
109,192,110618,1,0,0:0:0:0:
182,192,110696,1,0,0:0:0:60:kick.wav
475,192,110696,1,0,0:0:0:0:
256,192,110775,1,0,0:0:0:60:kick.wav
402,192,110775,1,0,0:0:0:0:
36,192,110853,1,0,0:0:0:60:kick.wav
109,192,110853,1,0,0:0:0:0:
329,192,110853,128,0,111010:0:0:0:0:
182,192,111010,1,0,0:0:0:60:kick.wav
402,192,111010,1,0,0:0:0:0:
36,192,111167,1,0,0:0:0:60:snare.wav
475,192,111167,1,0,0:0:0:0:
109,192,111324,1,0,0:0:0:60:kick.wav
256,192,111324,1,0,0:0:0:0:
36,192,111482,1,0,0:0:0:60:kick.wav
329,192,111482,1,0,0:0:0:0:
475,192,111482,128,0,111639:0:0:0:0:
109,192,111639,1,0,0:0:0:60:kick.wav
402,192,111639,1,0,0:0:0:0:
182,192,111717,1,0,0:0:0:60:kick.wav
256,192,111796,1,0,0:0:0:60:snare.wav
329,192,111796,1,0,0:0:0:0:
36,192,111874,1,0,0:0:0:60:kick.wav
475,192,111874,1,0,0:0:0:0:
109,192,111953,1,0,0:0:0:60:kick.wav
402,192,111953,1,0,0:0:0:0:
182,192,112031,1,0,0:0:0:60:kick.wav
329,192,112031,1,0,0:0:0:0:
36,192,112110,1,0,0:0:0:60:kick.wav
256,192,112110,1,0,0:0:0:0:
475,192,112110,128,0,112267:0:0:0:0:
402,192,112267,1,0,0:0:0:0:
182,192,112345,1,0,0:0:0:0:
109,192,112424,1,0,0:0:0:60:snare.wav
329,192,112424,1,0,0:0:0:0:
402,192,112502,1,0,0:0:0:0:
36,192,112581,128,0,112660:0:0:0:0:
256,192,112581,1,0,0:0:0:0:
182,192,112660,1,0,0:0:0:0:
109,192,112738,128,0,112817:0:0:0:60:kick.wav
329,192,112738,1,0,0:0:0:60:drum.wav
475,192,112738,1,0,0:0:0:0:
256,192,112817,1,0,0:0:0:60:drum.wav
182,192,112895,128,0,112974:0:0:0:60:bell.wav
402,192,112895,1,0,0:0:0:60:drum.wav
329,192,112974,1,0,0:0:0:60:drum.wav
36,192,113052,1,0,0:0:0:60:snare.wav
256,192,113052,1,0,0:0:0:60:bell.wav
475,192,113131,1,0,0:0:0:0:
109,192,113209,1,0,0:0:0:0:
329,192,113288,1,0,0:0:0:0:
36,192,113366,1,0,0:0:0:60:kick.wav
182,192,113366,128,0,113523:0:0:0:0:
402,192,113366,1,0,0:0:0:0:
256,192,113523,1,0,0:0:0:0:
329,192,113602,1,0,0:0:0:0:
109,192,113681,1,0,0:0:0:60:snare.wav
475,192,113681,1,0,0:0:0:0:
402,192,113759,1,0,0:0:0:0:
36,192,113838,1,0,0:0:0:0:
256,192,113838,1,0,0:0:0:0:
329,192,113916,1,0,0:0:0:0:
182,192,113995,1,0,0:0:0:60:kick.wav
402,192,113995,128,0,114073:0:0:0:60:drum.wav
109,192,114073,1,0,0:0:0:60:drum.wav
182,192,114152,1,0,0:0:0:60:bell.wav
402,192,114152,128,0,114230:0:0:0:60:drum.wav
109,192,114230,1,0,0:0:0:60:drum.wav
36,192,114309,1,0,0:0:0:60:snare.wav
475,192,114309,1,0,0:0:0:60:bell.wav
182,192,114466,1,0,0:0:0:60:kick.wav
329,192,114466,1,0,0:0:0:0:
109,192,114544,1,0,0:0:0:60:kick.wav
402,192,114544,1,0,0:0:0:0:
36,192,114623,128,0,114780:0:0:0:60:kick.wav
256,192,114623,1,0,0:0:0:60:crash.wav
475,192,114623,1,0,0:0:0:0:
182,192,114780,1,0,0:0:0:60:kick.wav
402,192,114780,1,0,0:0:0:0:
256,192,114859,1,0,0:0:0:0:
36,192,114937,128,0,115094:0:0:0:60:kick.wav
109,192,114937,1,0,0:0:0:0:
329,192,114937,1,0,0:0:0:0:
182,192,115094,1,0,0:0:0:60:kick.wav
402,192,115094,1,0,0:0:0:0:
36,192,115251,128,0,115330:0:0:0:60:kick.wav
256,192,115251,1,0,0:0:0:0:
475,192,115251,1,0,0:0:0:0:
182,192,115330,1,0,0:0:0:0:
109,192,115408,128,0,115487:0:0:0:60:kick.wav
329,192,115408,1,0,0:0:0:0:
402,192,115408,1,0,0:0:0:0:
256,192,115487,1,0,0:0:0:0:
182,192,115565,128,0,115644:0:0:0:60:kick.wav
402,192,115565,1,0,0:0:0:0:
475,192,115565,1,0,0:0:0:0:
329,192,115644,1,0,0:0:0:0:
36,192,115722,1,0,0:0:0:60:kick.wav
109,192,115722,1,0,0:0:0:0:
256,192,115722,128,0,115801:0:0:0:0:
182,192,115801,1,0,0:0:0:0:
109,192,115879,1,0,0:0:0:60:kick.wav
329,192,115879,1,0,0:0:0:0:
36,192,115958,1,0,0:0:0:60:kick.wav
402,192,115958,1,0,0:0:0:0:
182,192,116037,1,0,0:0:0:60:kick.wav
475,192,116037,1,0,0:0:0:0:
109,192,116115,1,0,0:0:0:60:kick.wav
402,192,116115,1,0,0:0:0:0:
36,192,116194,1,0,0:0:0:60:kick.wav
329,192,116194,1,0,0:0:0:0:
109,192,116272,1,0,0:0:0:60:kick.wav
475,192,116272,1,0,0:0:0:0:
182,192,116351,1,0,0:0:0:60:kick.wav
402,192,116351,1,0,0:0:0:0:
109,192,116429,1,0,0:0:0:60:kick.wav
329,192,116429,1,0,0:0:0:0:
36,192,116508,1,0,0:0:0:60:drum.wav
256,192,116508,128,0,116665:0:0:0:0:
329,192,116665,1,0,0:0:0:60:kick.wav
402,192,116717,1,0,0:0:0:0:
475,192,116770,1,0,0:0:0:0:
36,192,116822,1,0,0:0:0:60:clap.wav
109,192,116822,1,0,0:0:0:0:
256,192,116822,1,0,0:0:0:0:
182,192,116979,1,0,0:0:0:0:
329,192,116979,1,0,0:0:0:0:
109,192,117136,1,0,0:0:0:60:kick.wav
256,192,117136,128,0,117293:0:0:0:60:crash.wav
402,192,117136,128,0,117372:0:0:0:0:
36,192,117293,128,0,117450:0:0:0:0:
182,192,117372,128,0,117529:0:0:0:0:
329,192,117450,128,0,117529:0:0:0:60:kick.wav
475,192,117450,128,0,117529:0:0:0:0:
109,192,117607,128,0,117843:0:0:0:60:kick.wav
256,192,117607,128,0,117764:0:0:0:60:crash.wav
329,192,117764,128,0,117921:0:0:0:0:
182,192,117843,128,0,118000:0:0:0:0:
36,192,117921,128,0,118000:0:0:0:60:kick.wav
475,192,117921,128,0,118000:0:0:0:0:
36,192,118078,128,0,118235:0:0:0:60:kick.wav
475,192,118078,128,0,118314:0:0:0:60:crash.wav
182,192,118235,128,0,118393:0:0:0:0:
329,192,118314,128,0,118471:0:0:0:0:
109,192,118393,128,0,118471:0:0:0:60:kick.wav
402,192,118393,128,0,118471:0:0:0:0:
182,192,118550,128,0,118785:0:0:0:60:kick.wav
256,192,118550,128,0,118707:0:0:0:60:crash.wav
402,192,118707,128,0,118785:0:0:0:60:kick.wav
475,192,118707,128,0,118785:0:0:0:0:
36,192,118785,128,0,118864:0:0:0:60:kick.wav
109,192,118785,128,0,118864:0:0:0:0:
329,192,118864,128,0,118942:0:0:0:60:kick.wav
402,192,118864,128,0,118942:0:0:0:0:
109,192,118942,128,0,119021:0:0:0:60:kick.wav
182,192,118942,128,0,119021:0:0:0:0:
256,192,119021,1,0,0:0:0:60:kick.wav
329,192,119021,1,0,0:0:0:60:crash.wav
402,192,119099,1,0,0:0:0:0:
182,192,119178,1,0,0:0:0:0:
36,192,119256,1,0,0:0:0:60:kick.wav
475,192,119256,1,0,0:0:0:0:
256,192,119335,1,0,0:0:0:0:
109,192,119413,1,0,0:0:0:0:
182,192,119492,1,0,0:0:0:60:kick.wav
256,192,119531,1,0,0:0:0:60:drum.wav
329,192,119571,1,0,0:0:0:60:drum.wav
402,192,119610,1,0,0:0:0:60:drum.wav
36,192,119649,1,0,0:0:0:0:
475,192,119649,1,0,0:0:0:0:
109,192,119806,1,0,0:0:0:0:
182,192,119885,1,0,0:0:0:0:
36,192,119963,128,0,120434:0:0:0:60:kick.wav
256,192,119963,1,0,0:0:0:60:crash.wav
475,192,119963,1,0,0:0:0:0:
402,192,120042,1,0,0:0:0:0:
109,192,120120,128,0,120434:0:0:0:60:snare.wav
329,192,120120,1,0,0:0:0:0:
182,192,120434,1,0,0:0:0:60:kick.wav
475,192,120434,1,0,0:0:0:0:
256,192,120513,1,0,0:0:0:0:
36,192,120591,1,0,0:0:0:60:snare.wav
329,192,120591,1,0,0:0:0:0:
109,192,120670,1,0,0:0:0:0:
182,192,120749,1,0,0:0:0:60:kick.wav
475,192,120749,1,0,0:0:0:0:
256,192,120827,1,0,0:0:0:60:kick.wav
402,192,120827,1,0,0:0:0:0:
36,192,120906,1,0,0:0:0:60:kick.wav
109,192,120906,1,0,0:0:0:60:crash.wav
329,192,120906,1,0,0:0:0:0:
109,192,121115,1,0,0:0:0:60:kick.wav
182,192,121115,1,0,0:0:0:60:crash.wav
402,192,121115,1,0,0:0:0:0:
182,192,121324,1,0,0:0:0:60:kick.wav
256,192,121324,1,0,0:0:0:60:crash.wav
475,192,121324,1,0,0:0:0:0:
109,192,121534,1,0,0:0:0:60:kick.wav
329,192,121534,1,0,0:0:0:60:crash.wav
402,192,121534,1,0,0:0:0:0:
36,192,121743,1,0,0:0:0:60:kick.wav
256,192,121743,1,0,0:0:0:60:crash.wav
329,192,121743,1,0,0:0:0:0:
109,192,121953,1,0,0:0:0:60:kick.wav
402,192,121953,1,0,0:0:0:60:crash.wav
475,192,121953,1,0,0:0:0:0:
182,192,122162,128,0,122398:0:0:0:60:kick.wav
329,192,122162,128,0,122398:0:0:0:60:crash.wav
475,192,122162,128,0,123105:0:0:0:0:
182,192,122476,1,0,0:0:0:60:kick.wav
329,192,122476,1,0,0:0:0:0:
109,192,122555,1,0,0:0:0:0:
36,192,122633,1,0,0:0:0:60:kick.wav
256,192,122633,1,0,0:0:0:0:
109,192,122790,1,0,0:0:0:60:kick.wav
402,192,122790,1,0,0:0:0:0:
182,192,122948,1,0,0:0:0:60:kick.wav
329,192,122948,1,0,0:0:0:60:bell.wav
36,192,123105,1,0,0:0:0:60:snare.wav
256,192,123105,1,0,0:0:0:60:bell.wav
109,192,123262,1,0,0:0:0:60:kick.wav
329,192,123262,1,0,0:0:0:0:
402,192,123340,1,0,0:0:0:60:kick.wav
182,192,123419,128,0,123576:0:0:0:60:kick.wav
256,192,123419,1,0,0:0:0:60:crash.wav
475,192,123419,1,0,0:0:0:0:
109,192,123576,1,0,0:0:0:60:kick.wav
402,192,123576,1,0,0:0:0:0:
329,192,123654,1,0,0:0:0:0:
36,192,123733,1,0,0:0:0:60:snare.wav
256,192,123733,1,0,0:0:0:0:
475,192,123733,1,0,0:0:0:0:
182,192,123811,1,0,0:0:0:0:
109,192,123890,128,0,123968:0:0:0:60:kick.wav
402,192,123890,1,0,0:0:0:0:
475,192,123968,1,0,0:0:0:60:kick.wav
109,192,124047,128,0,124126:0:0:0:60:kick.wav
402,192,124047,1,0,0:0:0:0:
475,192,124126,1,0,0:0:0:0:
36,192,124204,1,0,0:0:0:60:kick.wav
329,192,124204,1,0,0:0:0:60:bell.wav
256,192,124283,1,0,0:0:0:60:kick.wav
109,192,124361,1,0,0:0:0:60:snare.wav
475,192,124361,1,0,0:0:0:60:bell.wav
182,192,124440,1,0,0:0:0:60:kick.wav
402,192,124440,1,0,0:0:0:0:
36,192,124518,1,0,0:0:0:60:kick.wav
329,192,124518,1,0,0:0:0:0:
109,192,124597,1,0,0:0:0:60:kick.wav
256,192,124597,1,0,0:0:0:0:
182,192,124675,128,0,125618:0:0:0:60:kick.wav
402,192,124675,128,0,124911:0:0:0:0:
475,192,124675,128,0,124911:0:0:0:0:
402,192,124989,1,0,0:0:0:60:kick.wav
475,192,124989,1,0,0:0:0:60:crash.wav
256,192,125146,1,0,0:0:0:60:kick.wav
329,192,125146,1,0,0:0:0:0:
36,192,125225,1,0,0:0:0:60:kick.wav
109,192,125225,1,0,0:0:0:0:
402,192,125304,1,0,0:0:0:60:kick.wav
475,192,125304,1,0,0:0:0:0:
256,192,125461,1,0,0:0:0:60:kick.wav
329,192,125461,1,0,0:0:0:0:
36,192,125539,1,0,0:0:0:60:kick.wav
402,192,125539,1,0,0:0:0:0:
109,192,125618,1,0,0:0:0:60:snare.wav
475,192,125618,1,0,0:0:0:0:
182,192,125696,1,0,0:0:0:60:kick.wav
402,192,125696,1,0,0:0:0:0:
36,192,125775,1,0,0:0:0:60:kick.wav
329,192,125775,1,0,0:0:0:0:
109,192,125853,1,0,0:0:0:60:kick.wav
475,192,125853,1,0,0:0:0:0:
182,192,125932,1,0,0:0:0:60:kick.wav
256,192,125932,128,0,126560:0:0:0:0:
402,192,125932,1,0,0:0:0:0:
329,192,126010,1,0,0:0:0:60:kick.wav
36,192,126089,1,0,0:0:0:60:kick.wav
109,192,126089,1,0,0:0:0:0:
182,192,126167,1,0,0:0:0:60:kick.wav
402,192,126246,1,0,0:0:0:60:snare.wav
475,192,126246,1,0,0:0:0:0:
329,192,126324,1,0,0:0:0:60:kick.wav
36,192,126403,1,0,0:0:0:60:kick.wav
109,192,126403,1,0,0:0:0:0:
182,192,126482,1,0,0:0:0:60:kick.wav
329,192,126560,1,0,0:0:0:60:drum.wav
475,192,126560,1,0,0:0:0:0:
109,192,126717,1,0,0:0:0:60:kick.wav
182,192,126770,1,0,0:0:0:0:
256,192,126822,1,0,0:0:0:0:
36,192,126874,1,0,0:0:0:60:clap.wav
329,192,126874,1,0,0:0:0:0:
475,192,126874,1,0,0:0:0:0:
109,192,127188,1,0,0:0:0:60:kick.wav
182,192,127188,1,0,0:0:0:60:crash.wav
402,192,127188,1,0,0:0:0:0:
329,192,127345,1,0,0:0:0:0:
256,192,127502,1,0,0:0:0:0:
36,192,127660,1,0,0:0:0:0:
109,192,127817,1,0,0:0:0:60:snare.wav
402,192,127817,1,0,0:0:0:0:
329,192,127974,1,0,0:0:0:0:
36,192,128288,1,0,0:0:0:60:kick.wav
475,192,128288,1,0,0:0:0:0:
329,192,128602,1,0,0:0:0:0:
256,192,128681,1,0,0:0:0:0:
109,192,128759,1,0,0:0:0:60:kick.wav
182,192,128759,1,0,0:0:0:0:
329,192,128916,1,0,0:0:0:0:
36,192,129073,1,0,0:0:0:60:snare.wav
475,192,129073,1,0,0:0:0:0:
182,192,129230,1,0,0:0:0:60:kick.wav
256,192,129230,1,0,0:0:0:0:
109,192,129544,1,0,0:0:0:60:snare.wav
402,192,129544,1,0,0:0:0:0:
182,192,129859,1,0,0:0:0:60:kick.wav
475,192,129859,1,0,0:0:0:0:
402,192,130016,1,0,0:0:0:60:snare.wav
329,192,130094,1,0,0:0:0:60:snare.wav
256,192,130173,1,0,0:0:0:60:snare.wav
182,192,130251,1,0,0:0:0:60:snare.wav
36,192,130330,1,0,0:0:0:60:kick.wav
109,192,130330,1,0,0:0:0:60:crash.wav
475,192,130330,1,0,0:0:0:0:
402,192,130408,1,0,0:0:0:0:
182,192,130487,1,0,0:0:0:60:kick.wav
256,192,130565,1,0,0:0:0:0:
36,192,130644,1,0,0:0:0:60:kick.wav
329,192,130644,1,0,0:0:0:60:crash.wav
475,192,130644,1,0,0:0:0:0:
182,192,130722,1,0,0:0:0:60:kick.wav
109,192,130801,1,0,0:0:0:60:kick.wav
402,192,130801,1,0,0:0:0:60:drum.wav
329,192,130879,1,0,0:0:0:60:kick.wav
36,192,130958,1,0,0:0:0:60:kick.wav
182,192,130958,1,0,0:0:0:60:crash.wav
475,192,130958,1,0,0:0:0:0:
329,192,131036,1,0,0:0:0:60:kick.wav
109,192,131115,1,0,0:0:0:60:kick.wav
402,192,131115,1,0,0:0:0:60:drum.wav
182,192,131194,1,0,0:0:0:60:kick.wav
36,192,131272,1,0,0:0:0:60:kick.wav
329,192,131272,1,0,0:0:0:60:crash.wav
475,192,131272,1,0,0:0:0:0:
109,192,131508,1,0,0:0:0:60:kick.wav
182,192,131508,1,0,0:0:0:60:crash.wav
256,192,131508,1,0,0:0:0:0:
329,192,131586,1,0,0:0:0:0:
402,192,131665,1,0,0:0:0:0:
36,192,131743,1,0,0:0:0:60:kick.wav
109,192,131743,1,0,0:0:0:60:crash.wav
475,192,131743,1,0,0:0:0:0:
182,192,131822,1,0,0:0:0:0:
256,192,131900,1,0,0:0:0:0:
36,192,131979,1,0,0:0:0:60:kick.wav
329,192,131979,1,0,0:0:0:60:crash.wav
402,192,131979,1,0,0:0:0:0:
256,192,132057,1,0,0:0:0:0:
182,192,132136,1,0,0:0:0:0:
109,192,132214,1,0,0:0:0:60:kick.wav
402,192,132214,1,0,0:0:0:60:crash.wav
475,192,132214,1,0,0:0:0:0:
329,192,132293,1,0,0:0:0:60:snare.wav
256,192,132372,1,0,0:0:0:0:
36,192,132450,1,0,0:0:0:60:kick.wav
182,192,132450,1,0,0:0:0:60:crash.wav
329,192,132529,1,0,0:0:0:60:kick.wav
475,192,132529,1,0,0:0:0:60:crash.wav
256,192,132607,1,0,0:0:0:0:
109,192,132686,1,0,0:0:0:60:kick.wav
182,192,132686,1,0,0:0:0:60:crash.wav
402,192,132686,1,0,0:0:0:0:
329,192,132764,1,0,0:0:0:0:
36,192,132843,1,0,0:0:0:60:kick.wav
256,192,132843,1,0,0:0:0:60:crash.wav
475,192,132843,1,0,0:0:0:0:
329,192,132921,1,0,0:0:0:0:
109,192,133000,1,0,0:0:0:60:kick.wav
402,192,133000,1,0,0:0:0:0:
182,192,133078,1,0,0:0:0:60:kick.wav
256,192,133078,1,0,0:0:0:0:
329,192,133157,1,0,0:0:0:60:drum.wav
475,192,133157,1,0,0:0:0:0:
36,192,133196,1,0,0:0:0:60:drum.wav
109,192,133235,1,0,0:0:0:60:drum.wav
182,192,133275,1,0,0:0:0:60:drum.wav
256,192,133314,1,0,0:0:0:60:kick.wav
402,192,133314,1,0,0:0:0:0:
36,192,133392,1,0,0:0:0:60:kick.wav
109,192,133392,1,0,0:0:0:0:
329,192,133471,1,0,0:0:0:60:kick.wav
475,192,133471,1,0,0:0:0:0:
36,192,133550,1,0,0:0:0:60:kick.wav
182,192,133550,1,0,0:0:0:0:
402,192,133628,1,0,0:0:0:60:drum.wav
475,192,133628,1,0,0:0:0:0:
329,192,133667,1,0,0:0:0:60:drum.wav
256,192,133707,1,0,0:0:0:60:drum.wav
182,192,133746,1,0,0:0:0:60:drum.wav
36,192,134099,128,0,138811:0:0:0:60:kick.wav
109,192,134099,128,0,138811:0:0:0:60:crash.wav
475,192,134099,128,0,138811:0:0:0:0:
256,192,134570,1,0,0:0:0:0:
329,192,134649,1,0,0:0:0:0:
182,192,134885,1,0,0:0:0:0:
256,192,135042,1,0,0:0:0:0:
402,192,135120,1,0,0:0:0:0:
329,192,135199,1,0,0:0:0:0:
182,192,135356,1,0,0:0:0:0:
256,192,135565,1,0,0:0:0:0:
329,192,135775,1,0,0:0:0:0:
402,192,135984,1,0,0:0:0:0:
329,192,136194,1,0,0:0:0:0:
256,192,136403,1,0,0:0:0:0:
182,192,136612,1,0,0:0:0:0:
