osu file format v14

[General]
AudioFilename: audio.ogg
AudioLeadIn: 0
PreviewTime: 86979
Countdown: 0
SampleSet: Soft
StackLeniency: 0.7
Mode: 3
LetterboxInBreaks: 0
SpecialStyle: 0
WidescreenStoryboard: 1

[Editor]
DistanceSpacing: 1
BeatDivisor: 3
GridSize: 8
TimelineZoom: 1.9

[Metadata]
Title:Lemuria
TitleUnicode:Lemuria
Artist:Festa
ArtistUnicode:Festa
Creator:Alsty-
Version:A Lie's Beginner
Source:BOFU2016
Tags:xi lifestream Evolved Chronicles THE BMS OF FIGHTERS ULTIMATE 2016 Legendary Again electronic artcore instrumental DVSP-0169 Comic Market 91 Comiket 96 C91 C96 nmcd-0016 のらねこさい まとめ ねこみりん nekomimi style piano 鑓田 Another Lie Kyousuke- Critical_Star Kuo Kyoka
BeatmapID:1418673
BeatmapSetID:589614

[Difficulty]
HPDrainRate:7
CircleSize:7
OverallDifficulty:7
ApproachRate:5
SliderMultiplier:1.4
SliderTickRate:1

[Events]
//Background and Video events
0,0,"asd.jpg",0,0
//Break Periods
//Storyboard Layer 0 (Background)
//Storyboard Layer 1 (Fail)
//Storyboard Layer 2 (Pass)
//Storyboard Layer 3 (Foreground)
//Storyboard Layer 4 (Overlay)
//Storyboard Sound Samples
Sample,4074,0,"tick.wav",80
Sample,4074,0,"crash.wav",60
Sample,10984,0,"tick.wav",80
Sample,12241,0,"tick.wav",80
Sample,12869,0,"tick.wav",80
Sample,13497,0,"tick.wav",80
Sample,14125,0,"tick.wav",80
Sample,14440,0,"crash.wav",60
Sample,14597,0,"crash.wav",60
Sample,14911,0,"crash.wav",60
Sample,15076,0,"crash.wav",60
Sample,15408,0,"crash.wav",60
Sample,15758,0,"crash.wav",60
Sample,16130,0,"crash.wav",60
Sample,16328,0,"crash.wav",60
Sample,16726,0,"crash.wav",60
Sample,16955,0,"crash.wav",60
Sample,17413,0,"crash.wav",60
Sample,17953,0,"crash.wav",60
Sample,21642,0,"crash.wav",60
Sample,22113,0,"crash.wav",60
Sample,22584,0,"snare.wav",60
Sample,22584,0,"crash.wav",60
Sample,22741,0,"snare.wav",60
Sample,22741,0,"crash.wav",60
Sample,34521,0,"crash.wav",60
Sample,40333,0,"crash.wav",60
Sample,41746,0,"crash.wav",60
Sample,41903,0,"crash.wav",60
Sample,42218,0,"crash.wav",60
Sample,42375,0,"crash.wav",60
Sample,42689,0,"crash.wav",60
Sample,42846,0,"crash.wav",60
Sample,43631,0,"crash.wav",60
Sample,43867,0,"crash.wav",60
Sample,44102,0,"crash.wav",60
Sample,46458,0,"clap.wav",60
Sample,47714,0,"clap.wav",60
Sample,48656,0,"tick.wav",80
Sample,53683,0,"kick.wav",60
Sample,53840,0,"crash.wav",60
Sample,54154,0,"crash.wav",60
Sample,54311,0,"crash.wav",60
Sample,54625,0,"crash.wav",60
Sample,54782,0,"crash.wav",60
Sample,55881,0,"crash.wav",60
Sample,57922,0,"drum.wav",60
Sample,58394,0,"crash.wav",60
Sample,58551,0,"crash.wav",60
Sample,58865,0,"crash.wav",60
Sample,59022,0,"crash.wav",60
Sample,59336,0,"crash.wav",60
Sample,59493,0,"crash.wav",60
Sample,62790,0,"drum.wav",60
Sample,65618,0,"crash.wav",60
Sample,65775,0,"crash.wav",60
Sample,66246,0,"crash.wav",60
Sample,66403,0,"crash.wav",60
Sample,66874,0,"crash.wav",60
Sample,67188,0,"crash.wav",60
Sample,67502,0,"crash.wav",60
Sample,76927,0,"crash.wav",60
Sample,79597,0,"crash.wav",60
Sample,79754,0,"crash.wav",60
Sample,81953,0,"crash.wav",60
Sample,82581,0,"crash.wav",60
Sample,83209,0,"crash.wav",60
Sample,83838,0,"crash.wav",60
Sample,84466,0,"crash.wav",60
Sample,85094,0,"crash.wav",60
Sample,85722,0,"crash.wav",60
Sample,86037,0,"clap.wav",60
Sample,89806,0,"crash.wav",60
Sample,92790,0,"bell.wav",60
Sample,92948,0,"bell.wav",60
Sample,94047,0,"bell.wav",60
Sample,94204,0,"bell.wav",60
Sample,94518,0,"crash.wav",60
Sample,99859,0,"crash.wav",60
Sample,100801,0,"crash.wav",60
Sample,101010,0,"crash.wav",60
Sample,101220,0,"crash.wav",60
Sample,101429,0,"crash.wav",60
Sample,101639,0,"crash.wav",60
Sample,101848,0,"crash.wav",60
Sample,102372,0,"crash.wav",60
Sample,102843,0,"bell.wav",60
Sample,103000,0,"bell.wav",60
Sample,104099,0,"bell.wav",60
Sample,104256,0,"bell.wav",60
Sample,104571,0,"crash.wav",60
Sample,105827,0,"crash.wav",60
Sample,106770,0,"clap.wav",60
Sample,108968,0,"crash.wav",60
Sample,109911,0,"crash.wav",60
Sample,112738,0,"drum.wav",60
Sample,112895,0,"drum.wav",60
Sample,113052,0,"bell.wav",60
Sample,113995,0,"drum.wav",60
Sample,114152,0,"drum.wav",60
Sample,114309,0,"bell.wav",60
Sample,114623,0,"crash.wav",60
Sample,119021,0,"crash.wav",60
Sample,119963,0,"crash.wav",60
Sample,120906,0,"crash.wav",60
Sample,121115,0,"crash.wav",60
Sample,121324,0,"crash.wav",60
Sample,121534,0,"crash.wav",60
Sample,121743,0,"crash.wav",60
Sample,121953,0,"crash.wav",60
Sample,122162,0,"crash.wav",60
Sample,122948,0,"bell.wav",60
Sample,123105,0,"bell.wav",60
Sample,123419,0,"crash.wav",60
Sample,124204,0,"bell.wav",60
Sample,124361,0,"bell.wav",60
Sample,124989,0,"crash.wav",60
Sample,130330,0,"crash.wav",60
Sample,130644,0,"crash.wav",60
Sample,130958,0,"crash.wav",60
Sample,131272,0,"crash.wav",60
Sample,131508,0,"crash.wav",60
Sample,131743,0,"crash.wav",60
Sample,131979,0,"crash.wav",60
Sample,132214,0,"crash.wav",60
Sample,132450,0,"crash.wav",60
Sample,132686,0,"crash.wav",60
Sample,132843,0,"crash.wav",60

[TimingPoints]
305,314.13612565445,3,2,1,50,1,0
4074,314.13612565445,4,2,1,50,1,0
9728,314.13612565445,4,2,1,50,1,0
14440,314.13612565445,4,2,1,50,1,0
14911,331.491712707182,4,2,1,50,1,0
14911,-94.3396226415094,4,2,1,50,0,0
15408,350.877192982456,4,2,1,50,1,0
15408,-89.2857142857143,4,2,1,50,0,0
15758,372.670807453416,4,2,1,50,1,0
15758,-84.0336134453781,4,2,1,50,0,0
16130,397.350993377483,4,2,1,50,1,0
16130,-78.7401574803149,4,2,1,50,0,0
16726,458.015267175573,4,2,1,50,1,0
16726,-68.4931506849315,4,2,1,50,0,0
17413,540.540540540541,4,2,1,50,1,0
17413,-58.1395348837209,4,2,1,50,0,0
17953,1176.47058823529,4,2,1,50,1,0
17953,-26.6666666666667,4,2,1,50,0,0
19129,314.13612565445,4,2,1,50,1,0
44574,314.13612565445,6,2,1,50,1,0
46458,314.13612565445,4,2,1,50,1,0
48656,314.13612565445,3,2,1,50,1,0
52426,314.13612565445,4,2,1,50,1,0
53683,314.13612565445,7,2,1,50,1,0
55881,314.13612565445,4,2,1,50,1,0
58394,314.13612565445,7,2,1,50,1,0
60592,314.13612565445,4,2,1,50,1,0
89963,-100,4,2,1,50,0,1
97031,-100,4,2,1,50,0,0
100016,-100,4,2,1,50,0,1
107084,-100,4,2,1,50,0,0
109911,-100,4,2,1,50,0,1
117136,-100,4,2,1,50,0,0
119963,-100,4,2,1,50,0,1
127188,-100,4,2,1,50,0,0
130016,314.13612565445,4,2,1,50,1,0

[HitObjects]
36,192,305,5,0,0:0:0:60:kick.wav
475,192,305,1,0,0:0:0:60:crash.wav
256,192,619,128,0,933:0:0:0:0:
329,192,933,1,0,0:0:0:0:
475,192,1090,1,0,0:0:0:0:
36,192,1404,1,0,0:0:0:0:
402,192,1561,128,0,1875:0:0:0:0:
256,192,1875,1,0,0:0:0:0:
109,192,2032,1,0,0:0:0:0:
329,192,2346,1,0,0:0:0:0:
109,192,2503,128,0,2818:0:0:0:0:
256,192,2818,1,0,0:0:0:0:
402,192,2975,1,0,0:0:0:0:
182,192,3289,1,0,0:0:0:0:
329,192,3446,128,0,3760:0:0:0:0:
475,192,3760,128,0,4074:0:0:0:0:
36,192,4074,1,0,0:0:0:60:kick.wav
402,192,4231,1,0,0:0:0:0:
329,192,4388,1,0,0:0:0:0:
109,192,4702,1,0,0:0:0:80:tick.wav
182,192,4859,1,0,0:0:0:0:
256,192,5173,128,0,5487:0:0:0:0:
402,192,5487,1,0,0:0:0:0:
182,192,5801,1,0,0:0:0:0:
329,192,5958,1,0,0:0:0:80:tick.wav
475,192,6115,1,0,0:0:0:0:
36,192,6272,128,0,6744:0:0:0:0:
256,192,6744,1,0,0:0:0:0:
475,192,7058,1,0,0:0:0:0:
182,192,7372,1,0,0:0:0:0:
109,192,7529,1,0,0:0:0:60:kick.wav
402,192,7843,1,0,0:0:0:80:tick.wav
329,192,8000,1,0,0:0:0:0:
256,192,8157,1,0,0:0:0:0:
182,192,8314,1,0,0:0:0:0:
109,192,8471,128,0,9100:0:0:0:80:tick.wav
402,192,9100,128,0,9414:0:0:0:80:tick.wav
329,192,9414,1,0,0:0:0:0:
182,192,9571,1,0,0:0:0:0:
475,192,9885,1,0,0:0:0:0:
109,192,10199,1,0,0:0:0:0:
402,192,10513,1,0,0:0:0:0:
182,192,10827,1,0,0:0:0:0:
329,192,10984,1,0,0:0:0:60:kick.wav
475,192,10984,1,0,0:0:0:60:crash.wav
109,192,11298,1,0,0:0:0:60:kick.wav
402,192,11455,1,0,0:0:0:60:snare.wav
182,192,11926,1,0,0:0:0:60:kick.wav
329,192,12241,1,0,0:0:0:60:snare.wav
109,192,12555,1,0,0:0:0:60:kick.wav
402,192,12869,1,0,0:0:0:60:kick.wav
109,192,13026,1,0,0:0:0:60:snare.wav
402,192,13497,1,0,0:0:0:60:kick.wav
109,192,13811,1,0,0:0:0:60:snare.wav
256,192,14125,1,0,0:0:0:60:kick.wav
36,192,14440,1,0,0:0:0:60:kick.wav
182,192,14597,1,0,0:0:0:60:kick.wav
475,192,14911,1,0,0:0:0:60:kick.wav
329,192,15076,1,0,0:0:0:60:kick.wav
182,192,15408,1,0,0:0:0:60:kick.wav
329,192,15758,1,0,0:0:0:60:kick.wav
36,192,16130,1,0,0:0:0:60:kick.wav
182,192,16328,1,0,0:0:0:60:kick.wav
475,192,16726,1,0,0:0:0:60:kick.wav
329,192,16955,1,0,0:0:0:60:kick.wav
256,192,17413,128,0,17953:0:0:0:60:kick.wav
36,192,17953,1,0,0:0:0:60:kick.wav
109,192,18247,1,0,0:0:0:0:
182,192,18541,1,0,0:0:0:0:
256,192,18835,1,0,0:0:0:0:
36,192,19129,1,0,0:0:0:60:kick.wav
475,192,19129,128,0,21327:0:0:0:60:crash.wav
182,192,19443,1,0,0:0:0:0:
36,192,19914,1,0,0:0:0:0:
182,192,20385,1,0,0:0:0:0:
36,192,20856,1,0,0:0:0:0:
109,192,21327,128,0,21642:0:0:0:60:hihat.wav
329,192,21642,1,0,0:0:0:60:kick.wav
402,192,21642,1,0,0:0:0:60:snare.wav
109,192,22113,1,0,0:0:0:60:kick.wav
182,192,22113,1,0,0:0:0:60:snare.wav
402,192,22584,1,0,0:0:0:60:kick.wav
109,192,22741,1,0,0:0:0:60:kick.wav
256,192,22898,128,0,23212:0:0:0:60:drum.wav
329,192,23212,128,0,23526:0:0:0:60:drum.wav
182,192,23526,128,0,23841:0:0:0:60:drum.wav
475,192,23841,128,0,24155:0:0:0:60:clap.wav
256,192,24155,1,0,0:0:0:0:
36,192,24469,1,0,0:0:0:60:kick.wav
109,192,24469,1,0,0:0:0:60:crash.wav
329,192,24783,1,0,0:0:0:0:
475,192,24940,1,0,0:0:0:60:kick.wav
256,192,25254,1,0,0:0:0:60:kick.wav
36,192,25568,1,0,0:0:0:60:kick.wav
182,192,26039,1,0,0:0:0:0:
329,192,26354,1,0,0:0:0:60:snare.wav
256,192,26668,1,0,0:0:0:60:kick.wav
402,192,26982,1,0,0:0:0:60:snare.wav
182,192,27296,1,0,0:0:0:0:
36,192,27453,1,0,0:0:0:60:kick.wav
402,192,27767,1,0,0:0:0:60:kick.wav
109,192,28081,1,0,0:0:0:60:kick.wav
402,192,28553,128,0,28867:0:0:0:60:LR_Drum Click.wav
109,192,28867,1,0,0:0:0:60:snare.wav
256,192,29024,1,0,0:0:0:0:
402,192,29181,1,0,0:0:0:60:kick.wav
475,192,29495,1,0,0:0:0:60:snare.wav
36,192,29809,1,0,0:0:0:0:
329,192,29966,1,0,0:0:0:60:kick.wav
109,192,30280,1,0,0:0:0:60:kick.wav
402,192,30594,1,0,0:0:0:60:kick.wav
182,192,31066,1,0,0:0:0:60:kick.wav
329,192,31380,1,0,0:0:0:60:snare.wav
402,192,31694,1,0,0:0:0:60:kick.wav
475,192,32008,1,0,0:0:0:60:snare.wav
182,192,32322,1,0,0:0:0:0:
109,192,32479,1,0,0:0:0:60:kick.wav
329,192,32793,1,0,0:0:0:60:kick.wav
182,192,33108,1,0,0:0:0:60:kick.wav
36,192,33265,1,0,0:0:0:60:kick.wav
475,192,33422,1,0,0:0:0:60:kick.wav
329,192,33579,1,0,0:0:0:60:kick.wav
329,192,33814,1,0,0:0:0:60:kick.wav
182,192,34050,1,0,0:0:0:60:kick.wav
329,192,34207,128,0,34521:0:0:0:0:
36,192,34521,1,0,0:0:0:60:kick.wav
109,192,34521,1,0,0:0:0:60:snare.wav
182,192,34835,1,0,0:0:0:60:kick.wav
329,192,35149,1,0,0:0:0:60:kick.wav
36,192,35464,1,0,0:0:0:60:kick.wav
329,192,35778,1,0,0:0:0:60:kick.wav
182,192,36092,1,0,0:0:0:60:kick.wav
475,192,36406,128,0,36720:0:0:0:60:kick.wav
182,192,36720,1,0,0:0:0:60:kick.wav
329,192,36720,1,0,0:0:0:60:crash.wav
109,192,37034,1,0,0:0:0:60:kick.wav
256,192,37348,1,0,0:0:0:60:kick.wav
402,192,37505,1,0,0:0:0:60:hihat.wav
182,192,37820,1,0,0:0:0:60:kick.wav
329,192,37820,1,0,0:0:0:60:crash.wav
36,192,38134,1,0,0:0:0:60:kick.wav
182,192,38291,1,0,0:0:0:60:snare.wav
329,192,38448,1,0,0:0:0:60:kick.wav
475,192,38605,1,0,0:0:0:60:snare.wav
402,192,38919,1,0,0:0:0:60:snare.wav
182,192,39233,1,0,0:0:0:60:kick.wav
402,192,39233,128,0,41118:0:0:0:60:crash.wav
36,192,39704,1,0,0:0:0:60:kick.wav
109,192,40019,1,0,0:0:0:60:kick.wav
182,192,40333,1,0,0:0:0:60:kick.wav
109,192,41118,1,0,0:0:0:60:kick.wav
182,192,41275,1,0,0:0:0:60:kick.wav
256,192,41432,128,0,41746:0:0:0:60:kick.wav
109,192,41746,1,0,0:0:0:60:kick.wav
402,192,41903,1,0,0:0:0:60:kick.wav
182,192,42218,1,0,0:0:0:60:kick.wav
329,192,42375,1,0,0:0:0:60:kick.wav
36,192,42689,1,0,0:0:0:60:kick.wav
475,192,42846,1,0,0:0:0:60:kick.wav
182,192,43160,128,0,43631:0:0:0:60:drum.wav
329,192,43631,1,0,0:0:0:60:kick.wav
109,192,43867,1,0,0:0:0:60:kick.wav
402,192,44102,1,0,0:0:0:60:kick.wav
256,192,44259,1,0,0:0:0:60:clap.wav
36,192,44574,1,0,0:0:0:60:kick.wav
475,192,44574,1,0,0:0:0:60:crash.wav
256,192,45516,128,0,45830:0:0:0:0:
36,192,45830,1,0,0:0:0:60:clap.wav
109,192,46144,1,0,0:0:0:0:
256,192,46301,1,0,0:0:0:0:
36,192,46458,1,0,0:0:0:60:kick.wav
402,192,46458,1,0,0:0:0:60:crash.wav
256,192,47086,128,0,47400:0:0:0:60:clap.wav
475,192,47400,1,0,0:0:0:0:
109,192,47714,1,0,0:0:0:60:kick.wav
329,192,47714,1,0,0:0:0:60:crash.wav
402,192,48028,1,0,0:0:0:0:
36,192,48342,1,0,0:0:0:60:kick.wav
329,192,48656,1,0,0:0:0:60:kick.wav
475,192,48656,1,0,0:0:0:60:crash.wav
182,192,48970,1,0,0:0:0:0:
256,192,49127,1,0,0:0:0:0:
329,192,49284,1,0,0:0:0:80:tick.wav
402,192,49441,1,0,0:0:0:0:
475,192,49598,1,0,0:0:0:0:
36,192,49912,1,0,0:0:0:80:tick.wav
109,192,50069,1,0,0:0:0:0:
182,192,50226,1,0,0:0:0:0:
256,192,50383,1,0,0:0:0:0:
329,192,50540,1,0,0:0:0:80:tick.wav
109,192,50854,1,0,0:0:0:0:
182,192,51012,1,0,0:0:0:0:
256,192,51169,1,0,0:0:0:80:tick.wav
329,192,51326,1,0,0:0:0:0:
402,192,51483,1,0,0:0:0:0:
182,192,51797,1,0,0:0:0:80:tick.wav
256,192,51954,1,0,0:0:0:0:
329,192,52111,1,0,0:0:0:0:
402,192,52268,1,0,0:0:0:0:
475,192,52426,128,0,53683:0:0:0:0:
402,192,53683,1,0,0:0:0:60:crash.wav
109,192,53840,1,0,0:0:0:60:kick.wav
402,192,54154,1,0,0:0:0:60:kick.wav
109,192,54311,1,0,0:0:0:60:kick.wav
402,192,54625,1,0,0:0:0:60:kick.wav
109,192,54782,1,0,0:0:0:60:kick.wav
329,192,55253,1,0,0:0:0:60:kick.wav
182,192,55410,1,0,0:0:0:60:kick.wav
36,192,55567,1,0,0:0:0:60:snare.wav
256,192,55724,1,0,0:0:0:60:kick.wav
475,192,55881,1,0,0:0:0:60:kick.wav
109,192,56195,1,0,0:0:0:60:snare.wav
402,192,56352,1,0,0:0:0:60:kick.wav
256,192,56509,128,0,57137:0:0:0:60:LR_Drum EDge.wav
182,192,57137,1,0,0:0:0:60:kick.wav
329,192,57373,1,0,0:0:0:60:kick.wav
182,192,57608,1,0,0:0:0:60:kick.wav
402,192,57922,128,0,58394:0:0:0:60:kick.wav
329,192,58394,1,0,0:0:0:60:kick.wav
182,192,58551,1,0,0:0:0:60:kick.wav
329,192,58865,1,0,0:0:0:60:kick.wav
182,192,59022,1,0,0:0:0:60:kick.wav
329,192,59336,1,0,0:0:0:60:kick.wav
182,192,59493,1,0,0:0:0:60:kick.wav
36,192,59650,128,0,60278:0:0:0:60:LR_Drum Click.wav
256,192,60278,1,0,0:0:0:60:snare.wav
182,192,60592,1,0,0:0:0:60:kick.wav
475,192,60592,128,0,61534:0:0:0:60:crash.wav
256,192,61534,128,0,61848:0:0:0:60:LR_Drum EDge.wav
36,192,61848,1,0,0:0:0:60:kick.wav
329,192,61848,1,0,0:0:0:0:
182,192,62084,1,0,0:0:0:60:kick.wav
329,192,62319,1,0,0:0:0:60:kick.wav
182,192,62555,1,0,0:0:0:60:kick.wav
329,192,62790,128,0,63105:0:0:0:60:kick.wav
109,192,63105,128,0,63419:0:0:0:60:kick.wav
402,192,63419,1,0,0:0:0:60:kick.wav
475,192,63419,1,0,0:0:0:60:crash.wav
36,192,63890,1,0,0:0:0:0:
109,192,64047,1,0,0:0:0:60:kick.wav
182,192,64204,1,0,0:0:0:0:
329,192,64361,1,0,0:0:0:60:kick.wav
475,192,64361,1,0,0:0:0:0:
402,192,64832,128,0,65304:0:0:0:0:
182,192,65304,128,0,65618:0:0:0:60:kick.wav
109,192,65618,1,0,0:0:0:60:kick.wav
402,192,65775,1,0,0:0:0:60:kick.wav
256,192,65932,128,0,66246:0:0:0:60:drum.wav
182,192,66246,1,0,0:0:0:60:kick.wav
475,192,66403,1,0,0:0:0:60:kick.wav
36,192,66560,128,0,66874:0:0:0:60:drum.wav
109,192,66874,1,0,0:0:0:60:kick.wav
182,192,67188,1,0,0:0:0:60:kick.wav
256,192,67502,1,0,0:0:0:60:kick.wav
329,192,67817,1,0,0:0:0:60:kick.wav
475,192,67817,128,0,68445:0:0:0:60:crash.wav
36,192,68445,1,0,0:0:0:0:
182,192,68602,1,0,0:0:0:0:
329,192,68759,128,0,69387:0:0:0:0:
109,192,69387,1,0,0:0:0:60:kick.wav
256,192,69544,1,0,0:0:0:0:
402,192,69701,128,0,70173:0:0:0:60:LR_Drum Click.wav
475,192,70173,1,0,0:0:0:60:LR_Drum EDge.wav
329,192,70330,1,0,0:0:0:60:LR_Drum Click.wav
182,192,70487,1,0,0:0:0:60:LR_Drum EDge.wav
36,192,70644,128,0,71586:0:0:0:60:kick.wav
402,192,70958,1,0,0:0:0:60:kick.wav
256,192,71272,1,0,0:0:0:60:kick.wav
109,192,71586,1,0,0:0:0:60:clap.wav
182,192,71900,128,0,72843:0:0:0:60:kick.wav
475,192,72215,1,0,0:0:0:60:kick.wav
402,192,72529,1,0,0:0:0:60:kick.wav
329,192,72843,1,0,0:0:0:60:clap.wav
475,192,73157,128,0,74099:0:0:0:60:kick.wav
109,192,73471,1,0,0:0:0:60:kick.wav
256,192,73785,1,0,0:0:0:60:kick.wav
402,192,74099,1,0,0:0:0:60:kick.wav
256,192,74413,128,0,76298:0:0:0:60:drum.wav
36,192,74728,1,0,0:0:0:60:drum.wav
109,192,75042,1,0,0:0:0:60:drum.wav
182,192,75356,1,0,0:0:0:60:drum.wav
329,192,75670,1,0,0:0:0:30:drum.wav
402,192,75984,1,0,0:0:0:30:drum.wav
475,192,76298,128,0,76612:0:0:0:30:drum.wav
36,192,76612,128,0,76927:0:0:0:30:drum.wav
402,192,76927,1,0,0:0:0:60:kick.wav
329,192,77084,1,0,0:0:0:0:
109,192,77241,1,0,0:0:0:0:
256,192,77398,1,0,0:0:0:0:
256,192,77712,1,0,0:0:0:0:
402,192,78183,1,0,0:0:0:0:
329,192,78340,1,0,0:0:0:0:
182,192,78497,1,0,0:0:0:0:
109,192,78654,1,0,0:0:0:0:
475,192,78968,1,0,0:0:0:0:
36,192,79283,1,0,0:0:0:60:kick.wav
109,192,79597,1,0,0:0:0:60:kick.wav
402,192,79754,128,0,81953:0:0:0:60:kick.wav
109,192,81324,128,0,81953:0:0:0:60:drum.wav
256,192,81953,1,0,0:0:0:60:kick.wav
36,192,82188,1,0,0:0:0:60:kick.wav
182,192,82424,1,0,0:0:0:60:kick.wav
329,192,82581,1,0,0:0:0:60:kick.wav
109,192,82817,1,0,0:0:0:60:kick.wav
256,192,83052,1,0,0:0:0:60:kick.wav
402,192,83209,1,0,0:0:0:60:kick.wav
182,192,83445,1,0,0:0:0:60:kick.wav
329,192,83681,1,0,0:0:0:60:kick.wav
475,192,83838,1,0,0:0:0:60:kick.wav
329,192,84073,1,0,0:0:0:60:hihat.wav
182,192,84309,1,0,0:0:0:60:kick.wav
36,192,84466,1,0,0:0:0:60:kick.wav
109,192,84701,1,0,0:0:0:60:kick.wav
256,192,84937,1,0,0:0:0:60:kick.wav
402,192,85094,1,0,0:0:0:60:kick.wav
182,192,85330,1,0,0:0:0:60:kick.wav
329,192,85565,1,0,0:0:0:60:kick.wav
475,192,85722,1,0,0:0:0:60:kick.wav
256,192,86037,1,0,0:0:0:60:bell.wav
109,192,86351,1,0,0:0:0:60:kick.wav
182,192,86665,1,0,0:0:0:60:kick.wav
256,192,86822,1,0,0:0:0:0:
329,192,86979,1,0,0:0:0:60:kick.wav
475,192,86979,1,0,0:0:0:60:crash.wav
109,192,87293,1,0,0:0:0:60:hihat.wav
329,192,87450,1,0,0:0:0:60:kick.wav
475,192,87450,1,0,0:0:0:60:crash.wav
109,192,87764,1,0,0:0:0:60:hihat.wav
329,192,87921,1,0,0:0:0:60:kick.wav
475,192,87921,1,0,0:0:0:60:crash.wav
109,192,88235,1,0,0:0:0:60:hihat.wav
329,192,88393,1,0,0:0:0:60:kick.wav
475,192,88393,1,0,0:0:0:60:crash.wav
109,192,88707,1,0,0:0:0:60:hihat.wav
329,192,88864,1,0,0:0:0:60:kick.wav
475,192,88864,1,0,0:0:0:60:crash.wav
182,192,89178,1,0,0:0:0:60:kick.wav
329,192,89492,128,0,89806:0:0:0:0:
402,192,89806,1,0,0:0:0:60:kick.wav
109,192,89963,1,0,0:0:0:60:snare.wav
402,192,90277,1,0,0:0:0:60:kick.wav
109,192,90434,1,0,0:0:0:60:snare.wav
256,192,90591,1,0,0:0:0:60:kick.wav
402,192,90749,128,0,91063:0:0:0:60:kick.wav
256,192,91063,128,0,91377:0:0:0:60:snare.wav
36,192,91377,1,0,0:0:0:60:kick.wav
402,192,91691,1,0,0:0:0:60:snare.wav
182,192,92005,1,0,0:0:0:60:kick.wav
36,192,92476,1,0,0:0:0:60:kick.wav
329,192,92633,1,0,0:0:0:0:
182,192,92790,1,0,0:0:0:60:snare.wav
475,192,92948,1,0,0:0:0:60:snare.wav
256,192,93262,1,0,0:0:0:60:kick.wav
36,192,93733,1,0,0:0:0:60:kick.wav
329,192,93890,1,0,0:0:0:0:
182,192,94047,1,0,0:0:0:60:snare.wav
475,192,94204,1,0,0:0:0:60:snare.wav
256,192,94518,1,0,0:0:0:60:kick.wav
475,192,94832,128,0,95146:0:0:0:60:kick.wav
329,192,95146,1,0,0:0:0:60:kick.wav
36,192,95304,1,0,0:0:0:60:kick.wav
109,192,95461,1,0,0:0:0:60:kick.wav
182,192,95618,1,0,0:0:0:60:kick.wav
475,192,95775,128,0,96089:0:0:0:60:kick.wav
256,192,96089,128,0,96403:0:0:0:60:kick.wav
36,192,96403,128,0,96717:0:0:0:60:kick.wav
402,192,96717,1,0,0:0:0:60:clap.wav
256,192,96874,1,0,0:0:0:60:kick.wav
36,192,97031,1,0,0:0:0:60:kick.wav
109,192,97031,1,0,0:0:0:60:crash.wav
402,192,97345,1,0,0:0:0:60:snare.wav
36,192,97502,1,0,0:0:0:60:kick.wav
109,192,97502,1,0,0:0:0:60:crash.wav
402,192,97817,1,0,0:0:0:60:snare.wav
36,192,97974,1,0,0:0:0:60:kick.wav
109,192,97974,1,0,0:0:0:60:crash.wav
402,192,98288,1,0,0:0:0:60:snare.wav
36,192,98445,1,0,0:0:0:60:kick.wav
109,192,98445,1,0,0:0:0:60:crash.wav
402,192,98759,1,0,0:0:0:60:kick.wav
109,192,98916,128,0,99230:0:0:0:60:kick.wav
256,192,99230,128,0,99544:0:0:0:60:kick.wav
402,192,99544,128,0,99859:0:0:0:0:
182,192,99859,1,0,0:0:0:60:kick.wav
329,192,100016,1,0,0:0:0:60:snare.wav
109,192,100330,1,0,0:0:0:60:kick.wav
402,192,100487,128,0,100801:0:0:0:60:snare.wav
182,192,100801,1,0,0:0:0:60:kick.wav
329,192,101010,1,0,0:0:0:60:kick.wav
109,192,101220,1,0,0:0:0:60:kick.wav
402,192,101429,1,0,0:0:0:60:kick.wav
36,192,101639,1,0,0:0:0:60:kick.wav
475,192,101848,1,0,0:0:0:60:kick.wav
256,192,102057,128,0,102372:0:0:0:0:
36,192,102372,1,0,0:0:0:60:kick.wav
182,192,102529,1,0,0:0:0:0:
329,192,102686,1,0,0:0:0:60:kick.wav
402,192,102843,1,0,0:0:0:60:kick.wav
109,192,103000,1,0,0:0:0:60:snare.wav
475,192,103314,1,0,0:0:0:60:kick.wav
329,192,103785,1,0,0:0:0:0:
182,192,103942,1,0,0:0:0:60:kick.wav
36,192,104099,1,0,0:0:0:60:kick.wav
402,192,104256,128,0,104571:0:0:0:60:snare.wav
109,192,104571,128,0,105513:0:0:0:60:kick.wav
256,192,105670,1,0,0:0:0:60:kick.wav
402,192,105827,128,0,106455:0:0:0:60:kick.wav
36,192,106455,1,0,0:0:0:60:drum.wav
109,192,106770,1,0,0:0:0:60:kick.wav
256,192,106927,1,0,0:0:0:0:
402,192,107084,1,0,0:0:0:60:kick.wav
475,192,107084,1,0,0:0:0:60:crash.wav
109,192,107398,1,0,0:0:0:60:snare.wav
402,192,107555,1,0,0:0:0:60:kick.wav
475,192,107555,1,0,0:0:0:60:crash.wav
109,192,107869,1,0,0:0:0:60:snare.wav
402,192,108026,1,0,0:0:0:60:kick.wav
475,192,108026,1,0,0:0:0:60:crash.wav
109,192,108340,1,0,0:0:0:60:snare.wav
402,192,108497,1,0,0:0:0:60:kick.wav
475,192,108497,1,0,0:0:0:60:crash.wav
109,192,108811,1,0,0:0:0:60:kick.wav
402,192,108968,1,0,0:0:0:60:kick.wav
109,192,109283,1,0,0:0:0:60:drum.wav
402,192,109597,128,0,109911:0:0:0:0:
36,192,109911,1,0,0:0:0:60:kick.wav
109,192,110068,128,0,110382:0:0:0:60:kick.wav
402,192,110382,1,0,0:0:0:60:kick.wav
256,192,110539,128,0,110853:0:0:0:60:snare.wav
36,192,110853,1,0,0:0:0:60:kick.wav
182,192,111167,1,0,0:0:0:60:snare.wav
329,192,111482,1,0,0:0:0:60:kick.wav
475,192,111796,1,0,0:0:0:60:snare.wav
182,192,112110,1,0,0:0:0:60:kick.wav
475,192,112581,1,0,0:0:0:0:
182,192,112738,1,0,0:0:0:60:kick.wav
329,192,112895,1,0,0:0:0:60:bell.wav
36,192,113052,1,0,0:0:0:60:snare.wav
256,192,113366,1,0,0:0:0:60:kick.wav
475,192,113838,1,0,0:0:0:0:
182,192,113995,1,0,0:0:0:60:kick.wav
329,192,114152,1,0,0:0:0:60:bell.wav
36,192,114309,1,0,0:0:0:60:snare.wav
256,192,114623,1,0,0:0:0:60:kick.wav
475,192,114937,128,0,115251:0:0:0:60:kick.wav
329,192,115251,1,0,0:0:0:60:kick.wav
36,192,115408,1,0,0:0:0:60:kick.wav
109,192,115565,1,0,0:0:0:60:kick.wav
182,192,115722,1,0,0:0:0:60:kick.wav
475,192,115879,128,0,116194:0:0:0:60:kick.wav
256,192,116194,128,0,116508:0:0:0:60:kick.wav
36,192,116508,128,0,116822:0:0:0:60:drum.wav
182,192,116822,1,0,0:0:0:60:clap.wav
256,192,116979,1,0,0:0:0:0:
329,192,117136,1,0,0:0:0:60:kick.wav
475,192,117136,1,0,0:0:0:60:crash.wav
182,192,117450,1,0,0:0:0:60:kick.wav
329,192,117607,1,0,0:0:0:60:kick.wav
475,192,117607,1,0,0:0:0:60:crash.wav
182,192,117921,1,0,0:0:0:60:kick.wav
329,192,118078,1,0,0:0:0:60:kick.wav
475,192,118078,1,0,0:0:0:60:crash.wav
182,192,118393,1,0,0:0:0:60:kick.wav
329,192,118550,1,0,0:0:0:60:kick.wav
475,192,118550,1,0,0:0:0:60:crash.wav
182,192,118864,1,0,0:0:0:60:kick.wav
475,192,119021,128,0,119335:0:0:0:60:kick.wav
256,192,119335,128,0,119649:0:0:0:0:
36,192,119649,128,0,119963:0:0:0:0:
109,192,119963,1,0,0:0:0:60:kick.wav
402,192,120120,128,0,120434:0:0:0:60:snare.wav
182,192,120434,128,0,120906:0:0:0:60:kick.wav
329,192,120906,1,0,0:0:0:60:kick.wav
182,192,121115,1,0,0:0:0:60:kick.wav
402,192,121324,1,0,0:0:0:60:kick.wav
109,192,121534,1,0,0:0:0:60:kick.wav
475,192,121743,1,0,0:0:0:60:kick.wav
36,192,121953,1,0,0:0:0:60:kick.wav
256,192,122162,128,0,122476:0:0:0:60:kick.wav
475,192,122476,1,0,0:0:0:60:kick.wav
329,192,122633,1,0,0:0:0:60:kick.wav
182,192,122790,1,0,0:0:0:60:kick.wav
402,192,122948,1,0,0:0:0:60:kick.wav
109,192,123105,1,0,0:0:0:60:snare.wav
475,192,123419,1,0,0:0:0:60:kick.wav
182,192,123890,1,0,0:0:0:60:kick.wav
329,192,124047,1,0,0:0:0:60:kick.wav
109,192,124204,1,0,0:0:0:60:kick.wav
256,192,124361,128,0,124675:0:0:0:60:snare.wav
402,192,124675,128,0,125618:0:0:0:60:kick.wav
109,192,124989,1,0,0:0:0:60:kick.wav
182,192,125304,1,0,0:0:0:60:kick.wav
256,192,125618,1,0,0:0:0:60:snare.wav
182,192,125932,1,0,0:0:0:60:kick.wav
475,192,125932,128,0,126560:0:0:0:0:
329,192,126560,128,0,126874:0:0:0:60:drum.wav
182,192,126874,128,0,127188:0:0:0:60:clap.wav
36,192,127188,128,0,130016:0:0:0:60:kick.wav
475,192,127188,1,0,0:0:0:60:crash.wav
402,192,127817,1,0,0:0:0:60:snare.wav
182,192,128288,1,0,0:0:0:60:kick.wav
182,192,128759,1,0,0:0:0:60:kick.wav
475,192,129073,1,0,0:0:0:60:snare.wav
182,192,129230,1,0,0:0:0:60:kick.wav
402,192,129544,1,0,0:0:0:60:snare.wav
329,192,129859,1,0,0:0:0:60:kick.wav
256,192,130016,128,0,130330:0:0:0:60:snare.wav
475,192,130330,1,0,0:0:0:60:kick.wav
182,192,130644,1,0,0:0:0:60:kick.wav
329,192,130958,1,0,0:0:0:60:kick.wav
36,192,131272,1,0,0:0:0:60:kick.wav
329,192,131508,1,0,0:0:0:60:kick.wav
182,192,131743,1,0,0:0:0:60:kick.wav
475,192,131979,1,0,0:0:0:60:kick.wav
256,192,132214,1,0,0:0:0:60:kick.wav
36,192,132450,1,0,0:0:0:60:kick.wav
109,192,132686,1,0,0:0:0:60:kick.wav
256,192,132843,1,0,0:0:0:60:kick.wav
402,192,133000,1,0,0:0:0:60:kick.wav
182,192,133157,128,0,133471:0:0:0:60:drum.wav
329,192,133471,128,0,133785:0:0:0:60:kick.wav
109,192,134099,128,0,138811:0:0:0:60:kick.wav
402,192,134099,128,0,138811:0:0:0:60:crash.wav
