osu file format v14

[General]
AudioFilename: audio.mp3
AudioLeadIn: 0
PreviewTime: 194527
Countdown: 0
SampleSet: Soft
StackLeniency: 0.7
Mode: 0
LetterboxInBreaks: 0
WidescreenStoryboard: 1

[Editor]
Bookmarks: 1147,19733,38611,47977,57343,68904,106503,125234,134600,143966,150844,155527,159185,160356,169722,174405,183771,195332,202356,235283,237624
DistanceSpacing: 1
BeatDivisor: 4
GridSize: 32
TimelineZoom: 3

[Metadata]
Title:Sen'yo
TitleUnicode:閃耀
Artist:Feryquitous x KAFU
ArtistUnicode:Feryquitous × 可不
Creator:Ryuusei Aika
Version:frozz's Hard
Source:
Tags:frozz Esutarosa Kudou Chitose -Hitomi L1gHT_u Light_u Senyo Sen-yo Senyou Sen'you Sen-you Senyō Sen'yō Sen-yō Japanese Rock J-Rock JRock Vocalsynth 音楽的同位体 Kaf-u -Keqing Artificial Singing Synthesizer CeVIO AI kamitsubaki studio 神椿スタジオ
BeatmapID:3781976
BeatmapSetID:1832561

[Difficulty]
HPDrainRate:4.5
CircleSize:3.5
OverallDifficulty:6
ApproachRate:8
SliderMultiplier:1.4
SliderTickRate:1

[Events]
//Background and Video events
0,0,"bg.jpg",0,0
//Break Periods
2,1786,3763
2,6469,8300
2,11152,12983
2,15835,18544
2,38811,46788
2,125434,132679
2,134800,143216
2,158214,159313
2,162898,164289
2,195532,201606
2,238263,240240
2,242946,244777
2,247629,249460
2,252312,255167
//Storyboard Layer 0 (Background)
//Storyboard Layer 1 (Fail)
//Storyboard Layer 2 (Pass)
//Storyboard Layer 3 (Foreground)
//Storyboard Layer 4 (Overlay)
//Storyboard Sound Samples

[TimingPoints]
-3535,292.682926829268,4,2,1,60,1,0
1001,-100,4,2,1,35,0,0
1147,-142.857142857143,4,2,1,40,0,0
9635,-111.111111111111,4,2,1,40,0,0
10513,-125,4,2,1,40,0,0
19294,-125,4,2,1,50,0,0
19733,-100,4,2,1,60,0,0
38611,-100,4,2,1,40,0,0
47538,-125,4,2,1,40,0,0
47977,-125,4,2,1,50,0,0
57343,-125,4,2,1,60,0,0
68318,-125,4,2,1,40,0,0
68904,-90.9090909090909,4,2,1,70,0,0
106503,292.682926829268,4,2,1,40,1,0
106503,-125,4,2,1,40,0,0
124649,-125,4,2,1,50,0,0
133429,-125,4,2,1,50,0,0
143966,-100,4,2,1,60,0,0
153332,-100,4,2,1,65,0,0
153917,-100,4,2,1,70,0,0
154502,-100,4,2,1,65,0,0
155234,-100,4,2,1,60,0,0
155527,-138.888888888889,4,2,2,55,0,0
155600,-138.888888888889,4,2,1,45,0,0
169722,-125,4,2,1,50,0,0
174405,-100,4,2,1,60,0,0
194893,-125,4,2,1,60,0,0
195332,-125,4,2,2,40,0,0
200893,-125,4,2,1,40,0,0
202356,-90.9090909090909,4,2,1,80,0,0
204990,-90.9090909090909,4,2,1,75,0,0
232942,-100,4,2,1,75,0,0
235283,-131.578947368421,4,2,1,75,0,0
237624,-142.857142857143,4,2,1,40,0,0
246112,-111.111111111111,4,2,1,40,0,0
246990,-125,4,2,1,40,0,0
256356,-222.222222222222,4,2,2,50,0,0
256374,-222.222222222222,4,2,1,50,0,0
256649,-222.222222222222,4,2,2,45,0,0
256942,-222.222222222222,4,2,1,40,0,0
257234,-222.222222222222,4,2,2,35,0,0
257527,-222.222222222222,4,2,1,30,0,0
257820,-222.222222222222,4,2,2,25,0,0
258112,-222.222222222222,4,2,1,20,0,0
258405,-222.222222222222,4,2,2,15,0,0
258698,-222.222222222222,4,2,1,10,0,0

[Colours]
Combo1 : 149,244,255
Combo2 : 202,149,255
Combo3 : 149,152,255

[HitObjects]
465,347,1147,6,0,L|273:330,1,146.999995513916,4|4,1:0|1:2,0:0:0:0:
465,339,4513,6,0,P|386:329|374:252,2,146.999995513916,8|2|4,3:0|3:0|3:0,0:0:0:0:
505,270,5538,1,2,3:0:0:0:
421,165,5830,6,0,P|334:183|255:196,1,146.999995513916,4|4,1:0|1:2,0:0:0:0:
420,156,9050,5,8,3:0:0:0:
349,286,9343,1,8,3:0:0:0:
349,286,9489,1,8,3:0:0:0:
274,322,9635,2,0,P|236:304|205:271,1,62.9999980773926,2|2,3:0|3:0,0:0:0:0:
141,300,9928,2,0,P|117:265|106:221,1,62.9999980773926,4|4,3:0|3:0,0:0:0:0:
36,214,10221,2,0,P|32:172|45:128,1,62.9999980773926,4|4,3:0|3:0,0:0:0:0:
104,102,10513,6,0,P|186:115|312:140,1,168,4|4,1:0|1:2,0:0:0:0:
100,94,13733,6,0,L|116:156,2,56,8|2|4,3:0|3:0|3:0,0:0:0:0:
240,37,14318,1,8,3:0:0:0:
240,37,14464,2,0,P|224:85|213:139,1,56,8|2,3:0|3:0,0:0:0:0:
258,171,14757,2,0,P|306:187|360:198,1,56,4|2,3:0|3:2,0:0:0:0:
385,141,15050,1,10,3:2:0:0:
439,220,15196,6,0,P|410:293|379:402,1,168,4|4,1:0|1:2,0:0:0:0:
432,210,19294,5,8,3:0:0:0:
457,293,19440,1,2,3:0:0:0:
289,337,19733,6,0,B|204:319|241:392|92:351,1,140,4|0,1:0|1:0,0:0:0:0:
67,364,20172,2,0,P|86:307|99:278,1,70,8|2,0:0|0:0,0:0:0:0:
30,227,20464,2,0,P|63:215|97:205,1,70,2|0,1:2|1:0,0:0:0:0:
157,131,20757,1,8,0:0:0:0:
70,92,20904,6,0,P|94:18|169:12,1,140,4|0,1:0|1:0,0:0:0:0:
228,53,21343,2,0,P|297:42|321:34,1,70,8|2,0:0|0:0,0:0:0:0:
382,88,21635,1,2,1:2:0:0:
382,88,21782,1,0,1:0:0:0:
449,28,21928,1,8,0:0:0:0:
501,104,22074,6,0,P|469:183|451:252,1,140,4|0,1:0|1:0,0:0:0:0:
377,289,22513,1,8,0:0:0:0:
443,347,22660,2,0,L|486:331,2,35,4|4|2,3:0|3:0|1:2,0:0:0:0:
357,383,22952,2,0,L|288:370,1,70,0|8,1:0|0:0,0:0:0:0:
193,367,23245,6,0,P|255:335|257:261,1,140,4|0,1:0|1:0,0:0:0:0:
258,173,23684,2,0,P|208:193|173:203,1,70,8|0,0:0|0:0,0:0:0:0:
128,141,23977,2,0,P|148:91|158:56,1,70,0|0,1:0|1:0,0:0:0:0:
75,17,24269,1,8,0:0:0:0:
9,89,24416,6,0,L|53:246,1,140,4|0,1:0|1:0,0:0:0:0:
21,320,24855,2,0,P|54:267|135:274,1,140,8|2,0:0|1:2,0:0:0:0:
177,336,25294,2,0,P|211:288|208:261,1,70,0|8,1:0|0:0,0:0:0:0:
180,185,25586,6,0,P|252:207|327:218,1,140,4|0,1:2|1:0,0:0:0:0:
388,260,26025,2,0,P|369:312|351:350,1,70,8|0,0:0|0:0,0:0:0:0:
440,384,26318,1,0,1:0:0:0:
440,384,26464,1,0,1:0:0:0:
512,333,26611,1,8,0:0:0:0:
477,241,26757,6,0,L|502:98,1,140,4|0,1:0|1:0,0:0:0:0:
512,18,27196,1,8,0:0:0:0:
420,42,27343,6,0,P|358:52|296:60,1,105,4|0,1:0|0:0,0:0:0:0:
301,41,27635,2,0,L|311:-3,2,35,0|0|8,1:0|0:0|0:0,0:0:0:0:
222,98,27928,6,0,P|244:154|273:241,1,140,4|0,1:0|1:0,0:0:0:0:
302,311,28367,1,8,0:0:0:0:
223,359,28513,6,0,B|158:338|158:338|70:330,2,140,6|6|6,1:2|1:2|1:2,0:0:0:0:
406,339,29391,5,0,1:0:0:0:
406,339,29464,1,0,1:0:0:0:
406,339,29538,2,0,P|462:293|450:218,1,140,12|0,0:0|1:0,0:0:0:0:
448,143,29977,2,0,P|406:155|374:187,1,70,0|8,1:0|0:0,0:0:0:0:
315,240,30269,6,0,P|327:174|336:88,1,140,4|0,1:0|1:0,0:0:0:0:
263,48,30708,2,0,P|209:66|180:74,1,70,8|2,0:0|0:0,0:0:0:0:
121,30,31001,1,0,1:0:0:0:
121,30,31147,1,0,1:0:0:0:
59,98,31294,1,8,0:0:0:0:
8,31,31440,6,0,L|-5:181,1,140,4|0,1:2|1:0,0:0:0:0:
75,205,31879,2,0,P|114:186|138:157,1,70,8|4,0:0|3:0,0:0:0:0:
207,210,32172,2,0,P|203:253|217:288,1,70,0|0,1:0|1:0,0:0:0:0:
147,339,32464,1,8,0:0:0:0:
231,384,32611,6,0,P|302:357|386:337,1,140,4|0,1:0|1:0,0:0:0:0:
451,343,33050,2,0,P|466:285|478:258,1,70,12|2,0:0|0:0,0:0:0:0:
425,200,33343,1,0,1:0:0:0:
425,200,33489,1,0,1:0:0:0:
482,131,33635,1,8,0:0:0:0:
409,80,33782,6,0,P|330:104|259:126,1,140,4|0,1:0|1:0,0:0:0:0:
199,74,34221,2,0,P|186:134|178:170,1,70,8|2,0:0|0:0,0:0:0:0:
242,208,34513,2,0,P|302:221|338:229,1,70,0|0,1:0|1:0,0:0:0:0:
341,311,34806,1,8,0:0:0:0:
258,350,34952,6,0,P|181:364|123:308,1,140,4|0,1:0|1:0,0:0:0:0:
139,244,35391,1,8,0:0:0:0:
16,172,35684,2,0,P|5:108|-2:81,1,70,0|0,1:0|1:0,0:0:0:0:
57,24,35977,1,8,0:0:0:0:
134,74,36123,6,0,P|223:59|260:50,1,105,4|4,1:0|3:0,0:0:0:0:
247,73,36416,2,0,L|235:126,2,35,4|0|8,3:0|0:0|0:0,0:0:0:0:
326,23,36708,2,0,P|371:10|413:0,2,70,8|8|4,0:0|3:0|3:0,0:0:0:0:
350,108,37147,1,2,3:0:0:0:
442,120,37294,6,0,P|423:183|402:274,1,140,4|0,1:0|1:0,0:0:0:0:
330,303,37733,2,0,P|308:239|296:213,1,70,8|2,0:0|0:0,0:0:0:0:
227,193,38025,1,2,1:2:0:0:
183,269,38172,2,0,B|214:200|162:161|161:183|111:138|147:72,1,210,0|4,1:0|1:0,0:0:0:0:
37,264,47538,6,0,P|87:274|165:302,1,112,4|4,1:0|1:0,0:0:0:0:
292,372,48123,1,0,1:2:0:0:
292,372,48196,1,0,1:2:0:0:
292,372,48269,2,0,P|343:351|367:287,1,112,12|0,0:0|1:0,0:0:0:0:
328,226,48708,2,0,P|313:180|304:148,1,56,0|8,1:0|0:0,0:0:0:0:
318,86,49001,2,0,P|374:106|442:118,1,112,2|0,1:2|1:0,0:0:0:0:
497,157,49440,1,12,0:0:0:0:
512,4,49733,2,0,P|472:20|436:29,1,56,0|0,1:0|1:0,0:0:0:0:
380,3,50025,1,8,0:0:0:0:
222,81,50318,6,0,P|203:33|190:10,2,56,0|0|8,1:0|1:0|0:0,0:0:0:0:
182,160,50757,2,0,P|168:208|164:229,1,56,8|0,3:0|1:0,0:0:0:0:
219,287,51050,1,0,1:0:0:0:
219,287,51196,1,8,0:0:0:0:
146,344,51343,2,0,P|81:325|21:318,1,112,0|0,1:0|1:0,0:0:0:0:
11,238,51782,1,8,0:0:0:0:
82,98,52074,2,0,P|69:55|57:27,2,56,0|0|8,1:0|1:0|0:0,0:0:0:0:
154,148,52513,1,0,1:0:0:0:
154,148,52660,6,0,P|196:135|222:59,2,112,2|8|0,1:2|0:0|1:0,0:0:0:0:
99,217,53391,1,0,1:0:0:0:
159,282,53538,1,8,0:0:0:0:
159,282,53684,6,0,P|219:270|291:256,1,112,2|0,1:2|1:0,0:0:0:0:
347,303,54123,2,0,P|320:264|336:194,1,112,12|0,0:0|1:0,0:0:0:0:
410,171,54562,1,0,1:0:0:0:
392,84,54708,1,8,0:0:0:0:
392,84,54855,1,0,1:0:0:0:
474,56,55001,6,0,L|489:-5,2,56,2|8|8,0:0|3:0|3:0,0:0:0:0:
392,84,55440,1,0,0:0:0:0:
392,84,55586,2,0,L|327:75,1,56,4|4,3:0|3:0,0:0:0:0:
272,22,55879,1,2,3:0:0:0:
272,22,56025,6,0,P|301:48|309:135,1,112,4|2,1:0|1:2,0:0:0:0:
242,154,56464,2,0,P|198:143|175:140,1,56,2|10,3:2|0:2,0:0:0:0:
110,169,56757,2,0,P|78:218|93:283,1,112,2|10,1:2|0:2,0:0:0:0:
62,347,57196,1,10,0:2:0:0:
143,372,57343,6,0,P|199:356|266:342,1,112,4|8,1:0|0:0,0:0:0:0:
334,285,57782,2,0,P|279:273|225:257,2,112,0|2|2,1:0|0:0|0:0,0:0:0:0:
431,355,58660,1,8,0:0:0:0:
494,258,58952,1,2,0:0:0:0:
494,258,59099,2,0,L|515:135,1,112,8|2,0:0|0:0,0:0:0:0:
443,88,59538,1,8,0:0:0:0:
372,34,59684,6,0,P|349:65|256:77,1,112,4|8,1:0|0:0,0:0:0:0:
200,60,60123,2,0,P|220:104|244:175,1,112,12|0,1:2|1:0,0:0:0:0:
350,249,60708,2,0,P|330:293|306:364,1,112,4|8,1:0|0:0,0:0:0:0:
182,296,61294,1,4,1:0:0:0:
69,364,61586,1,4,1:0:0:0:
69,364,61733,2,0,P|58:313|50:288,1,56,2|10,0:0|0:0,0:0:0:0:
13,236,62025,6,0,P|24:190|42:117,1,112,4|8,1:0|0:0,0:0:0:0:
8,46,62464,2,0,P|46:10|108:24,1,112,4|2,1:0|0:0,0:0:0:0:
154,95,62904,1,8,0:0:0:0:
154,95,63050,2,0,P|205:82|269:77,2,112,4|8|2,3:0|0:0|0:0,0:0:0:0:
231,210,63928,1,8,0:0:0:0:
231,210,64074,1,8,0:0:0:0:
309,234,64221,6,0,B|379:201|390:252|403:287|478:261,1,168,4|2,1:0|1:2,0:0:0:0:
491,118,64952,2,0,P|422:136|365:148,1,112,8|8,0:0|0:0,0:0:0:0:
296,142,65391,6,0,P|265:111|281:44,1,112,4|0,1:0|1:0,0:0:0:0:
192,29,65830,1,2,1:2:0:0:
192,29,65977,2,0,P|117:12|68:7,1,112,2|2,0:0|3:2,0:0:0:0:
19,70,66416,1,8,0:0:0:0:
19,70,66562,6,0,P|44:128|84:237,1,168,4|2,1:0|3:2,0:0:0:0:
54,312,67147,2,0,P|81:265|195:263,1,168,2|10,3:2|0:2,0:0:0:0:
223,337,67733,1,4,1:0:0:0:
223,337,68904,6,0,P|315:333|335:249,1,154.000004699707,4|2,1:0|1:2,0:0:0:0:
280,218,69343,2,0,P|267:172|254:131,1,77.0000023498536,10|0,0:0|0:0,0:0:0:0:
283,60,69635,2,0,P|329:47|370:34,1,77.0000023498536,0|0,1:0|1:0,0:0:0:0:
427,82,69928,1,8,0:0:0:0:
502,37,70074,6,0,P|484:92|463:193,1,154.000004699707,4|0,1:0|1:0,0:0:0:0:
393,252,70513,1,8,0:0:0:0:
393,252,70660,2,0,P|415:294|436:342,1,77.0000023498536,2|0,0:0|1:0,0:0:0:0:
358,384,70952,2,0,P|316:362|268:341,1,77.0000023498536,2|8,1:2|0:0,0:0:0:0:
214,300,71245,1,4,1:0:0:0:
152,368,71391,6,0,P|127:325|119:285,1,77.0000023498536,2|0,0:0|1:0,0:0:0:0:
172,220,71684,2,0,P|208:209|241:188,1,77.0000023498536,10|8,0:0|3:0,0:0:0:0:
202,108,71977,2,0,P|165:118|132:139,2,77.0000023498536,0|2|8,1:0|1:2|0:0,0:0:0:0:
207,21,72416,6,0,P|271:38|367:52,1,154.000004699707,4|0,1:0|1:0,0:0:0:0:
413,132,72855,1,8,0:0:0:0:
413,132,73001,2,0,P|391:184|373:236,1,77.0000023498536,2|0,0:0|1:0,0:0:0:0:
318,269,73294,1,0,1:0:0:0:
318,269,73440,1,8,0:0:0:0:
368,347,73586,6,0,P|410:355|475:274,1,154.000004699707,4|0,1:0|1:0,0:0:0:0:
455,192,74025,1,8,0:0:0:0:
511,115,74172,1,2,0:0:0:0:
511,115,74318,2,0,P|456:101|414:84,2,77.0000023498536,0|0|8,1:0|1:0|0:0,0:0:0:0:
490,19,74757,6,0,P|429:2|357:77,1,154.000004699707,4|0,1:2|1:0,0:0:0:0:
275,78,75196,1,8,0:0:0:0:
275,78,75343,2,0,P|299:138|310:185,1,77.0000023498536,2|0,0:0|1:0,0:0:0:0:
263,233,75635,2,0,P|274:269|290:304,1,77.0000023498536,0|8,1:0|0:0,0:0:0:0:
343,384,75928,6,0,P|312:327|206:338,1,154.000004699707,4|0,1:0|1:0,0:0:0:0:
160,372,76367,1,8,0:0:0:0:
100,303,76513,6,0,P|116:251|139:146,1,154.000004699707,4|0,1:0|1:0,0:0:0:0:
206,98,76952,1,8,0:0:0:0:
157,22,77099,6,0,P|63:45|37:118,1,154.000004699707,4|0,1:0|1:0,0:0:0:0:
59,177,77538,1,8,0:0:0:0:
0,249,77684,6,0,B|70:264|70:264|75:270|75:270|165:290,2,154.000004699707,6|6|4,1:2|1:2|1:0,0:0:0:0:
142,383,78562,5,0,1:0:0:0:
142,383,78635,1,0,1:0:0:0:
142,383,78708,2,0,P|215:354|296:331,1,154.000004699707,12|0,0:0|1:0,0:0:0:0:
339,266,79147,1,0,1:0:0:0:
406,322,79294,1,8,0:0:0:0:
480,283,79440,6,0,P|489:240|502:188,1,77.0000023498536,4|0,1:0|0:0,0:0:0:0:
423,155,79733,2,0,P|380:164|328:177,1,77.0000023498536,0|8,1:0|0:0,0:0:0:0:
276,113,80025,2,0,P|288:56|294:22,1,77.0000023498536,2|0,0:0|1:0,0:0:0:0:
205,21,80318,2,0,P|193:78|187:112,1,77.0000023498536,0|8,1:0|0:0,0:0:0:0:
215,182,80611,1,4,1:0:0:0:
137,241,80757,6,0,P|81:258|36:274,2,77.0000023498536,2|0|8,0:0|1:0|0:0,0:0:0:0:
199,313,81196,2,0,L|180:364,2,38.5000011749268,8|8|8,0:3|0:3|0:3,0:0:0:0:
287,289,81489,1,0,1:0:0:0:
287,289,81635,1,8,0:0:0:0:
350,358,81782,6,0,P|422:343|448:249,1,154.000004699707,4|0,1:2|1:0,0:0:0:0:
387,210,82221,2,0,P|398:154|404:123,1,77.0000023498536,8|2,0:0|0:0,0:0:0:0:
427,43,82513,2,0,P|414:95|299:107,1,154.000004699707,0|8,1:0|0:0,0:0:0:0:
261,58,82952,6,0,B|230:94|230:94|253:217,1,154.000004699707,4|0,1:0|1:0,0:0:0:0:
273,288,83391,1,8,0:0:0:0:
211,358,83538,1,2,0:0:0:0:
211,358,83684,2,0,P|164:349|122:344,1,77.0000023498536,2|0,1:2|1:0,0:0:0:0:
52,371,83977,1,8,0:0:0:0:
19,289,84123,6,0,P|44:225|69:142,1,154.000004699707,4|0,1:0|1:0,0:0:0:0:
52,52,84562,1,8,0:0:0:0:
52,52,84708,2,0,P|104:60|143:64,1,77.0000023498536,0|0,0:0|1:0,0:0:0:0:
205,109,85001,1,0,1:0:0:0:
262,39,85147,1,8,0:0:0:0:
340,91,85294,6,0,P|325:149|312:255,1,154.000004699707,4|2,1:0|1:2,0:0:0:0:
366,318,85733,2,0,P|431:331|460:341,2,77.0000023498536,8|2|8,0:0|3:0|3:0,0:0:0:0:
295,383,86172,1,0,1:0:0:0:
295,383,86318,1,8,0:0:0:0:
220,312,86464,6,0,B|139:329|171:357|68:373,1,154.000004699707,4|0,1:2|1:0,0:0:0:0:
24,298,86904,2,0,P|1:264|10:211,1,77.0000023498536,8|8,0:0|3:0,0:0:0:0:
52,160,87196,1,0,1:0:0:0:
132,205,87343,1,0,1:0:0:0:
239,75,87635,6,0,P|340:61|425:47,1,154.000004699707,4|0,1:0|1:0,0:0:0:0:
492,44,88074,2,0,P|470:101|459:135,1,77.0000023498536,8|2,0:0|0:0,0:0:0:0:
379,153,88367,2,0,P|401:210|412:244,1,77.0000023498536,0|0,1:0|1:0,0:0:0:0:
468,296,88660,1,8,0:0:0:0:
405,366,88806,6,0,P|342:363|295:270,1,154.000004699707,4|0,1:0|1:0,0:0:0:0:
228,217,89245,2,0,P|210:268|190:312,1,77.0000023498536,8|2,0:0|0:0,0:0:0:0:
205,384,89538,1,0,1:2:0:0:
205,384,89684,1,0,1:2:0:0:
110,361,89830,1,8,0:0:0:0:
110,259,89977,6,0,P|98:190|79:92,1,154.000004699707,4|0,1:0|1:0,0:0:0:0:
146,37,90416,1,8,0:0:0:0:
219,98,90562,1,2,0:3:0:0:
219,98,90635,1,2,0:3:0:0:
219,98,90708,2,0,P|270:88|301:80,1,77.0000023498536,2|0,0:3|1:0,0:0:0:0:
338,10,91001,1,8,0:0:0:0:
427,50,91147,5,4,1:0:0:0:
427,50,91294,2,0,P|413:120|408:147,1,77.0000023498536,2|0,0:0|1:0,0:0:0:0:
341,191,91586,2,0,P|271:177|244:172,1,77.0000023498536,8|2,0:0|0:0,0:0:0:0:
187,222,91879,2,0,P|201:292|206:319,1,77.0000023498536,0|0,1:0|1:0,0:0:0:0:
253,374,92172,1,8,0:0:0:0:
324,315,92318,6,0,P|380:328|486:352,1,154.000004699707,4|0,1:0|1:0,0:0:0:0:
512,273,92757,1,8,0:0:0:0:
446,206,92904,1,2,0:0:0:0:
512,143,93050,2,0,P|456:126|426:118,1,77.0000023498536,0|0,1:0|1:0,0:0:0:0:
361,162,93343,1,8,0:0:0:0:
308,90,93489,6,0,P|231:111|147:126,1,154.000004699707,4|0,1:0|1:0,0:0:0:0:
95,63,93928,1,8,0:0:0:0:
95,63,94074,2,0,P|72:112|50:150,1,77.0000023498536,2|0,0:0|1:0,0:0:0:0:
111,209,94367,1,0,1:0:0:0:
111,209,94513,1,8,0:0:0:0:
62,289,94660,6,0,P|106:255|208:285,1,154.000004699707,4|0,1:2|1:0,0:0:0:0:
221,355,95099,1,8,0:0:0:0:
309,375,95245,6,0,B|342:345|342:345|325:221,1,154.000004699707,4|0,1:0|1:0,0:0:0:0:
247,190,95684,1,8,0:0:0:0:
286,108,95830,6,0,P|407:142|444:153,1,154.000004699707,4|0,1:0|1:0,0:0:0:0:
512,208,96269,1,8,0:0:0:0:
453,285,96416,6,0,B|372:307|415:325|298:354,2,154.000004699707,4|4|4,1:2|1:2|1:0,0:0:0:0:
271,269,97294,5,0,1:0:0:0:
271,269,97367,1,0,1:0:0:0:
271,269,97440,2,0,P|213:259|115:246,1,154.000004699707,12|0,0:0|1:0,0:0:0:0:
49,306,97879,2,0,P|27:247|9:212,1,77.0000023498536,0|8,1:0|0:0,0:0:0:0:
82,161,98172,6,0,P|23:84|55:14,1,154.000004699707,4|2,1:0|1:2,0:0:0:0:
125,8,98611,2,0,P|175:24|213:38,1,77.0000023498536,8|2,0:0|0:0,0:0:0:0:
276,99,98904,1,0,1:2:0:0:
276,99,99050,1,0,1:2:0:0:
329,11,99196,1,8,0:0:0:0:
416,53,99343,6,0,B|460:88|460:88|435:204,1,154.000004699707,4|0,1:0|1:0,0:0:0:0:
494,259,99782,1,8,0:0:0:0:
414,312,99928,1,2,0:3:0:0:
414,312,100001,1,2,0:3:0:0:
414,312,100074,2,0,P|373:298|320:287,1,77.0000023498536,2|0,0:3|1:0,0:0:0:0:
266,349,100367,1,8,0:0:0:0:
202,277,100513,6,0,P|218:203|237:93,1,154.000004699707,4|0,1:0|1:0,0:0:0:0:
248,36,100952,1,8,0:0:0:0:
158,30,101099,2,0,P|99:49|59:56,1,77.0000023498536,2|0,0:0|1:0,0:0:0:0:
23,126,101391,2,0,P|42:185|49:225,1,77.0000023498536,0|8,1:0|0:0,0:0:0:0:
0,277,101684,6,0,P|52:279|89:393,1,154.000004699707,4|0,1:0|1:0,0:0:0:0:
185,380,102123,1,8,0:0:0:0:
246,311,102269,1,2,0:0:0:0:
246,311,102416,2,0,P|233:260|221:227,1,77.0000023498536,0|0,1:0|1:0,0:0:0:0:
228,143,102708,1,8,0:0:0:0:
320,151,102855,6,0,P|342:230|382:326,1,154.000004699707,4|0,1:0|1:0,0:0:0:0:
446,367,103294,1,8,0:0:0:0:
446,367,103440,2,0,P|457:306|464:279,1,77.0000023498536,2|0,0:0|1:0,0:0:0:0:
499,211,103733,1,0,1:0:0:0:
430,146,103879,1,8,0:0:0:0:
501,83,104025,6,0,P|451:97|337:56,1,154.000004699707,4|0,1:2|1:0,0:0:0:0:
264,77,104464,2,0,P|248:26|245:-10,1,77.0000023498536,8|8,0:0|3:0,0:0:0:0:
158,30,104757,2,0,P|174:81|177:117,1,77.0000023498536,8|4,3:0|1:3,0:0:0:0:
107,160,105050,1,8,0:0:0:0:
188,210,105196,6,0,P|142:220|115:333,1,154.000004699707,4|2,1:0|0:0,0:0:0:0:
175,364,105635,2,0,P|226:347|273:341,1,77.0000023498536,2|2,0:0|3:2,0:0:0:0:
329,287,105928,2,0,P|356:315|375:348,2,51.3333348999024,8|4|4,3:0|3:0|3:0,0:0:0:0:
351,211,106221,2,0,P|389:215|425:228,2,51.3333348999024,2|4|4,3:0|3:0|3:0,0:0:0:0:
276,169,106503,6,0,B|326:184|387:148|384:107|362:74,1,168,4|4,1:0|1:2,0:0:0:0:
184,40,107381,2,0,B|150:79|150:79|185:192,1,168,2|2,0:0|0:0,0:0:0:0:
110,312,108259,2,0,P|164:324|219:338,1,112,2|0,0:0|0:0,0:0:0:0:
349,257,108844,6,0,B|439:250|402:302|514:290,2,168,2|0|2,3:2|0:0|0:0,0:0:0:0:
270,270,109868,2,0,P|245:225|271:154,1,112,8|0,3:0|0:0,0:0:0:0:
332,127,110307,1,2,3:0:0:0:
332,127,110454,2,0,P|383:138|410:146,1,56,2|2,0:0|0:0,0:0:0:0:
464,98,110746,2,0,P|475:47|483:20,2,56,4|2|2,3:0|3:2|3:2,0:0:0:0:
512,171,111185,6,0,B|493:236|493:236|495:245|495:245|465:346,1,168,4|4,1:0|1:2,0:0:0:0:
301,366,112063,2,0,P|217:375|170:315,1,168,0|2,0:0|0:0,0:0:0:0:
244,191,112942,2,0,P|303:179|361:166,1,112,0|2,0:0|0:0,0:0:0:0:
453,63,113527,6,0,P|384:51|322:43,1,112,2|2,3:2|0:0,0:0:0:0:
268,12,113966,1,2,0:0:0:0:
51,106,114405,1,8,3:0:0:0:
144,211,114698,1,8,3:0:0:0:
144,211,114844,1,8,3:0:0:0:
89,282,114990,2,0,P|108:328|120:353,1,56,2|2,3:0|3:0,0:0:0:0:
196,355,115283,2,0,P|242:336|267:324,1,56,4|4,3:0|3:0,0:0:0:0:
310,274,115576,2,0,P|356:293|381:305,1,56,4|4,3:0|3:0,0:0:0:0:
437,334,115868,6,0,P|376:273|400:193,1,168,4|4,1:0|1:2,0:0:0:0:
239,70,116746,2,0,B|200:107|200:107|235:225,1,168,2|6,0:0|0:0,0:0:0:0:
178,354,117624,2,0,P|128:340|58:326,1,112,0|2,0:0|0:0,0:0:0:0:
38,194,118210,6,0,P|25:131|-2:25,2,168,2|2|8,3:2|3:2|3:0,0:0:0:0:
108,257,119234,1,2,3:0:0:0:
108,257,119381,2,0,P|155:266|181:273,1,56,4|2,3:0|3:0,0:0:0:0:
217,338,119673,1,8,3:0:0:0:
217,338,119820,2,0,L|289:323,1,56,8|2,3:0|3:0,0:0:0:0:
354,312,120112,2,0,L|426:297,1,56,4|2,3:0|3:2,0:0:0:0:
459,224,120405,1,2,3:2:0:0:
394,159,120551,6,0,P|270:189|214:204,1,168,4|4,1:0|1:2,0:0:0:0:
101,34,121429,2,0,P|175:45|277:60,1,168,6|2,0:0|0:0,0:0:0:0:
447,70,122307,1,0,0:0:0:0:
499,142,122454,1,2,0:0:0:0:
499,142,122600,2,0,P|484:192|477:218,1,56,2|2,0:0|0:0,0:0:0:0:
409,241,122893,6,0,B|311:213|257:320|303:296|275:371|205:421|151:410|101:381|92:322|128:284|178:278,1,448,2|0,3:2|3:2,0:0:0:0:
409,241,124649,5,8,3:0:0:0:
378,326,124795,1,2,3:0:0:0:
446,376,124942,2,0,L|514:360,2,56,2|0|4,0:0|1:0|1:0,0:0:0:0:
211,208,133429,6,0,P|147:220|87:248,2,112,0|0|2,3:2|3:0|3:2,0:0:0:0:
273,145,134161,2,0,P|220:125|167:118,2,56,8|4|2,3:0|3:0|3:0,0:0:0:0:
293,230,134600,1,2,1:2:0:0:
512,112,143966,6,0,P|429:100|352:84,1,140,4|8,1:0|0:0,0:0:0:0:
311,146,144405,1,4,1:0:0:0:
393,289,144698,1,2,0:0:0:0:
234,384,144990,1,2,0:0:0:0:
157,353,145137,1,0,1:2:0:0:
157,352,145283,2,0,P|151:302|150:248,1,105,10|8,0:0|0:0,0:0:0:0:
249,186,145722,2,0,P|255:128|257:66,2,105,8|8|8,0:0|0:0|0:0,0:0:0:0:
310,242,146307,6,0,P|364:195|355:109,1,140,4|8,1:0|0:0,0:0:0:0:
332,54,146746,1,4,1:0:0:0:
175,127,147039,1,8,3:0:0:0:
175,127,147185,1,4,3:0:0:0:
102,78,147332,2,0,B|58:116|58:116|83:221,1,140,4|8,1:0|0:0,0:0:0:0:
32,264,147771,1,8,0:0:0:0:
97,318,147917,2,0,P|164:322|199:408,1,140,4|2,1:0|1:2,0:0:0:0:
283,376,148356,2,0,P|305:329|334:306,1,70,2|8,0:0|0:0,0:0:0:0:
358,237,148649,6,0,P|392:242|427:246,1,70,4|0,1:0|0:0,0:0:0:0:
427,246,148868,1,8,0:0:0:0:
427,246,148942,1,8,0:0:0:0:
511,210,149088,1,4,1:0:0:0:
476,124,149234,2,0,L|494:52,2,70,0|0|2,0:0|0:0|0:0,0:0:0:0:
401,159,149673,1,2,0:0:0:0:
352,87,149820,1,0,1:2:0:0:
352,87,149966,2,0,B|343:71|343:71|243:44,2,105,8|8|8,0:0|0:0|0:0,0:0:0:0:
276,146,150551,2,0,L|251:234,1,70,8|4,0:3|3:0,0:0:0:0:
323,272,150844,6,0,B|263:232|207:277|227:282|174:342|116:305,1,210,4|0,1:0|1:0,0:0:0:0:
9,202,151576,2,0,B|-11:188|-11:188|-1:99|92:130,1,140,8|2,0:0|0:0,0:0:0:0:
139,74,152015,6,0,P|124:138|110:213,1,140,4|2,1:0|1:2,0:0:0:0:
52,277,152454,1,2,1:2:0:0:
52,277,152600,1,2,0:0:0:0:
132,312,152746,2,0,L|113:395,2,70,8|2|0,0:0|0:0|0:0,0:0:0:0:
314,324,153332,6,0,P|371:321|420:292,2,93.3333333333333,4|8|8,1:0|0:0|0:0,0:0:0:0:
341,225,153917,2,0,P|388:193|416:144,2,93.3333333333333,4|8|8,1:0|0:0|0:0,0:0:0:0:
314,125,154502,2,0,P|339:74|339:17,2,93.3333333333333,4|8|8,1:0|0:0|0:0,0:0:0:0:
241,52,155088,1,4,1:0:0:0:
139,291,155527,6,0,B|74:226|74:226|-15:241|-15:241|24:161|24:161|-16:79|-16:79|75:93|75:93|139:29|139:29|151:116|151:116|233:160|233:160|154:201|154:201|147:243,1,856.800020917969,4|0,1:2|1:0,0:0:0:0:
147,242,160063,5,2,0:0:0:0:
254,300,160356,2,0,P|310:286|339:202,2,151.200003691406,2|0|0,3:0|0:0|3:0,0:0:0:0:
235,115,161820,2,0,B|177:104|139:159|169:151|160:203|131:238|83:251|38:243|8:211|25:151,1,302.400007382813,0|0,3:0|1:0,0:0:0:0:
22,314,165039,6,0,P|98:332|189:354,1,151.200003691406,0|0,1:0|0:0,0:0:0:0:
225,184,165917,2,0,P|149:166|58:144,2,151.200003691406,0|0|2,3:0|0:0|3:2,0:0:0:0:
395,73,167234,5,0,1:0:0:0:
395,73,167381,2,0,B|436:105|436:105|418:224,2,151.200003691406,0|2|2,3:0|1:2|3:2,0:0:0:0:
262,52,168551,2,0,L|273:95,3,25.2000006152344,2|2|2|2,3:2|0:2|0:2|0:2,0:0:0:0:
266,105,168844,2,0,L|277:148,3,25.2000006152344,2|2|2|2,3:2|0:2|0:2|0:2,0:0:0:0:
270,153,169137,1,2,3:2:0:0:
335,211,169283,2,0,P|326:254|323:272,2,50.4000012304688,2|8|4,0:0|3:0|3:0,0:0:0:0:
421,203,169722,6,0,P|404:283|388:379,1,168,4|0,1:0|3:0,0:0:0:0:
202,342,170600,2,0,P|215:259|233:177,2,168,0|0|0,3:0|3:0|3:0,0:0:0:0:
31,268,171771,1,0,3:0:0:0:
47,186,171917,1,4,1:0:0:0:
139,73,172210,6,0,L|131:23,2,28,0|8|8,1:0|0:0|0:0,0:0:0:0:
222,97,172502,1,8,0:0:0:0:
222,97,172649,2,0,P|269:83|291:65,2,56,8|0|8,0:0|1:0|0:0,0:0:0:0:
167,163,173088,6,0,P|234:176|288:210,1,112,4|0,1:0|1:0,0:0:0:0:
271,196,173454,1,0,1:0:0:0:
271,196,173527,2,0,P|256:252|252:272,1,56,8|8,0:0|0:0,0:0:0:0:
304,335,173820,1,8,1:2:0:0:
304,335,173966,1,8,1:2:0:0:
464,197,174405,6,0,P|382:213|341:286,2,140,4|8|0,1:0|0:0|1:0,0:0:0:0:
512,129,175137,1,0,1:0:0:0:
459,55,175283,1,8,0:0:0:0:
379,88,175429,1,0,1:0:0:0:
379,88,175576,6,0,P|331:81|302:74,1,70,2|0,0:0|1:0,0:0:0:0:
222,41,175868,2,0,P|266:66|276:160,1,140,8|0,0:0|1:0,0:0:0:0:
227,224,176307,1,0,1:0:0:0:
144,189,176454,2,0,P|118:148|113:114,1,70,8|0,0:0|0:0,0:0:0:0:
82,33,176746,6,0,P|55:125|36:179,2,140,0|8|0,1:0|0:0|1:0,0:0:0:0:
171,13,177478,1,0,1:0:0:0:
243,62,177624,2,0,P|307:46|337:35,1,70,8|0,0:0|1:0,0:0:0:0:
407,34,177917,6,0,P|388:97|383:128,2,70,2|0|8,0:0|1:0|0:0,0:0:0:0:
491,2,178356,1,0,0:0:0:0:
512,86,178502,2,0,P|503:120|493:153,1,70,0|0,1:0|1:0,0:0:0:0:
409,189,178795,2,0,P|394:264|385:318,1,105,8|0,0:0|0:0,0:0:0:0:
399,303,179088,6,0,P|370:355|275:346,1,140,4|8,1:0|0:0,0:0:0:0:
240,283,179527,2,0,P|253:231|264:208,2,70,2|0|0,0:0|1:0|1:0,0:0:0:0:
172,350,179966,2,0,P|109:366|79:379,1,70,8|0,0:0|1:0,0:0:0:0:
14,378,180259,6,0,P|31:315|35:282,1,70,2|0,0:0|1:0,0:0:0:0:
117,276,180551,2,0,P|91:253|68:227,1,70,8|0,0:0|0:0,0:0:0:0:
38,144,180844,1,0,1:0:0:0:
38,144,180990,2,0,P|100:134|132:57,1,140,0|2,1:0|0:0,0:0:0:0:
69,0,181429,6,0,P|149:22|226:35,1,140,4|8,1:2|0:0,0:0:0:0:
276,101,181868,1,4,3:0:0:0:
276,101,182015,2,0,P|224:115|188:127,2,70,8|4|2,3:0|3:0|3:0,0:0:0:0:
341,38,182454,1,12,0:0:0:0:
411,102,182600,6,0,B|447:163|400:210|389:188|350:236|377:296,1,210,2|2,0:0|3:0,0:0:0:0:
446,356,183185,2,0,P|477:324|487:288,2,70,8|2|8,0:0|0:0|3:0,0:0:0:0:
362,381,183624,1,0,1:0:0:0:
289,316,183771,6,0,P|272:231|257:161,2,140,4|8|0,1:0|0:0|1:0,0:0:0:0:
222,379,184502,1,0,1:0:0:0:
150,317,184649,2,0,P|140:267|137:234,1,70,8|0,0:0|1:0,0:0:0:0:
163,152,184942,6,0,P|195:114|217:79,1,70,2|0,0:0|1:0,0:0:0:0:
278,26,185234,2,0,P|294:72|314:109,1,70,8|0,0:0|0:0,0:0:0:0:
330,188,185527,2,0,P|281:179|239:177,1,70,0|0,1:0|1:0,0:0:0:0:
270,271,185820,2,0,P|286:317|306:354,1,70,8|0,0:0|0:0,0:0:0:0:
382,365,186112,6,0,P|441:346|457:248,2,140,0|8|0,1:0|0:0|1:0,0:0:0:0:
364,278,186844,1,0,1:0:0:0:
303,90,187137,6,0,P|208:75|158:247,1,280,4|2,1:0|1:2,0:0:0:0:
273,311,188015,2,0,P|271:261|253:226,2,70,4|4|2,3:0|3:0|3:0,0:0:0:0:
218,383,188454,6,0,P|272:338|356:347,1,140,4|8,1:0|0:0,0:0:0:0:
418,384,188893,2,0,P|436:325|447:294,1,70,2|0,0:0|1:0,0:0:0:0:
381,235,189185,2,0,P|399:176|410:145,1,70,0|8,1:0|0:0,0:0:0:0:
482,118,189478,6,0,P|428:120|384:34,1,140,2|0,1:2|1:0,0:0:0:0:
307,0,189917,2,0,P|295:52|283:87,1,70,8|0,0:0|0:0,0:0:0:0:
318,156,190210,5,0,1:0:0:0:
318,156,190356,1,0,1:0:0:0:
241,204,190502,1,8,0:0:0:0:
282,303,190649,1,4,1:0:0:0:
256,192,190795,12,0,193137,0:0:0:0:
148,76,194893,6,0,P|69:46|0:0,1,168,2|6,0:1|1:2,0:0:0:0:
62,322,202356,6,0,P|135:328|228:345,1,154.000004699707,4|0,1:0|1:0,0:0:0:0:
297,295,202795,1,8,0:0:0:0:
248,211,202942,6,0,P|172:197|95:191,1,154.000004699707,4|0,1:0|1:0,0:0:0:0:
36,111,203381,1,8,0:0:0:0:
110,53,203527,6,0,P|183:59|276:76,1,154.000004699707,4|0,1:0|1:0,0:0:0:0:
347,25,203966,1,8,0:0:0:0:
412,82,204112,5,4,1:1:0:0:
248,211,204405,1,0,1:0:0:0:
377,375,204698,1,4,1:2:0:0:
505,233,204990,5,0,1:0:0:0:
505,233,205063,1,0,1:0:0:0:
505,233,205137,2,0,P|441:241|361:304,1,154.000004699707,8|0,0:0|1:0,0:0:0:0:
292,352,205576,1,0,1:0:0:0:
219,300,205722,1,8,0:0:0:0:
151,358,205868,6,0,P|90:373|52:388,1,77.0000023498536,4|0,1:0|0:0,0:0:0:0:
24,303,206161,2,0,P|9:242|-6:204,1,77.0000023498536,0|8,1:0|0:0,0:0:0:0:
77,171,206454,2,0,P|131:185|164:196,1,77.0000023498536,2|0,0:0|1:0,0:0:0:0:
235,158,206746,2,0,P|249:103|260:70,1,77.0000023498536,0|8,1:0|0:0,0:0:0:0:
181,35,207039,1,4,1:0:0:0:
101,79,207185,6,0,P|63:89|25:92,2,77.0000023498536,2|0|8,0:0|1:0|0:0,0:0:0:0:
181,35,207624,2,0,L|188:-6,2,38.5000011749268,2|2|2,0:3|0:3|0:3,0:0:0:0:
260,87,207917,1,0,1:0:0:0:
260,87,208063,1,8,0:0:0:0:
344,42,208210,6,0,P|316:135|297:206,1,154.000004699707,4|0,1:0|1:0,0:0:0:0:
343,264,208649,2,0,P|409:251|438:245,1,77.0000023498536,8|2,0:0|0:0,0:0:0:0:
500,291,208942,2,0,P|445:253|445:154,1,154.000004699707,0|8,1:0|0:0,0:0:0:0:
512,121,209381,6,0,B|475:96|475:96|344:124,1,154.000004699707,4|0,1:0|1:0,0:0:0:0:
293,64,209820,1,8,0:0:0:0:
234,136,209966,1,2,0:0:0:0:
234,136,210112,2,0,P|248:182|262:231,1,77.0000023498536,0|0,1:0|1:0,0:0:0:0:
242,304,210405,1,8,0:0:0:0:
152,289,210551,6,0,P|127:236|102:116,1,154.000004699707,4|0,1:0|1:0,0:0:0:0:
159,65,210990,1,8,0:0:0:0:
159,65,211137,2,0,P|101:54|65:40,1,77.0000023498536,2|0,0:0|1:0,0:0:0:0:
0,81,211429,1,0,1:0:0:0:
26,165,211576,1,8,0:0:0:0:
0,255,211722,6,0,P|56:260|90:356,1,154.000004699707,4|0,1:0|1:0,0:0:0:0:
182,301,212161,2,0,P|199:244|212:196,2,77.0000023498536,8|8|8,0:0|0:0|3:0,0:0:0:0:
243,365,212600,1,4,3:0:0:0:
321,319,212746,1,8,0:0:0:0:
393,384,212893,6,0,P|411:313|438:231,1,154.000004699707,4|0,1:0|1:0,0:0:0:0:
436,236,213259,1,0,1:0:0:0:
436,236,213332,2,0,P|426:176|419:139,1,77.0000023498536,8|4,0:0|3:0,0:0:0:0:
484,90,213624,1,0,1:0:0:0:
462,4,213771,1,0,1:0:0:0:
335,109,214063,6,0,P|268:102|157:57,1,154.000004699707,4|0,1:0|1:0,0:0:0:0:
91,56,214502,2,0,P|110:114|121:166,1,77.0000023498536,8|2,0:0|0:0,0:0:0:0:
111,227,214795,2,0,P|74:214|37:204,1,77.0000023498536,0|0,1:0|1:0,0:0:0:0:
0,289,215088,1,8,0:0:0:0:
57,366,215234,6,0,P|115:378|163:284,1,154.000004699707,4|0,1:1|1:0,0:0:0:0:
210,224,215673,2,0,P|246:236|283:246,1,77.0000023498536,8|2,0:0|0:0,0:0:0:0:
336,333,215966,1,0,1:2:0:0:
336,333,216112,1,0,1:2:0:0:
419,283,216259,1,8,0:0:0:0:
371,204,216405,6,0,P|356:116|338:33,1,154.000004699707,4|0,1:0|1:0,0:0:0:0:
419,0,216844,1,8,0:0:0:0:
497,70,216990,1,10,3:0:0:0:
497,70,217063,1,8,3:0:0:0:
497,70,217137,2,0,P|507:132|517:174,1,77.0000023498536,0|0,1:0|1:0,0:0:0:0:
459,228,217429,1,8,0:0:0:0:
488,320,217576,5,4,1:0:0:0:
488,320,217722,2,0,P|423:307|397:301,1,77.0000023498536,2|0,0:0|1:0,0:0:0:0:
330,264,218015,1,8,0:0:0:0:
293,351,218161,2,0,P|228:364|202:370,1,77.0000023498536,2|0,0:0|1:0,0:0:0:0:
152,303,218454,2,0,P|160:265|167:227,1,77.0000023498536,0|8,1:0|0:0,0:0:0:0:
249,173,218746,6,0,P|252:99|168:66,1,154.000004699707,4|0,1:0|1:0,0:0:0:0:
116,11,219185,1,8,0:0:0:0:
37,71,219332,1,2,0:0:0:0:
37,71,219478,2,0,P|48:119|59:170,1,77.0000023498536,0|0,1:0|1:0,0:0:0:0:
0,224,219771,1,8,0:0:0:0:
65,292,219917,6,0,P|100:366|165:365,1,154.000004699707,4|0,1:0|1:0,0:0:0:0:
222,301,220356,1,8,0:0:0:0:
222,301,220502,2,0,P|212:230|203:199,1,77.0000023498536,2|0,0:0|1:0,0:0:0:0:
153,156,220795,1,0,1:0:0:0:
196,80,220942,1,8,0:0:0:0:
287,97,221088,6,0,P|377:78|460:55,1,154.000004699707,4|0,1:0|1:0,0:0:0:0:
506,126,221527,1,8,0:0:0:0:
488,210,221673,6,0,B|466:250|466:250|337:234,1,154.000004699707,4|0,1:0|1:0,0:0:0:0:
276,191,222112,1,8,0:0:0:0:
215,267,222259,6,0,P|152:247|157:152,1,154.000004699707,6|0,1:2|1:0,0:0:0:0:
212,109,222698,1,8,0:0:0:0:
161,31,222844,5,4,1:2:0:0:
356,65,223137,1,4,1:2:0:0:
322,260,223429,1,4,1:0:0:0:
448,370,223722,5,0,1:0:0:0:
448,370,223795,1,0,1:0:0:0:
448,370,223868,2,0,P|507:342|503:248,1,154.000004699707,8|0,0:0|1:0,0:0:0:0:
447,199,224307,2,0,P|460:134|466:107,1,77.0000023498536,0|8,1:0|0:0,0:0:0:0:
505,29,224600,6,0,P|413:53|333:69,1,154.000004699707,4|0,1:0|1:0,0:0:0:0:
290,127,225039,2,0,P|223:109|193:101,1,77.0000023498536,8|2,0:0|0:0,0:0:0:0:
186,20,225332,1,0,1:2:0:0:
186,20,225478,1,0,1:2:0:0:
90,20,225624,1,8,0:0:0:0:
64,112,225771,6,0,P|90:171|120:260,1,154.000004699707,4|0,1:0|1:0,0:0:0:0:
73,337,226210,1,8,0:0:0:0:
163,378,226356,1,2,3:0:0:0:
163,378,226429,1,2,0:3:0:0:
163,378,226502,2,0,P|207:369|248:366,1,77.0000023498536,2|0,0:3|1:0,0:0:0:0:
312,306,226795,1,8,0:0:0:0:
234,250,226942,6,0,P|254:162|284:83,1,154.000004699707,4|0,1:0|1:0,0:0:0:0:
259,7,227381,1,8,0:0:0:0:
361,9,227527,2,0,P|418:24|461:45,1,77.0000023498536,2|0,0:0|1:0,0:0:0:0:
451,120,227820,1,0,1:0:0:0:
512,193,227966,1,8,0:0:0:0:
446,263,228112,6,0,P|386:277|364:368,1,154.000004699707,4|0,1:0|1:0,0:0:0:0:
274,380,228551,1,8,0:0:0:0:
183,353,228698,1,2,0:0:0:0:
183,353,228844,2,0,P|198:299|209:257,1,77.0000023498536,0|0,1:0|1:0,0:0:0:0:
156,200,229137,1,8,0:0:0:0:
249,193,229283,6,0,P|270:131|304:33,1,154.000004699707,4|0,1:0|1:0,0:0:0:0:
220,3,229722,1,8,0:0:0:0:
143,63,229868,2,0,P|70:46|43:40,1,77.0000023498536,2|0,0:0|1:0,0:0:0:0:
0,101,230161,1,0,1:0:0:0:
52,175,230307,1,8,0:0:0:0:
0,259,230454,6,0,P|12:319|116:324,1,154.000004699707,4|0,1:0|1:0,0:0:0:0:
93,339,230820,1,8,0:0:0:0:
93,339,230893,2,0,P|139:351|171:369,1,77.0000023498536,8|8,0:0|0:0,0:0:0:0:
261,384,231185,2,0,P|248:338|247:301,1,77.0000023498536,8|4,3:0|3:0,0:0:0:0:
170,254,231478,1,8,0:0:0:0:
222,188,231624,6,0,B|287:170|337:232|307:236|343:299|424:277,1,231.000007049561,4|2,1:0|0:0,0:0:0:0:
455,139,232356,2,0,P|477:127|502:119,2,51.3333348999024,8|4|4,3:0|3:0|3:0,0:0:0:0:
393,83,232649,2,0,P|406:61|423:42,2,51.3333348999024,2|4|4,3:0|3:0|3:0,0:0:0:0:
314,79,232942,6,0,P|241:79|156:60,1,140,4|2,1:0|0:0,0:0:0:0:
114,4,233381,1,0,1:0:0:0:
61,75,233527,2,0,P|47:126|40:162,2,70,8|4|2,0:0|3:0|0:0,0:0:0:0:
9,0,233966,5,6,1:0:0:0:
0,217,234259,1,2,1:0:0:0:
230,170,234844,5,0,3:0:0:0:
230,170,234917,1,0,3:0:0:0:
230,170,234990,2,0,L|285:163,3,35,0|0|0|0,3:0|3:0|3:0|3:0,0:0:0:0:
305,159,235283,6,0,B|447:-1|447:-1|490:208|490:208|348:369|348:369|312:186,1,797.999990258789,4|0,1:2|0:0,0:0:0:0:
234,212,237624,6,0,P|184:224|85:268,1,146.999995513916,4|4,1:0|1:2,0:0:0:0:
339,349,240990,6,0,P|376:336|404:233,2,146.999995513916,8|2|4,3:0|3:0|3:0,0:0:0:0:
274,294,242015,1,2,3:0:0:0:
348,168,242307,6,0,P|450:187|511:197,1,146.999995513916,4|4,1:0|1:2,0:0:0:0:
197,191,245527,5,8,3:0:0:0:
259,77,245820,1,8,3:0:0:0:
259,77,245966,1,8,3:0:0:0:
342,77,246112,2,0,P|368:109|382:152,1,62.9999980773926,2|2,3:0|3:0,0:0:0:0:
453,153,246405,2,0,P|459:194|451:239,1,62.9999980773926,4|4,3:0|3:0,0:0:0:0:
512,275,246698,2,0,P|497:314|467:349,1,62.9999980773926,4|4,3:0|3:0,0:0:0:0:
403,348,246990,6,0,P|320:335|195:310,1,168,4|4,1:0|1:2,0:0:0:0:
347,326,250210,6,0,L|331:264,2,56,8|2|4,3:0|3:0|3:0,0:0:0:0:
207,383,250795,1,8,3:0:0:0:
207,383,250941,2,0,P|223:335|234:281,1,56,8|2,3:0|3:0,0:0:0:0:
189,249,251234,2,0,P|141:233|87:222,1,56,4|2,3:0|3:0,0:0:0:0:
62,279,251527,1,10,0:0:0:0:
8,200,251673,6,0,P|37:127|68:18,1,168,4|4,1:0|1:2,0:0:0:0:
438,296,255917,6,0,P|450:249|455:228,2,56,4|4|2,3:0|3:0|3:0,0:0:0:0:
512,331,256356,2,0,P|260:352|10:382,1,503.999984619141,4|0,1:2|0:0,1:0:0:0:
