osu file format v14

[General]
AudioFilename: audio.mp3
AudioLeadIn: 0
PreviewTime: 194527
Countdown: 0
SampleSet: Soft
StackLeniency: 1
Mode: 0
LetterboxInBreaks: 0
WidescreenStoryboard: 1

[Editor]
DistanceSpacing: 0.6
BeatDivisor: 8
GridSize: 32
TimelineZoom: 4.099999

[Metadata]
Title:Sen'yo
TitleUnicode:閃耀
Artist:Feryquitous x KAFU
ArtistUnicode:Feryquitous × 可不
Creator:Ryuusei Aika
Version:Stride
Source:
Tags:frozz Esutarosa Kudou Chitose -Hitomi L1gHT_u Light_u Senyo Sen-yo Senyou Sen'you Sen-you Senyō Sen'yō Sen-yō Japanese Rock J-Rock JRock Vocalsynth 音楽的同位体 Kaf-u -Keqing Artificial Singing Synthesizer CeVIO AI kamitsubaki studio 神椿スタジオ
BeatmapID:3761923
BeatmapSetID:1832561

[Difficulty]
HPDrainRate:6
CircleSize:4
OverallDifficulty:8.7
ApproachRate:9.3
SliderMultiplier:2
SliderTickRate:1

[Events]
//Background and Video events
0,0,"bg.jpg",0,0
//Break Periods
2,165039,167339
2,195332,200339
//Storyboard Layer 0 (Background)
//Storyboard Layer 1 (Fail)
//Storyboard Layer 2 (Pass)
//Storyboard Layer 3 (Foreground)
//Storyboard Layer 4 (Overlay)
//Storyboard Sound Samples

[TimingPoints]
-3535,292.682926829268,4,2,1,60,1,0
1001,-100,4,2,1,35,0,0
1147,-250,4,2,1,40,0,0
17611,-333.333333333333,4,2,1,40,0,0
19294,-200,4,2,1,50,0,0
19440,-133.333333333333,4,2,1,50,0,0
19733,-100,4,2,1,60,0,0
26757,-66.6666666666667,4,2,1,60,0,0
27050,-133.333333333333,4,2,1,60,0,0
27343,-68.9655172413793,4,2,1,60,0,0
27782,-136.986301369863,4,2,1,60,0,0
27928,-71.4285714285714,4,2,1,60,0,0
28221,-142.857142857143,4,2,1,60,0,0
28513,-74.0740740740741,4,2,1,60,0,0
29538,-100,4,2,1,60,0,0
37001,-133.333333333333,4,2,1,60,0,0
37294,-100,4,2,1,60,0,0
38611,-200,4,2,1,40,0,0
47977,-133.333333333333,4,2,1,50,0,0
48269,-117.647058823529,4,2,1,50,0,0
57343,-117.647058823529,4,2,1,60,0,0
57562,-100,4,2,1,60,0,0
64221,-117.647058823529,4,2,1,60,0,0
68318,-117.647058823529,4,2,1,40,0,0
68904,-83.3333333333333,4,2,1,70,0,1
75635,-133.333333333333,4,2,1,70,0,1
75928,-66.6666666666667,4,2,1,70,0,1
76221,-133.333333333333,4,2,1,70,0,1
76513,-64.5161290322581,4,2,1,70,0,1
76952,-128.205128205128,4,2,1,70,0,1
77099,-62.5,4,2,1,70,0,1
77391,-125,4,2,1,70,0,1
77684,-60.6060606060606,4,2,1,70,0,1
78269,-66.6666666666667,4,2,1,70,0,1
78416,-66.6666666666667,4,2,1,70,0,0
78708,-83.3333333333333,4,2,1,70,0,1
87489,-133.333333333333,4,2,1,70,0,0
87635,-83.3333333333333,4,2,1,70,0,1
87928,-166.666666666667,4,2,1,70,0,1
88806,-83.3333333333333,4,2,1,70,0,1
89099,-166.666666666667,4,2,1,70,0,1
89538,-142.857142857143,4,2,1,70,0,1
89830,-166.666666666667,4,2,1,70,0,1
89977,-83.3333333333333,4,2,1,70,0,1
90269,-166.666666666667,4,2,1,70,0,1
91294,-133.333333333333,4,2,1,70,0,1
91586,-111.111111111111,4,2,1,70,0,1
91879,-83.3333333333333,4,2,1,70,0,1
92172,-66.6666666666667,4,2,1,70,0,1
92318,-83.3333333333333,4,2,1,70,0,1
94660,-66.6666666666667,4,2,1,70,0,1
94952,-133.333333333333,4,2,1,70,0,1
95245,-64.5161290322581,4,2,1,70,0,1
95684,-128.205128205128,4,2,1,70,0,1
95830,-62.5,4,2,1,70,0,1
96123,-125,4,2,1,70,0,1
96416,-60.6060606060606,4,2,1,70,0,1
96708,-66.6666666666667,4,2,1,70,0,1
97147,-66.6666666666667,4,2,1,70,0,0
97440,-83.3333333333333,4,2,1,70,0,1
97733,-166.666666666667,4,2,1,70,0,1
98172,-83.3333333333333,4,2,1,70,0,1
98464,-166.666666666667,4,2,1,70,0,1
98757,-142.857142857143,4,2,1,70,0,1
99050,-166.666666666667,4,2,1,70,0,1
99343,-83.3333333333333,4,2,1,70,0,1
99635,-166.666666666667,4,2,1,70,0,1
100513,-83.3333333333333,4,2,1,70,0,1
100806,-166.666666666667,4,2,1,70,0,1
101099,-74.0740740740741,4,2,1,70,0,1
102123,-83.3333333333333,4,2,1,70,0,1
104904,-133.333333333333,4,2,1,70,0,1
105196,-83.3333333333333,4,2,1,70,0,1
105635,-100,4,2,1,70,0,1
106503,292.682926829268,4,2,1,40,1,0
106942,-200,4,2,1,40,0,0
119966,-133.333333333333,4,2,1,40,0,0
120112,-100,4,2,1,40,0,0
120990,-200,4,2,1,40,0,0
124063,-166.666666666667,4,2,1,40,0,0
124649,-133.333333333333,4,2,1,50,0,0
125088,-117.647058823529,4,2,1,50,0,0
125234,-250,4,2,1,50,0,0
129478,-133.333333333333,4,2,1,50,0,0
129917,-250,4,2,1,50,0,0
134015,-166.666666666667,4,2,1,50,0,0
134600,-250,4,2,1,50,0,0
138844,-133.333333333333,4,2,1,50,0,0
139283,-250,4,2,1,50,0,0
142795,-133.333333333333,4,2,1,50,0,0
143966,-100,4,2,1,60,0,0
150844,-111.111111111111,4,2,1,60,0,0
153332,-111.111111111111,4,2,1,65,0,0
153917,-111.111111111111,4,2,1,70,0,0
154502,-83.3333333333333,4,2,1,65,0,0
155234,-83.3333333333333,4,2,1,60,0,0
155527,-123.456790123457,4,2,2,55,0,0
155600,-123.456790123457,4,2,1,45,0,0
159039,-125,4,2,1,45,0,0
160356,-200,4,2,1,45,0,0
167966,-125,4,2,1,45,0,0
169137,-111.111111111111,4,2,1,45,0,0
169722,-133.333333333333,4,2,1,50,0,0
171917,-117.647058823529,4,2,1,50,0,0
172356,-100,4,2,1,50,0,0
172649,-133.333333333333,4,2,1,50,0,0
173088,-100,4,2,1,50,0,0
174405,-90.9090909090909,4,2,1,60,0,0
182600,-76.9230769230769,4,2,1,60,0,0
183185,-153.846153846154,4,2,1,60,0,0
183624,-111.111111111111,4,2,1,60,0,0
183771,-90.9090909090909,4,2,1,60,0,0
187137,-111.111111111111,4,2,1,60,0,0
187722,-100,4,2,1,60,0,0
188454,-90.9090909090909,4,2,1,60,0,0
190649,-172.413793103448,4,2,1,60,0,0
191966,-185.185185185185,4,2,1,60,0,0
195332,-185.185185185185,4,2,2,40,0,0
200893,-90.9090909090909,4,2,1,40,0,0
200966,-90.9090909090909,4,2,2,42,0,0
201039,-90.9090909090909,4,2,1,44,0,0
201112,-90.9090909090909,4,2,2,46,0,0
201185,-90.9090909090909,4,2,1,48,0,0
201258,-90.9090909090909,4,2,2,50,0,0
201332,-90.9090909090909,4,2,1,52,0,0
201405,-90.9090909090909,4,2,2,54,0,0
201478,-90.9090909090909,4,2,1,56,0,0
201551,-90.9090909090909,4,2,2,58,0,0
201624,-90.9090909090909,4,2,1,60,0,0
201697,-90.9090909090909,4,2,2,63,0,0
201771,-90.9090909090909,4,2,1,66,0,0
201844,-90.9090909090909,4,2,2,69,0,0
201917,-90.9090909090909,4,2,1,72,0,0
201990,-90.9090909090909,4,2,2,75,0,0
202063,-90.9090909090909,4,2,1,80,0,0
202210,-90.9090909090909,4,2,1,40,0,0
202356,-62.5,4,2,1,80,0,1
202649,-125,4,2,1,80,0,1
202942,-60.6060606060606,4,2,1,80,0,1
203381,-120.481927710843,4,2,1,80,0,1
203527,-58.8235294117647,4,2,1,80,0,1
203820,-117.647058823529,4,2,1,80,0,1
204112,-55.5555555555556,4,2,1,80,0,1
204405,-58.8235294117647,4,2,1,80,0,1
204551,-62.5,4,2,1,80,0,1
204698,-66.6666666666667,4,2,1,80,0,1
204844,-66.6666666666667,4,2,1,80,0,0
204990,-66.6666666666667,4,2,1,75,0,0
205137,-83.3333333333333,4,2,1,75,0,1
213917,-133.333333333333,4,2,1,75,0,0
214063,-83.3333333333333,4,2,1,75,0,1
214356,-166.666666666667,4,2,1,75,0,1
215234,-83.3333333333333,4,2,1,75,0,1
215527,-166.666666666667,4,2,1,75,0,1
215966,-142.857142857143,4,2,1,75,0,1
216259,-200,4,2,1,75,0,1
216405,-83.3333333333333,4,2,1,75,0,1
216698,-166.666666666667,4,2,1,75,0,1
217722,-133.333333333333,4,2,1,75,0,1
217868,-111.111111111111,4,2,1,75,0,1
218161,-74.0740740740741,4,2,1,75,0,1
218307,-100,4,2,1,75,0,1
218454,-90.9090909090909,4,2,1,75,0,1
218600,-83.3333333333333,4,2,1,75,0,1
218746,-74.0740740740741,4,2,1,75,0,1
219185,-83.3333333333333,4,2,1,75,0,1
221088,-66.6666666666667,4,2,1,75,0,1
221381,-133.333333333333,4,2,1,75,0,1
221673,-64.5161290322581,4,2,1,75,0,1
222112,-128.205128205128,4,2,1,75,0,1
222259,-62.5,4,2,1,75,0,1
222551,-125,4,2,1,75,0,1
222844,-60.6060606060606,4,2,1,75,0,1
223137,-66.6666666666667,4,2,1,75,0,1
223576,-66.6666666666667,4,2,1,75,0,0
223868,-166.666666666667,4,2,1,75,0,1
224600,-83.3333333333333,4,2,1,75,0,1
224893,-166.666666666667,4,2,1,75,0,1
225185,-142.857142857143,4,2,1,75,0,1
225478,-166.666666666667,4,2,1,75,0,1
225771,-83.3333333333333,4,2,1,75,0,1
226063,-166.666666666667,4,2,1,75,0,1
226942,-83.3333333333333,4,2,1,75,0,1
227234,-166.666666666667,4,2,1,75,0,1
227527,-74.0740740740741,4,2,1,75,0,1
228551,-83.3333333333333,4,2,1,75,0,1
228990,-83.3333333333333,4,2,1,75,0,1
231332,-133.333333333333,4,2,1,75,0,1
231624,-83.3333333333333,4,2,1,75,0,1
232063,-100,4,2,1,75,0,1
232942,-100,4,2,1,75,0,0
235283,-200,4,2,1,75,0,0
237551,-200,4,2,0,5,0,0
237624,-200,4,2,1,40,0,0
251234,-100,4,2,1,40,0,0
251381,-133.333333333333,4,2,1,40,0,0
251527,-100,4,2,1,40,0,0
251673,-200,4,2,1,40,0,0
254161,-333.333333333333,4,2,1,40,0,0
255771,-200,4,2,1,40,0,0
256356,-333.333333333333,4,2,2,50,0,0
256374,-333.333333333333,4,2,1,50,0,0
256649,-333.333333333333,4,2,1,45,0,0
256942,-333.333333333333,4,2,1,40,0,0
257234,-333.333333333333,4,2,1,35,0,0
257527,-333.333333333333,4,2,1,30,0,0
257820,-333.333333333333,4,2,1,25,0,0
258112,-333.333333333333,4,2,1,20,0,0
258405,-333.333333333333,4,2,1,15,0,0
258698,-333.333333333333,4,2,1,10,0,0

[Colours]
Combo1 : 192,192,192
Combo2 : 128,0,255
Combo3 : 0,128,192
Combo4 : 128,128,192

[HitObjects]
256,192,1001,5,2,0:0:0:0:
256,192,1050,5,2,0:0:0:0:
256,192,1099,5,2,0:0:0:0:
256,191,1147,6,0,P|273:155|278:116,1,80,4|0,1:0|0:0,0:0:0:0:
320,237,1586,2,0,P|302:273|297:312,1,80,4|0,1:2|0:0,0:0:0:0:
355,366,2025,1,2,0:0:0:0:
358,353,2172,1,2,0:0:0:0:
236,356,2464,1,2,0:0:0:0:
117,346,2757,1,6,0:2:0:0:
120,333,2904,2,0,B|127:299|127:299|132:295|132:295|139:257,1,80,2|0,0:0|0:0,0:0:0:0:
0,192,3489,5,2,3:2:0:0:
64,221,3635,2,0,P|52:179|53:96,1,120,2|2,0:0|3:2,0:0:0:0:
51,103,4367,1,2,0:0:0:0:
197,144,4513,5,8,3:0:0:0:
238,78,4952,5,2,3:0:0:0:
213,49,5391,5,4,3:0:0:0:
179,127,5538,2,0,L|188:165,1,40,2|2,3:2|3:2,0:0:0:0:
346,235,5830,6,0,B|379:184|379:184|358:123,1,120,4|4,1:0|1:2,0:0:0:0:
354,109,6708,5,0,0:0:0:0:
271,122,6855,2,0,L|294:44,1,80,6|2,3:2|0:0,0:0:0:0:
312,33,7294,1,2,0:0:0:0:
358,92,7440,2,0,P|396:99|443:122,1,80,2|2,0:0|0:0,0:0:0:0:
453,103,7879,2,0,P|439:84|436:55,1,40,2|2,0:0|0:0,0:0:0:0:
505,108,8172,5,2,3:2:0:0:
489,234,8464,1,2,0:0:0:0:
489,234,8611,2,0,P|453:254|422:288,1,80,2|2,0:0|0:0,0:0:0:0:
405,314,9050,2,0,L|409:337,1,20,8|0,3:0|0:0,0:0:0:0:
476,371,9343,5,8,3:0:0:0:
408,333,9489,1,8,3:0:0:0:
360,331,9635,1,2,3:0:0:0:
287,351,9782,5,2,3:0:0:0:
224,311,9928,5,4,3:0:0:0:
205,271,10074,5,4,3:0:0:0:
143,225,10221,5,4,3:0:0:0:
74,234,10367,5,4,3:0:0:0:
62,243,10513,6,0,P|63:186|53:116,1,120,4|4,1:0|1:2,0:0:0:0:
80,106,11391,5,2,0:0:0:0:
80,106,11538,2,0,P|75:127|76:149,1,40,0|2,0:0|0:0,0:0:0:0:
161,2,11830,2,0,P|166:23|165:45,1,40,6|2,0:0|0:0,0:0:0:0:
155,76,12123,2,0,P|202:84|245:103,1,80,2|2,0:0|0:0,0:0:0:0:
297,141,12562,1,2,0:0:0:0:
303,157,12708,1,2,0:0:0:0:
321,90,12855,5,2,3:2:0:0:
252,213,13294,5,2,3:2:0:0:
183,336,13733,5,8,3:0:0:0:
173,312,13879,1,2,3:0:0:0:
174,284,14025,2,0,L|180:231,1,40,4|2,3:0|3:0,0:0:0:0:
277,333,14318,6,0,P|293:320|325:318,1,40,8|8,3:0|3:0,0:0:0:0:
311,316,14538,1,8,3:0:0:0:
311,316,14611,5,2,3:0:0:0:
418,341,14757,5,4,3:0:0:0:
490,296,14904,5,2,3:2:0:0:
502,225,15050,5,2,3:2:0:0:
496,206,15196,6,0,B|447:198|447:198|405:225,1,100,4|0,1:0|0:0,0:0:0:0:
343,269,15635,2,0,P|330:210|333:150,1,120,4|6,1:2|0:0,0:0:0:0:
307,127,16221,2,0,L|300:183,1,40,2|2,0:0|0:0,0:0:0:0:
248,36,16513,5,2,0:0:0:0:
243,75,16660,1,2,0:0:0:0:
239,105,16806,1,6,0:0:0:0:
170,262,17099,5,2,0:0:0:0:
119,204,17245,1,2,0:0:0:0:
141,251,17391,1,2,0:0:0:0:
136,275,17538,5,2,3:2:0:0:
136,275,17611,2,0,B|74:271|68:335|-4:329,1,150
2,316,18416,5,0,3:2:0:0:
35,333,18562,5,0,3:2:0:0:
80,320,18708,5,0,3:2:0:0:
132,266,18855,5,2,3:2:0:0:
158,186,19001,5,2,3:2:0:0:
157,103,19147,5,2,3:2:0:0:
107,23,19294,6,0,P|100:37|104:53,1,25,8|0,3:0|0:0,0:0:0:0:
75,153,19440,2,0,P|79:132|25:125,1,75.0000028610231,2|0,3:0|0:0,0:0:0:0:
214,236,19733,6,0,P|287:205|363:212,1,150,4|0,1:0|0:0,0:0:0:0:
356,209,20025,1,0,1:0:0:0:
459,352,20172,2,0,P|439:308|463:267,1,100,8|2,0:0|0:0,0:0:0:0:
463,267,20391,1,2,0:0:0:0:
463,267,20464,1,2,1:2:0:0:
338,318,20611,2,0,P|313:333|275:333,1,50,0|0,1:0|0:0,0:0:0:0:
261,329,20757,1,8,0:0:0:0:
124,241,20904,6,0,P|134:289|133:339,1,100,4|0,1:0|0:0,0:0:0:0:
208,255,21196,1,0,1:0:0:0:
46,110,21343,2,0,L|174:162,1,100,8|2,0:0|0:0,0:0:0:0:
163,145,21562,1,2,0:0:0:0:
187,143,21635,1,2,1:2:0:0:
28,251,21782,2,0,P|13:230|19:205,1,50,0|0,1:0|0:0,0:0:0:0:
39,187,21928,1,8,0:0:0:0:
134,26,22074,6,0,P|144:85|114:198,1,150,4|0,1:0|0:0,0:0:0:0:
127,172,22367,1,0,1:0:0:0:
269,68,22513,2,0,P|346:102|387:94,1,100,8|4,0:0|3:0,0:0:0:0:
384,96,22733,1,4,3:0:0:0:
407,88,22806,1,2,1:2:0:0:
259,169,22952,2,0,L|245:224,1,50,0|0,1:0|0:0,0:0:0:0:
225,230,23099,1,8,0:0:0:0:
431,285,23245,6,0,B|378:287|393:314|324:309,1,100,4|0,1:0|0:0,0:0:0:0:
250,302,23538,1,0,1:0:0:0:
322,236,23684,1,8,0:0:0:0:
512,256,23830,1,0,0:0:0:0:
408,194,23977,5,0,1:0:0:0:
404,282,24123,1,0,1:0:0:0:
417,209,24269,1,8,0:0:0:0:
337,366,24416,6,0,L|187:351,1,150,4|0,1:0|0:0,0:0:0:0:
187,351,24708,1,0,1:0:0:0:
128,139,24855,2,0,P|145:186|144:250,1,100,8|2,0:0|0:2,0:0:0:0:
133,256,25074,1,2,0:2:0:0:
133,256,25147,1,2,1:2:0:0:
223,247,25294,1,0,1:0:0:0:
239,138,25440,1,8,0:0:0:0:
78,74,25586,6,0,P|78:123|60:170,1,100,4|0,1:2|0:0,0:0:0:0:
215,36,25879,1,0,1:0:0:0:
138,18,26025,5,8,0:0:0:0:
346,83,26172,1,0,0:0:0:0:
305,19,26318,5,0,1:0:0:0:
286,192,26464,2,0,L|298:93,1,100,0|8,1:0|0:0,0:0:0:0:
407,263,26757,6,0,B|302:236|328:390|211:349,1,225,4|0,1:0|0:0,0:0:0:0:
87,257,27050,6,0,L|81:219,1,37.5000000000001,0|0,1:0|0:0,0:0:0:0:
62,194,27196,2,0,P|48:216|53:240,1,37.5000000000001,8|0,0:0|0:0,0:0:0:0:
131,285,27343,6,0,B|233:248|208:396|309:370,1,217.5,4|0,1:1|0:0,0:0:0:0:
382,346,27635,5,0,1:0:0:0:
418,349,27708,1,0,0:0:0:0:
435,351,27782,2,0,P|443:334|446:316,1,36.5,8|0,0:0|0:0,0:0:0:0:
331,159,27928,6,0,B|366:257|223:233|248:331,1,210,4|0,1:0|0:0,0:0:0:0:
124,347,28221,6,0,P|106:357|73:358,1,35,0|0,1:0|1:0,0:0:0:0:
106,329,28367,2,0,L|140:336,1,35,8|0,0:0|0:0,0:0:0:0:
260,352,28513,6,0,B|275:289|183:304|206:241,1,135,6|0,1:2|0:0,0:0:0:0:
221,156,28806,6,0,L|212:222,1,67.5,6|0,1:2|0:0,0:0:0:0:
205,242,28952,1,8,0:0:0:0:
269,82,29099,2,0,B|206:61|206:61|151:101,1,135.000000514984,6|0,1:2|0:0,0:0:0:0:
151,101,29391,5,0,1:0:0:0:
151,101,29464,1,0,1:0:0:0:
151,101,29538,2,0,B|211:111|211:111|222:122|222:122|294:133,1,150,12|0,0:0|0:0,0:0:0:0:
323,138,29830,1,0,1:0:0:0:
448,35,29977,2,0,L|437:96,1,50,0|0,1:0|0:0,0:0:0:0:
436,109,30123,1,8,0:0:0:0:
406,276,30269,6,0,P|390:233|402:160,1,100,4|0,1:0|0:0,0:0:0:0:
318,260,30562,1,0,1:0:0:0:
435,294,30708,2,0,P|452:277|492:267,1,50,8|0,0:0|0:0,0:0:0:0:
500,273,30855,1,2,0:0:0:0:
401,371,31001,5,0,1:0:0:0:
330,276,31147,1,0,1:0:0:0:
276,328,31294,1,8,0:0:0:0:
255,130,31440,6,0,B|230:195|230:195|221:193|221:193|188:283,1,150,4|0,1:2|0:0,0:0:0:0:
196,259,31733,1,0,1:0:0:0:
68,76,31879,2,0,B|51:123|51:123|79:164,1,100,8|4,0:0|3:0,0:0:0:0:
94,184,32099,1,4,3:0:0:0:
94,184,32172,1,0,1:0:0:0:
38,343,32318,2,0,L|31:279,1,50,0|0,1:0|0:0,0:0:0:0:
31,268,32464,1,8,0:0:0:0:
199,342,32611,6,0,P|151:356|110:384,1,100,4|0,1:0|0:0,0:0:0:0:
263,297,32904,1,0,1:0:0:0:
173,212,33050,2,0,P|171:237|158:269,1,50,12|0,0:0|0:0,0:0:0:0:
148,280,33196,1,2,0:0:0:0:
255,169,33343,5,0,1:0:0:0:
244,57,33489,1,0,1:0:0:0:
242,151,33635,1,8,0:0:0:0:
419,211,33782,6,0,B|343:206|356:247|273:244,1,150,4|0,1:0|0:0,0:0:0:0:
275,244,34074,1,0,1:0:0:0:
355,41,34221,2,0,P|354:86|340:140,1,100,8|2,0:0|0:0,0:0:0:0:
422,129,34513,1,0,1:0:0:0:
327,148,34660,2,0,L|260:162,1,50,0|0,1:0|0:0,0:0:0:0:
253,164,34806,1,8,0:0:0:0:
180,11,34952,6,0,L|277:31,1,100,4|0,1:0|0:0,0:0:0:0:
277,31,35245,1,0,1:0:0:0:
123,126,35391,2,0,P|134:105|136:58,2,50,8|0|2,0:0|0:0|0:0,0:0:0:0:
111,51,35684,1,0,1:0:0:0:
214,129,35830,2,0,B|186:170|186:170|200:232,1,100,0|8,1:0|0:0,0:0:0:0:
32,283,36123,6,0,B|93:288|93:288|103:306|103:306|170:313,1,150,4|4,1:0|3:0,0:0:0:0:
217,319,36379,2,0,L|246:323,1,25,4|4,3:0|3:0,0:0:0:0:
340,335,36562,5,8,0:0:0:0:
421,344,36708,5,8,0:0:0:0:
461,348,36855,5,8,3:0:0:0:
487,350,37001,6,0,L|399:362,1,75.0000000000002,4|2,3:0|3:0,0:0:0:0:
302,368,37294,6,0,B|315:315|315:315|347:316|347:316|363:254,1,150,4|0,1:0|0:0,0:0:0:0:
363,254,37586,1,0,1:0:0:0:
343,46,37733,2,0,L|317:142,1,100,8|2,0:0|0:0,0:0:0:0:
299,216,37952,5,2,0:0:0:0:
293,240,38025,1,2,1:2:0:0:
500,208,38172,2,0,B|450:211|458:184|404:186,1,100,0|8,1:0|0:0,0:0:0:0:
107,186,38611,6,0,P|117:240|115:285,2,100,4|0|0,1:0|3:0|3:0,0:0:0:0:
88,202,39343,2,0,P|81:222|79:264,1,50,2|2,0:2|3:2,0:0:0:0:
0,198,39635,2,0,P|3:250|25:306,1,100,2|0,0:2|0:0,0:0:0:0:
18,294,40074,1,0,3:0:0:0:
32,125,40367,5,2,3:2:0:0:
46,45,40660,2,0,P|76:38|105:25,1,50,2|0,3:2|1:0,0:0:0:0:
20,118,40952,2,0,B|142:107|127:160|232:137,1,200,2|0,1:2|3:0,0:0:0:0:
287,113,41684,5,0,0:0:0:0:
324,74,41830,5,2,3:2:0:0:
325,42,41977,6,0,P|292:31|141:106,1,200
149,51,42708,2,0,P|128:63|114:100,1,50,0|8,3:0|3:0,0:0:0:0:
153,170,43001,5,4,3:0:0:0:
179,238,43147,1,2,3:0:0:0:
150,347,43294,6,0,L|165:243,3,100,2|0|0|2,1:2|3:0|3:0|3:2,0:0:0:0:
134,367,44318,2,0,L|115:312,1,50,2|2,0:0|3:2,0:0:0:0:
258,254,44757,1,0,3:0:0:0:
298,193,45050,1,0,0:0:0:0:
263,125,45343,5,2,3:2:0:0:
315,181,45489,1,2,1:2:0:0:
272,159,45635,2,0,P|264:122|268:56,2,100,2|0|0,1:2|3:0|3:0,0:0:0:0:
250,132,46367,5,2,0:0:0:0:
188,94,46513,1,2,3:2:0:0:
117,72,46660,1,2,0:2:0:0:
107,78,46806,6,0,L|101:127,3,50,2|2|2|2,3:2|0:2|3:2|0:2,0:0:0:0:
33,146,47391,1,6,3:2:0:0:
33,146,47538,2,0,P|57:163|86:166,1,50,0|8,1:0|0:0,0:0:0:0:
240,196,47830,1,4,1:0:0:0:
181,145,47977,6,0,B|157:177|157:177|170:233,1,75.0000000000002,2|0,0:0|1:2,0:0:0:0:
175,242,48196,1,0,1:2:0:0:
206,236,48269,6,0,L|348:253,1,127.5,12|0,0:0|0:0,0:0:0:0:
332,251,48562,1,0,1:0:0:0:
465,131,48708,2,0,P|466:168|480:216,1,85.0000000000003,0|8,1:0|0:0,0:0:0:0:
379,151,49001,2,0,B|400:246|348:221|376:346,1,170.000000000001,2|0,1:2|1:0,0:0:0:0:
469,222,49440,1,12,0:0:0:0:
313,65,49733,6,0,P|282:86|224:91,1,85.0000000000003,0|0,1:0|1:0,0:0:0:0:
330,72,50025,2,0,L|154:54,1,170.000000000001,8|0,0:0|1:0,0:0:0:0:
12,40,50464,1,0,1:0:0:0:
121,50,50611,2,0,P|82:74|45:113,1,85.0000000000003,8|8,0:0|3:0,0:0:0:0:
49,122,50830,1,8,3:0:0:0:
46,143,50904,1,0,1:0:0:0:
112,215,51050,1,0,1:0:0:0:
103,291,51196,1,8,0:0:0:0:
98,203,51343,6,0,P|59:214|-3:220,1,85.0000000000003,0|0,1:0|0:0,0:0:0:0:
128,268,51635,1,0,1:0:0:0:
74,358,51782,2,0,P|113:347|175:341,1,85.0000000000003,8|0,0:0|0:0,0:0:0:0:
289,227,52074,2,0,B|283:266|283:266|277:269|277:269|271:307,1,85.0000000000003,0|0,1:0|1:0,0:0:0:0:
205,227,52367,2,0,L|201:184,1,42.5000000000001,8|0,0:0|0:0,0:0:0:0:
201,184,52513,1,0,1:0:0:0:
230,379,52660,5,2,1:2:0:0:
230,379,52806,2,0,L|247:286,1,85.0000000000003,2|8,0:0|0:0,0:0:0:0:
290,43,53245,2,0,L|275:127,1,85.0000000000003,0|0,1:0|1:0,0:0:0:0:
359,99,53538,1,8,0:0:0:0:
318,210,53684,2,0,B|407:191|381:248|498:235,1,170.000000000001,2|0,1:2|1:0,0:0:0:0:
491,227,54123,2,0,B|413:232|458:264|364:276,1,127.5,12|0,0:0|0:0,0:0:0:0:
375,274,54416,5,0,1:0:0:0:
318,329,54562,1,0,1:0:0:0:
226,344,54708,5,8,0:0:0:0:
144,309,54855,1,0,1:0:0:0:
105,243,55001,6,0,P|110:198|105:155,1,85.0000000000003,2|8,0:0|3:0,0:0:0:0:
68,86,55294,2,0,L|60:183,1,85.0000000000003,8|0,3:0|0:0,0:0:0:0:
26,96,55586,2,0,P|41:58|53:-9,1,85.0000000000003,4|4,3:0|3:0,0:0:0:0:
51,15,55879,1,2,3:0:0:0:
135,147,56025,2,0,P|192:108|259:111,1,127.5,4|0,1:0|0:0,0:0:0:0:
264,121,56318,6,0,L|274:77,1,42.5000000000001,2|2,1:2|0:2,0:0:0:0:
291,113,56464,2,0,L|305:163,1,42.5000000000001,2|2,3:2|0:2,0:0:0:0:
321,123,56611,2,0,L|366:111,1,42.5000000000001,10|2,0:2|0:2,0:0:0:0:
381,111,56757,5,2,1:2:0:0:
409,124,56830,1,2,1:2:0:0:
421,155,56904,1,2,1:2:0:0:
418,191,56977,1,2,1:2:0:0:
399,224,57050,1,10,0:2:0:0:
363,242,57123,1,10,0:2:0:0:
327,264,57196,1,10,0:2:0:0:
312,308,57269,1,10,0:2:0:0:
325,361,57343,5,4,1:0:0:0:
127,210,57562,2,0,L|136:149,1,50,2|8,0:0|0:0,0:0:0:0:
203,199,57708,1,2,0:0:0:0:
203,199,57782,2,0,B|246:255|246:255|205:310|209:376,1,200,0|2,1:0|0:0,0:0:0:0:
121,149,58367,6,0,L|113:198,2,50,2|2|0,0:0|0:0|1:0,0:0:0:0:
44,152,58660,1,8,0:0:0:0:
118,57,58879,5,8,0:0:0:0:
229,122,59099,5,8,0:0:0:0:
214,241,59318,5,8,0:0:0:0:
86,265,59538,5,8,0:0:0:0:
196,351,59684,2,0,P|196:305|209:236,1,100,4|8,1:0|0:0,0:0:0:0:
125,348,59904,1,8,0:0:0:0:
125,348,59977,2,0,L|60:363,1,50,8|8,0:0|0:0,0:0:0:0:
206,343,60123,6,0,B|270:358|270:358|283:370|283:370|349:385,1,150,12|0,1:2|0:0,0:0:0:0:
387,376,60416,2,0,L|484:353,1,100,0|8,1:0|0:0,0:0:0:0:
336,154,60708,6,0,P|420:179|399:246,1,150,4|0,1:0|0:0,0:0:0:0:
405,215,61001,1,8,0:0:0:0:
409,185,61074,1,8,0:0:0:0:
390,166,61147,1,0,1:0:0:0:
367,163,61221,1,0,1:0:0:0:
345,169,61294,6,0,P|312:178|287:177,1,50,4|0,1:0|0:0,0:0:0:0:
452,90,61586,2,0,L|462:33,1,50,4|0,1:0|0:0,0:0:0:0:
460,40,61733,1,2,0:0:0:0:
350,80,61879,2,0,P|322:83|287:76,1,50,10|0,0:0|0:0,0:0:0:0:
273,68,62025,5,4,1:0:0:0:
210,100,62172,1,8,0:0:0:0:
202,136,62245,1,8,0:0:0:0:
217,170,62318,1,8,0:0:0:0:
236,211,62391,1,8,0:0:0:0:
215,261,62464,2,0,B|210:301|210:301|220:309|220:309|214:355,1,100,4|0,1:0|0:0,0:0:0:0:
87,383,62757,5,2,0:0:0:0:
132,311,62904,1,8,0:0:0:0:
126,228,63050,2,0,B|101:272|101:272|26:292,1,100,4|0,3:0|1:0,0:0:0:0:
14,225,63343,5,8,0:0:0:0:
104,147,63562,5,8,0:0:0:0:
235,135,63782,5,8,0:0:0:0:
304,85,63928,1,8,0:0:0:0:
377,76,64074,6,0,P|403:87|419:104,1,50,8|8,0:0|0:0,0:0:0:0:
489,171,64221,2,0,P|488:121|504:86,2,85.0000000000003,4|0|0,1:0|0:0|0:0,0:0:0:0:
512,269,64660,1,2,1:2:0:0:
272,320,64952,6,0,B|364:317|329:264|437:282,1,170.000000000001,8|8,0:0|0:0,0:0:0:0:
163,280,65391,2,0,L|77:308,1,85.0000000000003,4|0,1:0|0:0,0:0:0:0:
82,306,65684,1,0,1:0:0:0:
238,300,65830,2,0,P|226:333|223:404,1,85.0000000000003,2|2,1:2|0:0,0:0:0:0:
297,162,66123,1,8,0:0:0:0:
229,187,66269,2,0,P|175:186|121:159,1,85.0000000000003,2|8,3:2|0:0,0:0:0:0:
317,300,66562,6,0,P|378:229|447:256,1,170.000000000001,4|2,1:0|1:2,0:0:0:0:
447,258,66928,1,2,1:2:0:0:
453,266,67001,2,0,P|475:253|470:221,1,42.5000000000001,2|2,3:2|3:2,0:0:0:0:
471,223,67147,2,0,L|464:168,1,42.5000000000001,2|2,3:2|3:2,0:0:0:0:
444,139,67294,2,0,P|466:129|461:94,1,42.5000000000001,10|10,3:2|3:2,0:0:0:0:
467,58,67440,5,10,0:2:0:0:
456,40,67513,1,10,0:2:0:0:
423,28,67586,1,10,0:2:0:0:
380,37,67660,1,10,0:2:0:0:
362,84,67733,2,0,P|352:131|354:192,1,85.0000000000003,4|0,1:0|0:0,0:0:0:0:
0,84,68318,5,2,0:0:0:0:
10,167,68464,1,2,0:0:0:0:
25,191,68611,1,2,3:2:0:0:
37,197,68757,2,0,P|68:207|96:210,1,42.5000000000001,2|2,0:0|0:0,0:0:0:0:
246,169,68904,6,0,B|237:128|184:114|184:114|119:184|203:292,1,240,4|2,1:0|1:2,0:0:0:0:
218,318,69269,1,2,0:2:0:0:
238,340,69343,2,0,P|303:336|341:272,1,120,10|0,0:0|0:0,0:0:0:0:
421,100,69635,5,0,1:0:0:0:
348,199,69782,2,0,P|338:229|339:265,1,60,0|0,1:0|0:0,0:0:0:0:
370,326,69928,1,8,0:0:0:0:
421,100,70074,6,0,B|406:201|502:168|475:277,1,180,4|0,1:0|0:0,0:0:0:0:
472,290,70367,1,0,1:0:0:0:
327,223,70513,1,8,0:0:0:0:
338,296,70660,1,0,0:0:0:0:
478,152,70806,5,0,1:0:0:0:
325,99,70952,2,0,P|295:112|268:143,1,60,0|0,1:0|0:0,0:0:0:0:
230,197,71099,1,8,0:0:0:0:
377,33,71245,5,4,1:0:0:0:
181,49,71391,1,2,0:0:0:0:
50,159,71538,1,0,1:0:0:0:
105,21,71684,5,8,0:0:0:0:
169,75,71830,1,8,3:0:0:0:
169,75,71904,1,4,3:0:0:0:
169,75,71977,2,0,P|174:146|155:198,1,120,0|2,1:0|1:2,0:0:0:0:
62,364,72269,2,0,P|61:327|71:297,1,60,8|0,0:0|0:0,0:0:0:0:
225,235,72416,6,0,B|308:228|304:283|410:277,1,180,4|0,1:0|0:0,0:0:0:0:
426,276,72708,1,0,1:0:0:0:
356,111,72855,2,0,P|322:159|319:219,1,120,8|2,0:0|0:0,0:0:0:0:
436,355,73147,5,0,1:0:0:0:
328,305,73294,2,0,L|269:319,1,60,0|0,1:0|0:0,0:0:0:0:
165,337,73440,2,0,P|184:360|213:366,1,60,8|0,0:0|0:0,0:0:0:0:
306,324,73586,6,0,L|63:372,1,240,4|0,1:0|1:0,0:0:0:0:
106,119,74025,2,0,B|97:172|97:172|106:182|106:182|97:236,1,120,8|2,0:0|0:0,0:0:0:0:
97,234,74245,1,2,0:0:0:0:
97,234,74318,1,0,1:0:0:0:
17,177,74464,2,0,P|16:147|37:113,1,60,0|0,1:0|0:0,0:0:0:0:
167,63,74611,1,8,0:0:0:0:
242,212,74757,6,0,B|89:191|150:280|18:270,1,240,4|0,1:2|1:0,0:0:0:0:
149,316,75196,2,0,B|198:349|198:349|258:335,1,120,8|2,0:0|0:0,0:0:0:0:
466,288,75489,1,0,1:0:0:0:
397,311,75635,6,0,L|344:307,1,37.5000000000001,0|0,1:0|0:0,0:0:0:0:
266,183,75782,2,0,L|304:185,1,37.5000000000001,8|0,0:0|0:0,0:0:0:0:
360,309,75928,6,0,B|368:224|368:224|409:183|409:183|418:94,1,225,4|0,1:0|0:0,0:0:0:0:
371,20,76221,6,0,B|355:10|355:10|331:20,1,37.5000000000001,0|0,1:0|0:0,0:0:0:0:
309,33,76367,2,0,L|347:30,1,37.5000000000001,8|0,0:0|0:0,0:0:0:0:
444,28,76513,6,0,B|452:111|452:111|494:153|494:153|502:241,1,232.5,4|0,1:0|0:0,0:0:0:0:
512,336,76806,5,0,1:0:0:0:
496,360,76879,1,0,1:0:0:0:
475,363,76952,2,0,L|436:367,1,39.0000000000001,8|0,0:0|0:0,0:0:0:0:
142,307,77099,6,0,B|232:315|232:315|276:359|276:359|363:367,1,240,4|0,1:0|0:0,0:0:0:0:
398,384,77391,6,0,L|404:344,1,40,0|0,1:0|1:0,0:0:0:0:
428,265,77538,2,0,B|409:272|409:272|389:268,1,40,8|0,0:0|0:0,0:0:0:0:
260,281,77684,6,0,B|198:286|198:286|167:316|167:316|108:322,1,165,6|0,1:2|0:0,0:0:0:0:
372,288,77977,6,0,B|411:295|411:295|451:279,1,82.5,6|0,1:2|0:0,0:0:0:0:
489,264,78123,1,8,0:0:0:0:
370,122,78269,2,0,B|328:109|314:138|314:138|339:247,1,150,4|0,1:0|0:0,0:0:0:0:
333,221,78562,5,0,1:0:0:0:
333,221,78635,1,0,1:0:0:0:
333,221,78708,2,0,P|238:212|219:99,1,180,12|0,0:0|0:0,0:0:0:0:
211,113,79001,1,0,1:0:0:0:
76,35,79147,2,0,P|52:41|26:69,1,60,0|0,1:0|0:0,0:0:0:0:
0,171,79294,1,8,0:0:0:0:
64,69,79440,6,0,B|98:173|16:145|50:249,1,180,4|0,1:0|0:0,0:0:0:0:
54,270,79733,1,0,1:0:0:0:
177,209,79879,1,8,0:0:0:0:
291,288,80025,1,2,0:0:0:0:
168,349,80172,5,0,1:0:0:0:
267,256,80318,2,0,P|298:257|326:274,1,60,0|0,1:0|0:0,0:0:0:0:
416,370,80464,1,8,0:0:0:0:
166,362,80611,6,0,B|253:353|253:353|265:360|265:360|358:351,1,180,4|0,1:0|0:0,0:0:0:0:
373,350,80904,1,0,1:0:0:0:
486,210,81050,1,8,0:0:0:0:
359,100,81196,1,0,1:0:0:0:
357,115,81269,1,0,1:0:0:0:
355,130,81343,1,0,1:0:0:0:
512,280,81489,2,0,P|485:296|447:295,1,60,0|0,1:0|0:0,0:0:0:0:
373,221,81635,1,8,0:0:0:0:
472,43,81782,6,0,P|424:51|442:164,1,180,4|0,1:2|0:0,0:0:0:0:
457,171,82074,1,0,1:0:0:0:
330,302,82221,1,8,0:0:0:0:
151,277,82367,1,2,0:0:0:0:
278,146,82513,5,0,1:0:0:0:
118,304,82660,2,0,L|125:244,1,60,0|0,1:0|0:0,0:0:0:0:
186,166,82806,2,0,P|210:182|224:209,1,60,8|0,0:0|0:0,0:0:0:0:
203,381,82952,6,0,B|118:386|137:311|38:319,1,180,4|0,1:0|0:0,0:0:0:0:
11,324,83245,1,0,1:0:0:0:
0,187,83391,1,8,0:0:0:0:
121,119,83538,1,0,0:0:0:0:
47,243,83684,5,0,1:0:0:0:
85,109,83830,2,0,P|109:91|138:86,1,60,0|0,1:0|0:0,0:0:0:0:
273,128,83977,1,8,0:0:0:0:
33,205,84123,6,0,B|176:195|108:270|260:258,1,240,4|0,1:0|1:0,0:0:0:0:
404,46,84562,2,0,P|407:98|447:202,1,120,8|0,0:0|0:0,0:0:0:0:
510,309,84855,1,0,1:0:0:0:
408,178,85001,2,0,L|395:256,1,60,0|0,1:0|0:0,0:0:0:0:
395,253,85147,1,8,0:0:0:0:
508,57,85294,6,0,B|427:65|427:65|410:77|410:77|332:86,1,180,4|0,1:0|0:0,0:0:0:0:
296,90,85586,1,2,1:2:0:0:
269,64,85660,1,2,1:2:0:0:
242,38,85733,5,8,0:0:0:0:
92,172,85879,5,2,3:0:0:0:
164,324,86025,5,8,3:0:0:0:
320,333,86172,5,0,1:0:0:0:
372,249,86318,5,8,0:0:0:0:
330,184,86464,6,0,P|213:208|72:266,1,240,4|0,1:2|1:0,0:0:0:0:
37,287,86830,1,0,1:0:0:0:
14,307,86904,5,8,0:0:0:0:
100,164,87050,5,8,3:0:0:0:
269,219,87196,6,0,L|343:198,1,60,0|0,1:0|0:0,0:0:0:0:
421,98,87343,6,0,L|495:77,1,60,0|0,1:0|0:0,0:0:0:0:
358,60,87489,6,0,P|350:80|349:119,1,37.5000000000001,8|0,0:0|0:0,0:0:0:0:
456,280,87635,6,0,B|415:226|437:138|437:138|470:174,1,180,4|0,1:0|0:0,0:0:0:0:
483,153,87928,6,0,L|475:182,1,29.9999999999999,0|0,1:0|0:0,0:0:0:0:
419,229,88074,2,0,L|411:258,1,29.9999999999999,8|0,0:0|0:0,0:0:0:0:
355,305,88221,2,0,L|347:334,1,29.9999999999999,2|0,0:0|0:0,0:0:0:0:
296,384,88367,6,0,L|292:354,1,29.9999999999999,0|0,1:0|0:0,0:0:0:0:
243,298,88513,2,0,L|239:268,1,29.9999999999999,0|0,1:0|0:0,0:0:0:0:
213,200,88660,6,0,L|209:229,1,29.9999999999999,8|0,0:0|0:0,0:0:0:0:
97,363,88806,6,0,B|133:396|233:371|273:315|173:314|191:364,1,180,4|0,1:0|0:0,0:0:0:0:
182,374,89099,6,0,L|173:334,1,29.9999999999999,0|0,1:0|0:0,0:0:0:0:
148,276,89245,2,0,L|139:236,1,29.9999999999999,8|0,0:0|0:0,0:0:0:0:
114,178,89391,2,0,L|105:138,1,29.9999999999999,2|0,0:0|0:0,0:0:0:0:
74,82,89538,6,0,L|61:135,1,35,0|0,1:0|0:0,0:0:0:0:
40,184,89684,2,0,L|28:236,1,34.9999989318848,0|0,1:0|0:0,0:0:0:0:
6,285,89830,6,0,L|-3:245,1,29.9999999999999,8|0,0:0|0:0,0:0:0:0:
34,93,89977,6,0,P|115:55|197:80,1,180,4|0,1:0|0:0,0:0:0:0:
216,105,90269,6,0,L|224:62,1,29.9999999999999,0|0,1:0|0:0,0:0:0:0:
303,82,90416,2,0,L|311:39,1,29.9999999999999,8|0,0:0|0:0,0:0:0:0:
385,89,90562,1,10,3:0:0:0:
387,74,90635,1,0,1:0:0:0:
390,59,90708,6,0,L|398:16,1,29.9999999999999,0|0,1:0|0:0,0:0:0:0:
465,88,90855,2,0,L|470:117,1,29.9999999999999,0|0,1:0|0:0,0:0:0:0:
475,134,91001,21,8,0:0:0:0:
317,257,91147,1,4,1:0:0:0:
443,384,91294,6,0,P|449:366|448:347,1,37.5000000000001,2|0,0:0|0:0,0:0:0:0:
382,200,91440,2,0,P|400:196|416:186,1,37.5000000000001,0|0,1:0|0:0,0:0:0:0:
479,269,91586,6,0,P|456:270|435:263,1,45.0000000000001,8|0,0:0|0:0,0:0:0:0:
289,143,91733,2,0,P|293:164|305:182,1,45.0000000000001,2|0,0:0|0:0,0:0:0:0:
361,377,91879,6,0,P|337:353|324:314,1,60,0|0,1:0|0:0,0:0:0:0:
196,192,92025,2,0,P|224:208|247:243,1,60,0|0,1:0|0:0,0:0:0:0:
240,350,92172,6,0,P|202:350|170:368,1,75,8|0,0:0|0:0,0:0:0:0:
177,93,92318,6,0,B|184:241|97:177|112:315,1,240,4|0,1:0|1:0,0:0:0:0:
55,363,92684,1,0,1:0:0:0:
55,363,92757,2,0,P|60:302|95:231,1,120,8|2,0:0|0:0,0:0:0:0:
254,119,93050,5,0,1:0:0:0:
382,199,93196,1,0,1:0:0:0:
302,314,93343,1,8,0:0:0:0:
437,135,93489,6,0,B|365:146|365:146|356:178|356:178|282:190,1,180,4|0,1:0|0:0,0:0:0:0:
253,196,93782,1,0,1:0:0:0:
366,66,93928,1,8,0:0:0:0:
501,204,94074,6,0,B|513:263|513:263|471:314,1,120,2|0,0:0|1:0,0:0:0:0:
338,351,94367,2,0,L|348:285,1,60,0|0,1:0|0:0,0:0:0:0:
352,262,94513,1,8,0:0:0:0:
256,384,94660,6,0,B|250:244|179:311|166:185,1,225,4|0,1:2|0:0,0:0:0:0:
23,121,94952,6,0,P|25:139|37:153,1,37.5000000000001,0|0,1:0|0:0,0:0:0:0:
60,167,95099,2,0,L|112:157,1,37.5000000000001,8|0,0:0|0:0,0:0:0:0:
177,63,95245,6,0,B|171:205|98:137|85:266,1,232.5,4|0,1:0|0:0,0:0:0:0:
54,384,95538,5,0,1:0:0:0:
48,365,95611,1,0,1:0:0:0:
54,338,95684,2,0,L|92:343,1,39.0000000000001,8|0,0:0|0:0,0:0:0:0:
321,191,95830,6,0,B|286:194|286:194|206:339|206:339|167:342,1,240,4|0,1:0|0:0,0:0:0:0:
307,343,96123,6,0,L|363:343,1,40,0|0,1:0|1:0,0:0:0:0:
373,369,96269,2,0,B|384:350|384:350|380:332,1,40,8|0,0:0|0:0,0:0:0:0:
366,104,96416,6,0,B|371:146|371:146|353:166|353:166|367:260,1,165,4|0,1:2|0:0,0:0:0:0:
212,279,96708,6,0,L|286:268,1,75,4|0,1:2|1:0,0:0:0:0:
470,242,96855,1,8,0:0:0:0:
297,271,97001,2,0,L|371:264,1,75,4|0,1:0|0:0,0:0:0:0:
371,263,97294,5,0,1:0:0:0:
371,263,97367,1,0,1:0:0:0:
371,263,97440,2,0,P|345:178|240:195,1,180,8|0,0:0|0:0,0:0:0:0:
244,190,97733,6,0,L|248:144,1,29.9999999999999,0|0,1:0|0:0,0:0:0:0:
196,108,97879,2,0,L|150:104,1,29.9999999999999,0|0,1:0|0:0,0:0:0:0:
130,36,98025,6,0,L|128:66,1,29.9999999999999,8|0,0:0|0:0,0:0:0:0:
92,264,98172,6,0,B|125:213|125:213|109:155,1,120,4|0,1:0|0:0,0:0:0:0:
86,158,98391,1,2,0:0:0:0:
86,158,98464,6,0,L|40:163,1,29.9999999999999,2|0,1:2|0:0,0:0:0:0:
62,253,98611,2,0,L|65:282,1,29.9999999999999,8|0,0:0|0:0,0:0:0:0:
98,351,98757,6,0,L|102:317,1,34.9999989318848,2|0,0:0|0:0,0:0:0:0:
165,279,98904,2,0,L|169:237,1,34.9999989318848,0|0,1:0|0:0,0:0:0:0:
227,181,99050,6,0,L|230:210,1,29.9999999999999,0|0,1:0|0:0,0:0:0:0:
293,249,99196,2,0,L|296:278,1,29.9999999999999,8|0,0:0|0:0,0:0:0:0:
400,373,99343,6,0,B|398:300|476:258|476:258|469:289|486:316,1,180,4|0,1:0|0:0,0:0:0:0:
485,312,99635,6,0,L|499:271,1,29.9999999999999,0|0,1:0|1:0,0:0:0:0:
449,197,99782,6,0,L|439:225,1,29.9999999999999,8|0,0:0|0:0,0:0:0:0:
388,134,99928,1,10,3:0:0:0:
383,148,100001,1,0,1:0:0:0:
378,162,100074,6,0,L|368:190,1,29.9999999999999,0|0,1:0|0:0,0:0:0:0:
307,127,100221,2,0,L|297:155,1,29.9999999999999,0|0,1:0|0:0,0:0:0:0:
287,228,100367,6,0,L|296:199,1,29.9999999999999,8|0,0:0|0:0,0:0:0:0:
279,24,100513,6,0,P|234:78|115:40,1,180,4|0,1:0|0:0,0:0:0:0:
118,44,100806,6,0,P|111:58|120:93,1,29.9999999999999,0|0,1:0|0:0,0:0:0:0:
200,94,100952,2,0,P|207:80|198:45,1,29.9999999999999,8|0,0:0|0:0,0:0:0:0:
60,0,101099,6,0,P|25:15|7:54,1,67.5,2|0,0:0|0:0,0:0:0:0:
13,113,101245,2,0,P|18:148|37:198,1,67.5,0|0,1:0|0:0,0:0:0:0:
86,228,101391,2,0,L|152:214,1,67.5,0|0,1:0|0:0,0:0:0:0:
297,185,101538,5,8,0:0:0:0:
458,305,101684,2,0,P|347:221|229:252,1,270,4|0,1:0|1:0,0:0:0:0:
72,306,102123,6,0,B|126:309|126:309|136:318|136:318|188:321,1,119.999996337891,8|2,0:0|0:0,0:0:0:0:
188,321,102343,1,2,0:0:0:0:
195,329,102416,1,0,1:0:0:0:
307,361,102562,2,0,P|319:345|316:291,1,60,0|0,1:0|0:0,0:0:0:0:
228,147,102708,1,8,0:0:0:0:
507,171,102855,6,0,B|411:156|443:245|289:243,1,180,4|0,1:0|0:0,0:0:0:0:
316,234,103147,1,0,1:0:0:0:
220,170,103294,1,8,0:0:0:0:
212,62,103440,1,2,0:0:0:0:
148,185,103586,6,0,L|138:255,1,60,0|0,1:0|0:0,0:0:0:0:
127,258,103733,2,0,P|104:234|118:198,1,60,0|0,1:0|0:0,0:0:0:0:
215,86,103879,1,8,0:0:0:0:
227,272,104025,6,0,B|140:256|157:335|59:330,1,180,4|0,1:2|0:0,0:0:0:0:
34,324,104318,1,0,1:0:0:0:
202,244,104464,1,8,0:0:0:0:
330,345,104611,5,8,3:0:0:0:
401,301,104757,5,8,3:0:0:0:
393,287,104904,6,0,L|306:302,1,75.0000000000002,4|8,1:3|0:0,0:0:0:0:
210,384,105196,6,0,B|195:318|195:318|261:245|261:245|241:170,1,240,4|2,1:0|0:0,0:0:0:0:
190,31,105635,6,0,L|170:129,1,100,2|2,0:0|3:2,0:0:0:0:
170,129,105855,1,2,3:2:0:0:
170,129,105928,5,8,3:0:0:0:
234,189,106025,5,4,3:0:0:0:
256,265,106123,5,4,3:0:0:0:
232,319,106221,5,2,3:0:0:0:
236,285,106318,5,4,3:0:0:0:
256,265,106416,5,4,3:0:0:0:
323,232,106503,5,4,1:0:0:0:
384,73,106795,1,0,0:0:0:0:
384,73,106942,2,0,B|397:172|352:144|363:239,1,150,4|2,1:2|0:0,0:0:0:0:
346,254,107527,2,0,L|448:225,2,100,2|2|6,0:0|0:0|0:2,0:0:0:0:
166,254,108405,1,0,0:0:0:0:
98,235,108551,1,0,0:0:0:0:
0,384,108844,5,2,3:2:0:0:
74,356,108990,2,0,P|147:371|222:370,2,150,2|2|8,0:0|3:2|3:0,0:0:0:0:
48,92,110307,5,2,3:0:0:0:
2,178,110454,2,0,L|15:122,1,50,2|2,0:0|0:0,0:0:0:0:
140,43,110746,6,0,L|129:92,1,50,4|2,3:0|3:2,0:0:0:0:
56,69,111039,1,2,3:2:0:0:
83,163,111185,6,0,B|156:144|156:144|239:194,1,150,4|4,1:0|1:2,0:0:0:0:
219,182,112063,1,0,0:0:0:0:
249,384,112502,2,0,P|261:362|260:328,2,50,2|2|2,0:0|0:0|0:0,0:0:0:0:
164,269,113088,1,2,0:0:0:0:
169,298,113234,1,2,0:0:0:0:
169,298,113381,1,2,0:0:0:0:
149,373,113527,5,2,3:2:0:0:
386,295,113966,1,2,0:0:0:0:
398,321,114405,1,8,3:0:0:0:
398,321,114551,2,0,L|409:252,1,50,0|8,0:0|3:0,0:0:0:0:
418,200,114844,5,8,3:0:0:0:
385,127,114990,1,2,3:0:0:0:
342,194,115137,1,2,3:0:0:0:
482,159,115283,5,4,3:0:0:0:
440,223,115429,1,4,3:0:0:0:
382,172,115576,1,4,3:0:0:0:
371,174,115722,2,0,L|337:178,1,25,4|0,3:0|0:0,0:0:0:0:
269,186,115868,5,4,1:0:0:0:
0,0,116307,2,0,P|19:45|29:112,1,100,4|0,1:2|0:0,0:0:0:0:
53,87,116746,1,2,0:0:0:0:
53,87,116893,2,0,L|43:146,1,50,0|2,0:0|0:0,0:0:0:0:
9,200,117185,5,6,0:0:0:0:
101,189,117332,1,2,0:0:0:0:
125,201,117478,1,2,0:0:0:0:
9,378,117771,2,0,L|0:328,1,50,2|2,0:0|0:0,0:0:0:0:
0,328,118063,1,2,0:0:0:0:
79,332,118210,6,0,B|153:331|158:362|239:360,1,150,2|2,3:2|3:2,0:0:0:0:
512,192,119088,1,8,3:0:0:0:
381,140,119234,1,2,3:0:0:0:
441,217,119381,1,4,3:0:0:0:
418,173,119527,1,2,3:0:0:0:
418,173,119673,6,0,L|411:211,1,25,8|0,3:0|0:0,0:0:0:0:
400,277,119820,1,8,3:0:0:0:
404,283,119893,1,8,3:0:0:0:
408,289,119966,6,0,P|398:312|380:329,1,37.5000000000001,2|0,3:0|0:0,0:0:0:0:
222,371,120112,6,0,P|212:347|209:323,1,50,4|0,3:0|0:0,0:0:0:0:
280,290,120259,6,0,P|287:266|301:245,1,50,2|0,3:2|0:0,0:0:0:0:
357,344,120405,6,0,P|335:354|310:358,1,50,2|0,3:2|0:0,0:0:0:0:
230,349,120551,5,4,1:0:0:0:
32,192,120990,2,0,B|4:234|4:234|22:297,1,100,4|0,1:2|0:0,0:0:0:0:
36,313,121429,1,6,0:0:0:0:
36,313,121576,2,0,P|48:289|50:244,1,50,2|2,0:0|0:0,0:0:0:0:
123,307,121868,5,2,0:0:0:0:
128,230,122015,2,0,P|132:254|143:276,1,50,2|6,0:0|0:0,0:0:0:0:
267,116,122454,1,2,0:0:0:0:
256,192,122600,1,2,0:0:0:0:
256,192,122746,1,2,0:0:0:0:
243,276,122893,5,2,3:2:0:0:
254,308,123332,5,0,0:0:0:0:
244,321,123771,5,0,3:2:0:0:
255,245,123917,1,0,3:2:0:0:
244,321,124063,6,0,P|278:343|331:354,1,89.9999999999998,0|0,3:2|0:0,0:0:0:0:
344,351,124356,5,2,3:2:0:0:
344,263,124502,1,2,3:2:0:0:
339,376,124649,6,0,L|385:351,1,37.5000000000001,8|0,3:0|0:0,0:0:0:0:
455,281,124795,2,0,L|426:304,1,37.5000014305115,2|0,3:0|0:0,0:0:0:0:
339,376,124942,5,2,0:0:0:0:
308,279,125088,2,0,P|316:259|318:238,1,42.5000000000001,4|0,1:0|0:0,0:0:0:0:
309,162,125234,6,0,P|223:142|220:236,1,200,0|0,1:0|0:0,0:0:0:0:
241,193,126112,1,2,3:2:0:0:
166,170,126259,2,0,L|38:219,1,120,2|0,0:2|3:0,0:0:0:0:
43,237,126990,6,0,L|132:202,1,80,2|2,3:2|3:2,0:0:0:0:
43,237,127429,1,0,1:0:0:0:
25,146,127576,2,0,B|18:237|18:237|5:252|5:252|0:341,1,200,2|0,1:2|0:0,0:0:0:0:
19,359,128454,1,2,3:2:0:0:
85,380,128600,2,0,L|141:366,1,40,2|2,0:2|3:2,0:0:0:0:
307,324,129039,5,2,3:2:0:0:
267,216,129185,1,2,0:2:0:0:
290,312,129332,1,2,3:2:0:0:
246,192,129478,6,0,P|237:208|236:226,1,37.5000000000001,8|2,3:0|0:2,0:0:0:0:
329,205,129624,2,0,P|320:221|319:239,1,37.5000000000001,4|2,3:0|0:2,0:0:0:0:
412,218,129771,6,0,P|412:236|421:252,1,37.5000000000001,2|2,3:0|0:2,0:0:0:0:
430,298,129917,6,0,P|487:194|488:75,1,240,2|2,1:2|3:2,0:0:0:0:
504,201,130942,2,0,L|516:145,1,40,2|0,0:2|3:0,0:0:0:0:
512,0,131381,5,0,3:0:0:0:
352,96,131673,2,0,L|352:56,1,40,0|0,3:0|0:0,0:0:0:0:
421,25,131966,1,2,3:2:0:0:
421,25,132112,1,2,1:2:0:0:
335,42,132259,6,0,P|346:141|334:212,1,160,2|0,1:2|3:0,0:0:0:0:
272,240,132990,1,2,0:0:0:0:
228,253,133137,1,2,3:2:0:0:
182,253,133283,1,2,0:0:0:0:
154,242,133429,6,0,L|165:189,1,40,0|2,3:2|0:0,0:0:0:0:
258,282,133722,2,0,P|258:304|249:321,1,40,0|2,3:0|0:0,0:0:0:0:
70,363,134015,6,0,L|76:289,1,59.9999999999999,2|8,3:2|3:0,0:0:0:0:
75,303,134307,2,0,L|12:264,1,59.9999999999999,4|2,3:0|3:0,0:0:0:0:
11,197,134600,6,0,B|68:192|70:230|128:219,1,120,2|2,1:2|0:0,0:0:0:0:
256,95,135332,2,0,L|245:133,1,40,2|2,0:2|3:2,0:0:0:0:
196,156,135624,2,0,P|192:120|168:81,1,80,2|0,0:0|0:0,0:0:0:0:
210,24,136063,1,0,3:0:0:0:
340,34,136356,6,0,L|302:24,1,40,2|0,3:2|0:0,0:0:0:0:
434,62,136649,2,0,B|453:54|453:54|484:57,1,40,2|0,3:2|1:0,0:0:0:0:
509,153,136942,6,0,B|470:148|470:148|414:207|414:207|373:201,1,160,2|0,1:2|3:0,0:0:0:0:
295,159,137673,1,2,0:0:0:0:
346,166,137820,2,0,L|385:171,1,40,0|2,3:0|0:0,0:0:0:0:
459,183,138112,6,0,P|489:209|484:257,1,80,0|2,3:0|3:2,0:0:0:0:
411,349,138551,1,2,0:2:0:0:
294,297,138698,1,2,3:2:0:0:
357,337,138844,6,0,L|405:329,1,37.5000000000001,8|2,3:0|0:0,0:0:0:0:
341,339,138990,2,0,L|304:345,1,37.5000000000001,4|2,3:0|0:0,0:0:0:0:
219,359,139137,6,0,P|208:343|198:317,1,37.5000000000001,2|2,3:0|0:0,0:0:0:0:
209,273,139283,6,0,B|195:366|131:380|131:380|99:365|98:320,1,200,2|0,1:2|0:0,0:0:0:0:
142,222,140161,1,0,3:0:0:0:
66,350,140307,6,0,L|79:299,1,40,2|0,0:0|3:0,0:0:0:0:
93,239,140600,2,0,P|90:219|101:192,2,40,0|0|0,0:0|3:0|0:0,0:0:0:0:
52,326,141039,2,0,P|70:333|90:335,1,40,0|0,3:0|0:0,0:0:0:0:
5,266,141332,5,0,3:0:0:0:
28,158,141478,1,0,1:0:0:0:
14,174,141624,6,0,P|-2:159|5:102,1,80,4|8,1:2|0:0,0:0:0:0:
107,165,142063,2,0,P|123:129|152:144,1,80,0|0,1:0|0:0,0:0:0:0:
182,131,142502,2,0,P|163:110|146:104,1,40,2|8,0:0|0:0,0:0:0:0:
152,105,142795,6,0,B|248:108|215:139|295:142,1,150,2|8,0:1|0:0,0:0:0:0:
463,142,143234,2,0,P|488:194|502:248,1,112.5,2|0,0:0|0:0,0:0:0:0:
438,217,143527,5,8,0:0:0:0:
421,240,143600,1,8,0:0:0:0:
428,256,143673,1,8,3:0:0:0:
371,126,143820,5,4,3:0:0:0:
379,96,143893,1,4,3:0:0:0:
389,58,143966,2,0,B|404:101|404:101|272:111,1,150,4|8,1:0|0:0,0:0:0:0:
234,70,144259,2,0,L|247:12,1,50,8|8,0:0|0:0,0:0:0:0:
208,40,144405,6,0,B|208:87|208:87|284:162|284:162|284:211,1,200,4|2,1:0|0:0,0:0:0:0:
173,306,144844,2,0,L|270:280,1,100,2|2,0:0|0:0,0:0:0:0:
279,246,145063,1,2,0:0:0:0:
284,208,145137,1,2,1:2:0:0:
160,231,145283,6,0,P|97:229|77:170,1,125,8|0,0:0|0:0,0:0:0:0:
50,184,145502,2,0,P|92:143|73:72,1,125,8|0,0:0|0:0,0:0:0:0:
61,66,145722,2,0,P|122:42|184:54,1,125,8|0,0:0|0:0,0:0:0:0:
196,31,145942,6,0,P|219:38|235:57,1,50,8|2,0:0|0:0,0:0:0:0:
275,221,146161,1,8,0:0:0:0:
269,29,146307,6,0,P|328:82|327:133,1,100,4|8,1:0|0:0,0:0:0:0:
306,130,146527,1,8,0:0:0:0:
323,165,146600,1,8,0:0:0:0:
306,195,146673,1,8,0:0:0:0:
320,266,146746,6,0,L|311:328,1,50,4|0,1:0|0:0,0:0:0:0:
312,315,147039,1,8,3:0:0:0:
246,285,147185,1,4,3:0:0:0:
435,359,147332,6,0,B|404:307|404:307|421:191|421:191|447:218,1,200,4|8,1:0|0:0,0:0:0:0:
449,233,147698,2,0,L|469:173,1,50,8|8,0:0|0:0,0:0:0:0:
500,78,147917,5,4,1:0:0:0:
256,159,148210,5,2,1:2:0:0:
256,233,148356,5,2,0:0:0:0:
258,264,148502,6,0,B|258:286|258:286|254:291|254:291|254:324,1,50,8|0,0:0|0:0,0:0:0:0:
336,364,148649,6,0,B|330:270|370:308|363:217,1,150,4|8,1:0|0:0,0:0:0:0:
357,184,148942,1,8,0:0:0:0:
379,146,149015,1,8,0:0:0:0:
367,98,149088,1,4,1:0:0:0:
367,2,149527,6,0,B|328:7|328:7|324:25|324:25|281:32,1,100,2|2,0:0|0:0,0:0:0:0:
424,9,149820,2,0,L|375:18,1,50,0|0,1:0|0:0,0:0:0:0:
256,36,149966,6,0,B|237:54|237:54|224:134,1,100,8|8,0:0|0:0,0:0:0:0:
203,154,150185,2,0,B|137:121|137:121|112:126,1,100,8|0,0:0|0:0,0:0:0:0:
84,102,150405,2,0,L|141:102,1,50,8|8,0:0|0:0,0:0:0:0:
134,102,150551,1,8,3:0:0:0:
15,188,150698,5,8,0:0:0:0:
28,176,150771,1,8,0:0:0:0:
44,178,150844,2,0,B|47:276|125:246|118:342,1,180,4|0,1:0|0:0,0:0:0:0:
219,265,151283,2,0,P|202:306|197:351,1,90.0000000000001,0|0,1:0|0:0,0:0:0:0:
412,383,151576,1,8,0:0:0:0:
482,355,151868,5,2,0:0:0:0:
289,296,152015,2,0,P|284:341|273:384,2,90.0000000000001,4|0|2,1:0|0:0|1:2,0:0:0:0:
486,359,152454,1,2,1:2:0:0:
400,344,152600,2,0,B|365:332|365:332|361:226|361:226|326:212,1,180,2|2,0:0|0:0,0:0:0:0:
409,362,153039,2,0,L|413:256,1,90.0000000000001
417,137,153332,5,4,1:0:0:0:
309,93,153527,1,8,0:0:0:0:
202,137,153722,1,8,0:0:0:0:
430,133,153917,6,0,L|387:82,1,60.0000000000001,4|0,1:0|0:0,0:0:0:0:
303,59,154112,2,0,B|272:57|272:57|240:36,1,60.0000000000001,8|0,0:0|0:0,0:0:0:0:
163,95,154307,2,0,L|97:107,1,60.0000000000001,8|0,0:0|0:0,0:0:0:0:
439,123,154502,6,0,P|427:90|353:62,1,120,4|0,1:0|0:0,0:0:0:0:
302,15,154698,2,0,P|275:-8|197:5,1,120,8|0,0:0|0:0,0:0:0:0:
129,34,154893,2,0,P|123:69|173:130,1,120,8|0,0:0|0:0,0:0:0:0:
256,106,155088,6,0,B|254:139|254:139|220:183|220:183|218:221,1,120,4|2,1:0|0:0,0:0:0:0:
217,254,155307,1,2,0:0:0:0:
216,273,155381,2,0,L|212:349,1,60,2|2,0:0|0:0,0:0:0:0:
292,307,155527,6,1,B|383:262|383:262|383:149|383:149|495:92|495:92|495:318|495:318|383:384|383:384|268:318|268:318|268:92|268:92|383:30|383:30|482:84,1,1296.00003164063,4|0,1:2|1:0,0:0:0:0:
479,160,158015,1,0,1:0:0:0:
293,160,158307,5,0,3:0:0:0:
219,160,158454,1,0,1:0:0:0:
36,168,158893,5,0,3:0:0:0:
26,175,159039,2,0,L|28:127,1,40,2|0,0:0|0:0,0:0:0:0:
29,57,159185,6,0,B|52:40|52:40|103:36,1,80,0|2,3:0|0:2,0:0:0:0:
150,35,159405,1,2,0:2:0:0:
172,15,159478,5,2,3:2:0:0:
185,34,159551,1,2,0:2:0:0:
204,62,159624,2,0,L|219:16,1,40,2|2,0:2|0:2,0:0:0:0:
295,23,159771,6,0,L|320:100,1,80,6|8,3:2|3:0,0:0:0:0:
331,94,159990,1,0,0:0:0:0:
343,89,160063,5,0,0:0:0:0:
327,171,160210,2,0,L|339:209,1,40,4|4,3:0|3:0,0:0:0:0:
409,209,160356,6,1,B|432:206|432:206|442:149|508:115|508:115|365:213|285:173|285:173|249:135|292:272|254:304|156:344|156:344|225:290|265:343,1,750,2|0,3:0|1:0,0:0:0:0:
192,372,162698,1,0,1:0:0:0:
192,372,163137,5,0,1:0:0:0:
320,12,167893,5,2,0:2:0:0:
313,22,167966,6,0,L|327:72,3,40,2|2|2|2,3:2|0:0|0:0|0:0,0:0:0:0:
376,56,168259,2,0,P|363:75|362:106,2,40,2|2|2,3:2|0:2|0:2,0:0:0:0:
387,107,168478,5,2,0:2:0:0:
424,129,168551,2,0,P|435:144|446:176,1,40,2|2,3:2|0:2,0:0:0:0:
433,218,168698,5,2,0:2:0:0:
447,239,168771,1,2,0:2:0:0:
430,259,168844,1,2,3:2:0:0:
446,289,168917,1,2,0:2:0:0:
434,333,168990,2,0,L|430:372,1,40,2|2,0:2|0:2,0:0:0:0:
344,373,169137,6,0,B|319:325|319:325|329:290,1,90.0000000000001,2|2,3:2|0:0,0:0:0:0:
352,215,169356,1,2,0:0:0:0:
335,181,169429,2,0,L|354:310,1,90.0000000000001,8|4,3:0|3:0,0:0:0:0:
348,270,169649,1,4,3:0:0:0:
348,270,169722,6,0,B|310:265|310:265|259:321|259:321|217:315,1,150,4|0,1:0|3:0,0:0:0:0:
74,296,170161,2,0,L|84:370,1,75.0000000000002,0|0,3:0|3:0,0:0:0:0:
154,384,170600,5,0,3:0:0:0:
0,96,171039,5,0,3:0:0:0:
330,110,171478,6,0,B|326:64|347:84|337:20,1,75.0000000000002,0|2,3:0|0:0,0:0:0:0:
330,110,171771,1,0,3:0:0:0:
254,110,171917,6,0,L|170:124,1,85.0000000000003,4|8,1:0|0:0,0:0:0:0:
111,78,172137,1,8,0:0:0:0:
79,83,172210,1,0,1:0:0:0:
39,60,172283,5,8,0:0:0:0:
1,66,172356,2,0,P|-9:92|-6:122,1,50,8|8,0:0|0:0,0:0:0:0:
41,230,172502,2,0,P|58:251|85:264,1,50,8|8,0:0|0:0,0:0:0:0:
163,180,172649,6,0,L|170:134,1,37.5000000000001,8|8,0:0|0:0,0:0:0:0:
238,189,172795,2,0,L|232:226,1,37.5000000000001,0|8,1:0|0:0,0:0:0:0:
203,294,172942,6,0,L|208:256,1,37.5000000000001,8|8,0:0|0:0,0:0:0:0:
323,229,173088,6,0,B|372:224|372:224|427:251,1,100,4|0,1:0|0:0,0:0:0:0:
417,246,173381,5,0,1:0:0:0:
417,246,173454,1,0,1:0:0:0:
417,246,173527,2,0,L|427:190,1,50,8|0,0:0|0:0,0:0:0:0:
452,71,173673,5,8,0:0:0:0:
499,168,173820,5,8,1:2:0:0:
493,142,173966,5,8,1:2:0:0:
19,242,174405,6,0,B|75:234|75:234|93:246|93:246|188:232,1,165,4|0,1:0|0:0,0:0:0:0:
209,226,174698,2,0,B|228:175|228:175|200:124,1,110,8|0,0:0|0:0,0:0:0:0:
301,381,174990,5,0,1:0:0:0:
417,341,175137,1,0,1:0:0:0:
325,261,175283,1,8,0:0:0:0:
209,301,175429,1,0,1:0:0:0:
341,284,175576,6,0,P|375:234|367:177,1,110,2|0,0:0|1:0,0:0:0:0:
482,17,175868,2,0,B|501:116|454:103|477:200,1,165,8|0,0:0|0:0,0:0:0:0:
477,210,176161,1,0,1:0:0:0:
319,127,176307,1,0,1:0:0:0:
197,258,176454,2,0,B|160:184|160:184|198:98,1,165,8|0,0:0|0:0,0:0:0:0:
258,69,176746,6,0,P|337:96|328:175,1,165,0|0,1:0|0:0,0:0:0:0:
311,195,177039,2,0,P|293:247|294:325,1,110,8|0,0:0|0:0,0:0:0:0:
94,364,177332,5,0,1:0:0:0:
23,337,177478,1,0,1:0:0:0:
143,241,177624,5,8,0:0:0:0:
94,185,177771,2,0,P|62:187|45:202,1,55,0|0,1:0|0:0,0:0:0:0:
19,228,177917,6,0,P|4:175|16:118,1,110,2|0,0:0|1:0,0:0:0:0:
190,25,178210,2,0,B|125:35|125:35|106:23|106:23|30:34,1,165,8|0,0:0|0:0,0:0:0:0:
0,40,178502,5,0,1:0:0:0:
124,72,178649,2,0,L|177:85,1,55,0|0,1:0|0:0,0:0:0:0:
302,117,178795,1,8,0:0:0:0:
256,384,179088,6,0,B|234:300|283:321|263:217,1,165,4|0,1:0|0:0,0:0:0:0:
260,191,179381,1,8,0:0:0:0:
351,248,179527,2,0,B|399:274|399:274|451:260,1,110,2|0,0:0|1:0,0:0:0:0:
452,259,179820,1,0,1:0:0:0:
390,360,179966,6,0,P|369:343|334:336,1,55,8|0,0:0|0:0,0:0:0:0:
313,336,180112,1,0,1:0:0:0:
152,273,180259,6,0,L|213:262,1,55,2|2,0:0|0:0,0:0:0:0:
228,260,180405,1,0,1:0:0:0:
288,24,180551,6,0,B|293:43|293:43|215:137|215:137|223:160,1,165,8|0,0:0|0:0,0:0:0:0:
222,159,180844,1,0,1:0:0:0:
103,115,180990,1,0,1:0:0:0:
187,43,181137,1,8,0:0:0:0:
279,77,181283,1,2,0:0:0:0:
213,141,181429,6,0,B|122:156|174:213|70:231,1,165,4|0,1:2|0:0,0:0:0:0:
50,228,181722,5,8,0:0:0:0:
164,236,181868,5,4,3:0:0:0:
243,278,182015,5,8,3:0:0:0:
296,333,182161,5,4,3:0:0:0:
341,361,182307,5,2,3:0:0:0:
376,369,182454,6,0,P|391:348|384:307,1,55,12|0,0:0|0:0,0:0:0:0:
512,188,182600,6,0,P|438:262|390:224,1,130,2|4,0:0|3:0,0:0:0:0:
408,237,182820,1,4,3:0:0:0:
400,204,182893,5,2,3:0:0:0:
308,181,183039,5,2,3:0:0:0:
195,206,183185,6,0,P|180:215|168:239,1,32.4999985122681,8|0,0:0|0:0,0:0:0:0:
144,278,183332,5,2,0:0:0:0:
94,312,183478,5,8,3:0:0:0:
47,311,183624,6,0,L|38:262,1,45.0000000000001,0|0,1:0|0:0,0:0:0:0:
7,94,183771,6,0,B|54:201|54:201|17:252,1,165,4|0,1:0|0:0,0:0:0:0:
6,261,184063,2,0,B|-8:207|-8:207|26:164,1,110,8|0,0:0|0:0,0:0:0:0:
107,63,184356,5,0,1:0:0:0:
121,139,184502,1,0,1:0:0:0:
252,38,184649,5,8,0:0:0:0:
226,110,184795,2,0,P|219:142|231:177,1,55,0|0,1:0|0:0,0:0:0:0:
240,197,184942,6,0,B|307:191|283:225|364:220,1,110,2|0,0:0|1:0,0:0:0:0:
149,384,185234,2,0,B|100:317|100:317|124:239,1,165,8|0,0:0|0:0,0:0:0:0:
135,210,185527,5,0,1:0:0:0:
223,297,185673,2,0,P|243:317|282:323,1,55,0|0,1:0|0:0,0:0:0:0:
405,323,185820,2,0,B|395:221|456:264|428:139,1,165,8|0,0:0|0:0,0:0:0:0:
431,137,186112,6,0,P|388:111|327:122,1,110,0|0,1:0|0:0,0:0:0:0:
197,276,186405,2,0,P|255:220|335:217,1,165,8|0,0:0|0:0,0:0:0:0:
446,263,186698,1,0,1:0:0:0:
336,363,186844,1,0,1:0:0:0:
336,39,187137,6,0,B|237:53|237:53|211:114|211:114|108:133,1,270,4|0,1:0|0:0,0:0:0:0:
95,114,187722,6,0,B|129:91|129:91|259:132,1,150,2|0,1:2|0:0,0:0:0:0:
268,138,188015,6,0,B|282:158|282:158|272:195,1,50,4|0,3:0|0:0,0:0:0:0:
250,253,188161,5,4,3:0:0:0:
261,307,188307,1,2,3:0:0:0:
402,183,188454,6,0,B|388:227|388:227|429:290|412:339,1,165,4|0,1:0|0:0,0:0:0:0:
403,365,188746,2,0,P|383:347|392:322,1,55,8|0,0:0|0:0,0:0:0:0:
441,268,188893,1,2,0:0:0:0:
250,322,189039,5,0,1:0:0:0:
342,253,189185,1,0,1:0:0:0:
273,161,189332,1,8,0:0:0:0:
181,230,189478,1,2,1:2:0:0:
254,303,189624,5,0,0:0:0:0:
254,303,189771,2,0,L|133:328,1,110,0|8,1:0|0:0,0:0:0:0:
472,35,190210,5,0,1:0:0:0:
258,81,190356,1,0,1:0:0:0:
472,35,190502,1,8,0:0:0:0:
181,166,190649,6,0,B|225:166|225:166|264:194|264:194|280:147|280:147|321:120|321:120|281:90|281:90|268:44|268:44|226:72|226:72|178:71|178:71|192:118|192:118,1,435.000000000001,4|0,1:0|0:0,0:0:0:0:
170,174,191820,5,2,3:2:0:0:
157,181,191893,1,2,3:2:0:0:
146,189,191966,6,0,B|76:220|48:321|48:321|82:319|101:341|101:341|138:343|158:371|158:371|166:298|216:240,1,432,2|0,3:2|0:0,0:0:0:0:
266,178,200893,54,3,B|252:182|252:182|264:217|264:217|299:207|299:207|287:130|287:130|207:144|207:144|229:266|229:266|315:256|315:256|340:118|340:118|201:94|201:94|177:232,1,880,0|0,0:0|0:0,0:0:0:0:
155,270,202137,1,2,0:0:0:0:
155,270,202210,6,0,L|141:216,1,55,10|0,0:0|0:0,0:0:0:0:
161,132,202356,6,0,B|220:108|277:142|267:187|319:228|391:195,1,240,4|0,1:0|0:0,0:0:0:0:
447,198,202649,6,0,P|467:192|491:166,1,40,0|0,1:0|0:0,0:0:0:0:
452,168,202795,2,0,B|463:153|463:153|463:132,1,40,8|0,0:0|0:0,0:0:0:0:
373,118,202942,6,0,B|330:111|330:111|211:214|211:214|165:207,1,247.5,4|0,1:0|0:0,0:0:0:0:
66,192,203234,5,0,1:0:0:0:
48,164,203307,1,0,1:0:0:0:
63,135,203381,2,0,P|77:120|106:110,1,41.5000000000001,8|0,0:0|0:0,0:0:0:0:
172,29,203527,6,0,B|148:117|210:135|210:135|273:151|251:244,1,255,4|0,1:0|0:0,0:0:0:0:
188,347,203820,6,0,P|185:325|208:309,1,42.5000008106232,0|0,1:0|0:0,0:0:0:0:
228,380,203966,2,0,P|250:365|283:365,1,42.5000000000002,8|0,0:0|0:0,0:0:0:0:
357,383,204112,6,0,B|342:279|407:275|467:271|455:149,1,270,4|0,1:1|0:0,0:0:0:0:
407,56,204405,6,0,L|420:140,1,85,0|0,1:0|0:0,0:0:0:0:
358,194,204551,6,0,L|370:273,1,80,8|0,0:0|0:0,0:0:0:0:
439,303,204698,6,0,L|450:377,1,75,4|0,1:2|0:0,0:0:0:0:
462,389,204990,5,0,1:0:0:0:
462,389,205063,1,0,1:0:0:0:
462,389,205137,2,0,B|539:289|539:289|522:231,1,179.999994506836,8|0,0:0|0:0,0:0:0:0:
503,168,205429,1,0,1:0:0:0:
374,61,205576,2,0,P|344:64|320:86,1,59.9999981689454,0|0,1:0|0:0,0:0:0:0:
261,226,205722,1,8,0:0:0:0:
467,0,205868,6,0,B|473:108|401:54|393:160,1,179.999994506836,4|0,1:0|0:0,0:0:0:0:
403,230,206161,1,0,1:0:0:0:
262,129,206307,1,8,0:0:0:0:
104,200,206454,1,2,0:0:0:0:
245,301,206600,6,0,L|256:237,1,59.9999981689454,0|0,1:0|0:0,0:0:0:0:
173,103,206746,2,0,P|186:135|180:171,1,59.9999981689454,0|0,1:0|0:0,0:0:0:0:
128,223,206893,1,8,0:0:0:0:
27,0,207039,6,0,B|6:78|6:78|32:134|32:134|20:175,1,179.999994506836,4|0,1:0|0:0,0:0:0:0:
0,242,207332,1,0,1:0:0:0:
161,348,207478,2,0,B|110:320|110:320|50:330,1,119.999996337891,8|2,0:0|0:0,0:0:0:0:
21,340,207698,1,2,0:0:0:0:
21,340,207771,5,0,1:0:0:0:
123,201,207917,2,0,P|154:191|187:202,1,59.9999981689454,0|0,1:0|0:0,0:0:0:0:
290,246,208063,1,8,0:0:0:0:
440,135,208210,6,0,B|338:130|370:181|262:169,1,179.999994506836,4|0,1:0|0:0,0:0:0:0:
216,119,208502,1,0,1:0:0:0:
374,261,208649,1,8,0:0:0:0:
216,384,208795,1,2,0:0:0:0:
213,264,208942,6,0,P|192:285|189:314,1,59.9999981689454,0|0,1:0|1:0,0:0:0:0:
306,384,209088,2,0,L|301:325,1,59.9999981689454,0|0,1:0|1:0,0:0:0:0:
298,293,209234,1,8,0:0:0:0:
490,130,209381,6,0,B|469:205|469:205|499:260|475:302,1,179.999994506836,4|0,1:0|0:0,0:0:0:0:
428,357,209673,1,0,1:0:0:0:
317,171,209820,2,0,L|448:191,1,119.999996337891,8|2,0:0|0:0,0:0:0:0:
435,189,210112,5,0,1:0:0:0:
287,91,210259,2,0,L|227:140,1,59.9999981689454,0|0,1:0|0:0,0:0:0:0:
144,208,210405,1,8,0:0:0:0:
256,0,210551,6,0,B|149:-3|215:77|54:63,1,179.999994506836,4|0,1:0|0:0,0:0:0:0:
27,40,210844,1,0,1:0:0:0:
156,166,210990,2,0,P|178:185|185:213,1,59.9999981689454,8|0,0:0|0:0,0:0:0:0:
123,345,211137,1,2,0:0:0:0:
99,90,211283,6,0,P|93:118|72:138,1,59.9999981689454,0|0,1:0|0:0,0:0:0:0:
51,293,211429,2,0,L|20:236,1,59.9999981689454,0|0,1:0|0:0,0:0:0:0:
7,210,211576,1,8,0:0:0:0:
200,328,211722,6,0,B|270:311|270:311|296:289|296:289|367:272,1,179.999994506836,4|8,1:0|0:0,0:0:0:0:
439,257,212015,2,0,P|456:233|458:203,1,59.9999981689454,0|0,1:0|1:0,0:0:0:0:
393,93,212161,5,8,0:0:0:0:
206,50,212307,5,8,0:0:0:0:
134,203,212454,5,8,3:0:0:0:
215,314,212600,5,4,3:0:0:0:
352,302,212746,6,0,L|364:241,1,59.9999981689454,8|8,0:0|0:0,0:0:0:0:
363,243,212893,6,0,B|276:125|276:125|291:91,1,179.999994506836,4|0,1:0|0:0,0:0:0:0:
302,70,213185,1,0,1:0:0:0:
282,48,213259,1,0,1:0:0:0:
296,25,213332,5,8,0:0:0:0:
192,153,213478,5,4,3:0:0:0:
421,148,213624,6,0,L|353:163,1,59.9999981689454,0|0,1:0|0:0,0:0:0:0:
163,247,213771,6,0,L|221:234,1,59.9999981689454,0|0,1:0|0:0,0:0:0:0:
290,219,213917,6,0,P|279:240|280:268,1,37.5000014305115,8|0,0:0|0:0,0:0:0:0:
371,379,214063,6,0,B|332:316|235:329|235:329|244:356|271:364,1,179.999994506836,4|0,1:0|0:0,0:0:0:0:
269,356,214356,6,0,L|234:370,1,29.9999990844727,0|0,1:0|0:0,0:0:0:0:
166,356,214502,2,0,L|131:370,1,29.9999990844727,8|0,0:0|0:0,0:0:0:0:
63,356,214649,2,0,L|28:370,1,29.9999990844727,2|0,0:0|0:0,0:0:0:0:
68,279,214795,6,0,L|95:290,1,29.9999990844727,0|0,1:0|0:0,0:0:0:0:
142,271,214942,2,0,L|169:282,1,29.9999990844727,0|0,1:0|0:0,0:0:0:0:
209,301,215088,6,0,L|182:312,1,29.9999990844727,8|0,0:0|0:0,0:0:0:0:
196,164,215234,6,0,B|171:198|171:198|248:312,1,179.999994506836,4|0,1:1|0:0,0:0:0:0:
269,335,215527,6,0,L|309:339,1,29.9999990844727,0|0,1:0|0:0,0:0:0:0:
350,324,215673,2,0,L|390:328,1,29.9999990844727,8|0,0:0|0:0,0:0:0:0:
431,313,215820,2,0,L|471:317,1,29.9999990844727,2|0,0:0|0:0,0:0:0:0:
512,221,215966,6,0,L|474:235,1,34.9999989318848,0|0,1:0|0:0,0:0:0:0:
406,235,216113,2,0,L|368:249,1,34.9999989318848,0|0,1:0|0:0,0:0:0:0:
300,249,216259,6,0,P|311:256|324:258,1,25,8|0,0:0|0:0,0:0:0:0:
449,129,216405,6,0,B|408:71|353:95|330:127|360:158|360:158|369:174|361:194,1,179.999994506836,4|0,1:0|0:0,0:0:0:0:
381,187,216698,6,0,L|338:196,1,29.9999990844727,0|0,1:0|0:0,0:0:0:0:
282,209,216844,2,0,L|239:218,1,29.9999990844727,8|0,0:0|0:0,0:0:0:0:
171,259,216990,1,10,3:0:0:0:
177,245,217063,1,8,3:0:0:0:
183,231,217137,6,0,L|153:237,1,29.9999990844727,0|0,1:0|0:0,0:0:0:0:
73,183,217283,2,0,L|103:177,1,29.9999990844727,0|0,1:0|0:0,0:0:0:0:
127,172,217429,5,8,0:0:0:0:
0,352,217576,1,4,1:0:0:0:
6,229,217722,6,0,P|30:243|46:264,1,37.5000014305115,2|0,0:0|0:0,0:0:0:0:
73,378,217868,6,0,P|77:353|88:332,1,44.999998626709,0|0,1:0|0:0,0:0:0:0:
86,335,218015,5,8,0:0:0:0:
254,290,218161,6,0,B|309:296|293:322|351:331,1,101.250000386238,2|0,0:0|0:0,0:0:0:0:
345,329,218307,6,0,P|356:308|358:283,1,50,0|0,1:0|0:0,0:0:0:0:
332,165,218454,6,0,P|347:188|371:202,1,55.0000016784668,0|0,1:0|0:0,0:0:0:0:
490,340,218600,6,0,P|460:338|434:324,1,59.9999981689454,8|0,0:0|0:0,0:0:0:0:
471,209,218746,6,0,P|409:287|392:386,1,202.500000772476,4|0,1:0|0:0,0:0:0:0:
315,364,219039,1,0,1:0:0:0:
256,192,219185,6,0,B|232:136|232:136|265:87,1,119.999996337891,8|2,0:0|0:0,0:0:0:0:
409,46,219478,1,0,1:0:0:0:
278,101,219624,1,0,1:0:0:0:
176,0,219771,1,8,0:0:0:0:
336,200,219917,6,0,B|267:200|267:200|244:237|244:237|176:237,1,179.999994506836,4|0,1:0|0:0,0:0:0:0:
103,237,220210,1,0,1:0:0:0:
199,117,220356,1,8,0:0:0:0:
64,0,220502,1,2,0:0:0:0:
23,191,220649,6,0,L|16:119,1,59.9999981689454,0|0,1:0|0:0,0:0:0:0:
135,35,220795,2,0,L|125:108,1,59.9999981689454,0|0,1:0|0:0,0:0:0:0:
123,128,220942,1,8,0:0:0:0:
332,303,221088,6,1,B|278:314|238:261|240:256|242:250|203:187|143:211,1,225.000008583069,4|0,1:0|0:0,0:0:0:0:
67,211,221381,6,1,B|61:229|61:229|75:242,1,37.5000014305115,0|0,1:0|0:0,0:0:0:0:
50,262,221527,2,1,B|44:280|44:280|58:293,1,37.5000014305115,8|0,0:0|0:0,0:0:0:0:
165,323,221673,6,1,B|165:250|241:248|245:252|250:256|317:249|335:195,1,232.500001773834,4|0,1:0|0:0,0:0:0:0:
397,142,221966,5,0,1:0:0:0:
414,156,222039,1,0,0:0:0:0:
420,171,222112,2,0,P|417:189|405:211,1,39.0000013092042,8|0,0:0|0:0,0:0:0:0:
253,33,222259,22,1,B|183:-23|142:0|44:26|108:81|163:102,1,240,6|0,1:2|0:0,0:0:0:0:
209,137,222551,6,1,B|212:114|212:114|231:99,1,40,0|0,1:0|0:0,0:0:0:0:
327,164,222698,2,1,P|317:180|302:194,1,40,8|0,0:0|0:0,0:0:0:0:
256,384,222844,6,0,B|250:310|250:310|236:304|236:304|230:228,1,165.000001573563,4|0,1:2|0:0,0:0:0:0:
438,91,223137,6,0,B|440:124|440:124|446:126|446:126|449:162,1,75.0000028610231,4|0,1:2|1:0,0:0:0:0:
464,339,223283,1,8,0:0:0:0:
448,192,223429,2,0,B|432:225|432:225|450:267,1,75.0000028610231,4|0,1:0|0:0,0:0:0:0:
447,260,223722,5,0,1:0:0:0:
447,260,223795,1,0,1:0:0:0:
447,260,223868,2,0,P|434:274|413:279,1,29.9999990844727,8|0,0:0|0:0,0:0:0:0:
368,265,224015,2,0,P|355:279|334:284,1,29.9999990844727,2|0,0:0|0:0,0:0:0:0:
244,296,224161,6,0,P|261:288|273:270,1,29.9999990844727,0|0,1:0|0:0,0:0:0:0:
275,223,224307,2,0,P|292:215|304:197,1,29.9999990844727,0|0,1:0|0:0,0:0:0:0:
271,180,224454,6,0,P|261:191|257:205,1,29.9999990844727,8|0,0:0|0:0,0:0:0:0:
260,373,224600,6,0,B|185:241|185:241|172:266,1,179.999994506836,4|0,1:0|0:0,0:0:0:0:
159,281,224893,6,0,P|141:289|118:289,1,29.9999990844727,0|0,1:0|0:0,0:0:0:0:
89,302,225039,2,0,P|71:310|48:310,1,29.9999990844727,8|0,0:0|0:0,0:0:0:0:
19,214,225185,6,0,B|35:221|35:221|52:221,1,34.9999989318848,2|0,0:0|0:0,0:0:0:0:
123,232,225332,2,0,B|139:239|139:239|156:239,1,34.9999989318848,0|0,1:0|0:0,0:0:0:0:
211,179,225478,6,0,L|207:141,1,29.9999990844727,0|0,1:0|0:0,0:0:0:0:
191,125,225624,2,0,P|184:145|190:165,1,29.9999990844727,8|0,0:0|0:0,0:0:0:0:
244,285,225771,6,0,B|243:179|435:195|333:231,1,179.999994506836,4|0,1:0|0:0,0:0:0:0:
354,214,226063,6,0,L|361:180,1,29.9999990844727,0|0,1:0|0:0,0:0:0:0:
443,197,226210,2,0,P|435:209|432:224,1,29.9999990844727,8|0,0:0|0:0,0:0:0:0:
511,290,226356,5,2,3:0:0:0:
512,276,226429,1,0,3:0:0:0:
505,262,226502,6,0,P|492:270|486:283,1,29.9999990844727,0|0,1:0|0:0,0:0:0:0:
483,356,226649,2,0,P|470:357|457:376,1,29.9999990844727,0|0,1:0|0:0,0:0:0:0:
455,384,226795,5,8,0:0:0:0:
310,325,226942,6,0,L|132:298,1,179.999994506836,4|0,1:0|0:0,0:0:0:0:
115,284,227234,6,0,L|119:314,1,29.9999990844727,0|0,1:0|0:0,0:0:0:0:
204,301,227381,2,0,P|208:287|201:274,1,29.9999990844727,8|0,0:0|0:0,0:0:0:0:
176,164,227527,6,0,L|122:204,1,67.5000002574921,2|2,0:0|0:0,0:0:0:0:
62,131,227673,2,0,P|42:98|51:55,1,67.5000002574921,0|0,1:0|0:0,0:0:0:0:
113,27,227820,2,0,L|208:42,1,67.5000002574921,0|0,1:0|0:0,0:0:0:0:
343,65,227966,1,8,0:0:0:0:
142,58,228112,6,0,B|253:88|253:88|266:124|266:124|336:142,1,202.500000772476,4|0,1:0|0:0,0:0:0:0:
384,155,228405,1,0,1:0:0:0:
316,343,228551,6,0,B|284:293|284:293|305:235,1,119.999996337891,8|2,0:0|0:0,0:0:0:0:
305,235,228771,1,2,0:0:0:0:
305,235,228844,1,0,1:0:0:0:
466,198,228990,2,0,L|478:119,1,59.9999981689454,0|0,1:0|0:0,0:0:0:0:
487,67,229137,1,8,0:0:0:0:
401,307,229283,6,0,B|306:285|333:367|220:364,1,179.999994506836,4|0,1:0|0:0,0:0:0:0:
166,350,229576,1,0,1:0:0:0:
60,231,229722,1,8,0:0:0:0:
104,89,229868,1,2,0:0:0:0:
0,160,230015,6,0,P|32:161|66:149,1,59.9999981689454,0|0,1:0|0:0,0:0:0:0:
180,104,230161,2,0,P|212:105|246:93,1,59.9999981689454,0|0,1:0|0:0,0:0:0:0:
271,81,230307,1,8,0:0:0:0:
347,223,230454,6,0,B|296:155|368:93|368:93|388:109|371:147,1,179.999994506836,4|8,1:0|0:0,0:0:0:0:
366,141,230746,1,0,1:0:0:0:
346,150,230820,1,8,0:0:0:0:
328,151,230893,6,0,L|258:184,1,59.9999981689454,8|8,0:0|0:0,0:0:0:0:
208,225,231039,2,0,L|138:258,1,59.9999981689454,8|8,0:0|0:0,0:0:0:0:
106,309,231185,5,8,3:0:0:0:
222,331,231332,5,4,3:0:0:0:
304,348,231478,6,0,L|363:359,1,37.5000014305115,8|8,0:0|0:0,0:0:0:0:
456,376,231624,6,0,B|421:328|440:268|500:268|519:214|486:157,1,239.999992675781,4|2,1:0|0:0,0:0:0:0:
478,149,231990,1,2,0:0:0:0:
466,144,232063,6,0,L|459:198,1,50,2|0,0:0|0:0,0:0:0:0:
501,315,232210,2,0,L|507:265,1,50,2|8,0:0|0:0,0:0:0:0:
485,230,232356,5,8,3:0:0:0:
408,206,232454,5,4,3:0:0:0:
345,242,232551,5,4,3:0:0:0:
282,218,232649,5,2,3:0:0:0:
236,245,232746,5,4,3:0:0:0:
197,233,232844,5,4,3:0:0:0:
129,253,232942,6,0,B|52:275|52:275|52:324|52:324|218:372,1,300,4|0,1:0|1:0,0:0:0:0:
127,336,233527,6,0,P|103:353|65:354,1,50,8|0,0:0|0:0,0:0:0:0:
12,360,233673,1,4,3:0:0:0:
12,360,233820,1,2,0:0:0:0:
87,248,233966,6,0,B|104:229|104:229|133:229,1,50,6|0,1:0|0:0,0:0:0:0:
299,354,234259,2,0,B|280:373|255:373,1,50,2|0,1:0|0:0,0:0:0:0:
256,256,234844,5,0,3:0:0:0:
246,238,234917,1,0,3:0:0:0:
237,201,234990,1,0,3:0:0:0:
242,160,235063,1,0,3:0:0:0:
264,120,235137,1,0,3:0:0:0:
282,71,235210,1,0,3:0:0:0:
268,19,235283,5,4,1:2:0:0:
256,192,235356,12,0,237551,0:0:0:0:
166,270,237624,6,0,P|149:312|149:376,1,100,4|0,1:0|0:0,0:0:0:0:
317,269,238063,2,0,P|274:282|219:320,1,100,4|0,1:2|0:0,0:0:0:0:
171,354,238502,5,2,0:0:0:0:
152,350,238649,2,0,L|44:329,2,100,2|2|6,0:0|0:0|0:2,0:0:0:0:
224,332,239381,2,0,P|250:343|277:349,3,50,2|0|0|0,0:0|0:0|0:0|0:0,0:0:0:0:
300,365,239966,5,2,3:2:0:0:
345,368,240112,2,0,P|367:278|372:217,1,150,2|2,0:0|3:2,0:0:0:0:
256,20,240844,5,2,0:0:0:0:
224,138,240990,1,8,3:0:0:0:
160,91,241429,5,2,3:0:0:0:
200,108,241576,1,2,0:0:0:0:
210,151,241722,5,2,0:0:0:0:
305,108,241868,1,4,3:0:0:0:
199,168,242015,1,2,3:2:0:0:
294,125,242161,1,2,3:2:0:0:
389,82,242307,5,4,1:0:0:0:
26,192,242746,2,0,B|22:277|75:241|66:339,1,150,4|0,1:2|0:0,0:0:0:0:
90,345,243332,2,0,L|98:293,1,50,6|0,3:2|0:0,0:0:0:0:
163,375,243624,2,0,P|186:359|225:352,2,50,2|2|2,0:0|0:0|0:0,0:0:0:0:
187,189,244210,5,2,0:0:0:0:
232,216,244357,1,2,0:0:0:0:
250,242,244502,1,2,0:0:0:0:
256,258,244649,6,0,L|304:144,1,100,2|2,3:2|0:0,0:0:0:0:
294,165,245088,1,2,0:0:0:0:
283,96,245527,5,8,3:0:0:0:
213,42,245820,6,0,L|203:101,1,50,8|8,3:0|3:0,0:0:0:0:
245,19,246112,1,2,3:0:0:0:
245,19,246259,1,2,3:0:0:0:
317,67,246405,6,0,L|325:17,1,50,4|4,3:0|3:0,0:0:0:0:
416,74,246698,1,4,3:0:0:0:
455,141,246844,1,4,3:0:0:0:
462,177,246990,6,0,B|425:172|425:172|370:228|370:228|336:224,1,150,4|4,1:0|1:2,0:0:0:0:
362,249,247868,6,0,L|312:251,1,50,2|0,0:0|0:0,0:0:0:0:
126,248,248308,5,6,0:0:0:0:
150,249,248454,2,0,L|200:251,1,50,2|2,0:0|0:0,0:0:0:0:
177,117,248893,5,2,0:0:0:0:
196,121,249039,2,0,P|223:118|253:126,1,50,2|2,0:0|0:0,0:0:0:0:
246,123,249332,6,0,P|261:70|170:31,1,150,2|2,3:2|3:2,0:0:0:0:
464,192,250209,2,0,P|467:174|479:152,1,25,8|0,3:0|0:0,0:0:0:0:
489,146,250356,5,2,3:0:0:0:
502,141,250502,5,4,3:0:0:0:
368,218,250795,2,0,L|375:287,1,50,8|8,3:0|3:0,0:0:0:0:
373,267,251015,1,8,3:0:0:0:
373,267,251088,5,2,3:0:0:0:
293,305,251234,6,0,P|288:274|302:249,1,50,4|0,3:0|0:0,0:0:0:0:
217,321,251381,6,0,L|189:366,1,37.5000014305115,2|0,3:0|0:0,0:0:0:0:
172,332,251527,6,0,P|142:321|118:329,1,50,10|0,0:0|0:0,0:0:0:0:
53,350,251673,6,0,B|39:329|39:329|54:294,2,50,4|2|2,1:0|0:0|0:0,0:0:0:0:
2,168,252112,2,0,L|30:315,1,150,4|6,1:2|0:0,0:0:0:0:
11,384,252698,1,2,0:0:0:0:
0,249,252990,5,2,0:0:0:0:
64,215,253137,1,2,0:0:0:0:
99,225,253283,1,6,0:0:0:0:
221,314,253576,5,2,0:0:0:0:
287,350,253723,1,2,0:0:0:0:
327,350,253869,1,2,0:0:0:0:
369,343,254015,6,0,L|383:309,1,25,2|0,3:2|0:0,0:0:0:0:
378,319,254161,2,0,P|400:242|409:159,1,150,0|0,0:0|3:2,0:0:0:0:
403,158,255039,5,0,3:2:0:0:
373,138,255185,5,0,3:2:0:0:
317,140,255332,5,6,3:2:0:0:
257,181,255478,1,6,3:2:0:0:
169,198,255624,1,2,3:2:0:0:
68,198,255771,6,0,P|55:194|46:187,1,25,8|0,3:0|0:0,0:0:0:0:
0,116,255917,1,4,3:0:0:0:
75,67,256063,1,4,3:0:0:0:
16,23,256210,5,2,3:0:0:0:
16,23,256283,1,2,0:0:0:0:
16,23,256356,6,0,L|496:23,1,479.999985351563,4|0,1:2|0:0,0:0:0:0:
