osu file format v14

[General]
AudioFilename: audio.mp3
AudioLeadIn: 0
PreviewTime: 194527
Countdown: 0
SampleSet: Soft
StackLeniency: 1
Mode: 0
LetterboxInBreaks: 0
WidescreenStoryboard: 1

[Editor]
Bookmarks: 106503,174405,214063
DistanceSpacing: 0.7
BeatDivisor: 4
GridSize: 32
TimelineZoom: 3

[Metadata]
Title:Sen'yo
TitleUnicode:閃耀
Artist:Feryquitous x KAFU
ArtistUnicode:Feryquitous × 可不
Creator:Ryuusei Aika
Version:Esutose's Insane
Source:
Tags:frozz Esutarosa Kudou Chitose -Hitomi L1gHT_u Light_u Senyo Sen-yo Senyou Sen'you Sen-you Senyō Sen'yō Sen-yō Japanese Rock J-Rock JRock Vocalsynth 音楽的同位体 Kaf-u -Keqing Artificial Singing Synthesizer CeVIO AI kamitsubaki studio 神椿スタジオ
BeatmapID:3784996
BeatmapSetID:1832561

[Difficulty]
HPDrainRate:5.5
CircleSize:4
OverallDifficulty:8
ApproachRate:9
SliderMultiplier:1.74
SliderTickRate:1

[Events]
//Background and Video events
0,0,"bg.jpg",0,0
//Break Periods
2,195532,200293
//Storyboard Layer 0 (Background)
//Storyboard Layer 1 (Fail)
//Storyboard Layer 2 (Pass)
//Storyboard Layer 3 (Foreground)
//Storyboard Layer 4 (Overlay)
//Storyboard Sound Samples

[TimingPoints]
-3535,292.682926829268,4,2,1,60,1,0
1001,-100,4,2,1,35,0,0
1147,-156.25,4,2,1,40,0,0
19294,-156.25,4,2,1,50,0,0
19733,-106.382978723404,4,2,1,60,0,0
38318,-156.25,4,2,1,60,0,0
38611,-135.135135135135,4,2,1,40,0,0
47977,-135.135135135135,4,2,1,50,0,0
57343,-119.047619047619,4,2,1,60,0,0
68318,-119.047619047619,4,2,1,40,0,0
68904,-87.719298245614,4,2,1,70,0,1
75928,-74.6268656716418,4,2,1,70,0,1
76221,-87.719298245614,4,2,1,70,0,1
77684,-87.719298245614,4,2,1,70,0,0
78708,-87.719298245614,4,2,1,70,0,1
87489,-87.719298245614,4,2,1,70,0,0
87635,-80.6451612903226,4,2,1,70,0,1
96416,-80.6451612903226,4,2,1,70,0,0
97440,-80.6451612903226,4,2,1,70,0,1
104464,-87.719298245614,4,2,1,70,0,1
105196,-135.135135135135,4,2,1,70,0,1
106503,292.682926829268,4,2,1,40,1,0
106503,-96.1538461538461,4,2,1,40,0,0
106942,-135.135135135135,4,2,1,40,0,0
108844,-119.047619047619,4,2,1,40,0,0
109283,-135.135135135135,4,2,1,40,0,0
111185,-96.1538461538461,4,2,1,40,0,0
111624,-135.135135135135,4,2,1,40,0,0
115868,-96.1538461538461,4,2,1,40,0,0
116307,-135.135135135135,4,2,1,40,0,0
118210,-119.047619047619,4,2,1,40,0,0
118649,-135.135135135135,4,2,1,40,0,0
120551,-96.1538461538461,4,2,1,40,0,0
120990,-135.135135135135,4,2,1,40,0,0
124649,-135.135135135135,4,2,1,50,0,0
124942,-96.1538461538461,4,2,1,50,0,0
125234,-135.135135135135,4,2,1,50,0,0
134600,-106.382978723404,4,2,1,50,0,0
143966,-119.047619047619,4,2,1,60,0,0
150844,-135.135135135135,4,2,1,60,0,0
153332,-135.135135135135,4,2,1,65,0,0
153917,-135.135135135135,4,2,1,70,0,0
154502,-135.135135135135,4,2,1,65,0,0
155234,-135.135135135135,4,2,1,60,0,0
155527,-135.135135135135,4,2,2,55,0,0
155600,-135.135135135135,4,2,1,45,0,0
165039,-185.185185185185,4,2,1,45,0,0
169722,-135.135135135135,4,2,1,50,0,0
174405,-119.047619047619,4,2,1,60,0,0
195332,-119.047619047619,4,2,2,40,0,0
200893,-119.047619047619,4,2,1,40,0,0
202356,-96.1538461538461,4,2,1,80,0,1
204698,-87.719298245614,4,2,1,80,0,0
204990,-87.719298245614,4,2,1,75,0,0
205137,-87.719298245614,4,2,1,75,0,1
214063,-80.6451612903226,4,2,1,75,0,1
222844,-80.6451612903226,4,2,1,75,0,0
223868,-80.6451612903226,4,2,1,75,0,1
231624,-96.1538461538461,4,2,1,75,0,1
232942,-96.1538461538461,4,2,1,75,0,0
237332,-96.1538461538461,4,2,1,75,0,0
237624,-135.135135135135,4,2,1,40,0,0
248600,-227.272727272727,4,2,1,40,0,0
249332,-135.135135135135,4,2,1,40,0,0
255039,-227.272727272727,4,2,1,40,0,0
256356,-227.272727272727,4,2,2,50,0,0
256374,-227.272727272727,4,2,1,50,0,0
256649,-227.272727272727,4,2,1,45,0,0
256942,-227.272727272727,4,2,1,40,0,0
257234,-227.272727272727,4,2,1,35,0,0
257527,-227.272727272727,4,2,1,30,0,0
257820,-227.272727272727,4,2,1,25,0,0
258112,-227.272727272727,4,2,1,20,0,0
258405,-227.272727272727,4,2,1,15,0,0
258698,-227.272727272727,4,2,1,10,0,0

[Colours]
Combo1 : 192,192,192
Combo2 : 128,0,255
Combo3 : 0,128,192
Combo4 : 128,128,192

[HitObjects]
123,62,1001,5,2,0:0:0:0:
123,62,1074,1,0,0:0:0:0:
122,61,1147,2,0,P|158:100|208:83,1,111.36,4|0,1:0|0:0,0:0:0:0:
267,156,1586,2,0,P|261:103|211:87,1,111.36,4|0,1:2|0:0,0:0:0:0:
211,87,2025,6,0,L|160:109,1,55.68,2|2,0:0|0:0,0:0:0:0:
72,175,2318,1,2,0:0:0:0:
1,142,2464,1,2,0:0:0:0:
71,174,2611,6,0,P|91:192|102:217,1,55.68,0|6,0:0|0:2,0:0:0:0:
163,267,2904,2,0,P|155:293|137:314,2,55.68,2|0|0,0:0|0:0|0:0,0:0:0:0:
103,218,3343,1,0,0:0:0:0:
190,127,3489,6,0,P|242:140|263:189,1,111.36,2|0,3:2|0:0,0:0:0:0:
325,238,3928,1,0,0:0:0:0:
220,356,4074,2,0,P|274:353|308:311,1,111.36,2|2,3:2|0:0,0:0:0:0:
220,356,4513,1,8,3:0:0:0:
308,311,4660,6,0,P|335:316|357:332,1,55.68
263,189,4952,1,2,3:0:0:0:
330,154,5099,1,2,0:0:0:0:
228,123,5245,5,2,0:0:0:0:
339,233,5391,1,4,3:0:0:0:
344,80,5538,5,2,3:2:0:0:
246,264,5684,1,2,3:2:0:0:
418,91,5830,6,0,B|358:111|395:134|326:154,1,111.36,4|0,1:0|0:0,0:0:0:0:
329,153,6269,2,0,L|435:186,1,111.36,4|0,1:2|0:0,0:0:0:0:
487,239,6708,5,0,0:0:0:0:
329,153,6855,2,0,B|394:172|357:195|417:215,1,111.36,6|2,3:2|0:0,0:0:0:0:
512,158,7294,5,2,0:0:0:0:
440,145,7440,1,2,0:0:0:0:
417,215,7586,1,0,0:0:0:0:
322,273,7733,5,2,0:0:0:0:
394,286,7879,1,2,0:0:0:0:
417,215,8025,1,2,0:0:0:0:
386,155,8172,6,0,P|331:159|293:198,1,111.36,2|2,3:2|0:0,0:0:0:0:
293,197,8611,1,2,0:0:0:0:
123,358,8904,5,2,0:0:0:0:
49,379,9050,2,0,P|24:349|57:290,1,111.36,8|8,3:0|3:0,0:0:0:0:
1,162,9489,6,0,P|25:174|52:183,1,55.68,8|2,3:0|3:0,0:0:0:0:
203,127,9782,1,2,3:0:0:0:
138,169,9928,1,4,3:0:0:0:
223,202,10074,5,4,3:0:0:0:
90,108,10221,1,4,3:0:0:0:
111,244,10367,5,4,3:0:0:0:
295,104,10513,2,0,B|269:89|269:89|223:88|203:127,1,111.36,4|0,1:0|0:0,0:0:0:0:
367,77,10952,2,0,B|393:92|393:92|439:93|459:54,1,111.36,4|0,1:2|0:0,0:0:0:0:
459,54,11391,2,0,L|445:0,1,55.68,2|0,0:0|0:0,0:0:0:0:
367,77,11684,1,2,0:0:0:0:
439,164,11830,6,0,P|462:179|489:186,2,55.68,6|2|2,0:0|0:0|0:0,0:0:0:0:
250,17,12416,6,0,P|224:26|207:48,2,55.68,2|2|2,0:0|0:0|0:0,0:0:0:0:
295,104,12855,6,0,P|242:112|212:69,1,111.36,2|0,3:2|0:0,0:0:0:0:
156,20,13294,1,2,3:2:0:0:
86,50,13440,2,0,P|70:73|65:100,1,55.68
212,230,13733,5,8,3:0:0:0:
141,198,13879,1,2,3:0:0:0:
84,249,14025,5,4,3:0:0:0:
0,293,14172,1,2,3:0:0:0:
68,175,14318,5,8,3:0:0:0:
161,294,14464,1,8,3:0:0:0:
161,294,14538,1,8,3:0:0:0:
161,294,14611,1,2,3:0:0:0:
278,193,14757,5,4,3:0:0:0:
342,151,14904,1,2,3:2:0:0:
271,117,15050,5,2,3:2:0:0:
400,198,15196,2,0,L|501:243,1,111.36,4|0,1:0|0:0,0:0:0:0:
501,243,15635,2,0,P|447:252|414:295,1,111.36,4|0,1:2|0:0,0:0:0:0:
348,331,16074,6,0,P|348:358|358:384,2,55.68,6|2|2,0:0|0:0|0:0,0:0:0:0:
251,200,16513,1,2,0:0:0:0:
195,155,16660,1,2,0:0:0:0:
247,209,16806,1,6,0:0:0:0:
237,365,17099,5,2,0:0:0:0:
164,351,17245,1,2,0:0:0:0:
173,276,17391,1,2,0:0:0:0:
251,200,17538,5,2,3:2:0:0:
256,192,17611,12,2,19147,3:2:0:0:
401,107,19294,5,8,3:0:0:0:
283,153,19440,1,2,3:0:0:0:
283,153,19733,6,0,B|331:167|331:167|386:228|312:260,1,163.559997504273,4|0,1:0|1:0,0:0:0:0:
210,123,20172,2,0,B|201:100|201:100|210:68|210:68|194:39,1,81.7799987521363,8|2,0:0|0:0,0:0:0:0:
175,267,20464,5,2,1:2:0:0:
283,153,20611,1,0,1:0:0:0:
210,123,20757,5,8,0:0:0:0:
316,256,20904,2,0,P|243:227|175:267,1,163.559997504273,4|0,1:0|1:0,0:0:0:0:
367,165,21343,6,0,B|428:136|415:178|485:144,1,122.669998128204,8|2,0:0|0:0,0:0:0:0:
485,144,21635,5,2,1:2:0:0:
350,86,21782,1,0,1:0:0:0:
411,37,21928,1,8,0:0:0:0:
283,153,22074,6,0,B|215:135|215:135|169:80|235:56,1,163.559997504273,4|0,1:0|1:0,0:0:0:0:
87,158,22513,2,0,P|49:171|26:204,1,81.7799987521363,8|4,0:0|3:0,0:0:0:0:
26,204,22733,1,4,3:0:0:0:
26,204,22806,1,2,1:2:0:0:
125,83,22952,5,0,1:0:0:0:
205,187,23099,1,8,0:0:0:0:
125,83,23245,6,0,B|152:127|114:176|118:140|72:183|103:235,1,163.559997504273,4|0,1:0|1:0,0:0:0:0:
155,287,23684,2,0,L|240:318,1,81.7799987521363,8|0,0:0|0:0,0:0:0:0:
126,362,23977,5,0,1:0:0:0:
282,258,24123,1,0,1:0:0:0:
231,315,24269,1,8,0:0:0:0:
144,179,24416,6,0,B|132:152|99:138|99:138|193:177,1,163.559997504273,4|0,1:0|1:0,0:0:0:0:
270,176,24855,2,0,P|305:158|317:120,1,81.7799987521363,8|2,0:0|0:2,0:0:0:0:
430,2,25147,1,2,1:2:0:0:
366,44,25294,1,0,1:0:0:0:
434,151,25440,1,8,0:0:0:0:
365,44,25586,6,0,P|436:74|434:151,1,163.559997504273,4|0,1:2|1:0,0:0:0:0:
512,264,26025,2,0,B|451:247|451:247|424:300,1,122.669998128204,8|0,0:0|0:0,0:0:0:0:
424,301,26318,5,0,1:0:0:0:
293,374,26464,1,0,1:0:0:0:
348,318,26611,1,8,0:0:0:0:
199,353,26757,6,0,B|171:388|120:382|120:382|67:344|130:307,1,163.559997504273,4|0,1:0|1:0,0:0:0:0:
110,320,27196,1,8,0:0:0:0:
132,197,27343,6,0,B|176:189|210:228|210:228|224:292|152:277,1,163.559997504273,4|0,1:0|1:0,0:0:0:0:
176,280,27708,1,0,1:0:0:0:
176,280,27782,1,8,0:0:0:0:
132,197,27928,6,0,B|182:206|214:153|182:170|206:111|266:121,1,163.559997504273,4|0,1:0|1:0,0:0:0:0:
262,121,28367,1,8,0:0:0:0:
134,72,28513,5,6,1:2:0:0:
304,205,28806,5,6,1:2:0:0:
374,180,28952,1,8,0:0:0:0:
289,322,29099,5,6,1:2:0:0:
438,82,29391,5,0,1:0:0:0:
438,82,29464,1,0,1:0:0:0:
438,82,29538,2,0,B|355:58|355:58|320:127,1,163.559997504273,12|0,0:0|1:0,0:0:0:0:
264,173,29977,1,0,1:0:0:0:
137,94,30123,1,8,0:0:0:0:
78,143,30269,6,0,P|6:169|9:245,1,163.559997504273,4|0,1:0|1:0,0:0:0:0:
137,94,30708,2,0,B|148:73|148:73|139:41|139:41|148:18,1,81.7799987521363,8|2,0:0|0:0,0:0:0:0:
229,141,31001,5,0,1:0:0:0:
148,18,31147,1,0,1:0:0:0:
78,143,31294,5,8,0:0:0:0:
137,94,31440,2,0,B|199:68|184:109|255:79,1,122.669998128204,4|0,1:2|0:0,0:0:0:0:
255,79,31733,1,0,1:0:0:0:
371,152,31879,6,0,P|408:164|426:200,1,81.7799987521363,8|4,0:0|3:0,0:0:0:0:
334,78,32172,1,0,1:0:0:0:
400,40,32318,1,0,1:0:0:0:
337,87,32464,1,8,0:0:0:0:
510,194,32611,6,0,P|430:203|370:151,1,163.559997504273,4|0,1:0|1:0,0:0:0:0:
203,219,33050,2,0,P|223:184|260:169,1,81.7799987521363,12|2,0:0|0:0,0:0:0:0:
419,294,33343,1,0,1:0:0:0:
353,254,33489,1,0,1:0:0:0:
442,167,33635,1,8,0:0:0:0:
298,307,33782,6,0,B|243:339|243:339|170:347|166:263,1,163.559997504273,4|0,1:0|1:0,0:0:0:0:
350,351,34221,6,0,P|336:314|297:307,1,81.7799987521363,8|2,0:0|0:0,0:0:0:0:
169,183,34513,1,0,1:0:0:0:
120,238,34660,2,0,P|131:275|168:288,1,81.7799987521363,0|8,1:0|0:0,0:0:0:0:
333,188,34952,2,0,B|417:144|417:144|381:162|368:202,1,163.559997504273,4|0,1:0|1:0,0:0:0:0:
446,214,35391,1,8,0:0:0:0:
237,140,35684,5,0,1:0:0:0:
287,79,35830,1,0,1:0:0:0:
415,144,35977,1,8,0:0:0:0:
375,81,36123,6,0,B|325:65|287:114|321:101|290:156|232:139,1,163.559997504273,4|4,1:0|3:0,0:0:0:0:
236,140,36489,1,0,0:0:0:0:
236,140,36562,1,8,0:0:0:0:
158,31,36708,6,0,L|234:60,1,81.7799987521363,8|8,0:0|3:0,0:0:0:0:
130,165,37001,1,4,3:0:0:0:
130,165,37147,1,2,3:0:0:0:
174,234,37294,6,0,P|252:247|291:315,1,163.559997504273,4|0,1:0|1:0,0:0:0:0:
174,234,37733,6,0,L|251:206,1,81.7799987521363,8|2,0:0|0:0,0:0:0:0:
189,338,38025,1,2,1:2:0:0:
189,338,38172,1,0,1:0:0:0:
364,345,38318,6,0,B|331:320|331:320|288:320,1,83.52,8|0,0:0|0:0,0:0:0:0:
288,320,38611,6,0,L|413:288,2,128.760003143555,4|0|0,1:0|3:0|3:0,0:0:0:0:
303,235,39343,2,0,L|366:219,2,64.3800015717774,2|2|2,0:2|3:2|0:2,0:0:0:0:
288,320,39782,2,0,L|413:288,1,128.760003143555,0|0,0:0|3:0,0:0:0:0:
413,288,40367,6,0,L|288:320,1,128.760003143555,2|2,3:2|3:2,0:0:0:0:
230,277,40806,1,0,1:0:0:0:
412,289,40952,6,0,L|287:321,2,128.760003143555,2|0|0,1:2|3:0|3:0,0:0:0:0:
366,219,41830,2,0,L|303:235,1,64.3800015717774,2|0,3:2|0:0,0:0:0:0:
373,132,42123,6,0,L|248:164,2,128.760003143555,0|0|0,3:0|3:0|3:0,0:0:0:0:
436,172,42855,1,8,3:0:0:0:
303,235,43001,2,0,L|366:219,1,64.3800015717774,4|2,3:0|3:0,0:0:0:0:
248,164,43294,6,0,L|373:132,2,128.760003143555,2|0|0,1:2|3:0|3:0,0:0:0:0:
303,235,44172,6,0,L|366:219,1,64.3800015717774,2|2,3:2|0:0,0:0:0:0:
412,289,44464,2,0,L|287:321,2,128.760003143555,2|0|0,3:2|3:0|0:0,0:0:0:0:
366,219,45343,6,0,L|303:235,1,64.3800015717774,2|2,3:2|1:2,0:0:0:0:
248,164,45635,2,0,L|373:132,2,128.760003143555,2|0|0,1:2|3:0|3:0,0:0:0:0:
197,222,46367,1,2,0:0:0:0:
366,219,46513,6,0,L|303:235,1,64.3800015717774,2|2,3:2|0:2,0:0:0:0:
412,289,46806,2,0,L|287:321,2,128.760003143555,2|2|6,3:2|3:2|3:2,0:0:0:0:
460,227,47538,1,0,1:0:0:0:
412,289,47684,1,8,0:0:0:0:
303,234,47830,1,4,1:0:0:0:
194,314,47977,2,0,L|131:330,1,64.3800015717774,2|0,0:0|1:2,0:0:0:0:
131,329,48196,1,0,1:2:0:0:
131,329,48269,1,12,0:0:0:0:
72,154,48562,6,0,P|41:147|17:167,1,64.3800015717774,0|0,1:0|1:0,0:0:0:0:
72,64,48855,1,8,0:0:0:0:
17,166,49001,6,0,P|124:159|72:64,1,257.52000628711,2|0,1:2|0:0,0:0:0:0:
158,77,49733,6,0,P|109:109|71:64,1,128.760003143555,0|8,1:0|0:0,0:0:0:0:
71,64,50318,6,0,P|178:70|126:165,1,257.52000628711,0|0,1:0|1:0,0:0:0:0:
71,64,51050,2,0,P|95:83|126:76,1,64.3800015717774,0|8,1:0|0:0,0:0:0:0:
227,220,51343,6,0,P|132:272|126:165,1,257.52000628711,0|0,1:0|0:0,0:0:0:0:
125,165,52074,1,0,1:0:0:0:
227,220,52367,6,0,P|246:244|277:248,1,64.3800015717774,8|0,0:0|1:0,0:0:0:0:
435,274,52660,6,0,P|324:224|386:329,1,321.900007858887,2|0,1:2|1:0,0:0:0:0:
386,328,53538,1,8,0:0:0:0:
398,179,53684,6,0,P|508:128|447:233,1,321.900007858887,2|0,1:2|1:0,0:0:0:0:
447,233,54708,6,0,P|478:234|495:260,1,64.3800015717774,8|0,0:0|1:0,0:0:0:0:
366,57,55001,6,0,P|270:147|398:179,1,321.900007858887,2|4,0:0|3:0,0:0:0:0:
397,179,55879,1,2,3:0:0:0:
365,56,56025,6,0,P|372:12|417:6,1,96.5700023576661,4|0,1:0|0:0,0:0:0:0:
484,47,56318,6,0,L|512:61,3,32.1900007858887,2|2|2|2,1:2|0:2|3:2|0:2,0:0:0:0:
471,123,56611,6,0,L|499:137,3,32.1900007858887,10|2|2|2,0:2|0:2|1:2|1:2,0:0:0:0:
486,213,56904,6,0,L|458:199,2,32.1900007858887,2|2|10,1:2|1:2|0:2,0:0:0:0:
473,289,57123,6,0,L|445:275,2,32.1900007858887,10|10|10,0:2|0:2|0:2,0:0:0:0:
379,327,57343,6,0,L|239:369,1,146.159995539551,4|8,1:0|0:0,0:0:0:0:
163,264,57782,6,0,B|156:250|137:243|137:243|192:243|196:305,1,109.619996654663,0|0,1:0|0:0,0:0:0:0:
192,283,58074,6,0,B|184:308|184:308|167:325|167:325|161:347,1,73.0799977697755,2|8,0:0|1:2,0:0:0:0:
38,366,58367,2,0,B|12:358|12:358|-12:332|6:305,1,73.0799977697755,2|0,0:0|1:0,0:0:0:0:
0,316,58660,1,8,0:0:0:0:
114,168,58879,5,8,0:0:0:0:
41,207,59099,5,8,0:0:0:0:
120,189,59318,5,8,0:0:0:0:
46,197,59538,5,8,0:0:0:0:
163,264,59684,6,0,P|226:295|288:263,1,146.159995539551,4|8,1:0|0:0,0:0:0:0:
288,263,60123,6,0,P|281:298|254:322,1,73.0799977697755,12|0,1:2|0:0,0:0:0:0:
123,186,60416,2,0,P|152:166|187:175,1,73.0799977697755,0|8,1:0|0:0,0:0:0:0:
340,57,60708,6,0,B|295:49|276:90|276:90|290:130,1,109.619996654663,4|0,1:0|0:0,0:0:0:0:
284,137,61001,1,8,0:0:0:0:
293,154,61074,1,8,0:0:0:0:
331,169,61147,1,0,1:0:0:0:
383,143,61221,1,0,1:0:0:0:
431,150,61294,6,0,L|294:201,2,146.159995539551,4|4|10,1:0|1:0|0:0,0:0:0:0:
431,150,62025,1,4,1:0:0:0:
291,317,62172,1,8,0:0:0:0:
267,314,62245,1,8,0:0:0:0:
252,304,62318,1,8,0:0:0:0:
246,284,62391,1,8,0:0:0:0:
252,270,62464,2,0,B|294:284|294:284|322:335|322:335|363:347,1,146.159995539551,4|2,1:0|0:0,0:0:0:0:
363,347,62904,5,8,0:0:0:0:
427,306,63050,1,4,3:0:0:0:
374,249,63196,1,0,1:0:0:0:
363,253,63343,5,8,0:0:0:0:
245,345,63562,5,8,0:0:0:0:
177,313,63782,5,8,0:0:0:0:
235,269,63928,1,8,0:0:0:0:
170,309,64074,1,8,0:0:0:0:
67,261,64221,6,0,P|5:291|16:359,1,146.159995539551,4|0,1:0|0:0,0:0:0:0:
120,210,64660,6,0,P|144:184|142:149,1,73.0799977697755,2|2,1:2|0:0,0:0:0:0:
142,149,64952,1,8,0:0:0:0:
60,0,65245,5,8,0:0:0:0:
0,49,65391,2,0,P|68:34|111:88,1,146.159995539551,4|0,1:0|1:0,0:0:0:0:
230,177,65830,6,0,P|258:198|294:195,2,73.0799977697755,2|2|8,1:2|0:0|0:0,0:0:0:0:
230,177,66269,1,2,3:2:0:0:
296,93,66416,6,0,P|329:105|340:138,1,73.0799977697755,8|4,0:0|1:0,0:0:0:0:
339,138,66855,6,0,L|327:172,1,36.5399988848877,2|2,1:2|1:2,0:0:0:0:
279,238,67001,6,0,L|267:272,3,36.5399988848877,2|2|2|2,3:2|3:2|3:2|3:2,0:0:0:0:
239,165,67294,6,0,L|214:137,3,36.5399988848877,10|10|10|10,3:2|3:2|0:2|0:2,0:0:0:0:
326,172,67586,5,10,0:2:0:0:
340,168,67659,1,10,0:2:0:0:
354,165,67732,1,4,1:0:0:0:
495,327,68904,6,0,B|423:348|423:348|370:320|393:281,1,148.76999818396,4|0,1:0|0:0,0:0:0:0:
395,284,69196,1,2,1:2:0:0:
264,163,69343,6,0,B|252:132|217:126|217:126|276:114|288:182,1,148.76999818396,10|0,0:0|0:0,0:0:0:0:
318,230,69635,2,0,B|344:240|344:240|363:270|363:270|395:284,1,99.1799987893067,0|0,1:0|1:0,0:0:0:0:
283,164,69928,1,8,0:0:0:0:
166,301,70074,6,0,B|138:308|116:327|116:327|43:316|68:259,1,148.76999818396,4|0,1:0|0:0,0:0:0:0:
72,261,70367,1,0,1:0:0:0:
235,316,70513,6,0,P|277:336|281:384,1,99.1799987893067,8|0,0:0|0:0,0:0:0:0:
151,221,70806,1,0,1:0:0:0:
124,156,70952,1,0,1:0:0:0:
144,226,71099,1,8,0:0:0:0:
15,366,71245,6,0,P|109:377|165:300,1,198.359997578613,4|0,1:0|1:0,0:0:0:0:
228,216,71684,2,0,B|199:166|236:177|204:116,1,99.1799987893067,8|8,0:0|3:0,0:0:0:0:
206,121,71904,1,4,3:0:0:0:
206,121,71977,1,0,1:0:0:0:
93,13,72123,2,0,P|140:13|168:52,1,99.1799987893067,2|8,1:2|0:0,0:0:0:0:
56,188,72416,6,0,B|83:154|124:172|124:172|149:212|205:192,1,148.76999818396,4|0,1:0|0:0,0:0:0:0:
192,187,72708,1,0,1:0:0:0:
326,296,72855,2,0,P|296:257|248:255,1,99.1799987893067,8|2,0:0|0:0,0:0:0:0:
353,146,73147,1,0,1:0:0:0:
248,255,73294,2,0,L|342:223,1,99.1799987893067,0|8,1:0|0:0,0:0:0:0:
422,103,73586,6,0,B|429:46|495:31|495:31|439:15|417:65,1,198.359997578613,4|0,1:0|1:0,0:0:0:0:
420,60,74025,2,0,B|419:34|388:12|388:12|440:56|492:63|523:21,1,198.359997578613,8|0,0:0|1:0,0:0:0:0:
366,153,74464,1,0,1:0:0:0:
512,32,74611,1,8,0:0:0:0:
366,153,74757,6,0,B|349:213|418:242|415:207|479:242|458:305,1,198.359997578613,4|0,1:2|1:0,0:0:0:0:
395,380,75196,6,0,P|361:347|383:307,1,99.1799987893067,8|2,0:0|0:0,0:0:0:0:
512,175,75489,2,0,P|492:218|445:221,1,99.1799987893067,0|0,1:0|1:0,0:0:0:0:
512,175,75782,1,8,0:0:0:0:
330,344,75928,6,0,B|288:266|181:287|195:355|267:339|294:287,1,174.869991728257,4|0,1:0|0:0,0:0:0:0:
260,301,76221,2,0,B|254:272|254:272|224:251|224:251|217:218,1,99.1799987893067,0|8,1:0|0:0,0:0:0:0:
336,75,76513,6,0,P|361:126|281:146,1,148.76999818396,4|0,1:0|0:0,0:0:0:0:
292,155,76806,1,0,1:0:0:0:
292,155,76879,1,0,1:0:0:0:
292,155,76952,1,8,0:0:0:0:
183,71,77099,6,0,B|120:46|120:46|54:56|68:117,1,148.76999818396,4|0,1:0|0:0,0:0:0:0:
73,106,77391,1,0,1:0:0:0:
226,8,77538,1,8,0:0:0:0:
73,106,77684,6,0,L|26:124,1,49.5899993946533,6|0,1:2|0:0,0:0:0:0:
256,268,77977,6,0,L|236:217,1,49.5899993946533,6|0,1:2|0:0,0:0:0:0:
227,215,78123,1,8,0:0:0:0:
439,56,78269,6,0,B|453:99|405:126|407:99|355:121|367:166,1,148.76999818396,4|0,1:0|0:0,0:0:0:0:
367,166,78562,1,0,1:0:0:0:
367,166,78635,1,0,1:0:0:0:
367,166,78708,6,0,B|409:150|400:95|380:113|366:59|409:41,1,148.76999818396,12|0,0:0|0:0,0:0:0:0:
469,0,79001,2,0,P|509:22|497:67,1,99.1799987893067,0|0,1:0|1:0,0:0:0:0:
342,0,79294,1,8,0:0:0:0:
477,143,79440,6,0,P|385:105|288:82,1,198.359997578613,4|0,1:0|1:0,0:0:0:0:
160,181,79879,2,0,P|205:166|217:120,1,99.1799987893067,8|2,0:0|0:0,0:0:0:0:
121,6,80172,1,0,1:0:0:0:
53,41,80318,1,0,1:0:0:0:
80,112,80464,1,8,0:0:0:0:
203,245,80611,6,0,B|218:275|253:278|253:278|196:283|183:223,1,148.76999818396,4|0,1:0|0:0,0:0:0:0:
160,181,80904,1,0,1:0:0:0:
62,285,81050,1,8,0:0:0:0:
160,181,81196,5,0,1:0:0:0:
160,181,81269,1,0,1:0:0:0:
160,181,81343,1,0,1:0:0:0:
3,97,81489,2,0,P|36:132|84:137,1,99.1799987893067,0|8,1:0|0:0,0:0:0:0:
250,278,81782,6,0,P|180:294|161:362,1,148.76999818396,4|0,1:2|0:0,0:0:0:0:
168,366,82074,1,0,1:0:0:0:
325,269,82221,6,0,P|356:233|340:188,1,99.1799987893067,8|2,0:0|0:0,0:0:0:0:
160,361,82513,2,0,P|207:352|244:383,1,99.1799987893067,0|0,1:0|1:0,0:0:0:0:
145,263,82806,1,8,0:0:0:0:
258,378,82952,6,0,P|354:372|417:299,1,198.359997578613,4|0,1:0|1:0,0:0:0:0:
417,298,83391,2,0,P|458:321|462:369,1,99.1799987893067,8|0,0:0|0:0,0:0:0:0:
325,269,83684,1,0,1:0:0:0:
325,269,83830,1,0,1:0:0:0:
421,178,83977,1,8,0:0:0:0:
325,269,84123,6,0,B|282:250|282:250|227:258|227:258|189:225|189:225|136:205,1,198.359997578613,4|0,1:0|1:0,0:0:0:0:
294,84,84562,2,0,P|250:101|243:148,1,99.1799987893067,8|0,0:0|0:0,0:0:0:0:
325,269,84855,1,0,1:0:0:0:
325,269,85001,1,0,1:0:0:0:
243,148,85147,1,8,0:0:0:0:
361,28,85294,6,0,B|386:24|408:7|408:7|475:17|460:88,1,148.76999818396,4|0,1:0|0:0,0:0:0:0:
469,87,85586,1,2,1:2:0:0:
467,103,85660,1,2,1:2:0:0:
450,114,85733,1,8,0:0:0:0:
407,123,85806,1,2,0:0:0:0:
378,150,85879,1,2,3:0:0:0:
376,196,85952,1,2,3:0:0:0:
395,222,86025,1,8,3:0:0:0:
409,228,86099,1,8,3:0:0:0:
419,229,86172,6,0,L|473:208,2,49.5899993946533,0|0|8,1:0|0:0|0:0,0:0:0:0:
294,338,86464,2,0,B|220:322|220:322|186:273|225:249,1,148.76999818396,4|0,1:2|0:0,0:0:0:0:
226,256,86757,1,0,1:0:0:0:
135,151,86904,6,0,P|92:170|94:217,1,99.1799987893067,8|8,0:0|3:0,0:0:0:0:
214,86,87196,1,0,1:0:0:0:
193,14,87343,1,0,1:0:0:0:
205,87,87489,1,8,0:0:0:0:
325,226,87635,6,0,B|326:254|351:275|351:275|359:278|359:278|303:230|246:222|213:268,1,215.759991440186,4|0,1:0|1:0,0:0:0:0:
398,216,88074,5,8,0:0:0:0:
274,323,88221,1,2,0:0:0:0:
350,127,88367,6,0,P|302:116|281:162,1,107.879995720093,0|0,1:0|1:0,0:0:0:0:
376,295,88660,1,8,0:0:0:0:
221,238,88806,6,0,B|184:237|159:267|159:267|154:272|154:272|103:284|50:230,1,161.819993580139,4|0,1:0|0:0,0:0:0:0:
74,241,89099,1,0,1:0:0:0:
216,312,89245,2,0,P|261:333|255:384,1,107.879995720093,8|2,0:0|0:0,0:0:0:0:
221,238,89538,6,0,L|251:134,1,107.879995720093,0|0,1:0|1:0,0:0:0:0:
172,7,89830,1,8,0:0:0:0:
251,134,89977,6,0,B|269:201|198:235|203:197|127:225|142:290,1,215.759991440186,4|0,1:0|1:0,0:0:0:0:
190,351,90416,2,0,L|293:382,1,107.879995720093,8|8,0:0|0:3,0:0:0:0:
293,382,90635,1,0,1:0:0:0:
293,382,90708,1,0,1:0:0:0:
403,297,90855,2,0,B|435:272|405:232|405:232|370:220,1,107.879995720093,0|8,1:0|0:0,0:0:0:0:
443,361,91147,6,0,P|352:318|373:221,1,215.759991440186,4|0,1:0|1:0,0:0:0:0:
512,105,91586,2,0,P|484:148|433:142,1,107.879995720093,8|2,0:0|0:0,0:0:0:0:
286,33,91879,1,0,1:0:0:0:
328,101,92025,1,0,1:0:0:0:
423,10,92172,1,8,0:0:0:0:
328,101,92318,6,0,B|311:146|263:139|263:139|240:75|155:84|151:160,1,215.759991440186,4|0,1:0|1:0,0:0:0:0:
265,269,92757,6,0,P|312:214|257:166,1,161.819993580139,8|0,0:0|0:0,0:0:0:0:
249,175,93050,1,0,1:0:0:0:
111,284,93196,1,0,1:0:0:0:
70,217,93343,1,8,0:0:0:0:
111,284,93489,2,0,B|180:309|180:309|245:290|215:231,1,161.819993580139,4|0,1:0|0:0,0:0:0:0:
208,240,93782,5,0,1:0:0:0:
372,384,93928,2,0,P|340:342|287:338,1,107.879995720093,8|2,0:0|0:0,0:0:0:0:
403,230,94221,1,0,1:0:0:0:
288,337,94367,2,0,L|390:303,1,107.879995720093,0|8,1:0|0:0,0:0:0:0:
483,132,94660,6,0,B|430:119|414:163|414:163|421:214|362:224,1,161.819993580139,4|0,1:2|0:0,0:0:0:0:
365,227,94952,2,0,P|321:200|333:151,1,107.879995720093,0|8,1:0|0:0,0:0:0:0:
253,48,95245,2,0,P|157:71|172:168,1,215.759991440186,4|0,1:0|1:0,0:0:0:0:
172,168,95611,1,0,1:0:0:0:
172,168,95684,1,8,0:0:0:0:
241,265,95830,6,0,P|208:357|114:330,1,215.759991440186,4|0,1:0|1:0,0:0:0:0:
114,330,96269,1,8,0:0:0:0:
241,265,96416,6,0,P|254:288|259:314,1,53.9399978600465,4|0,1:2|0:0,0:0:0:0:
81,219,96708,2,0,P|67:242|62:268,1,53.9399978600465,4|0,1:2|1:0,0:0:0:0:
212,152,97001,1,4,1:0:0:0:
17,45,97294,5,0,1:0:0:0:
17,45,97367,1,0,1:0:0:0:
17,45,97440,2,0,B|41:66|84:58|84:58|152:82|105:152,1,161.819993580139,8|0,0:0|0:0,0:0:0:0:
108,134,97733,1,0,1:0:0:0:
241,265,97879,1,0,1:0:0:0:
98,359,98025,6,0,P|150:353|186:314,1,107.879995720093,8|4,0:0|1:0,0:0:0:0:
368,132,98464,1,2,1:2:0:0:
424,188,98611,6,0,P|351:161|295:213,1,161.819993580139,8|0,0:0|0:0,0:0:0:0:
241,265,98904,2,0,B|247:326|278:299|288:358,1,107.879995720093,0|0,1:0|1:0,0:0:0:0:
179,215,99196,1,8,0:0:0:0:
8,338,99343,6,0,B|66:347|112:287|112:287|116:286|116:286|68:328|101:392,1,215.759991440186,4|0,1:0|1:0,0:0:0:0:
166,348,99782,2,0,P|211:371|249:338,1,107.879995720093,8|10,0:0|0:3,0:0:0:0:
355,212,100074,1,0,1:0:0:0:
290,252,100221,1,0,1:0:0:0:
417,382,100367,2,0,P|388:339|336:336,1,107.879995720093,8|4,0:0|1:0,0:0:0:0:
150,166,100806,5,0,1:0:0:0:
196,89,100952,2,0,B|203:53|244:42|244:42|183:41|171:118,1,161.819993580139,8|0,0:0|0:0,0:0:0:0:
150,166,101245,2,0,P|194:192|242:175,1,107.879995720093,0|0,1:0|1:0,0:0:0:0:
276,107,101538,1,8,0:0:0:0:
178,93,101684,6,0,L|384:155,1,215.759991440186,4|0,1:0|1:0,0:0:0:0:
512,52,102123,2,0,P|460:49|427:89,1,107.879995720093,8|2,0:0|0:0,0:0:0:0:
509,250,102416,2,0,B|499:185|471:218|460:157,1,107.879995720093,0|0,1:0|1:0,0:0:0:0:
345,236,102708,1,8,0:0:0:0:
234,42,102855,6,0,P|310:51|344:122,1,161.819993580139,4|0,1:0|0:0,0:0:0:0:
335,132,103147,1,0,1:0:0:0:
256,233,103294,6,0,P|209:259|156:256,1,107.879995720093,8|2,0:0|0:0,0:0:0:0:
114,195,103586,1,0,1:0:0:0:
114,195,103733,1,0,1:0:0:0:
256,233,103879,1,8,0:0:0:0:
155,256,104025,6,0,P|259:271|322:355,1,215.759991440186,4|0,1:2|1:0,0:0:0:0:
256,233,104464,6,0,B|266:203|266:203|291:180|291:180|303:149,1,99.1799987893067,8|8,0:0|3:0,0:0:0:0:
427,34,104757,1,8,3:0:0:0:
376,87,104904,1,4,1:3:0:0:
306,59,105050,1,8,0:0:0:0:
419,186,105196,2,0,B|447:215|502:202|502:202|489:206|489:206|406:205|359:261|409:296,1,257.52000628711,4|2,1:0|3:2,0:0:0:0:
408,296,105855,1,2,3:2:0:0:
408,296,105928,6,0,L|448:311,2,42.9200010478516,8|4|4,3:0|3:0|3:0,0:0:0:0:
353,233,106221,6,0,L|312:248,2,42.9200010478516,2|4|4,3:0|3:0|3:0,0:0:0:0:
419,186,106503,6,0,L|459:-3,1,180.959998895508,4|0,1:0|0:0,0:0:0:0:
419,186,106942,6,0,B|446:141|446:141|429:66|429:66|457:8,1,193.140004715332,4|2,1:2|0:0,0:0:0:0:
353,114,107820,5,2,0:0:0:0:
156,290,108112,6,0,P|207:257|277:258,1,128.760003143555,6|0,0:2|0:0,0:0:0:0:
273,331,108551,2,0,P|268:298|293:265,1,64.3800015717774
356,215,108844,6,0,B|385:186|364:147|364:147|275:134,1,146.159995539551,2|0,3:2|0:0,0:0:0:0:
411,99,109283,2,0,B|393:132|360:139|360:139|269:127,1,128.760003143555
450,177,109722,1,2,0:0:0:0:
483,48,109868,2,0,P|493:80|484:111,1,64.3800015717774,8|0,3:0|0:0,0:0:0:0:
450,177,110161,1,0,0:0:0:0:
512,261,110307,5,2,3:0:0:0:
470,325,110454,1,2,0:0:0:0:
512,261,110600,1,2,0:0:0:0:
356,215,110746,5,4,3:0:0:0:
372,313,110893,1,2,3:2:0:0:
305,355,111039,1,2,3:2:0:0:
356,215,111185,6,0,P|271:191|174:198,1,180.959998895508,4|0,1:0|0:0,0:0:0:0:
356,215,111624,6,0,B|314:240|267:203|280:190|234:153|178:198,1,193.140004715332,4|0,1:2|0:0,0:0:0:0:
356,94,112503,6,0,P|370:104|348:98,2,64.3800015717774,2|2|2,0:0|0:0|0:0,0:0:0:0:
156,55,113088,5,2,0:0:0:0:
85,76,113234,1,2,0:0:0:0:
74,115,113381,1,2,0:0:0:0:
114,179,113527,6,0,B|121:203|114:226|114:226|115:231|115:231|139:197|180:196,1,128.760003143555,2|2,3:2|0:0,0:0:0:0:
277,259,113966,2,0,P|247:203|180:188,1,128.760003143555,2|2,0:0|0:0,0:0:0:0:
111,254,114405,6,0,P|101:287|111:316,1,64.3800015717774,8|0,3:0|0:0,0:0:0:0:
172,361,114698,1,8,3:0:0:0:
172,361,114844,1,8,3:0:0:0:
232,317,114990,1,2,3:0:0:0:
271,381,115137,1,2,3:0:0:0:
366,285,115283,5,4,3:0:0:0:
349,373,115429,1,4,3:0:0:0:
232,317,115576,5,4,3:0:0:0:
349,373,115722,1,4,3:0:0:0:
479,255,115868,6,0,L|295:170,1,180.959998895508,4|0,1:0|0:0,0:0:0:0:
479,255,116307,6,0,B|425:270|394:221|405:213|375:167|312:180,1,193.140004715332,4|2,1:2|0:0,0:0:0:0:
475,166,117185,5,6,0:0:0:0:
37,218,117624,5,0,0:0:0:0:
5,104,117917,1,2,0:0:0:0:
113,27,118210,6,0,B|152:27|161:69|161:69|132:147,1,146.159995539551,2|0,3:2|0:0,0:0:0:0:
227,90,118649,2,0,B|193:72|160:90|160:90|132:163,1,128.760003143555,2|0,3:2|0:0,0:0:0:0:
167,217,119088,1,8,3:0:0:0:
268,221,119234,2,0,P|253:190|220:176,1,64.3800015717774,2|4,3:0|3:0,0:0:0:0:
167,217,119527,1,2,3:0:0:0:
144,339,119673,5,8,3:0:0:0:
62,345,119820,1,8,3:0:0:0:
65,350,119893,1,8,3:0:0:0:
68,355,119966,2,0,P|75:327|58:267,1,64.3800015717774,2|4,3:0|3:0,0:0:0:0:
19,234,120259,1,2,3:2:0:0:
75,99,120405,1,2,3:2:0:0:
36,32,120551,6,0,P|110:75|212:95,1,180.959998895508,4|0,1:0|0:0,0:0:0:0:
36,32,120990,6,0,B|51:85|115:84|112:62|163:53|206:97,1,193.140004715332,4|6,1:2|0:0,0:0:0:0:
143,166,121868,6,0,P|126:181|139:161,2,64.3800015717774,2|2|6,0:0|0:0|0:0,0:0:0:0:
369,218,122454,1,2,0:0:0:0:
438,191,122600,1,2,0:0:0:0:
433,121,122746,1,2,0:0:0:0:
369,218,122893,6,0,B|341:217|326:201|326:201|320:201|320:201|338:238|324:274,1,128.760003143555,2|0,3:2|0:0,0:0:0:0:
219,320,123332,2,0,P|287:322|329:272,1,128.760003143555
174,268,123771,2,0,P|185:297|209:318,1,64.3800015717774,0|0,3:2|3:2,0:0:0:0:
224,181,124063,5,0,3:2:0:0:
212,185,124210,1,2,3:2:0:0:
279,119,124356,5,2,3:2:0:0:
205,110,124502,1,2,3:2:0:0:
359,111,124649,5,8,3:0:0:0:
310,26,124795,1,2,3:0:0:0:
359,111,124942,6,0,B|377:136|364:167|364:167|327:190,1,90.4799994477539,2|4,0:0|1:0,0:0:0:0:
93,262,125234,6,0,L|215:321,2,128.760003143555,0|0|0,1:0|3:0|3:0,0:0:0:0:
76,184,125966,1,0,0:0:0:0:
152,207,126112,2,0,L|215:237,1,64.3800015717774,2|2,3:2|0:2,0:0:0:0:
93,262,126405,2,0,L|215:321,1,128.760003143555,2|0,3:2|3:0,0:0:0:0:
152,207,126990,6,0,L|215:237,2,64.3800015717774,2|0|2,3:2|0:0|3:2,0:0:0:0:
76,184,127429,1,0,1:0:0:0:
93,262,127576,2,0,L|215:321,1,128.760003143555,2|0,1:2|3:0,0:0:0:0:
281,279,128015,1,0,1:0:0:0:
210,234,128161,2,0,L|147:204,1,64.3800015717774,0|0,3:0|0:0,0:0:0:0:
134,43,128454,1,2,3:2:0:0:
153,122,128600,2,0,L|269:179,1,128.760003143555,2|0,0:2|0:0,0:0:0:0:
151,206,129039,6,0,L|210:234,1,64.3800015717774,2|2,3:2|0:2,0:0:0:0:
212,67,129332,2,0,L|275:97,1,64.3800015717774,2|8,3:2|3:0,0:0:0:0:
153,122,129624,1,4,3:0:0:0:
269,179,129771,1,2,3:0:0:0:
153,122,129917,6,0,L|269:179,2,128.760003143555,2|0|0,1:2|3:0|3:0,0:0:0:0:
281,279,130795,5,2,3:2:0:0:
151,206,130942,2,0,L|210:234,2,64.3800015717774,2|0|0,0:2|3:0|0:0,0:0:0:0:
153,122,131673,5,0,3:0:0:0:
153,122,131966,5,2,3:2:0:0:
269,179,132112,1,2,1:2:0:0:
153,122,132259,6,0,L|269:179,2,128.760003143555,2|0|0,1:2|3:0|3:0,0:0:0:0:
134,43,132990,1,2,0:0:0:0:
270,94,133137,2,0,L|212:67,1,64.3800015717774,2|2,3:2|0:0,0:0:0:0:
343,137,133429,1,0,3:2:0:0:
343,137,133576,1,2,0:0:0:0:
268,178,133722,5,0,3:0:0:0:
270,94,133868,1,2,0:0:0:0:
345,53,134015,5,2,3:2:0:0:
342,223,134162,1,8,3:0:0:0:
417,182,134308,5,4,3:0:0:0:
417,97,134454,1,2,3:0:0:0:
343,137,134600,6,0,P|352:218|415:265,2,163.559997504273,2|0|0,1:2|3:0|3:0,0:0:0:0:
491,253,135332,1,2,0:2:0:0:
351,216,135478,2,0,P|376:247|413:264,1,81.7799987521363,2|2,3:2|0:0,0:0:0:0:
491,253,135771,2,0,P|413:265|351:216,1,163.559997504273,0|0,3:0|3:0,0:0:0:0:
292,51,136356,6,0,P|369:40|435:94,1,163.559997504273,2|2,3:2|3:2,0:0:0:0:
440,169,136795,1,0,1:0:0:0:
370,40,136942,2,0,P|433:91|439:175,2,163.559997504273,2|0|0,1:2|3:0|3:0,0:0:0:0:
293,52,137673,1,2,0:0:0:0:
432,90,137820,1,0,3:0:0:0:
370,40,137966,2,0,P|288:56|260:197,1,245.339996256409,2|2,0:0|3:2,0:0:0:0:
294,267,138551,1,2,0:2:0:0:
125,188,138698,5,2,3:2:0:0:
196,169,138844,1,8,3:0:0:0:
275,338,138990,1,4,3:0:0:0:
294,267,139137,5,2,3:0:0:0:
83,249,139283,2,0,P|105:330|176:370,3,163.559997504273,2|0|0|0,1:2|3:0|3:0|3:0,0:0:0:0:
196,169,140307,1,2,0:0:0:0:
125,188,140454,2,0,P|83:252|115:340,2,163.559997504273,0|0|0,3:0|3:0|3:0,0:0:0:0:
294,267,141332,5,0,3:0:0:0:
275,338,141479,1,0,1:0:0:0:
294,267,141624,2,0,P|287:229|256:194,1,81.7799987521363,4|0,1:2|0:0,0:0:0:0:
105,330,141917,5,8,0:0:0:0:
169,369,142063,1,0,1:0:0:0:
105,330,142210,1,8,0:0:0:0:
259,196,142502,5,2,0:0:0:0:
196,169,142649,2,0,P|231:192|335:140,1,163.559997504273,8|0,0:0|1:0,0:0:0:0:
249,59,143088,1,8,0:0:0:0:
369,82,143234,6,0,P|392:69|419:66,2,40.8899993760681,2|0|0,0:0|0:0|0:0,0:0:0:0:
337,196,143527,6,0,P|338:169|348:144,2,40.8899993760681,8|8|8,0:0|0:0|3:0,0:0:0:0:
419,280,143820,5,4,3:0:0:0:
419,280,143893,1,4,3:0:0:0:
419,280,143966,6,0,B|399:272|387:256|387:256|385:261|385:261|393:294|373:324,1,109.619996654663,4|8,1:0|0:0,0:0:0:0:
302,349,144259,2,0,P|282:357|250:350,1,36.5399988848877,8|8,0:0|0:0,0:0:0:0:
425,381,144405,1,4,1:0:0:0:
425,381,145137,5,2,1:2:0:0:
315,270,145283,1,8,0:0:0:0:
238,283,145502,5,8,0:0:0:0:
319,247,145722,5,8,0:0:0:0:
328,158,145942,5,8,0:0:0:0:
255,105,146161,5,8,0:0:0:0:
349,154,146307,2,0,B|381:152|390:125|390:125|367:73,1,109.619996654663,4|8,1:0|0:0,0:0:0:0:
373,69,146600,1,8,0:0:0:0:
378,64,146673,1,8,0:0:0:0:
383,59,146746,6,0,B|417:137|417:137|440:158|474:156,1,146.159995539551,4|8,1:0|3:0,0:0:0:0:
403,226,147185,1,4,3:0:0:0:
480,79,147332,1,4,1:0:0:0:
255,105,147624,5,8,0:0:0:0:
251,110,147698,1,8,0:0:0:0:
247,115,147771,2,0,P|233:126|215:128,1,36.5399988848877,8|0,0:0|0:0,0:0:0:0:
143,100,147917,2,0,B|165:100|182:116|182:116|182:122|182:122|171:121|159:129,1,73.0799977697755,4|0,1:0|0:0,0:0:0:0:
271,267,148210,2,0,P|270:230|233:194,1,73.0799977697755,2|2,1:2|0:0,0:0:0:0:
198,257,148502,5,8,0:0:0:0:
252,338,148649,2,0,P|229:283|256:192,1,146.159995539551,4|8,1:0|0:0,0:0:0:0:
336,192,149015,1,8,0:0:0:0:
336,192,149088,2,0,P|344:208|345:230,1,36.5399988848877,4|0,1:0|0:0,0:0:0:0:
345,226,149820,5,0,1:0:0:0:
247,115,149966,1,8,0:0:0:0:
159,128,150185,5,8,0:0:0:0:
134,214,150405,5,8,0:0:0:0:
177,148,150551,1,8,3:0:0:0:
72,90,150698,1,8,0:0:0:0:
67,85,150771,1,8,0:0:0:0:
62,80,150844,2,0,B|54:64|56:44|56:44|50:40|50:40|18:70|35:113|45:105|64:145|50:183,1,193.140004715332,4|0,1:0|1:0,0:0:0:0:
50,180,151576,6,0,P|41:152|46:117,1,64.3800015717774,8|0,0:0|0:0,0:0:0:0:
110,312,151868,1,2,0:0:0:0:
47,350,152015,6,0,P|90:304|93:238,1,128.760003143555,4|2,1:0|1:2,0:0:0:0:
50,180,152454,2,0,P|41:152|46:117,1,64.3800015717774,2|2,1:2|0:0,0:0:0:0:
194,9,152746,1,8,0:0:0:0:
258,45,152893,1,2,0:0:0:0:
173,26,153039,5,0,0:0:0:0:
323,252,153332,5,4,1:0:0:0:
232,276,153527,1,8,0:0:0:0:
309,281,153722,1,8,0:0:0:0:
274,103,153917,5,4,1:0:0:0:
340,170,154112,1,8,0:0:0:0:
306,101,154307,1,8,0:0:0:0:
170,220,154502,5,4,1:0:0:0:
195,129,154697,1,8,0:0:0:0:
152,193,154892,1,8,0:0:0:0:
256,192,155088,5,4,1:0:0:0:
256,192,155527,5,4,1:2:0:0:
256,192,155600,12,0,157868,1:0:0:0:
256,352,159771,5,6,3:2:0:0:
256,352,159917,1,8,3:0:0:0:
221,275,160063,5,0,0:0:0:0:
291,259,160210,1,4,3:0:0:0:
221,275,160356,6,0,B|193:252|192:219|192:219|176:192|139:182,1,128.760003143555,2|0,3:0|3:0,0:0:0:0:
201,120,160795,2,0,B|234:107|264:123|264:123|295:123|322:95,1,128.760003143555
345,180,161234,2,0,B|339:215|310:233|310:233|295:260|306:297,4,128.760003143555,0|0|0|0|0,3:0|3:0|3:0|3:0|3:0,0:0:0:0:
320,97,162551,1,0,1:0:0:0:
256,192,162698,5,0,1:0:0:0:
256,32,164454,5,4,3:0:0:0:
256,32,164600,1,2,3:0:0:0:
231,101,164746,5,0,3:0:0:0:
281,114,164893,1,0,0:0:0:0:
362,138,165039,6,0,B|333:128|301:140|301:140|279:177|233:194|191:170,1,187.920004587891,0|0,1:0|3:0,0:0:0:0:
123,149,165917,1,0,3:0:0:0:
192,170,166210,2,0,P|227:199|240:243,1,93.9600022939454,0|0,3:0|3:0,0:0:0:0:
240,244,166795,2,0,P|247:198|279:164,1,93.9600022939454,2|0,3:2|3:0,0:0:0:0:
342,210,167234,1,0,1:0:0:0:
408,253,167381,6,0,P|372:223|359:179,1,93.9600022939454,0|0,3:0|3:0,0:0:0:0:
397,297,167820,6,0,B|402:256|408:242|441:217,1,93.9600022939454,2|2,1:2|0:0,0:0:0:0:
366,324,168259,6,0,B|374:316|385:313|390:313|412:320,1,46.9800011469727,2|2,3:2|0:2,0:0:0:0:
475,364,168551,2,0,B|480:371|480:371|477:375|477:375|480:385,3,23.4900005734863,2|2|2|2,3:2|0:2|0:2|0:2,0:0:0:0:
489,309,168844,2,0,B|492:304|492:304|482:296|482:296|483:290,2,23.4900005734863,2|2|2,3:2|0:2|0:2,0:0:0:0:
440,217,169137,5,2,3:2:0:0:
500,125,169283,1,2,0:0:0:0:
492,106,169356,1,2,0:0:0:0:
487,95,169429,1,8,3:0:0:0:
392,42,169576,2,0,L|399:6,1,23.4900005734863,4|4,3:0|3:0,0:0:0:0:
396,18,169722,6,0,P|389:63|307:86,1,128.760003143555,4|0,1:0|3:0,0:0:0:0:
263,44,170161,1,0,3:0:0:0:
223,104,170307,1,0,3:0:0:0:
223,104,170600,6,0,B|245:56|221:11|221:11|204:12|191:24,1,128.760003143555,0|0,3:0|3:0,0:0:0:0:
191,23,171039,6,0,B|212:50|251:52|251:52|227:73|222:108,1,128.760003143555,0|0,3:0|0:0,0:0:0:0:
164,147,171478,2,0,P|167:208|219:255,1,128.760003143555,0|0,3:0|3:0,0:0:0:0:
299,235,171917,1,4,1:0:0:0:
128,224,172210,5,0,1:0:0:0:
120,236,172283,1,8,0:0:0:0:
131,242,172356,1,8,0:0:0:0:
45,234,172502,1,8,0:0:0:0:
30,167,172649,1,8,0:0:0:0:
62,144,172795,1,0,1:0:0:0:
78,149,172942,1,8,0:0:0:0:
82,301,173088,5,4,1:0:0:0:
160,112,173381,6,0,P|153:94|134:83,2,32.1900007858887,0|0|8,1:0|1:0|0:0,0:0:0:0:
128,224,173673,1,8,0:0:0:0:
256,320,173820,5,8,1:2:0:0:
256,320,173966,1,8,1:2:0:0:
308,259,174112,2,0,L|270:246,1,32.1900007858887,2|0,0:0|0:0,0:0:0:0:
277,248,174405,6,0,P|329:242|351:195,1,109.619996654663,4|0,1:0|0:0,0:0:0:0:
351,195,174698,2,0,L|327:118,1,73.0799977697755,8|0,0:0|0:0,0:0:0:0:
439,30,174990,1,0,1:0:0:0:
403,97,175137,1,0,1:0:0:0:
283,26,175283,2,0,L|206:49,1,73.0799977697755,8|0,0:0|1:0,0:0:0:0:
213,47,175576,6,0,B|250:48|250:48|278:70,1,73.0799977697755,2|0,0:0|1:0,0:0:0:0:
421,171,175868,2,0,B|462:192|462:192|512:185|517:139,1,109.619996654663,8|0,0:0|0:0,0:0:0:0:
512,158,176161,2,0,P|476:154|447:176,1,73.0799977697755,0|0,1:0|1:0,0:0:0:0:
321,258,176454,2,0,B|289:265|252:238|252:238|274:256|282:285,1,109.619996654663,8|0,0:0|0:0,0:0:0:0:
210,302,176746,6,0,P|178:318|144:308,1,73.0799977697755,0|0,1:0|0:0,0:0:0:0:
305,182,177039,2,0,B|327:164|327:164|335:125|335:125|331:120|331:120|338:79|338:79|361:60,1,146.159995539551,8|0,0:0|1:0,0:0:0:0:
256,120,177478,1,0,1:0:0:0:
365,234,177624,2,0,P|399:245|423:271,2,73.0799977697755,8|0|2,0:0|1:0|0:0,0:0:0:0:
447,175,178063,1,0,1:0:0:0:
352,330,178210,6,0,P|403:320|423:271,1,109.619996654663,8|0,0:0|0:0,0:0:0:0:
423,271,178502,2,0,P|454:289|471:321,1,73.0799977697755,0|0,1:0|1:0,0:0:0:0:
305,182,178795,1,8,0:0:0:0:
305,182,179088,6,0,B|240:201|240:201|180:179|206:128,1,146.159995539551,4|8,1:0|0:0,0:0:0:0:
142,247,179527,6,0,P|112:268|76:274,1,73.0799977697755,2|0,0:0|1:0,0:0:0:0:
200,143,179820,1,0,1:0:0:0:
76,274,179966,2,0,P|111:280|141:301,1,73.0799977697755,8|0,0:0|1:0,0:0:0:0:
305,182,180259,5,2,0:0:0:0:
239,215,180405,1,0,1:0:0:0:
329,350,180551,2,0,L|350:280,1,73.0799977697755,8|0,0:0|0:0,0:0:0:0:
244,323,180844,5,0,1:0:0:0:
375,210,180990,1,0,1:0:0:0:
444,242,181137,2,0,P|470:265|479:301,1,73.0799977697755,8|2,0:0|0:0,0:0:0:0:
305,182,181429,1,4,1:2:0:0:
305,182,181722,6,0,P|340:174|373:157,1,73.0799977697755,8|4,0:0|3:0,0:0:0:0:
372,157,182015,1,8,3:0:0:0:
505,26,182161,1,4,3:0:0:0:
432,15,182307,1,2,3:0:0:0:
413,93,182453,1,12,0:0:0:0:
413,93,182746,5,4,3:0:0:0:
413,93,182820,1,4,3:0:0:0:
413,93,182893,1,2,3:0:0:0:
463,149,183039,1,2,3:0:0:0:
434,221,183185,2,0,L|364:243,2,73.0799977697755,8|2|8,0:0|0:0|3:0,0:0:0:0:
305,182,183624,1,0,1:0:0:0:
433,220,183771,6,0,P|364:227|329:289,2,146.159995539551,4|8|0,1:0|0:0|1:0,0:0:0:0:
305,182,184502,1,0,1:0:0:0:
406,287,184649,2,0,L|477:307,1,73.0799977697755,8|0,0:0|1:0,0:0:0:0:
303,316,184942,6,0,B|226:302|226:302|195:363,2,146.159995539551,2|8|0,0:0|0:0|1:0,0:0:0:0:
179,236,185673,1,0,1:0:0:0:
84,348,185820,2,0,P|53:328|47:294,1,73.0799977697755,8|0,0:0|0:0,0:0:0:0:
162,143,186112,6,0,L|120:283,2,146.159995539551,0|8|0,1:0|0:0|1:0,0:0:0:0:
134,68,186844,2,0,P|100:81|86:114,1,73.0799977697755,0|0,1:0|0:0,0:0:0:0:
256,28,187137,5,4,1:0:0:0:
443,187,187722,1,2,1:2:0:0:
200,335,188015,6,0,L|158:318,2,36.5399988848877,4|0|4,3:0|0:0|3:0,0:0:0:0:
498,38,188454,6,0,P|440:82|370:102,1,146.159995539551,4|8,1:0|0:0,0:0:0:0:
308,62,188893,1,2,0:0:0:0:
405,201,189039,2,0,P|369:192|337:174,1,73.0799977697755,0|0,1:0|1:0,0:0:0:0:
419,60,189332,1,8,0:0:0:0:
308,181,189478,6,0,P|239:203|196:261,1,146.159995539551,2|0,1:2|1:0,0:0:0:0:
45,340,189917,2,0,P|98:340|131:299,1,109.619996654663,8|0,0:0|0:0,0:0:0:0:
131,299,190210,5,0,1:0:0:0:
268,367,190356,1,0,1:0:0:0:
329,315,190502,5,8,0:0:0:0:
447,237,190649,1,4,1:0:0:0:
256,192,190722,12,0,193137,0:0:0:0:
256,192,195332,5,6,1:2:0:0:
256,192,200893,12,2,202137,0:0:0:0:
256,192,202210,5,10,0:0:0:0:
328,172,202356,6,0,B|358:120|420:126|420:126|368:105|336:151,1,180.959998895508,4|0,1:0|1:0,0:0:0:0:
401,201,202795,1,8,0:0:0:0:
280,275,202942,6,0,P|222:307|157:293,1,135.719999171631,4|0,1:0|0:0,0:0:0:0:
155,291,203234,2,0,P|175:302|191:318,2,45.239999723877,0|0|8,1:0|0:0|0:0,0:0:0:0:
96,238,203527,6,0,P|51:244|19:275,2,90.4799994477539,4|0|0,1:0|0:0|1:0,0:0:0:0:
167,204,203966,1,8,0:0:0:0:
19,275,204112,6,0,L|62:286,1,45.239999723877,4|0,1:1|0:0,0:0:0:0:
230,152,204405,6,0,L|273:140,2,45.239999723877,0|0|8,1:0|0:0|0:0,0:0:0:0:
81,122,204698,6,0,B|95:79|47:52|49:79|-3:57|9:12,1,148.76999818396,4|0,1:2|0:0,0:0:0:0:
9,12,204991,1,0,1:0:0:0:
9,12,205064,1,0,1:0:0:0:
9,12,205137,6,0,B|51:28|42:83|22:65|8:119|51:137,1,148.76999818396,8|0,0:0|0:0,0:0:0:0:
98,204,205429,6,0,L|192:173,1,99.1799987893067,0|0,1:0|1:0,0:0:0:0:
54,301,205722,1,8,0:0:0:0:
192,173,205868,6,0,P|121:174|97:239,1,148.76999818396,4|0,1:0|0:0,0:0:0:0:
54,301,206161,2,0,B|67:360|89:322|101:385,2,99.1799987893067,0|8|2,1:0|0:0|0:0,0:0:0:0:
195,366,206600,1,0,1:0:0:0:
217,295,206746,1,0,1:0:0:0:
184,366,206893,1,8,0:0:0:0:
288,247,207039,6,0,P|349:207|423:208,1,148.76999818396,4|0,1:0|0:0,0:0:0:0:
427,218,207332,1,0,1:0:0:0:
287,121,207478,6,0,B|277:102|255:96|255:96|290:97|318:139,1,99.1799987893067,8|2,0:0|0:0,0:0:0:0:
342,192,207698,1,2,0:0:0:0:
342,192,207771,2,0,P|377:223|422:207,1,99.1799987893067,0|0,1:0|1:0,0:0:0:0:
321,328,208063,1,8,0:0:0:0:
185,254,208210,6,0,B|118:231|118:231|83:177|141:159,1,148.76999818396,4|0,1:0|0:0,0:0:0:0:
141,161,208502,1,0,1:0:0:0:
268,262,208649,6,0,B|275:286|275:286|263:319|263:319|276:355,1,99.1799987893067,8|2,0:0|0:0,0:0:0:0:
141,161,208942,2,0,B|234:193,1,99.1799987893067,0|0,1:0|1:0,0:0:0:0:
372,112,209234,1,8,0:0:0:0:
141,161,209381,6,0,P|205:132|208:61,1,148.76999818396,4|0,1:0|0:0,0:0:0:0:
198,61,209673,1,0,1:0:0:0:
52,0,209820,2,0,L|86:92,1,99.1799987893067,8|2,0:0|0:0,0:0:0:0:
206,198,210112,1,0,1:0:0:0:
141,161,210259,1,0,1:0:0:0:
85,212,210405,1,8,0:0:0:0:
0,354,210551,6,0,B|85:336|35:298|130:282,1,148.76999818396,4|0,1:0|0:0,0:0:0:0:
132,288,210844,1,0,1:0:0:0:
237,360,210990,2,0,P|276:385|316:360,1,99.1799987893067,8|2,0:0|0:0,0:0:0:0:
415,231,211283,2,0,L|320:260,1,99.1799987893067,0|0,1:0|1:0,0:0:0:0:
422,358,211576,1,8,0:0:0:0:
267,210,211722,2,0,B|288:163|288:163|288:113|288:113|303:68,1,148.76999818396,4|8,1:0|0:0,0:0:0:0:
302,68,212015,1,0,1:0:0:0:
302,68,212088,2,0,L|358:49,1,49.5899993946533,0|8,1:0|0:0,0:0:0:0:
218,15,212307,5,8,0:0:0:0:
146,42,212454,1,8,3:0:0:0:
74,115,212600,5,4,3:0:0:0:
8,82,212746,1,8,0:0:0:0:
118,228,212893,6,0,B|145:194|186:212|186:212|211:252|267:232,1,148.76999818396,4|0,1:0|0:0,0:0:0:0:
259,227,213185,1,0,1:0:0:0:
352,139,213332,2,0,P|398:151|420:194,1,99.1799987893067,8|4,0:0|3:0,0:0:0:0:
293,86,213624,5,0,1:0:0:0:
451,18,213771,1,0,1:0:0:0:
451,18,214063,6,0,B|401:8|373:49|373:49|408:73|401:136,1,161.819993580139,4|0,1:0|0:0,0:0:0:0:
402,111,214356,1,0,1:0:0:0:
258,227,214502,2,0,B|304:202|304:202|337:206|347:236,1,107.879995720093,8|2,0:0|0:0,0:0:0:0:
485,317,214795,1,0,1:0:0:0:
420,281,214942,1,0,1:0:0:0:
366,332,215088,1,8,0:0:0:0:
464,209,215234,6,0,B|482:172|520:171|520:171|460:160|445:221,1,161.819993580139,4|0,1:1|0:0,0:0:0:0:
420,281,215527,1,0,1:0:0:0:
296,366,215673,2,0,P|245:373|218:330,1,107.879995720093,8|2,0:0|0:0,0:0:0:0:
111,253,215966,2,0,P|60:245|33:288,1,107.879995720093,0|0,1:0|1:0,0:0:0:0:
199,160,216259,1,8,0:0:0:0:
33,288,216405,6,0,B|122:249|99:311|205:261,1,161.819993580139,4|0,1:0|0:0,0:0:0:0:
189,267,216698,1,0,1:0:0:0:
28,173,216844,2,0,P|44:124|94:114,1,107.879995720093,8|10,0:0|3:0,0:0:0:0:
94,114,217063,1,8,3:0:0:0:
94,114,217137,1,0,1:0:0:0:
195,55,217283,6,0,P|240:83|293:86,1,107.879995720093,0|8,1:0|0:0,0:0:0:0:
444,195,217576,2,0,B|363:191|363:191|326:262,1,161.819993580139,4|0,1:0|0:0,0:0:0:0:
326,262,217868,1,0,1:0:0:0:
444,195,218015,6,0,L|482:91,1,107.879995720093,8|2,0:0|0:0,0:0:0:0:
335,0,218307,1,0,1:0:0:0:
361,71,218454,1,0,1:0:0:0:
345,0,218600,1,8,0:0:0:0:
251,143,218746,6,0,B|235:176|199:182|199:182|144:158|103:228,1,161.819993580139,4|0,1:0|0:0,0:0:0:0:
116,207,219039,1,0,1:0:0:0:
4,94,219185,2,0,P|53:83|80:126,1,107.879995720093,8|2,0:0|0:0,0:0:0:0:
190,255,219478,6,0,B|163:308|202:301|166:370,1,107.879995720093,0|0,1:0|1:0,0:0:0:0:
270,293,219771,1,8,0:0:0:0:
63,354,219917,6,0,L|270:294,1,215.759991440186,4|0,1:0|1:0,0:0:0:0:
434,381,220356,2,0,P|382:379|360:333,1,107.879995720093,8|2,0:0|0:0,0:0:0:0:
489,210,220649,1,0,1:0:0:0:
459,278,220795,1,0,1:0:0:0:
357,184,220942,1,8,0:0:0:0:
453,69,221088,6,0,B|481:83|517:75|517:75|457:87|445:159,1,161.819993580139,4|0,1:0|0:0,0:0:0:0:
450,137,221381,1,0,1:0:0:0:
304,37,221527,1,8,0:0:0:0:
453,69,221673,6,0,L|301:126,1,161.819993580139,4|0,1:0|0:0,0:0:0:0:
301,126,221966,1,0,1:0:0:0:
301,125,222039,2,0,L|318:71,1,53.9399978600465,0|8,0:0|0:0,0:0:0:0:
229,191,222259,6,0,P|162:234|83:225,1,161.819993580139,6|0,1:2|0:0,0:0:0:0:
83,225,222551,1,0,1:0:0:0:
191,314,222698,1,8,0:0:0:0:
31,373,222844,6,0,P|56:363|80:351,1,53.9399978600465,4|0,1:2|0:0,0:0:0:0:
251,141,223137,6,0,P|238:164|228:190,1,53.9399978600465,4|0,1:2|1:0,0:0:0:0:
226,201,223283,1,8,0:0:0:0:
278,345,223429,5,4,1:0:0:0:
29,185,223722,5,0,1:0:0:0:
29,185,223795,1,0,1:0:0:0:
29,185,223868,2,0,B|28:213|3:234|3:234|-5:237|-5:237|51:189|108:181|141:227,1,215.759991440186,8|0,0:0|1:0,0:0:0:0:
23,106,224307,1,0,1:0:0:0:
129,214,224454,1,8,0:0:0:0:
251,133,224600,6,0,B|338:95|338:95|301:113|290:162,1,161.819993580139,4|0,1:0|0:0,0:0:0:0:
373,166,224893,1,0,1:0:0:0:
269,290,225039,2,0,P|305:252|358:249,1,107.879995720093,8|2,0:0|0:0,0:0:0:0:
226,110,225332,1,0,1:0:0:0:
295,144,225478,1,0,1:0:0:0:
221,114,225624,1,8,0:0:0:0:
357,248,225771,6,0,B|311:267|311:267|254:259|254:259|214:294|214:294|162:313,1,215.759991440186,4|0,1:0|1:0,0:0:0:0:
96,268,226210,2,0,B|107:233|107:233|134:207|134:207|144:174,1,107.879995720093,8|2,0:0|3:0,0:0:0:0:
144,174,226429,1,0,0:0:0:0:
144,174,226502,1,0,1:0:0:0:
27,58,226649,2,0,P|50:103|101:103,1,107.879995720093,0|8,1:0|0:0,0:0:0:0:
242,29,226942,6,0,B|271:-1|311:13|311:13|316:17|316:17|336:61|403:55,1,161.819993580139,4|0,1:0|0:0,0:0:0:0:
381,55,227234,1,0,1:0:0:0:
475,152,227381,2,0,B|515:172|515:172|462:110,1,107.879995720093,8|2,0:0|0:0,0:0:0:0:
346,194,227673,6,0,P|296:207|284:257,1,107.879995720093,0|0,1:0|1:0,0:0:0:0:
399,137,227966,1,8,0:0:0:0:
284,257,228112,2,0,P|212:284|156:232,1,161.819993580139,4|0,1:0|0:0,0:0:0:0:
156,232,228405,1,0,1:0:0:0:
28,349,228551,6,0,B|81:322|74:361|143:325,1,107.879995720093,8|2,0:0|0:0,0:0:0:0:
284,257,228844,2,0,P|336:265|370:305,1,107.879995720093,0|0,1:0|1:0,0:0:0:0:
432,347,229137,1,8,0:0:0:0:
229,205,229283,6,0,B|204:132|204:132|223:67|286:97,1,161.819993580139,4|0,1:0|0:0,0:0:0:0:
265,89,229576,1,0,1:0:0:0:
176,131,229722,6,0,P|135:163|83:156,1,107.879995720093,8|2,0:0|0:0,0:0:0:0:
241,237,230015,2,0,B|299:262|292:223|345:251,1,107.879995720093,0|0,1:0|1:0,0:0:0:0:
216,316,230307,1,8,0:0:0:0:
345,251,230454,6,0,P|266:256|216:316,1,161.819993580139,4|8,1:0|0:0,0:0:0:0:
226,328,230746,5,0,1:0:0:0:
226,328,230820,1,8,0:0:0:0:
225,328,230893,2,0,P|172:331|129:299,2,107.879995720093,8|8|8,0:0|0:0|3:0,0:0:0:0:
293,373,231332,1,4,3:0:0:0:
346,319,231478,1,8,0:0:0:0:
194,216,231624,6,0,B|107:219|146:272|58:286|58:286|142:251|133:131|3:162|45:232,1,361.919997791016,4|2,1:0|0:0,0:0:0:0:
45,216,232283,1,8,0:0:0:0:
44,215,232356,6,0,P|69:233|97:244,2,60.3199996318359,8|4|4,3:0|3:0|3:0,0:0:0:0:
162,143,232649,6,0,P|190:125|217:118,2,60.3199996318359,2|4|4,3:0|3:0|3:0,0:0:0:0:
251,261,232942,6,0,P|312:290|394:266,1,135.719999171631,4|0,1:0|0:0,0:0:0:0:
387,256,233234,1,2,0:0:0:0:
357,186,233381,1,0,1:0:0:0:
493,181,233527,6,0,B|435:132|367:164|367:164|384:147|387:124,1,180.959998895508,8|2,0:0|0:0,0:0:0:0:
347,47,233966,6,0,P|337:26|321:10,1,45.239999723877,6|0,1:0|0:0,0:0:0:0:
355,157,234259,6,0,P|367:138|374:116,1,45.239999723877,2|0,1:0|0:0,0:0:0:0:
252,211,234844,5,0,3:0:0:0:
257,215,234917,1,0,3:0:0:0:
263,218,234990,2,0,P|285:219|307:214,1,45.239999723877,0|0,3:0|3:0,0:0:0:0:
355,157,235137,2,0,P|367:138|374:116,2,45.239999723877,0|0|4,3:0|3:0|1:2,0:0:0:0:
256,192,235356,12,0,237332,0:0:0:0:
442,144,237624,5,4,1:0:0:0:
70,240,238063,5,4,1:2:0:0:
422,370,238502,6,0,P|404:345|402:311,1,64.3800015717774,2|2,0:0|0:0,0:0:0:0:
379,239,238795,1,2,0:0:0:0:
428,188,238942,2,0,P|446:213|414:302,1,128.760003143555,2|6,0:0|0:2,0:0:0:0:
419,298,239673,5,0,0:0:0:0:
273,58,239966,6,0,P|260:86|165:110,1,128.760003143555,2|0,3:2|0:0,0:0:0:0:
173,113,240405,6,0,P|203:109|272:180,1,128.760003143555
235,235,240844,1,2,0:0:0:0:
307,236,240990,2,0,P|300:267|280:292,1,64.3800015717774,8|0,3:0|0:0,0:0:0:0:
208,305,241283,1,0,0:0:0:0:
254,362,241429,5,2,3:0:0:0:
208,305,241576,1,2,0:0:0:0:
133,364,241722,5,2,0:0:0:0:
112,278,241868,1,4,3:0:0:0:
36,331,242015,5,2,3:2:0:0:
47,212,242161,1,2,3:2:0:0:
8,146,242307,6,0,P|61:175|134:175,1,128.760003143555,4|0,1:0|0:0,0:0:0:0:
8,146,242746,6,0,P|71:146|168:242,1,193.140004715332,4|0,1:2|0:0,0:0:0:0:
169,50,243624,6,0,P|177:26|173:52,2,64.3800015717774,2|2|2,0:0|0:0|0:0,0:0:0:0:
326,93,244210,1,2,0:0:0:0:
363,32,244356,1,2,0:0:0:0:
342,15,244502,1,2,0:0:0:0:
326,93,244649,6,0,P|371:124|452:122,1,128.760003143555,2|2,3:2|0:0,0:0:0:0:
337,185,245088,6,0,P|380:139|442:124,1,128.760003143555,2|2,0:0|0:0,0:0:0:0:
512,158,245527,1,8,3:0:0:0:
512,158,245820,5,8,3:0:0:0:
442,124,245966,1,8,3:0:0:0:
400,226,246112,5,2,3:0:0:0:
330,260,246258,1,2,3:0:0:0:
462,273,246405,5,4,3:0:0:0:
330,260,246551,1,4,3:0:0:0:
282,321,246698,5,4,3:0:0:0:
394,301,246844,1,4,3:0:0:0:
282,321,246990,6,0,P|220:325|161:288,1,128.760003143555,4|0,1:0|0:0,0:0:0:0:
282,321,247429,6,0,P|227:288|110:333,1,193.140004715332,4|2,1:2|0:0,0:0:0:0:
113,328,248307,5,6,0:0:0:0:
151,357,248454,1,2,0:0:0:0:
116,382,248600,2,0,B|124:378|124:378|121:369|121:369|133:352|133:352|130:322|130:322|165:291,1,114.840003504639,2|2,0:0|0:0,0:0:0:0:
218,242,249185,1,2,0:0:0:0:
155,159,249332,6,0,B|152:143|163:131|163:131|168:134|168:134|170:185|106:203,1,128.760003143555,2|0,3:2|0:0,0:0:0:0:
218,242,249771,2,0,P|183:198|98:216,1,128.760003143555,2|0,3:2|0:0,0:0:0:0:
246,144,250210,1,8,3:0:0:0:
313,176,250356,1,2,3:0:0:0:
241,133,250502,1,4,3:0:0:0:
365,64,250649,6,0,P|373:94|367:147,1,64.3800015717774,2|8,3:0|3:0,0:0:0:0:
409,228,250942,1,8,3:0:0:0:
414,240,251015,1,8,3:0:0:0:
401,239,251088,1,2,3:0:0:0:
450,161,251234,1,4,3:0:0:0:
313,176,251381,5,2,3:0:0:0:
450,161,251527,1,10,0:0:0:0:
365,64,251673,6,0,P|316:99|238:103,1,128.760003143555,4|2,1:0|0:0,0:0:0:0:
365,64,252112,6,0,P|301:69|220:168,1,193.140004715332,4|6,1:2|0:0,0:0:0:0:
217,2,252990,6,0,P|215:21|211:-2,2,64.3800015717774,2|2|6,0:0|0:0|0:0,0:0:0:0:
221,162,253576,1,2,0:0:0:0:
247,237,253722,1,2,0:0:0:0:
299,176,253868,1,2,0:0:0:0:
256,192,254015,5,2,3:2:0:0:
256,192,255039,6,0,P|261:203|258:190,5,38.2800011682129,0|0|6|6|2|8,3:2|3:2|3:2|3:2|3:2|3:0,0:0:0:0:
333,154,255917,1,4,3:0:0:0:
150,27,256210,5,2,3:0:0:0:
148,33,256283,1,0,0:0:0:0:
147,39,256356,1,4,1:2:0:0:
256,192,256429,12,0,258698,0:0:0:0:
