osu file format v14

[General]
AudioFilename: audio.mp3
AudioLeadIn: 0
PreviewTime: 118642
Countdown: 1
SampleSet: Soft
StackLeniency: 0.2
Mode: 0
LetterboxInBreaks: 0
WidescreenStoryboard: 0

[Editor]
Bookmarks: 1104,10950,20796,30642,50334,55719,58950,60180,70027,79873,89719,99565,109411,119257,127873,128873,129104,138180,138950,148796,158642,168488,178334,188180,198027,207873,217719,227565,236180,237411,239873,240180
DistanceSpacing: 0.7
BeatDivisor: 4
GridSize: 32
TimelineZoom: 3.130002

[Metadata]
Title:orca
TitleUnicode:orca
Artist:Feryquitous vs xi
ArtistUnicode:Feryquitous vs xi
Creator:QuiescentRabbit
Version:difficulty name about whales
Source:
Tags:
BeatmapID:1936752
BeatmapSetID:927286

[Difficulty]
HPDrainRate:5
CircleSize:4.2
OverallDifficulty:9
ApproachRate:9.7
SliderMultiplier:2
SliderTickRate:1

[Events]
//Background and Video events
0,0,"bg.jpg",0,0
//Break Periods
2,40611,48534
2,99765,108609
//Storyboard Layer 0 (Background)
//Storyboard Layer 1 (Fail)
//Storyboard Layer 2 (Pass)
//Storyboard Layer 3 (Foreground)
//Storyboard Sound Samples

[TimingPoints]
1104,307.692307692308,4,2,0,40,1,0
21411,-166.666666666667,4,2,0,40,0,0
21719,-111.111111111111,4,2,0,40,0,0
22642,-90.9090909090909,4,2,0,40,0,0
22950,-166.666666666667,4,2,0,40,0,0
23257,-250,4,2,0,40,0,0
23565,-76.9230769230769,4,2,0,40,0,0
23873,-166.666666666667,4,2,0,40,0,0
24180,-111.111111111111,4,2,0,40,0,0
25104,-90.9090909090909,4,2,0,40,0,0
25411,-166.666666666667,4,2,0,40,0,0
25719,-71.4285714285714,4,2,0,40,0,0
26027,-100,4,2,0,40,0,0
26334,-250,4,2,0,40,0,0
26642,-90.9090909090909,4,2,0,40,0,0
27873,-166.666666666667,4,2,0,40,0,0
28180,-500,4,2,0,40,0,0
28488,-71.4285714285714,4,2,0,40,0,0
28796,-250,4,2,0,40,0,0
29104,-90.9090909090909,4,2,0,40,0,0
30334,-166.666666666667,4,2,0,40,0,0
31565,-90.9090909090909,4,2,0,40,0,0
32796,-166.666666666667,4,2,0,40,0,0
33411,-76.9230769230769,4,2,0,40,0,0
33719,-166.666666666667,4,2,0,40,0,0
34027,-90.9090909090909,4,2,0,40,0,0
35257,-166.666666666667,4,2,0,40,0,0
35873,-90.9090909090909,4,2,0,40,0,0
36180,-166.666666666667,4,2,0,40,0,0
36488,-90.9090909090909,4,2,0,40,0,0
37719,-166.666666666667,4,2,0,40,0,0
38334,-76.9230769230769,4,2,0,40,0,0
38642,-166.666666666667,4,2,0,40,0,0
38950,-90.9090909090909,4,2,0,40,0,0
51257,-125,4,2,0,40,0,0
52334,-250,4,2,0,40,0,0
52642,-100,4,2,0,40,0,0
58796,-250,4,2,0,40,0,0
59873,-100,4,2,0,40,0,0
60180,-200,4,2,0,40,0,0
60488,-100,4,2,0,40,0,0
60642,-47.6190476190476,4,2,0,40,0,0
60950,-100,4,2,0,40,0,0
61104,-58.8235294117647,4,2,0,40,0,0
61719,-71.4285714285714,4,2,0,40,0,0
62642,-111.111111111111,4,2,0,40,0,0
62950,-58.8235294117647,4,2,0,40,0,0
63411,-71.4285714285714,4,2,0,40,0,0
63873,-142.857142857143,4,2,0,40,0,0
64180,-86.9565217391303,4,2,0,40,0,0
64488,-74.0740740740741,4,2,0,40,0,0
66180,-148.148148148148,4,2,0,40,0,0
66642,-74.0740740740741,4,2,0,40,0,0
67565,-148.148148148148,4,2,0,40,0,0
68796,-85.1063829787234,4,2,0,40,0,0
69719,-76.9230769230769,4,2,0,40,0,0
70027,-250,4,2,0,40,0,0
70334,-83.3333333333333,4,2,0,40,0,0
70488,-43.4782608695652,4,2,0,40,0,0
70796,-83.3333333333333,4,2,0,40,0,0
70950,-52.6315789473684,4,2,0,40,0,0
71257,-58.8235294117647,4,2,0,40,0,0
71565,-62.5,4,2,0,40,0,0
72027,-47.6190476190476,4,2,0,40,0,0
72488,-142.857142857143,4,2,0,40,0,0
72796,-52.6315789473684,4,2,0,40,0,0
73257,-62.5,4,2,0,40,0,0
73719,-125,4,2,0,40,0,0
74027,-41.6666666666667,4,2,0,40,0,0
74950,-83.3333333333333,4,2,0,40,0,0
76027,-200,4,2,0,40,0,0
76488,-100,4,2,0,40,0,0
78642,-125,4,2,0,40,0,0
79873,-90.9090909090909,4,2,0,40,0,0
80488,-333.333333333333,4,2,0,40,0,0
80796,-100,4,2,0,40,0,0
81104,-50,4,2,0,40,0,0
82027,-333.333333333333,4,2,0,40,0,0
82334,-100,4,2,0,40,0,0
82950,-50,4,2,0,40,0,0
83257,-100,4,2,0,40,0,0
83411,-66.6666666666667,4,2,0,40,0,0
83873,-100,4,2,0,40,0,0
84180,-66.6666666666667,4,2,0,40,0,0
84796,-83.3333333333333,4,2,0,40,0,0
85411,-333.333333333333,4,2,0,40,0,0
85719,-100,4,2,0,40,0,0
86027,-47.6190476190476,4,2,0,40,0,0
86950,-333.333333333333,4,2,0,40,0,0
87257,-90.9090909090909,4,2,0,40,0,0
87873,-47.6190476190476,4,2,0,40,0,0
88180,-90.9090909090909,4,2,0,40,0,0
88334,-50,4,2,0,40,0,0
88796,-90.9090909090909,4,2,0,40,0,0
89104,-50,4,2,0,40,0,0
89796,-90.9090909090909,4,2,0,40,0,0
90334,-333.333333333333,4,2,0,40,0,0
90950,-50,4,2,0,40,0,0
91873,-333.333333333333,4,2,0,40,0,0
92488,-100,4,2,0,40,0,0
92796,-47.6190476190476,4,2,0,40,0,0
93104,-100,4,2,0,40,0,0
93257,-66.6666666666667,4,2,0,40,0,0
93719,-100,4,2,0,40,0,0
94027,-50,4,2,0,40,0,0
94642,-90.9090909090909,4,2,0,40,0,0
95257,-333.333333333333,4,2,0,40,0,0
95873,-45.4545454545455,4,2,0,40,0,0
96796,-333.333333333333,4,2,0,40,0,0
97411,-90.9090909090909,4,2,0,40,0,0
97719,-45.4545454545455,4,2,0,40,0,0
98025,-100,4,2,0,40,0,0
98180,-66.6666666666667,4,2,0,40,0,0
98642,-100,4,2,0,40,0,0
111104,-125,4,2,0,40,0,0
111411,-166.666666666667,4,2,0,40,0,0
111719,-250,4,2,0,40,0,0
111873,-100,4,2,0,40,0,0
112950,-200,4,2,0,40,0,0
113257,-100,4,2,0,40,0,0
117565,-333.333333333333,4,2,0,40,0,0
117873,-200,4,2,0,40,0,0
118950,-100,4,2,0,40,0,0
119257,-250,4,2,0,40,0,0
119565,-71.4285714285714,4,2,0,40,0,0
121719,-142.857142857143,4,2,0,40,0,0
122180,-71.4285714285714,4,2,0,40,0,0
129104,-100,4,2,0,40,0,0
130334,-83.3333333333333,4,2,0,40,0,0
159873,-200,4,2,0,40,0,0
168488,-100,4,2,0,40,0,0
178488,-71.4285714285714,4,2,0,40,0,0
178796,-50,4,2,0,40,0,0
179257,-58.8235294117647,4,2,0,40,0,0
180796,-71.4285714285714,4,2,0,40,0,0
181104,-43.4782608695652,4,2,0,40,0,0
181565,-62.5,4,2,0,40,0,0
182488,-43.4782608695652,4,2,0,40,0,0
182784,-71.4285714285714,4,2,0,40,0,0
184334,-100,4,2,0,40,0,0
184796,-71.4285714285714,4,2,0,40,0,0
185719,-83.3333333333333,4,2,0,40,0,0
188180,-222.222222222221,4,2,0,40,0,0
188488,-66.6666666666667,4,2,0,40,0,0
188642,-47.6190476190476,4,2,0,40,0,0
189104,-55.5555555555556,4,2,0,40,0,0
189411,-66.6666666666667,4,2,0,40,0,0
190950,-44.4444444444445,4,2,0,40,0,0
191257,-66.6666666666667,4,2,0,40,0,0
191411,-44.4444444444445,4,2,0,40,0,0

[HitObjects]
55,59,20027,5,0,0:0:0:0:
54,72,20104,1,0,0:0:0:0:
53,84,20180,1,0,0:0:0:0:
52,97,20257,1,0,0:0:0:0:
51,109,20334,1,0,0:0:0:0:
132,8,20488,2,0,L|129:62,1,50,0|0,0:0|0:0,0:0:0:0:
142,15,20642,2,0,L|140:65,1,50,0|0,0:0|0:0,0:0:0:0:
201,124,20796,6,0,L|194:244,1,100,0|0,0:0|0:0,0:0:0:0:
383,169,21104,2,0,P|358:126|313:107,1,100,0|0,0:0|0:0,0:0:0:0:
142,200,21411,2,0,P|174:213|191:243,1,59.9999981689454,0|0,0:0|0:0,0:0:0:0:
129,294,21719,2,0,L|137:194,1,89.9999972534181,0|0,0:0|0:0,0:0:0:0:
214,185,22027,2,0,L|211:160,6,22.4999993133545,0|0|0|0|0|0|0,0:0|0:0|0:0|0:0|0:0|0:0|0:0,0:0:0:0:
219,154,22334,1,0,0:0:0:0:
125,301,22488,1,0,0:0:0:0:
300,231,22642,2,0,P|242:190|191:200,1,110.000003356934,0|0,0:0|0:0,0:0:0:0:
125,310,22950,2,0,P|157:296|174:266,1,59.9999981689454,0|0,0:0|0:0,0:0:0:0:
50,291,23257,2,0,P|45:325|63:355,1,59.9999981689454,0|0,0:0|0:0,0:0:0:0:
66,355,23565,6,0,P|79:254|18:227,1,129.999994049073,0|0,0:0|0:0,0:0:0:0:
1,171,23873,2,0,P|35:175|65:157,1,59.9999981689454,0|0,0:0|0:0,0:0:0:0:
60,69,24180,2,0,L|68:168,1,89.9999972534181,0|0,0:0|0:0,0:0:0:0:
140,174,24488,2,0,L|137:198,6,22.4999993133545,0|0|0|0|0|0|0,0:0|0:0|0:0|0:0|0:0|0:0|0:0,0:0:0:0:
131,203,24796,1,0,0:0:0:0:
54,65,24950,1,0,0:0:0:0:
248,180,25104,2,0,P|199:153|143:172,1,110.000003356934,0|0,0:0|0:0,0:0:0:0:
255,189,25411,2,0,P|271:147|262:118,1,59.9999981689454,0|0,0:0|0:0,0:0:0:0:
261,197,25719,2,0,B|254:273|254:273|281:348,1,139.999995727539,0|0,0:0|0:0,0:0:0:0:
370,142,26027,6,0,P|284:123|248:155,1,100,0|0,0:0|0:0,0:0:0:0:
376,150,26334,2,0,P|391:119|385:86,1,60,0|0,0:0|0:0,0:0:0:0:
380,88,26642,2,0,L|369:201,1,110.000003356934,0|0,0:0|0:0,0:0:0:0:
278,125,26950,2,0,L|274:84,6,27.5000008392334,0|0|0|0|0|0|0,0:0|0:0|0:0|0:0|0:0|0:0|0:0,0:0:0:0:
278,87,27257,1,0,0:0:0:0:
367,205,27411,1,0,0:0:0:0:
402,14,27565,6,0,P|446:43|461:114,1,110.000003356934,0|0,0:0|0:0,0:0:0:0:
366,214,27873,2,0,P|414:199|443:209,1,59.9999981689454,0|0,0:0|0:0,0:0:0:0:
475,243,28180,2,0,P|457:236|443:233,1,30,0|0,0:0|0:0,0:0:0:0:
298,265,28488,2,0,P|278:195|330:133,1,139.999995727539,0|0,0:0|0:0,0:0:0:0:
307,272,28796,2,0,P|248:303|239:302,1,60,0|0,0:0|0:0,0:0:0:0:
366,214,29104,2,0,L|355:327,1,110.000003356934,0|0,0:0|0:0,0:0:0:0:
312,142,29411,2,0,L|309:114,6,27.5000008392334,0|0|0|0|0|0|0,0:0|0:0|0:0|0:0|0:0|0:0|0:0,0:0:0:0:
313,108,29719,1,0,0:0:0:0:
254,308,29873,1,0,0:0:0:0:
164,210,30027,6,0,P|114:265|113:315,1,110.000003356934,0|0,0:0|0:0,0:0:0:0:
254,308,30334,6,0,P|205:295|179:317,1,59.9999981689454,0|0,0:0|0:0,0:0:0:0:
101,286,30642,2,0,P|117:234|149:211,1,89.9999972534181,0|0,0:0|0:0,0:0:0:0:
216,125,30950,1,0,0:0:0:0:
195,134,31027,1,0,0:0:0:0:
173,137,31104,1,0,0:0:0:0:
151,134,31180,1,0,0:0:0:0:
130,121,31257,2,0,P|127:59|138:41,1,59.9999981689454,0|0,0:0|0:0,0:0:0:0:
81,6,31565,2,0,P|98:80|77:127,1,110.000003356934,0|0,0:0|0:0,0:0:0:0:
164,55,31873,2,0,L|136:58,6,27.5000008392334,0|0|0|0|0|0|0,0:0|0:0|0:0|0:0|0:0|0:0|0:0,0:0:0:0:
176,49,32180,5,0,0:0:0:0:
32,203,32334,1,0,0:0:0:0:
215,124,32488,2,0,P|286:122|344:167,1,110.000003356934,0|0,0:0|0:0,0:0:0:0:
280,113,32796,2,0,P|214:123|206:131,1,59.9999981689454,0|0,0:0|0:0,0:0:0:0:
353,213,33104,5,0,0:0:0:0:
378,198,33180,1,0,0:0:0:0:
396,174,33257,1,0,0:0:0:0:
401,144,33334,1,0,0:0:0:0:
395,115,33411,2,0,P|329:73|240:100,1,129.999994049073,0|0,0:0|0:0,0:0:0:0:
360,268,33719,2,0,P|359:220|335:201,1,59.9999981689454,0|0,0:0|0:0,0:0:0:0:
204,281,34027,2,0,P|248:262|265:182,1,110.000003356934,0|0,0:0|0:0,0:0:0:0:
111,200,34334,6,0,L|83:197,6,27.5000008392334,0|0|0|0|0|0|0,0:0|0:0|0:0|0:0|0:0|0:0|0:0,0:0:0:0:
121,207,34642,1,0,0:0:0:0:
273,83,34796,1,0,0:0:0:0:
277,308,34950,2,0,P|256:227|282:180,1,110.000003356934,0|0,0:0|0:0,0:0:0:0:
269,317,35257,2,0,P|202:308|186:297,1,59.9999981689454,0|0,0:0|0:0,0:0:0:0:
25,381,35565,5,0,0:0:0:0:
47,370,35642,1,0,0:0:0:0:
73,368,35719,1,0,0:0:0:0:
98,371,35796,1,0,0:0:0:0:
120,384,35873,2,0,P|126:338|63:266,1,110.000003356934,0|0,0:0|0:0,0:0:0:0:
120,216,36180,2,0,P|117:239|148:275,1,59.9999981689454,0|0,0:0|0:0,0:0:0:0:
131,209,36488,2,0,L|11:198,1,110.000003356934,0|0,0:0|0:0,0:0:0:0:
199,91,36796,6,0,L|171:94,6,27.5000008392334,0|0|0|0|0|0|0,0:0|0:0|0:0|0:0|0:0|0:0|0:0,0:0:0:0:
206,88,37104,1,0,0:0:0:0:
145,269,37257,1,0,0:0:0:0:
277,141,37411,2,0,P|295:91|278:40,1,110.000003356934,0|0,0:0|0:0,0:0:0:0:
272,147,37719,2,0,P|311:159|332:152,1,59.9999981689454,0|0,0:0|0:0,0:0:0:0:
98,116,38027,5,0,0:0:0:0:
119,95,38104,1,0,0:0:0:0:
146,83,38180,1,0,0:0:0:0:
176,80,38257,1,0,0:0:0:0:
205,87,38334,2,0,P|128:60|59:86,1,129.999994049073,0|0,0:0|0:0,0:0:0:0:
170,221,38642,2,0,P|176:180|158:148,1,59.9999981689454,0|0,0:0|0:0,0:0:0:0:
32,209,38950,2,0,L|41:318,1,110.000003356934,0|0,0:0|0:0,0:0:0:0:
40,196,39257,5,0,0:0:0:0:
42,223,39334,1,0,0:0:0:0:
44,250,39411,1,0,0:0:0:0:
47,278,39488,1,0,0:0:0:0:
49,305,39565,5,0,0:0:0:0:
83,283,39642,1,0,0:0:0:0:
124,279,39719,1,0,0:0:0:0:
161,295,39796,1,0,0:0:0:0:
188,326,39873,5,0,0:0:0:0:
235,333,39950,1,0,0:0:0:0:
278,313,40027,1,0,0:0:0:0:
305,274,40104,1,0,0:0:0:0:
308,227,40180,1,0,0:0:0:0:
281,181,40257,1,0,0:0:0:0:
226,159,40334,1,0,0:0:0:0:
168,178,40411,1,0,0:0:0:0:
504,125,50334,5,0,0:0:0:0:
512,98,50411,1,0,0:0:0:0:
511,71,50488,1,0,0:0:0:0:
502,45,50565,1,0,0:0:0:0:
484,24,50642,1,0,0:0:0:0:
461,9,50719,1,0,0:0:0:0:
435,3,50796,1,0,0:0:0:0:
343,123,50950,6,0,L|349:202,1,55.0000016784668,0|0,0:0|0:0,0:0:0:0:
431,84,51104,1,0,0:0:0:0:
249,113,51257,1,0,0:0:0:0:
249,113,51334,1,0,0:0:0:0:
249,113,51411,2,0,L|98:98,1,120,0|0,0:0|0:0,0:0:0:0:
124,108,51719,6,0,P|108:53|111:45,1,40,0|0,0:0|0:0,0:0:0:0:
136,197,51873,1,0,0:0:0:0:
136,197,51950,1,0,0:0:0:0:
136,197,52027,6,0,P|191:210|197:217,1,40,0|0,0:0|0:0,0:0:0:0:
52,162,52180,1,0,0:0:0:0:
52,162,52257,1,0,0:0:0:0:
52,162,52334,6,0,P|12:203|3:204,1,40,0|0,0:0|0:0,0:0:0:0:
0,256,52565,1,0,0:0:0:0:
0,256,52642,2,0,L|90:263,1,50,0|0,0:0|0:0,0:0:0:0:
120,268,52796,1,0,0:0:0:0:
446,307,52950,5,0,0:0:0:0:
446,307,53027,1,0,0:0:0:0:
446,307,53104,1,0,0:0:0:0:
350,199,53257,1,0,0:0:0:0:
446,91,53411,1,0,0:0:0:0:
351,286,53565,1,0,0:0:0:0:
351,112,53719,2,0,L|414:99,1,50,0|0,0:0|0:0,0:0:0:0:
512,168,53873,2,0,L|449:181,1,50,0|0,0:0|0:0,0:0:0:0:
350,199,54027,5,0,0:0:0:0:
303,181,54104,1,0,0:0:0:0:
273,142,54180,1,0,0:0:0:0:
269,93,54257,1,0,0:0:0:0:
292,49,54334,2,0,P|235:36|222:18,1,50,0|0,0:0|0:0,0:0:0:0:
186,147,54488,2,0,P|169:89|178:69,1,50,0|0,0:0|0:0,0:0:0:0:
48,102,54642,5,0,0:0:0:0:
49,97,54719,1,0,0:0:0:0:
52,91,54796,1,0,0:0:0:0:
55,85,54873,1,0,0:0:0:0:
58,80,54950,1,0,0:0:0:0:
62,75,55027,1,0,0:0:0:0:
67,71,55104,1,0,0:0:0:0:
72,67,55180,1,0,0:0:0:0:
76,62,55257,1,0,0:0:0:0:
83,75,55334,1,0,0:0:0:0:
92,92,55411,1,0,0:0:0:0:
98,116,55488,1,0,0:0:0:0:
100,145,55565,1,0,0:0:0:0:
95,179,55642,1,0,0:0:0:0:
77,215,55719,2,0,P|63:232|23:248,1,50,0|0,0:0|0:0,0:0:0:0:
30,250,55873,5,0,0:0:0:0:
19,152,56027,1,0,0:0:0:0:
116,302,56180,1,0,0:0:0:0:
33,364,56334,5,0,0:0:0:0:
50,332,56411,1,0,0:0:0:0:
80,310,56488,1,0,0:0:0:0:
116,302,56565,1,0,0:0:0:0:
152,313,56642,5,0,0:0:0:0:
178,321,56719,1,0,0:0:0:0:
205,315,56796,1,0,0:0:0:0:
228,298,56873,1,0,0:0:0:0:
241,275,56950,1,0,0:0:0:0:
248,261,57027,1,0,0:0:0:0:
262,251,57104,1,0,0:0:0:0:
278,247,57180,1,0,0:0:0:0:
294,251,57257,1,0,0:0:0:0:
260,240,57334,1,0,0:0:0:0:
256,205,57411,1,0,0:0:0:0:
286,187,57488,1,0,0:0:0:0:
315,207,57565,2,0,P|368:213|388:194,1,50,0|0,0:0|0:0,0:0:0:0:
333,98,57719,2,0,P|354:146|380:154,3,50,0|0|0|0,0:0|0:0|0:0|0:0,0:0:0:0:
427,60,58027,5,0,0:0:0:0:
384,89,58104,1,0,0:0:0:0:
333,98,58180,1,0,0:0:0:0:
282,84,58257,1,0,0:0:0:0:
241,51,58334,1,0,0:0:0:0:
231,74,58411,1,0,0:0:0:0:
223,98,58488,1,0,0:0:0:0:
191,78,58565,1,0,0:0:0:0:
154,71,58642,1,0,0:0:0:0:
118,79,58719,1,0,0:0:0:0:
87,100,58796,1,0,0:0:0:0:
424,171,59104,5,0,0:0:0:0:
180,0,59257,1,0,0:0:0:0:
153,157,59411,5,0,0:0:0:0:
156,191,59488,1,0,0:0:0:0:
159,226,59565,1,0,0:0:0:0:
162,261,59642,1,0,0:0:0:0:
165,296,59719,1,0,0:0:0:0:
205,231,59796,1,0,0:0:0:0:
245,166,59873,2,0,L|239:97,1,50,0|0,0:0|0:0,0:0:0:0:
227,147,60027,2,0,L|222:97,1,50,0|0,0:0|0:0,0:0:0:0:
352,32,60180,6,0,L|344:118,1,75,0|0,0:0|0:0,0:0:0:0:
411,201,60488,6,0,P|417:224|414:249,1,50,0|0,0:0|0:0,0:0:0:0:
423,259,60642,2,0,B|439:137|346:109|346:109|279:198|385:263,1,314.999990386963
254,87,60950,6,0,P|260:63|257:38,1,50,0|0,0:0|0:0,0:0:0:0:
265,35,61104,2,0,B|279:145|200:154|200:154|134:90|220:28,1,255.000004863739,0|0,0:0|0:0,0:0:0:0:
322,152,61411,6,0,P|325:219|389:254,1,85.0000016212464,0|0,0:0|0:0,0:0:0:0:
177,57,61565,5,0,0:0:0:0:
171,49,61642,1,0,0:0:0:0:
159,37,61719,2,0,P|154:109|117:143,1,69.9999978637696,0|0,0:0|0:0,0:0:0:0:
130,178,61873,2,0,B|136:199|179:225|179:225|229:227|248:211,1,139.999995727539,0|0,0:0|0:0,0:0:0:0:
80,117,62180,6,0,B|33:173|71:228|71:228|37:273|61:331,1,209.999993591309,0|0,0:0|0:0,0:0:0:0:
107,384,62488,5,0,0:0:0:0:
131,359,62565,1,0,0:0:0:0:
141,327,62642,2,0,L|118:245,1,44.999998626709,0|0,0:0|0:0,0:0:0:0:
291,266,62796,5,0,0:0:0:0:
254,278,62873,1,0,0:0:0:0:
234,307,62950,2,0,P|346:312|240:217,1,340.000006484985,0|0,0:0|0:0,0:0:0:0:
353,215,63411,2,0,P|371:273|353:314,1,69.9999978637696,0|0,0:0|0:0,0:0:0:0:
267,65,63565,6,0,P|330:73|355:111,1,69.9999978637696,0|0,0:0|0:0,0:0:0:0:
96,61,63719,1,0,0:0:0:0:
96,61,63796,1,0,0:0:0:0:
96,61,63873,6,0,P|134:9|184:5,1,69.9999978637696,0|0,0:0|0:0,0:0:0:0:
148,5,64104,5,0,0:0:0:0:
157,1,64180,2,0,L|165:103,1,57.5000010967255,0|0,0:0|0:0,0:0:0:0:
72,235,64334,5,0,0:0:0:0:
72,235,64411,1,0,0:0:0:0:
72,235,64488,2,0,P|21:157|9:154,1,67.5000002574921,0|0,0:0|0:0,0:0:0:0:
201,347,64642,5,0,0:0:0:0:
201,347,64719,1,0,0:0:0:0:
201,347,64796,2,0,P|251:269|263:266,1,67.5000002574921,0|0,0:0|0:0,0:0:0:0:
236,278,64950,1,0,0:0:0:0:
116,307,65104,6,0,P|23:301|14:292,3,67.5000002574921,0|0|0|0,0:0|0:0|0:0|0:0,0:0:0:0:
162,234,65411,5,0,0:0:0:0:
203,205,65488,1,0,0:0:0:0:
253,202,65565,1,0,0:0:0:0:
296,226,65642,1,0,0:0:0:0:
320,271,65719,5,0,0:0:0:0:
360,300,65796,1,0,0:0:0:0:
410,302,65873,1,0,0:0:0:0:
453,278,65950,1,0,0:0:0:0:
477,234,66027,1,0,0:0:0:0:
158,237,66180,6,0,L|149:139,1,67.5000002574921,0|0,0:0|0:0,0:0:0:0:
236,278,66488,1,0,0:0:0:0:
394,148,66642,6,0,L|387:215,1,67.5000002574921,0|0,0:0|0:0,0:0:0:0:
475,41,66796,1,0,0:0:0:0:
475,41,66873,1,0,0:0:0:0:
475,41,66950,6,0,L|468:108,3,67.5000002574921,0|0|0|0,0:0|0:0|0:0|0:0,0:0:0:0:
181,23,67257,5,0,0:0:0:0:
214,25,67334,1,0,0:0:0:0:
248,28,67411,1,0,0:0:0:0:
281,31,67488,1,0,0:0:0:0:
315,34,67565,2,0,P|321:111|316:120,1,67.5000002574921,0|0,0:0|0:0,0:0:0:0:
65,197,67873,5,0,0:0:0:0:
100,161,67950,1,0,0:0:0:0:
147,145,68027,1,0,0:0:0:0:
197,151,68104,1,0,0:0:0:0:
239,179,68180,1,0,0:0:0:0:
21,275,68334,1,0,0:0:0:0:
146,137,68488,5,0,0:0:0:0:
89,350,68642,1,0,0:0:0:0:
340,268,68796,6,0,P|276:293|260:286,1,58.7499991035462,0|0,0:0|0:0,0:0:0:0:
225,262,68950,1,0,0:0:0:0:
291,281,69104,6,0,P|238:238|236:221,1,58.7499991035462,0|0,0:0|0:0,0:0:0:0:
239,179,69257,1,0,0:0:0:0:
255,246,69411,6,0,P|266:178|280:168,1,58.7499991035462,0|0,0:0|0:0,0:0:0:0:
318,150,69565,1,0,0:0:0:0:
268,198,69719,6,0,P|332:173|394:232,1,129.999994049073,0|0,0:0|0:0,0:0:0:0:
86,381,70027,6,0,L|81:321,1,60,0|0,0:0|0:0,0:0:0:0:
16,138,70334,6,0,P|31:200|53:225,1,59.9999981689454,0|0,0:0|0:0,0:0:0:0:
143,253,70488,2,0,B|163:123|53:76|53:76|-16:177|87:233,1,345.000006580353,0|0,0:0|0:0,0:0:0:0:
151,264,70796,6,0,P|165:181|158:152,1,59.9999981689454,0|0,0:0|0:0,0:0:0:0:
337,50,70950,2,0,B|360:175|267:203|267:203|200:114|306:49,1,284.999992389679,0|0,0:0|0:0,0:0:0:0:
346,153,71257,2,0,P|320:193|281:219,1,85.0000016212464,0|0,0:0|0:0,0:0:0:0:
172,89,71411,5,0,0:0:0:0:
190,56,71488,1,0,0:0:0:0:
225,38,71565,2,0,P|246:79|238:130,1,80,0|0,0:0|0:0,0:0:0:0:
114,156,71719,2,0,P|81:101|134:7,1,160,0|0,0:0|0:0,0:0:0:0:
249,120,72027,2,0,P|187:169|134:11,1,314.999990386963,0|0,0:0|0:0,0:0:0:0:
24,182,72334,5,0,0:0:0:0:
30,188,72411,1,0,0:0:0:0:
37,194,72488,2,0,P|44:236|39:258,1,34.9999989318848,0|0,0:0|0:0,0:0:0:0:
170,280,72642,5,0,0:0:0:0:
165,288,72719,1,0,0:0:0:0:
163,301,72796,2,0,P|166:335|202:243,1,379.999989852906,0|0,0:0|0:0,0:0:0:0:
188,358,73257,6,0,P|234:382|302:354,1,80,0|0,0:0|0:0,0:0:0:0:
241,232,73411,6,0,P|234:283|283:337,1,80,0|0,0:0|0:0,0:0:0:0:
377,238,73565,1,0,0:0:0:0:
377,238,73642,1,0,0:0:0:0:
377,238,73719,6,0,P|326:249|292:314,1,80,0|0,0:0|0:0,0:0:0:0:
314,278,73950,1,0,0:0:0:0:
321,286,74027,2,0,P|323:187|251:155,1,119.999996337891,0|0,0:0|0:0,0:0:0:0:
161,207,74180,2,0,P|294:176|294:300,1,239.999992675781,0|0,0:0|0:0,0:0:0:0:
343,78,74488,6,0,P|247:111|335:294,1,359.999989013672,0|0,0:0|0:0,0:0:0:0:
248,239,74796,6,0,P|276:121|312:112,1,119.999996337891,0|0,0:0|0:0,0:0:0:0:
181,66,74950,6,0,P|74:120|16:67,1,179.999994506836,0|0,0:0|0:0,0:0:0:0:
100,37,75257,5,0,0:0:0:0:
136,61,75334,1,0,0:0:0:0:
156,101,75411,1,0,0:0:0:0:
153,146,75488,1,0,0:0:0:0:
129,183,75565,1,0,0:0:0:0:
105,220,75642,1,0,0:0:0:0:
102,265,75719,1,0,0:0:0:0:
122,305,75796,1,0,0:0:0:0:
159,330,75873,1,0,0:0:0:0:
4,212,76027,6,0,L|-1:153,1,50,0|0,0:0|0:0,0:0:0:0:
169,327,76334,5,0,0:0:0:0:
94,36,76488,6,0,L|99:94,1,50,0|0,0:0|0:0,0:0:0:0:
186,253,76642,5,0,0:0:0:0:
190,235,76719,1,0,0:0:0:0:
194,217,76796,2,0,L|198:167,3,50,0|0|0|0,0:0|0:0|0:0|0:0,0:0:0:0:
248,294,77104,6,0,P|164:240|92:274,1,150,0|0,0:0|0:0,0:0:0:0:
257,306,77411,2,0,P|282:240|247:187,1,100,0|0,0:0|0:0,0:0:0:0:
283,134,77719,5,0,0:0:0:0:
304,166,77796,1,0,0:0:0:0:
337,185,77873,1,0,0:0:0:0:
376,188,77950,1,0,0:0:0:0:
412,173,78027,1,0,0:0:0:0:
478,97,78180,1,0,0:0:0:0:
275,131,78334,1,0,0:0:0:0:
418,178,78488,1,0,0:0:0:0:
373,68,78642,6,0,P|369:123|376:133,1,40,0|0,0:0|0:0,0:0:0:0:
296,51,78796,1,0,0:0:0:0:
198,148,78950,6,0,P|202:203|195:213,1,40,0|0,0:0|0:0,0:0:0:0:
275,131,79104,1,0,0:0:0:0:
354,110,79257,6,0,P|355:90|364:73,1,40,0|0,0:0|0:0,0:0:0:0:
287,56,79411,1,0,0:0:0:0:
198,190,79565,6,0,P|197:170|189:153,1,40,0|0,0:0|0:0,0:0:0:0:
266,136,79719,1,0,0:0:0:0:
5,303,79873,6,0,B|3:293|13:281|13:281|26:267|58:245|106:286|58:245|106:286|128:275|156:252,1,165.000005035401
292,223,80180,1,0,0:0:0:0:
100,350,80334,1,0,0:0:0:0:
290,323,80488,6,0,P|309:334|324:350,1,44.999998626709
239,362,80796,6,0,P|253:340|267:321,1,50
323,261,80950,2,0,P|344:246|365:235,1,50,0|0,0:3|0:3,0:3:0:0:
512,176,81104,6,0,B|488:209|455:202|455:202|455:206|455:206|455:202|455:202|415:185|408:145|416:125|416:125|423:146|423:146|438:126|442:83|442:83|445:79|445:79|442:78|442:78|437:55|418:43,1,300,0|0,0:0|0:0,0:3:0:0:
343,26,81411,5,0,0:0:0:0:
308,47,81488,1,0,0:0:0:0:
269,58,81565,1,0,0:0:0:0:
229,55,81642,1,0,0:0:0:0:
200,46,81719,6,0,P|210:80|215:101,1,50
164,32,81796,2,0,P|187:58|200:75,1,50
94,49,81873,6,0,P|118:41|143:35,1,50
80,85,81950,2,0,P|99:67|118:52,1,50
7,112,82027,6,0,P|22:128|36:146,1,44.999998626709
0,216,82334,6,0,B|8:192|8:192|65:172|117:203|124:232,1,150
24,319,82642,6,0,P|6:335|3:360,1,50
146,316,82796,2,0,P|129:298|105:296,1,50,0|0,0:0|0:0,0:0:0:0:
1,381,82950,6,0,B|-27:324|39:287|70:293|70:293|75:291|75:291|75:294|75:294|90:330|135:354|163:349|163:349|144:327|134:302,1,300
216,287,83257,2,0,B|210:282|215:264|215:264|231:271|232:282,1,50
314,337,83411,2,0,B|306:343|313:371|313:371|337:360|339:343,1,75.0000028610231
395,233,83565,1,0,0:0:0:0:
373,233,83642,1,0,0:0:0:0:
350,235,83719,1,0,0:0:0:0:
332,247,83796,1,0,0:0:0:0:
321,257,83873,6,0,P|345:263|369:271,1,50
297,161,84027,2,0,P|273:168|249:175,1,50
432,79,84180,6,0,P|400:113|384:143,1,75.0000028610231
449,225,84334,1,0,0:0:0:0:
512,38,84488,5,0,0:0:0:0:
475,11,84565,1,0,0:0:0:0:
430,2,84642,1,0,0:0:0:0:
385,10,84719,1,0,0:0:0:0:
327,64,84796,6,0,B|302:79|302:79|267:94|222:96|209:45|158:59,1,179.999994506836
31,91,85104,1,0,0:0:0:0:
203,205,85257,1,0,0:0:0:0:
43,177,85411,6,0,P|22:186|6:201,1,44.999998626709,0|0,3:0|3:0,0:0:0:0:
0,227,85719,6,0,P|24:224|49:229,1,50,0|0,3:0|3:0,3:0:0:0:
117,263,85873,2,0,P|137:280|151:300,1,50,0|0,3:0|3:0,3:0:0:0:
88,384,86027,6,0,B|64:359|30:384|16:363|16:363|3:345|21:327|21:327|18:324|18:324|21:327|21:327|43:292|100:275|92:312|154:323|186:275,1,314.999990386963,0|0,3:0|3:0,3:0:0:0:
263,220,86334,1,0,0:0:0:0:
315,225,86411,1,0,0:0:0:0:
360,250,86488,1,0,0:0:0:0:
387,294,86565,1,0,0:0:0:0:
402,344,86642,6,0,P|410:316|440:290,1,52.4999983978272
443,291,86719,2,0,P|457:265|454:225,1,52.4999983978272
439,172,86796,6,0,P|431:144|401:118,1,52.4999983978272
397,118,86873,2,0,P|382:92|384:52,1,52.4999983978272
347,6,86950,6,0,P|324:3|302:0,1,44.999998626709
306,41,87257,2,0,B|257:-1|217:24|171:44|145:19,1,165.000005035401,0|0,0:0|0:0,0:0:0:0:
20,57,87565,6,0,P|46:51|70:63,1,55.0000016784668,0|0,0:0|3:0,0:0:0:0:
196,129,87719,2,0,P|169:123|145:135,1,55.0000016784668,0|0,0:0|3:0,0:0:0:0:
0,251,87873,2,0,B|12:218|54:219|54:219|54:218|54:218|53:219|53:219|51:238|81:283|129:281|174:275|186:205|186:205|176:231|154:249,1,314.999990386963
210,314,88180,2,0,P|226:335|239:320,1,55.0000016784668
313,276,88334,2,0,P|348:260|353:288,1,75.0000028610231,0|0,3:0|3:0,3:0:0:0:
395,384,88488,1,0,0:0:0:0:
400,361,88565,1,0,0:0:0:0:
415,343,88642,1,0,0:0:0:0:
433,329,88719,1,0,0:0:0:0:
448,313,88796,6,0,P|438:280|425:243,1,55.0000016784668
405,144,88950,2,0,P|396:170|388:196,1,55.0000016784668
208,194,89104,6,0,P|258:173|304:184,1,100
387,196,89257,1,0,0:0:0:0:
499,66,89411,5,0,0:0:0:0:
457,35,89488,1,0,0:0:0:0:
409,24,89565,1,0,0:0:0:0:
360,33,89642,1,0,0:0:0:0:
284,48,89718,5,0,0:0:0:0:
269,42,89796,1,0,0:0:0:0:
253,36,89873,1,0,0:0:0:0:
236,33,89950,1,0,0:0:0:0:
219,30,90027,2,0,P|190:24|165:20,1,55.0000016784668
63,79,90180,2,0,P|35:83|8:88,1,55.0000016784668
179,132,90334,6,0,P|167:108|150:99,1,44.999998626709
68,184,90642,1,0,0:0:0:0:
56,197,90719,1,0,0:0:0:0:
50,213,90796,1,0,0:0:0:0:
44,229,90873,1,0,0:0:0:0:
31,314,90950,6,0,B|-2:312|-1:265|22:250|61:258|61:258|65:255|65:255|65:259|65:259|119:289|177:268|186:247|186:247|182:224|149:206,1,300
68,184,91257,1,0,0:0:0:0:
26,155,91334,1,0,0:0:0:0:
12,106,91411,1,0,0:0:0:0:
30,59,91488,1,0,0:0:0:0:
66,25,91565,6,0,P|97:19|136:18,1,50
96,1,91642,2,0,P|127:3|165:12,1,50,0|0,0:0|3:0,0:0:0:0:
187,64,91719,6,0,P|217:56|253:40,1,50
224,73,91796,2,0,P|251:57|282:33,1,50,0|0,0:0|3:0,0:0:0:0:
332,12,91873,6,0,P|355:7|379:12,1,44.999998626709
468,50,92180,1,0,0:0:0:0:
456,64,92257,1,0,0:0:0:0:
441,74,92334,1,0,0:0:0:0:
424,80,92411,1,0,0:0:0:0:
406,81,92488,6,0,P|382:87|369:108,1,50
366,220,92642,2,0,P|379:240|402:247,1,50
512,324,92796,6,0,B|531:363|445:401|401:343|401:343|409:340|409:340|401:343|401:343|357:290|306:321|306:321|306:346|321:361,1,314.999990386963,0|0,3:0|3:0,3:0:0:0:
231,293,93104,2,0,B|208:280|208:280|200:312,1,50
114,316,93257,2,0,B|124:351|124:351|86:345,1,75.0000028610231
0,344,93411,1,0,0:0:0:0:
13,326,93488,1,0,0:0:0:0:
23,306,93565,1,0,0:0:0:0:
27,283,93642,1,0,0:0:0:0:
28,261,93719,6,0,P|18:233|13:201,1,50
124,203,93873,2,0,P|140:178|154:148,1,50
56,57,94027,6,0,P|34:110|63:142,1,100
124,203,94180,1,0,0:0:0:0:
145,32,94334,5,0,0:0:0:0:
189,8,94411,1,0,0:0:0:0:
238,0,94488,1,0,0:0:0:0:
287,8,94565,1,0,0:0:0:0:
348,47,94642,5,0,0:0:0:0:
368,38,94719,1,0,0:0:0:0:
389,35,94796,1,0,0:0:0:0:
411,35,94873,1,0,0:0:0:0:
427,36,94950,6,0,P|449:46|492:74,1,55.0000016784668
415,158,95104,2,0,P|423:180|434:230,1,55.0000016784668
270,126,95257,6,0,P|295:117|313:123,1,44.999998626709
337,211,95565,1,0,0:0:0:0:
320,227,95642,1,0,0:0:0:0:
311,250,95719,1,0,0:0:0:0:
311,270,95796,1,0,0:0:0:0:
344,339,95873,6,0,B|316:348|289:329|289:329|324:280|385:289|385:289|390:287|390:287|386:290|386:290|427:323|486:293|495:274|495:274|472:275|448:269,1,330.000010070801
337,211,96180,1,0,0:0:0:0:
284,227,96257,1,0,0:0:0:0:
239,259,96334,1,0,0:0:0:0:
213,308,96411,1,0,0:0:0:0:
205,362,96488,6,0,P|177:347|142:342,1,55.0000016784668,0|0,0:0|0:0,0:0:0:0:
141,323,96565,2,0,P|109:321|76:331,1,55.0000016784668,0|0,0:0|0:0,0:0:0:0:
16,302,96642,6,0,P|34:276|64:257,1,55.0000016784668,0|0,0:0|0:0,0:0:0:0:
57,239,96719,2,0,P|84:224|119:219,1,55.0000016784668
175,186,96796,6,0,P|162:168|142:155,1,44.999998626709
50,142,97104,1,0,0:0:0:0:
64,131,97180,1,0,0:0:0:0:
75,117,97257,1,0,0:0:0:0:
82,100,97334,1,0,0:0:0:0:
88,84,97411,6,0,P|102:60|128:53,1,55.0000016784668
216,7,97565,6,0,P|230:30|255:36,1,55.0000016784668
424,46,97719,2,0,B|442:37|466:39|466:39|426:1|382:22|361:37|361:37|359:32|359:32|362:38|362:38|317:55|359:56|309:123|235:116,1,330.000010070801
140,136,98027,2,0,P|155:147|136:147,1,50,0|0,0:0|0:0,0:0:0:0:
107,248,98180,2,0,P|138:257|107:268,1,75.0000028610231,0|0,3:0|3:0,3:0:0:0:
89,376,98334,1,0,0:0:0:0:
100,363,98411,1,0,0:0:0:0:
116,358,98488,1,0,0:0:0:0:
134,358,98565,1,0,0:0:0:0:
147,363,98642,6,0,P|194:338|252:328,1,100
320,384,98950,2,0,P|346:374|369:361,1,50
290,264,99104,1,0,0:0:0:0:
443,365,99257,5,0,0:0:0:0:
464,337,99334,1,0,0:0:0:0:
473,303,99411,1,0,0:0:0:0:
470,268,99488,1,0,0:0:0:0:
458,235,99565,1,0,0:0:0:0:
315,49,109104,5,0,0:0:0:0:
298,82,109180,1,0,0:0:0:0:
305,119,109257,1,0,0:0:0:0:
441,102,109411,2,0,P|375:86|301:149,1,150
392,222,109719,2,0,L|385:151,1,50
291,298,109873,2,0,L|297:227,1,50
193,129,110027,2,0,L|201:231,1,100
392,234,110334,1,0,0:0:0:0:
201,117,110488,2,0,P|152:122|116:156,1,100
108,307,110796,6,0,B|60:251|147:221|92:155,1,150
201,228,111104,6,0,B|237:271|170:293|213:345,1,120
374,288,111411,2,0,P|302:289|281:308,1,89.9999972534181
389,299,111719,1,0,0:0:0:0:
320,114,111873,6,0,L|314:181,1,50
337,133,112027,2,0,L|331:200,1,50
213,48,112180,2,0,L|218:115,1,50
196,67,112334,2,0,L|201:134,1,50
116,205,112488,2,0,L|110:137,1,50
196,277,112642,2,0,L|201:209,1,50
127,369,112796,1,0,0:0:0:0:
127,369,112950,2,0,L|120:295,1,50
417,229,113257,6,0,P|362:234|340:252,1,50
426,243,113411,2,0,P|371:248|349:266,1,50
425,326,113565,5,0,0:0:0:0:
472,312,113641,1,0,0:0:0:0:
503,274,113718,1,0,0:0:0:0:
507,225,113795,1,0,0:0:0:0:
481,183,113873,5,0,0:0:0:0:
452,155,113950,1,0,0:0:0:0:
445,116,114027,1,0,0:0:0:0:
461,81,114104,1,0,0:0:0:0:
494,61,114180,1,0,0:0:0:0:
501,40,114257,1,0,0:0:0:0:
509,17,114334,5,0,0:0:0:0:
462,0,114410,1,0,0:0:0:0:
413,5,114487,1,0,0:0:0:0:
372,33,114564,1,0,0:0:0:0:
350,77,114643,5,0,0:0:0:0:
325,126,114720,1,0,0:0:0:0:
278,158,114796,2,0,P|197:160|141:117,1,150
81,180,115104,2,0,P|97:242|93:254,1,50
148,106,115257,2,0,P|152:81|165:60,1,50
175,262,115411,6,0,P|116:303|33:279,1,150
306,236,115719,6,0,P|234:220|174:261,1,150
437,210,116027,6,0,P|378:251|295:227,1,150
180,273,116334,6,0,P|239:232|322:256,1,150
256,366,116642,2,0,L|262:297,1,50
311,247,116796,2,0,L|300:127,1,100
191,42,117104,1,0,0:0:0:0:
216,63,117180,1,0,0:0:0:0:
246,76,117257,1,0,0:0:0:0:
279,79,117334,1,0,0:0:0:0:
312,72,117411,1,0,0:0:0:0:
341,55,117488,1,0,0:0:0:0:
363,31,117565,6,0,P|375:-11|373:-22,1,44.999998626709
451,116,117873,2,0,P|438:73|441:62,1,50
27,178,118180,5,0,0:0:0:0:
112,134,118334,1,0,0:0:0:0:
156,222,118488,5,0,0:0:0:0:
242,178,118642,5,0,0:0:0:0:
252,207,118718,1,0,0:0:0:0:
251,238,118795,1,0,0:0:0:0:
242,267,118872,1,0,0:0:0:0:
222,291,118950,6,0,L|218:334,1,25
237,309,119027,2,0,L|233:352,1,25
252,327,119104,2,0,L|248:370,1,25
267,345,119180,2,0,L|263:388,1,25
339,384,119296,6,0,L|345:307,1,60
244,169,119565,5,0,0:0:0:0:
242,178,119719,2,0,L|320:190,1,69.9999978637696,0|0,0:0|0:0,0:0:0:0:
490,285,119873,2,0,L|412:273,1,69.9999978637696,0|0,0:0|0:0,0:0:0:0:
240,187,120027,2,0,L|318:199,1,69.9999978637696,0|0,0:0|0:0,0:0:0:0:
488,294,120180,5,0,0:0:0:0:
353,74,120334,1,0,0:0:0:0:
199,252,120488,1,0,0:0:0:0:
175,226,120565,1,0,0:0:0:0:
165,193,120642,1,0,0:0:0:0:
170,159,120719,1,0,0:0:0:0:
188,129,120796,1,0,0:0:0:0:
212,93,120873,1,0,0:0:0:0:
211,50,120950,1,0,0:0:0:0:
186,15,121027,1,0,0:0:0:0:
146,0,121104,1,0,0:0:0:0:
104,9,121180,1,0,0:0:0:0:
75,40,121257,1,0,0:0:0:0:
68,83,121334,1,0,0:0:0:0:
87,122,121411,1,0,0:0:0:0:
105,161,121488,1,0,0:0:0:0:
99,203,121565,1,0,0:0:0:0:
69,235,121642,1,0,0:0:0:0:
28,245,121719,6,0,P|32:162|70:132,1,69.9999978637696,0|0,0:0|0:0,0:0:0:0:
190,332,122027,5,0,0:0:0:0:
141,78,122180,2,0,L|133:164,1,69.9999978637696,0|0,0:0|0:0,0:0:0:0:
283,195,122334,2,0,L|290:281,1,69.9999978637696,0|0,0:0|0:0,0:0:0:0:
147,87,122488,2,0,L|139:173,1,69.9999978637696,0|0,0:0|0:0,0:0:0:0:
283,273,122642,2,0,L|277:204,1,69.9999978637696,0|0,0:0|0:0,0:0:0:0:
208,179,122796,1,0,0:0:0:0:
208,179,122950,1,0,0:0:0:0:
377,329,123104,5,0,0:0:0:0:
336,361,123181,1,0,0:0:0:0:
285,373,123258,1,0,0:0:0:0:
234,363,123335,1,0,0:0:0:0:
192,333,123411,1,0,0:0:0:0:
150,303,123488,1,0,0:0:0:0:
99,293,123565,1,0,0:0:0:0:
48,305,123642,1,0,0:0:0:0:
7,337,123719,2,0,L|16:231,1,69.9999978637696,0|0,0:0|0:0,0:0:0:0:
73,210,123873,5,0,0:0:0:0:
67,164,123949,1,0,0:0:0:0:
63,118,124026,1,0,0:0:0:0:
59,72,124103,1,0,0:0:0:0:
55,26,124180,5,0,0:0:0:0:
103,0,124256,1,0,0:0:0:0:
158,12,124333,1,0,0:0:0:0:
184,62,124410,1,0,0:0:0:0:
165,116,124487,1,0,0:0:0:0:
113,139,124564,1,0,0:0:0:0:
63,118,124642,6,0,L|76:234,1,69.9999978637696,0|0,0:0|0:0,0:0:0:0:
246,7,124796,1,0,0:0:0:0:
431,129,124950,2,0,L|418:245,1,69.9999978637696,0|0,0:0|0:0,0:0:0:0:
248,18,125104,2,0,L|249:132,1,69.9999978637696,0|0,0:0|0:0,0:0:0:0:
249,325,125257,2,0,L|248:255,1,69.9999978637696,0|0,0:0|0:0,0:0:0:0:
70,187,125411,5,0,0:0:0:0:
71,204,125487,1,0,0:0:0:0:
73,221,125564,1,0,0:0:0:0:
74,239,125641,1,0,0:0:0:0:
25,292,125719,5,0,0:0:0:0:
23,300,125795,1,0,0:0:0:0:
22,309,125872,1,0,0:0:0:0:
22,319,125949,1,0,0:0:0:0:
73,379,126027,5,0,0:0:0:0:
107,348,126103,1,0,0:0:0:0:
153,343,126180,1,0,0:0:0:0:
193,366,126257,1,0,0:0:0:0:
249,325,126334,5,0,0:0:0:0:
275,301,126410,1,0,0:0:0:0:
309,298,126487,1,0,0:0:0:0:
339,315,126564,1,0,0:0:0:0:
402,357,126642,2,0,L|409:270,1,69.9999978637696,0|0,0:0|0:0,0:0:0:0:
512,214,126796,5,0,0:0:0:0:
486,189,126872,1,0,0:0:0:0:
454,179,126949,1,0,0:0:0:0:
419,183,127026,1,0,0:0:0:0:
390,202,127103,1,0,0:0:0:0:
505,39,127257,2,0,L|512:125,1,69.9999978637696,0|0,0:0|0:0,0:0:0:0:
207,110,127411,5,0,0:0:0:0:
244,85,127488,1,0,0:0:0:0:
290,80,127565,1,0,0:0:0:0:
331,93,127642,1,0,0:0:0:0:
365,125,127718,1,0,0:0:0:0:
207,286,127873,5,0,0:0:0:0:
173,318,127949,1,0,0:0:0:0:
132,331,128026,1,0,0:0:0:0:
86,326,128103,1,0,0:0:0:0:
49,301,128181,5,0,0:0:0:0:
83,269,128257,1,0,0:0:0:0:
124,256,128334,1,0,0:0:0:0:
170,261,128411,1,0,0:0:0:0:
207,286,128488,1,0,0:0:0:0:
241,318,128565,1,0,0:0:0:0:
282,331,128642,1,0,0:0:0:0:
328,326,128719,1,0,0:0:0:0:
365,301,128796,6,0,L|356:395,1,69.9999978637696,0|0,0:0|0:0,0:0:0:0:
282,168,128950,2,0,L|290:262,1,69.9999978637696,0|0,0:0|0:0,0:0:0:0:
365,35,129104,2,0,L|352:176,1,100
480,187,129411,6,0,P|506:130|536:116,1,50
438,255,129565,6,0,P|401:203|404:171,1,50
496,320,129719,5,0,0:0:0:0:
405,205,129873,1,0,0:0:0:0:
288,94,130027,6,0,L|293:35,1,50
355,134,130180,1,0,0:0:0:0:
201,0,130334,2,0,L|211:108,1,59.9999981689454
212,119,130488,1,0,0:0:0:0:
85,211,130642,6,0,P|13:217|-17:196,1,59.9999981689454
176,215,130796,6,0,P|146:280|111:296,1,59.9999981689454
212,119,130950,5,0,0:0:0:0:
147,273,131104,1,0,0:0:0:0:
132,90,131257,5,0,0:0:0:0:
160,49,131333,1,0,0:0:0:0:
207,34,131410,1,0,0:0:0:0:
253,45,131487,1,0,0:0:0:0:
286,83,131564,1,0,0:0:0:0:
318,120,131643,1,0,0:0:0:0:
365,133,131720,1,0,0:0:0:0:
412,117,131797,1,0,0:0:0:0:
440,77,131873,5,0,0:0:0:0:
381,69,131949,1,0,0:0:0:0:
332,100,132026,1,0,0:0:0:0:
314,156,132103,1,0,0:0:0:0:
337,210,132181,1,0,0:0:0:0:
360,264,132258,1,0,0:0:0:0:
342,320,132335,1,0,0:0:0:0:
293,351,132412,1,0,0:0:0:0:
234,343,132489,1,0,0:0:0:0:
197,295,132566,1,0,0:0:0:0:
140,283,132643,1,0,0:0:0:0:
89,310,132720,1,0,0:0:0:0:
66,365,132796,5,0,0:0:0:0:
118,375,132872,1,0,0:0:0:0:
170,360,132949,1,0,0:0:0:0:
209,323,133026,1,0,0:0:0:0:
226,272,133103,1,0,0:0:0:0:
217,219,133180,1,0,0:0:0:0:
185,176,133257,1,0,0:0:0:0:
137,152,133334,1,0,0:0:0:0:
83,154,133411,5,0,0:0:0:0:
129,191,133487,1,0,0:0:0:0:
188,196,133564,1,0,0:0:0:0:
239,167,133641,1,0,0:0:0:0:
266,114,133718,1,0,0:0:0:0:
258,56,133795,1,0,0:0:0:0:
218,12,133872,1,0,0:0:0:0:
161,0,133949,1,0,0:0:0:0:
106,18,134027,6,0,P|74:83|75:91,3,59.9999981689454
0,162,134334,2,0,P|40:222|47:225,3,59.9999981689454
173,103,134642,5,0,0:0:0:0:
228,82,134718,1,0,0:0:0:0:
284,99,134795,1,0,0:0:0:0:
320,146,134872,1,0,0:0:0:0:
320,205,134949,1,0,0:0:0:0:
320,263,135027,1,0,0:0:0:0:
355,311,135104,1,0,0:0:0:0:
412,327,135181,1,0,0:0:0:0:
463,304,135257,1,0,0:0:0:0:
430,256,135333,1,0,0:0:0:0:
373,239,135410,1,0,0:0:0:0:
320,263,135487,1,0,0:0:0:0:
293,315,135566,1,0,0:0:0:0:
260,363,135642,1,0,0:0:0:0:
203,380,135719,1,0,0:0:0:0:
150,356,135796,1,0,0:0:0:0:
123,304,135873,1,0,0:0:0:0:
138,246,135949,1,0,0:0:0:0:
113,191,136026,1,0,0:0:0:0:
61,166,136103,1,0,0:0:0:0:
4,179,136180,6,0,L|12:271,1,59.9999981689454
44,373,136334,2,0,L|52:280,1,59.9999981689454
4,244,136488,1,0,0:0:0:0:
211,296,136642,5,0,0:0:0:0:
216,236,136719,1,0,0:0:0:0:
222,176,136796,2,0,L|228:77,1,59.9999981689454
360,273,136950,2,0,L|366:372,1,59.9999981689454
465,137,137104,5,0,0:0:0:0:
437,114,137180,1,0,0:0:0:0:
405,131,137257,5,0,0:0:0:0:
377,108,137333,1,0,0:0:0:0:
345,126,137411,5,0,0:0:0:0:
317,103,137487,1,0,0:0:0:0:
285,121,137565,5,0,0:0:0:0:
257,98,137641,1,0,0:0:0:0:
225,116,137719,5,0,0:0:0:0:
183,81,137795,1,0,0:0:0:0:
135,106,137873,5,0,0:0:0:0:
95,74,137949,1,0,0:0:0:0:
47,99,138027,2,0,L|-38:146,1,59.9999981689454
93,223,138180,2,0,L|66:208,1,29.9999990844727
81,236,138257,2,0,L|54:221,1,29.9999990844727
69,249,138334,5,0,0:0:0:0:
110,291,138410,1,0,0:0:0:0:
167,305,138487,1,0,0:0:0:0:
223,286,138564,1,0,0:0:0:0:
260,240,138643,5,0,0:0:0:0:
301,197,138719,1,0,0:0:0:0:
358,183,138796,1,0,0:0:0:0:
414,202,138873,1,0,0:0:0:0:
451,248,138950,1,0,0:0:0:0:
50,123,139104,6,0,L|57:35,1,59.9999981689454
238,153,139257,6,0,L|230:65,1,59.9999981689454
165,217,139411,6,0,L|157:129,1,59.9999981689454
42,119,139565,6,0,L|46:59,1,59.9999981689454
321,52,139719,5,0,0:0:0:0:
276,13,139795,1,0,0:0:0:0:
217,4,139872,1,0,0:0:0:0:
163,29,139949,1,0,0:0:0:0:
131,78,140027,2,0,L|138:-7,1,59.9999981689454
160,231,140180,1,0,0:0:0:0:
313,180,140334,6,0,P|308:265|316:275,1,59.9999981689454
262,348,140488,6,0,P|257:263|265:253,1,59.9999981689454
323,304,140642,6,0,P|394:257|406:259,1,59.9999981689454
482,341,140796,5,0,0:0:0:0:
455,328,140872,1,0,0:0:0:0:
426,326,140950,2,0,P|377:371|376:375,1,59.9999981689454
321,174,141104,2,0,L|396:180,1,59.9999981689454
239,299,141257,2,0,L|163:305,1,59.9999981689454
402,252,141411,1,0,0:0:0:0:
120,240,141565,6,0,P|97:168|111:150,1,59.9999981689454
179,179,141719,6,0,P|252:195|260:216,1,59.9999981689454
202,260,141873,6,0,P|151:315|128:312,1,59.9999981689454
4,200,142027,5,0,0:0:0:0:
26,141,142103,1,0,0:0:0:0:
81,112,142180,1,0,0:0:0:0:
142,127,142257,1,0,0:0:0:0:
179,179,142334,1,0,0:0:0:0:
168,116,142411,1,0,0:0:0:0:
201,64,142488,1,0,0:0:0:0:
262,46,142565,1,0,0:0:0:0:
320,73,142642,1,0,0:0:0:0:
347,124,142718,1,0,0:0:0:0:
337,182,142795,1,0,0:0:0:0:
293,221,142874,1,0,0:0:0:0:
249,260,142951,1,0,0:0:0:0:
239,318,143028,1,0,0:0:0:0:
262,377,143104,1,0,0:0:0:0:
239,318,143179,1,0,0:0:0:0:
189,289,143256,1,0,0:0:0:0:
131,299,143335,1,0,0:0:0:0:
73,307,143412,1,0,0:0:0:0:
22,277,143489,1,0,0:0:0:0:
3,223,143566,1,0,0:0:0:0:
13,165,143642,1,0,0:0:0:0:
57,126,143719,1,0,0:0:0:0:
116,123,143796,1,0,0:0:0:0:
164,158,143873,5,0,0:0:0:0:
177,164,143949,1,0,0:0:0:0:
192,162,144026,1,0,0:0:0:0:
204,153,144103,1,0,0:0:0:0:
210,140,144180,1,0,0:0:0:0:
209,125,144257,1,0,0:0:0:0:
201,113,144334,1,0,0:0:0:0:
188,106,144411,1,0,0:0:0:0:
173,106,144488,1,0,0:0:0:0:
181,377,144642,1,0,0:0:0:0:
355,247,144796,6,0,P|279:280|273:299,1,59.9999981689454
163,302,144950,6,0,P|238:335|244:354,1,59.9999981689454
279,366,145104,1,0,0:0:0:0:
101,352,145257,5,0,0:0:0:0:
83,296,145333,1,0,0:0:0:0:
112,246,145410,1,0,0:0:0:0:
409,187,145565,6,0,P|434:267|395:333,1,119.999996337891
378,112,145873,2,0,P|449:117|474:139,1,59.9999981689454
313,157,146027,1,0,0:0:0:0:
297,115,146103,1,0,0:0:0:0:
306,72,146180,1,0,0:0:0:0:
338,41,146257,1,0,0:0:0:0:
381,33,146334,1,0,0:0:0:0:
355,247,146488,6,0,L|279:241,1,59.9999981689454
446,115,146642,1,0,0:0:0:0:
419,306,146796,1,0,0:0:0:0:
246,121,146950,6,0,P|246:201|259:213,1,59.9999981689454
156,174,147104,2,0,P|196:243|213:247,1,59.9999981689454
116,377,147257,6,0,P|116:286|130:272,1,59.9999981689454
13,316,147411,2,0,P|58:237|77:233,1,59.9999981689454
149,67,147565,5,0,0:0:0:0:
188,68,147641,1,0,0:0:0:0:
223,87,147718,1,0,0:0:0:0:
245,120,147795,1,0,0:0:0:0:
317,93,147873,5,0,0:0:0:0:
368,94,147949,1,0,0:0:0:0:
414,120,148026,1,0,0:0:0:0:
443,163,148103,1,0,0:0:0:0:
449,245,148180,5,0,0:0:0:0:
417,292,148257,1,0,0:0:0:0:
367,321,148334,1,0,0:0:0:0:
311,322,148410,1,0,0:0:0:0:
259,267,148488,5,0,0:0:0:0:
224,319,148565,1,0,0:0:0:0:
169,350,148642,1,0,0:0:0:0:
108,351,148718,1,0,0:0:0:0:
54,319,148796,1,0,0:0:0:0:
188,232,148950,6,0,P|172:191|202:140,1,59.9999981689454
308,170,149104,2,0,P|267:186|216:156,1,59.9999981689454
126,113,149257,6,0,P|167:97|218:127,1,59.9999981689454
245,50,149411,6,0,P|261:91|231:142,1,59.9999981689454
79,197,149565,1,0,0:0:0:0:
40,152,149641,1,0,0:0:0:0:
31,93,149718,1,0,0:0:0:0:
56,39,149795,1,0,0:0:0:0:
105,7,149873,2,0,L|20:14,1,59.9999981689454
186,106,150026,1,0,0:0:0:0:
71,205,150180,6,0,L|78:293,1,59.9999981689454
240,250,150334,2,0,L|247:161,1,59.9999981689454
408,175,150488,2,0,L|414:235,1,59.9999981689454
320,114,150642,1,0,0:0:0:0:
322,84,150718,1,0,0:0:0:0:
325,54,150796,2,0,P|376:110|375:132,1,59.9999981689454
239,181,150950,2,0,P|188:237|189:259,1,59.9999981689454
324,309,151104,2,0,P|351:322|370:346,1,59.9999981689454
236,384,151257,1,0,0:0:0:0:
4,202,151411,6,0,L|9:262,1,59.9999981689454
87,106,151565,2,0,L|81:166,1,59.9999981689454
4,10,151719,2,0,L|9:70,1,59.9999981689454
170,84,151873,5,0,0:0:0:0:
139,46,151949,1,0,0:0:0:0:
94,29,152026,1,0,0:0:0:0:
46,38,152103,1,0,0:0:0:0:
9,69,152181,1,0,0:0:0:0:
40,106,152257,1,0,0:0:0:0:
85,122,152334,1,0,0:0:0:0:
132,114,152411,1,0,0:0:0:0:
170,84,152488,5,0,0:0:0:0:
211,125,152565,1,0,0:0:0:0:
177,166,152641,1,0,0:0:0:0:
218,206,152718,1,0,0:0:0:0:
292,248,152796,5,0,0:0:0:0:
255,279,152873,1,0,0:0:0:0:
280,316,152949,1,0,0:0:0:0:
243,346,153026,1,0,0:0:0:0:
266,384,153104,1,0,0:0:0:0:
218,206,153257,5,0,0:0:0:0:
266,172,153333,1,0,0:0:0:0:
325,178,153410,1,0,0:0:0:0:
366,219,153487,1,0,0:0:0:0:
371,278,153564,1,0,0:0:0:0:
147,324,153719,6,0,P|175:262|218:252,1,59.9999981689454
139,197,153873,6,0,P|71:202|41:171,1,59.9999981689454
19,162,154027,1,0,0:0:0:0:
87,28,154180,6,0,L|86:99,1,59.9999981689454
99,22,154334,1,0,0:0:0:0:
245,58,154488,6,0,L|208:118,1,59.9999981689454
258,58,154642,1,0,0:0:0:0:
366,162,154796,6,0,L|304:196,1,59.9999981689454
378,169,154950,1,0,0:0:0:0:
250,336,155104,6,0,L|195:311,1,59.9999981689454
343,245,155257,6,0,L|307:196,1,59.9999981689454
468,212,155411,6,0,L|462:152,1,59.9999981689454
418,279,155565,6,0,P|493:294|520:278,1,59.9999981689454
323,374,155719,5,0,0:0:0:0:
348,359,155795,1,0,0:0:0:0:
378,355,155872,1,0,0:0:0:0:
192,304,156027,1,0,0:0:0:0:
305,139,156180,6,0,L|298:227,1,59.9999981689454
205,65,156334,6,0,L|211:153,1,59.9999981689454
294,146,156488,5,0,0:0:0:0:
291,175,156564,1,0,0:0:0:0:
289,205,156641,1,0,0:0:0:0:
41,293,156796,6,0,P|23:217|26:207,1,59.9999981689454
103,237,156950,2,0,P|105:158|110:150,1,59.9999981689454
35,304,157104,5,0,0:0:0:0:
20,278,157180,1,0,0:0:0:0:
14,248,157257,1,0,0:0:0:0:
136,314,157411,1,0,0:0:0:0:
431,114,157565,5,0,0:0:0:0:
394,75,157641,1,0,0:0:0:0:
344,54,157718,1,0,0:0:0:0:
290,55,157795,1,0,0:0:0:0:
241,81,157872,1,0,0:0:0:0:
209,124,157949,1,0,0:0:0:0:
197,177,158026,5,0,0:0:0:0:
209,230,158103,1,0,0:0:0:0:
243,272,158180,1,0,0:0:0:0:
291,296,158257,1,0,0:0:0:0:
343,298,158334,5,0,0:0:0:0:
330,238,158410,1,0,0:0:0:0:
316,176,158487,1,0,0:0:0:0:
303,116,158564,1,0,0:0:0:0:
290,55,158641,1,0,0:0:0:0:
290,55,159411,5,0,0:0:0:0:
180,81,159873,2,0,L|60:110,1,100
93,152,160643,1,0,0:0:0:0:
96,168,160719,1,0,0:0:0:0:
100,184,160796,1,0,0:0:0:0:
104,200,160873,1,0,0:0:0:0:
108,216,160950,1,0,0:0:0:0:
112,232,161027,1,0,0:0:0:0:
113,248,161104,2,0,P|99:278|56:291,1,75
48,302,161411,6,0,L|132:308,1,75
260,384,161873,2,0,L|344:377,1,75
508,370,162334,1,0,0:0:0:0:
415,265,162642,6,0,P|414:318|421:330,1,50
446,200,162950,2,0,P|391:193|364:218,1,75
267,258,163257,2,0,P|322:253|347:279,1,75
289,334,163565,2,0,P|187:263|245:180,1,250
451,192,164642,5,0,0:0:0:0:
463,203,164796,2,0,P|470:150|414:63,1,150
280,0,165411,2,0,P|273:53|329:140,1,150
387,234,166027,6,0,B|254:134|188:333|56:200,1,350
216,248,167257,6,0,P|139:260|51:210,1,175
20,152,167873,1,0,0:0:0:0:
211,25,168180,5,0,0:0:0:0:
223,46,168256,1,0,0:0:0:0:
228,70,168333,1,0,0:0:0:0:
226,95,168410,1,0,0:0:0:0:
217,118,168488,2,0,L|326:108,1,100
372,217,168796,6,0,P|372:167|348:133,1,50
396,86,168950,6,0,P|396:36|420:2,1,50
295,183,169104,1,0,0:0:0:0:
144,75,169257,5,0,0:0:0:0:
134,91,169411,2,0,P|128:141|161:185,1,100
219,225,169719,2,0,P|126:191|54:237,1,150
75,217,170027,2,0,L|72:135,1,50
143,342,170180,2,0,L|146:260,1,50
145,279,170334,1,0,0:0:0:0:
364,245,170488,2,0,L|186:229,1,150
367,257,170950,1,0,0:0:0:0:
364,132,171257,6,0,P|340:196|379:277,1,150
447,359,171565,2,0,L|455:259,1,100
282,316,171873,2,0,L|288:390,1,50
271,329,172027,2,0,L|277:403,1,50
376,281,172180,2,0,P|303:226|220:240,1,150
184,278,172488,1,0,0:0:0:0:
255,138,172642,2,0,L|250:190,1,50
118,221,172796,6,0,P|114:185|119:169,1,50
182,131,172950,1,0,0:0:0:0:
98,310,173104,1,0,0:0:0:0:
250,187,173257,1,0,0:0:0:0:
40,246,173411,6,0,L|30:122,1,100
186,81,173719,2,0,L|180:142,1,50
79,14,173873,2,0,L|140:8,1,50
206,0,174027,1,0,0:0:0:0:
181,140,174180,5,0,0:0:0:0:
301,77,174334,2,0,P|351:62|421:84,1,100
463,139,174642,1,0,0:0:0:0:
468,146,174796,1,0,0:0:0:0:
357,197,174950,2,0,P|359:136|361:132,1,50
433,221,175104,2,0,P|435:245|430:270,1,50
333,312,175257,5,0,0:0:0:0:
310,282,175334,1,0,0:0:0:0:
278,263,175411,1,0,0:0:0:0:
241,258,175488,1,0,0:0:0:0:
205,268,175565,1,0,0:0:0:0:
169,278,175642,1,0,0:0:0:0:
132,273,175719,1,0,0:0:0:0:
100,254,175796,1,0,0:0:0:0:
77,225,175873,1,0,0:0:0:0:
256,192,175950,12,0,178257,0:0:0:0:
31,32,178334,5,0,0:0:0:0:
134,163,178488,2,0,L|125:60,1,69.9999978637696
4,297,178642,2,0,P|56:247|70:245,1,69.9999978637696
135,373,178796,2,0,P|121:242|-3:295,1,300
246,245,179104,1,0,0:0:0:0:
78,319,179257,6,0,B|166:244|213:381|318:294,1,255.000004863739
348,287,179565,2,0,P|266:334|242:332,1,85.0000016212464
326,180,179719,1,0,0:0:0:0:
346,365,179873,2,0,L|358:250,1,85.0000016212464
338,174,180027,2,0,L|452:186,1,85.0000016212464
273,336,180180,1,0,0:0:0:0:
431,175,180334,2,0,P|459:273|437:318,1,85.0000016212464
421,325,180488,1,0,0:0:0:0:
382,89,180642,1,0,0:0:0:0:
394,80,180719,1,0,0:0:0:0:
406,69,180796,2,0,P|312:78|249:23,1,139.999995727539
19,211,181104,6,0,B|187:222|202:117|202:117|128:57|38:155,1,345.000006580353
174,285,181411,1,0,0:0:0:0:
282,53,181565,2,0,L|270:184,1,80
166,293,181719,2,0,P|251:243|346:310,1,160
204,108,182027,6,0,P|161:87|80:128,1,80
387,240,182180,1,0,0:0:0:0:
387,240,182257,1,0,0:0:0:0:
387,240,182334,2,0,P|267:248|261:242,1,80
419,1,182488,2,0,P|462:142|379:65,1,345.000006580353
299,23,182796,5,0,0:0:0:0:
299,23,182873,1,0,0:0:0:0:
299,23,182950,2,0,L|287:155,1,69.9999978637696
159,213,183104,2,0,L|170:345,1,69.9999978637696
25,92,183257,2,0,L|36:-40,1,69.9999978637696
229,157,183411,1,0,0:0:0:0:
229,157,183488,1,0,0:0:0:0:
229,157,183565,5,0,0:0:0:0:
229,157,183642,1,0,0:0:0:0:
185,129,183718,1,0,0:0:0:0:
133,129,183795,1,0,0:0:0:0:
89,157,183873,6,0,P|80:240|91:253,1,69.9999978637696
46,314,184027,2,0,P|-20:264|-36:267,1,69.9999978637696
312,187,184180,1,0,0:0:0:0:
169,312,184334,2,0,L|157:197,1,100
177,323,184642,1,0,0:0:0:0:
378,179,184796,2,0,P|304:192|293:205,1,69.9999978637696
228,384,184950,2,0,P|253:313|247:297,1,69.9999978637696
125,151,185104,2,0,P|173:208|190:211,1,69.9999978637696
244,240,185257,5,0,0:0:0:0:
244,240,185334,1,0,0:0:0:0:
244,240,185411,2,0,L|236:158,1,69.9999978637696
138,76,185565,2,0,L|130:157,1,69.9999978637696
26,180,185719,2,0,P|31:220|43:241,1,59.9999981689454
35,169,185873,1,0,0:0:0:0:
20,288,186027,6,0,P|56:304|80:304,1,59.9999981689454
109,347,186180,2,0,P|141:323|153:302,1,59.9999981689454
244,240,186334,6,0,P|283:244|304:256,1,59.9999981689454
350,233,186487,2,0,P|366:269|366:293,1,59.9999981689454
315,333,186642,2,0,P|377:311|447:358,1,119.999996337891
431,269,186950,2,0,L|436:331,1,59.9999981689454
360,223,187104,1,0,0:0:0:0:
354,163,187257,2,0,L|359:225,1,59.9999981689454
283,117,187411,1,0,0:0:0:0:
277,57,187565,2,0,L|282:119,1,59.9999981689454
206,11,187719,1,0,0:0:0:0:
388,86,187873,2,0,P|317:86|272:134,1,119.999996337891
122,107,188180,6,0,P|185:99|195:90,1,67.4999979400635
48,136,188488,6,0,P|42:99|56:62,1,75.0000028610231
55,37,188642,6,0,B|-37:145|131:203|24:332,1,314.999990386963
196,90,188950,1,0,0:0:0:0:
0,244,189104,6,0,P|97:275|12:335,1,269.999991760254
134,147,189411,2,0,L|32:138,1,75.0000028610231
196,251,189565,1,0,0:0:0:0:
259,34,189719,6,0,P|266:120|253:138,1,75.0000028610231
219,169,189873,2,0,P|212:255|225:273,1,75.0000028610231
259,304,190027,2,0,P|266:390|253:408,1,75.0000028610231
286,218,190180,6,0,L|389:227,1,75.0000028610231
197,353,190334,1,0,0:0:0:0:
205,149,190488,5,0,0:0:0:0:
212,159,190565,1,0,0:0:0:0:
219,169,190642,1,0,0:0:0:0:
370,236,190796,1,0,0:0:0:0:
