osu file format v14

[General]
AudioFilename: audio.mp3
AudioLeadIn: 0
PreviewTime: 31667
Countdown: 0
SampleSet: Soft
StackLeniency: 0.5
Mode: 0
LetterboxInBreaks: 0
WidescreenStoryboard: 1

[Editor]
Bookmarks: 10667,21334,32000,74667,85000
DistanceSpacing: 0.5
BeatDivisor: 4
GridSize: 8
TimelineZoom: 1

[Metadata]
Title:Misogi Kakuriyo e no Gi
TitleUnicode:禊 幽世への儀
Artist:Feryquitous feat. Sennzai
ArtistUnicode:Feryquitous feat. Sennzai
Creator:Sagon
Version:Hard
Source:
Tags:Striderin irui Ein ceremony for the ghost world diverse system dvsp-0191 3rd solo album Electronic Japanese
BeatmapID:2729451
BeatmapSetID:1317309

[Difficulty]
HPDrainRate:5
CircleSize:4
OverallDifficulty:7
ApproachRate:8
SliderMultiplier:1.5
SliderTickRate:1

[Events]
//Background and Video events
0,0,"Feryquitous Ein.jpg",0,0
//Break Periods
//Storyboard Layer 0 (Background)
//Storyboard Layer 1 (Fail)
//Storyboard Layer 2 (Pass)
//Storyboard Layer 3 (Foreground)
//Storyboard Layer 4 (Overlay)
//Storyboard Sound Samples

[TimingPoints]
138,666.666666666667,4,2,1,85,1,0
138,-66.6666666666667,4,2,1,85,0,0
971,-66.6666666666667,4,2,99,5,0,0
1138,-66.6666666666667,4,2,1,85,0,0
2471,-50,4,2,1,85,0,0
2638,-50,4,2,99,5,0,0
2804,-50,4,2,1,85,0,0
4804,-66.6666666666667,4,2,1,85,0,0
5138,-50,4,2,1,85,0,0
5804,-50,4,2,99,5,0,0
5971,-50,4,2,1,85,0,0
6304,-50,4,2,99,5,0,0
6471,-50,4,2,1,85,0,0
7971,-50,4,2,99,5,0,0
8138,-50,4,2,1,85,0,0
8304,-50,4,2,99,5,0,0
8471,-50,4,2,1,85,0,0
8638,-50,4,2,99,5,0,0
8804,-50,4,2,1,85,0,0
8971,-50,4,2,99,5,0,0
9138,-50,4,2,1,85,0,0
9804,-50,4,2,1,70,0,0
9971,-50,4,2,1,75,0,0
10138,-50,4,2,1,80,0,0
10638,-50,4,2,1,85,0,0
10804,-50,4,2,1,90,0,0
11721,-50,4,2,99,5,0,0
11804,-50,4,2,1,90,0,0
12638,-50,4,2,99,5,0,0
12804,-50,4,2,1,90,0,0
15471,-66.6666666666667,4,2,1,90,0,0
15804,-50,4,2,1,90,0,0
22388,-50,4,2,99,5,0,0
22471,-50,4,2,1,90,0,0
26138,-66.6666666666667,4,2,1,90,0,0
26471,-50,4,2,1,90,0,0
31138,-50,4,2,1,80,0,0
31304,-50,4,2,1,85,0,0
31471,-50,4,2,1,90,0,0
31804,-44.4444444444445,4,2,1,95,0,0
32138,-40,4,2,1,100,0,0
33971,-40,4,2,99,5,0,0
34138,-40,4,2,1,100,0,0
36804,-50,4,2,1,100,0,0
37138,-40,4,2,1,100,0,0
37471,-38.4615384615385,4,2,1,100,0,0
38388,-40,4,2,99,5,0,0
38471,-40,4,2,1,100,0,0
39304,-40,4,2,99,5,0,0
39471,-40,4,2,1,100,0,0
42471,-33.3333333333333,4,2,1,100,0,0
44638,-40,4,2,99,5,0,0
44804,-40,4,2,1,100,0,0
47471,-50,4,2,1,100,0,0
47804,-36.3636363636364,4,2,1,100,0,0
49054,-40,4,2,99,5,0,0
49138,-40,4,2,1,100,0,0
49971,-40,4,2,99,5,0,0
50138,-40,4,2,1,100,0,0
53138,-36.3636363636364,4,2,1,100,0,0
53471,-40,4,2,1,100,0,0
55304,-40,4,2,99,5,0,0
55471,-40,4,2,1,100,0,0
58138,-50,4,2,1,100,0,0
58471,-36.3636363636364,4,2,1,100,0,0
59721,-40,4,2,99,5,0,0
59804,-40,4,2,1,100,0,0
60638,-40,4,2,99,5,0,0
60804,-40,4,2,1,100,0,0
63804,-36.3636363636364,4,2,1,100,0,0
65971,-40,4,2,99,5,0,0
66138,-40,4,2,1,100,0,0
68804,-50,4,2,1,100,0,0
69138,-36.3636363636364,4,2,1,100,0,0
69471,-40,4,2,1,100,0,0
70388,-40,4,2,99,5,0,0
70471,-40,4,2,1,100,0,0
71304,-40,4,2,99,5,0,0
71471,-40,4,2,1,100,0,0
74471,-36.3636363636364,4,2,1,100,0,0
75471,-40,4,2,1,90,0,0
75638,-40,4,2,99,5,0,0
75804,-40,4,2,1,85,0,0
77138,-50,4,2,1,85,0,0
77304,-50,4,2,99,5,0,0
77471,-50,4,2,1,85,0,0
79471,-66.6666666666667,4,2,1,85,0,0
79804,-50,4,2,1,85,0,0
80471,-50,4,2,99,5,0,0
80638,-50,4,2,1,85,0,0
82638,-50,4,2,99,5,0,0
82804,-50,4,2,1,85,0,0
82971,-50,4,2,99,5,0,0
83138,-50,4,2,1,85,0,0
83304,-50,4,2,99,5,0,0
83471,-50,4,2,1,85,0,0
83638,-50,4,2,99,5,0,0
83804,-50,4,2,1,85,0,0

[Colours]
Combo1 : 0,255,255
Combo2 : 255,153,51
Combo3 : 0,128,192
Combo4 : 243,139,204

[HitObjects]
0,305,138,6,0,L|117:297,1,112.500004291535,4|0,0:1|0:0,0:0:0:0:
215,222,804,1,2,0:0:0:0:
182,384,1138,1,0,3:0:0:0:
346,327,2138,5,0,0:0:0:0:
496,268,2304,1,8,0:3:0:0:
421,237,2471,2,0,B|413:277|413:277|430:317,1,75,8|0,0:0|0:0,0:0:0:0:
342,211,2804,6,0,P|392:162|478:178,2,150,8|8|0,0:1|0:0|1:0,0:0:0:0:
205,199,3804,1,0,3:0:0:0:
119,68,4471,5,2,0:0:0:0:
27,76,4638,1,2,0:0:0:0:
115,12,4804,2,0,L|122:97,1,56.2500021457673,2|8,0:0|0:3,0:0:0:0:
34,151,5138,2,0,L|27:76,1,75,8|0,0:0|0:0,0:0:0:0:
128,153,5471,6,0,B|193:112|193:112|270:140,1,150,8|0,0:1|0:0,0:0:0:0:
205,199,5971,1,2,0:0:0:0:
205,199,6138,1,2,0:0:0:0:
255,54,6471,1,0,3:0:0:0:
370,139,7471,5,0,0:0:0:0:
485,197,7638,1,8,0:3:0:0:
501,127,7804,2,0,P|502:164|486:197,1,75,8|0,0:0|0:0,0:0:0:0:
356,254,8138,6,0,B|322:281|316:315|316:315|349:341|356:377,2,150,8|8|0,0:1|0:0|1:0,0:0:0:0:
276,384,9138,1,0,3:0:0:0:
418,304,9804,5,8,0:0:0:0:
492,275,9971,1,8,0:0:0:0:
356,254,10138,2,0,L|269:262,1,75,8|0,0:0|0:0,0:0:0:0:
135,218,10471,1,8,0:1:0:0:
97,384,10804,6,0,B|88:320|144:269|162:319|217:273|212:207,1,225,4|0,1:2|0:0,0:0:0:0:
135,218,11471,1,0,0:0:0:0:
244,328,11804,1,0,3:0:0:0:
213,212,12804,5,0,0:0:0:0:
136,311,12971,1,8,0:3:0:0:
177,371,13138,2,0,P|162:336|135:310,1,75,8|0,0:0|0:0,0:0:0:0:
24,287,13471,6,0,P|94:280|135:214,2,150,8|8|0,0:1|0:0|1:0,0:0:0:0:
97,384,14471,1,0,3:0:0:0:
134,217,15138,5,2,0:0:0:0:
213,228,15304,1,2,0:0:0:0:
285,191,15471,2,0,P|280:157|260:120,1,56.2500021457673,2|8,0:0|0:3,0:0:0:0:
118,41,15804,2,0,P|154:36|183:13,1,75,8|0,0:0|0:0,0:0:0:0:
259,12,16138,6,0,B|260:51|242:80|219:68|185:99|198:148,1,150,8|0,0:1|0:0,0:0:0:0:
236,207,16638,1,2,0:0:0:0:
271,137,16804,1,2,0:0:0:0:
183,12,17138,1,0,3:0:0:0:
207,218,18138,5,0,0:0:0:0:
131,212,18304,1,8,0:3:0:0:
68,257,18471,2,0,B|55:296|55:296|66:337,1,75,8|0,0:0|0:0,0:0:0:0:
269,338,18804,6,0,P|216:297|111:312,2,150,8|8|0,0:1|0:0|1:0,0:0:0:0:
438,244,19804,1,0,3:0:0:0:
353,384,20471,5,2,0:0:0:0:
366,306,20638,1,2,0:0:0:0:
316,244,20804,2,0,P|281:224|208:224,1,75,2|8,0:0|0:3,0:0:0:0:
455,111,21138,2,0,P|455:74|444:39,1,75,8|0,0:1|0:0,0:0:0:0:
313,153,21471,6,0,P|294:63|379:97,1,225,4|0,1:3|0:0,0:0:0:0:
388,175,22138,1,2,0:0:0:0:
247,217,22471,1,0,3:0:0:0:
384,282,23471,5,0,0:0:0:0:
512,338,23638,1,8,0:3:0:0:
458,278,23804,2,0,L|383:282,1,75,8|0,0:0|0:0,0:0:0:0:
225,291,24138,6,0,P|190:346|252:365,2,150,8|8|0,0:1|0:0|1:0,0:0:0:0:
344,372,25138,1,0,3:0:0:0:
252,139,25804,5,2,0:0:0:0:
208,218,25971,1,2,0:0:0:0:
263,227,26138,2,0,P|226:217|180:228,1,56.2500021457673,2|8,0:0|0:3,0:0:0:0:
115,356,26471,2,0,P|79:367|33:360,1,75,8|0,0:0|0:0,0:0:0:0:
24,163,26804,6,0,P|73:228|56:325,1,150,8|0,0:1|0:0,0:0:0:0:
149,273,27304,1,2,0:0:0:0:
224,292,27471,1,2,0:0:0:0:
304,150,27804,1,0,3:0:0:0:
167,184,28804,5,0,0:0:0:0:
91,199,28970,1,8,0:3:0:0:
23,163,29137,2,0,B|-1:121|21:74,1,75,8|0,0:0|0:0,0:0:0:0:
233,105,29471,6,0,P|158:98|87:119,2,150,8|8|0,0:1|0:0|1:0,0:0:0:0:
42,17,30470,1,0,3:0:0:0:
233,105,31138,5,8,0:0:0:0:
293,154,31305,1,8,0:0:0:0:
373,142,31471,2,0,P|386:100|382:62,1,75,10|0,0:0|0:0,0:0:0:0:
460,0,31804,2,0,P|478:45|476:87,1,84.3750032186509,8|0,0:1|0:0,0:0:0:0:
497,189,32138,6,0,B|429:147|344:184|391:229|312:268|241:229,1,281.25,4|0,1:2|0:0,0:0:0:0:
293,154,32805,1,2,0:0:0:0:
439,260,33138,1,0,3:0:0:0:
135,99,34138,5,0,0:0:0:0:
73,220,34304,1,8,0:3:0:0:
26,146,34471,2,0,P|61:175|74:222,1,93.75,8|0,0:0|0:0,0:0:0:0:
171,183,34804,6,0,B|120:156|65:181|96:211|43:232|-6:215,2,187.5,8|8|0,0:1|0:0|1:0,0:0:0:0:
62,294,35804,1,0,3:0:0:0:
212,291,36471,5,2,0:0:0:0:
194,379,36638,1,2,0:0:0:0:
139,303,36805,2,0,P|176:302|212:290,1,75,2|8,0:0|0:3,0:0:0:0:
328,315,37138,2,0,P|378:311|423:330,1,93.75,8|0,0:0|0:0,0:0:0:0:
494,375,37471,6,0,P|492:292|417:326,1,194.999991073609,8|0,0:1|0:0,0:0:0:0:
365,384,37971,1,2,0:0:0:0:
328,315,38138,1,2,0:0:0:0:
376,158,38471,1,0,3:0:0:0:
248,269,39471,5,0,0:0:0:0:
316,230,39637,1,8,0:3:0:0:
392,248,39804,2,0,B|437:258|437:258|491:227,1,93.75,8|0,0:0|0:0,0:0:0:0:
499,87,40138,6,0,B|446:71|423:35|423:35|400:80|353:101,2,187.5,8|8|0,0:1|0:0|1:0,0:0:0:0:
340,18,41137,1,0,3:0:0:0:
489,160,41804,5,2,0:0:0:0:
411,155,41971,1,2,0:0:0:0:
357,99,42137,2,0,P|306:99|262:142,1,93.75,2|8,0:0|0:3,0:0:0:0:
151,225,42471,2,0,P|100:225|56:182,1,112.500004291535,8|0,0:0|0:0,0:0:0:0:
155,1,42804,6,0,B|106:82|155:175|225:110|268:227|201:297,1,337.500012874604,4|0,1:2|0:0,0:0:0:0:
154,384,43471,1,2,0:0:0:0:
44,307,43804,1,0,3:0:0:0:
160,130,44804,5,0,0:0:0:0:
82,237,44970,1,8,0:3:0:0:
34,162,45137,2,0,P|69:191|82:238,1,93.75,8|0,0:0|0:0,0:0:0:0:
118,356,45471,6,0,B|116:309|153:266|171:304|210:256|201:201,2,187.5,8|8|0,0:1|0:0|1:0,0:0:0:0:
0,296,46470,1,0,3:0:0:0:
199,351,47137,5,2,0:0:0:0:
246,284,47304,1,2,0:0:0:0:
174,274,47471,2,0,P|211:270|246:284,1,75,2|8,0:0|0:3,0:0:0:0:
397,301,47804,2,0,P|437:269|488:271,1,103.125000983477,8|0,0:0|0:0,0:0:0:0:
372,383,48137,6,0,P|321:310|378:217,1,206.250001966953,8|0,0:1|0:0,0:0:0:0:
445,193,48637,1,2,0:0:0:0:
397,301,48804,1,2,0:0:0:0:
272,210,49137,1,0,3:0:0:0:
120,108,50137,5,0,0:0:0:0:
194,131,50303,1,8,0:3:0:0:
265,103,50471,2,0,B|308:83|308:83|370:99,1,93.75,8|0,0:0|0:0,0:0:0:0:
447,124,50804,6,0,B|458:6|458:6|504:64,2,187.5,8|8|0,0:1|0:0|1:0,0:0:0:0:
504,294,51803,1,0,3:0:0:0:
512,196,52471,5,2,0:0:0:0:
438,219,52637,1,2,0:0:0:0:
366,190,52805,2,0,P|323:170|261:186,1,93.75,2|8,0:0|0:3,0:0:0:0:
100,86,53138,2,0,P|105:131|77:185,1,103.125000983477,8|0,0:1|0:0,0:0:0:0:
25,123,53471,6,0,B|96:88|173:131|124:173|207:215|277:176,1,281.25,4|0,1:2|0:0,0:0:0:0:
322,114,54138,1,2,0:0:0:0:
273,0,54471,1,0,3:0:0:0:
140,63,55471,5,0,0:0:0:0:
199,185,55637,1,8,0:3:0:0:
241,107,55804,2,0,P|207:142|199:186,1,93.75,8|0,0:0|0:0,0:0:0:0:
190,304,56137,6,0,P|96:322|22:266,2,187.5,8|8|0,0:1|0:0|1:0,0:0:0:0:
20,384,57137,1,0,3:0:0:0:
122,240,57804,5,2,0:0:0:0:
199,185,57971,1,2,0:0:0:0:
109,166,58138,2,0,P|120:201|122:239,1,75,2|8,0:0|0:3,0:0:0:0:
243,370,58471,2,0,P|265:326|264:272,1,103.125000983477,8|0,0:0|0:0,0:0:0:0:
453,315,58804,6,0,B|404:338|345:303|369:279|316:249|265:273,1,206.250001966953,8|0,0:1|0:0,0:0:0:0:
192,308,59304,1,2,0:0:0:0:
243,370,59471,1,2,0:0:0:0:
423,246,59804,1,0,3:0:0:0:
422,382,60804,5,0,0:0:0:0:
438,306,60970,1,8,0:3:0:0:
413,232,61138,2,0,P|395:190|403:145,1,93.75,8|0,0:0|0:0,0:0:0:0:
297,216,61471,6,0,P|389:222|473:182,2,187.5,8|8|0,0:1|0:0|1:0,0:0:0:0:
469,107,62470,1,0,3:0:0:0:
388,29,63138,5,2,0:0:0:0:
311,19,63304,1,2,0:0:0:0:
249,67,63471,2,0,P|253:113|233:154,1,93.75,2|8,0:0|0:3,0:0:0:0:
256,297,63805,2,0,P|281:335|334:355,1,103.125000983477,8|0,0:1|0:0,0:0:0:0:
159,229,64138,6,0,P|235:290|230:154,1,309.37500295043,4|0,1:2|0:0,0:0:0:0:
155,152,64805,1,2,0:0:0:0:
197,361,65138,1,0,3:0:0:0:
103,172,66138,5,0,0:0:0:0:
44,313,66304,1,8,0:3:0:0:
158,227,66471,2,0,P|117:247|70:242,1,93.75,8|0,0:0|0:0,0:0:0:0:
10,28,66804,6,0,P|88:89|101:181,2,187.5,8|8|0,0:1|0:0|1:0,0:0:0:0:
197,84,67804,1,0,3:0:0:0:
291,269,68471,5,2,0:0:0:0:
243,195,68638,1,2,0:0:0:0:
220,281,68805,2,0,P|258:284|293:268,1,75,2|8,0:0|0:3,0:0:0:0:
402,158,69138,2,0,P|426:119|412:66,1,103.125000983477,8|0,0:0|0:0,0:0:0:0:
330,129,69471,6,0,B|310:170|337:227|360:206|385:255|360:306,1,187.5,8|0,0:1|0:0,0:0:0:0:
441,231,69971,1,2,0:0:0:0:
291,269,70138,1,2,0:0:0:0:
412,66,70471,1,0,3:0:0:0:
177,35,71471,5,0,0:0:0:0:
253,20,71637,1,8,0:3:0:0:
321,56,71804,2,0,P|331:107|316:152,1,93.75,8|0,0:0|0:0,0:0:0:0:
98,183,72138,6,0,P|166:120|258:104,2,187.5,8|8|0,0:1|0:0|1:0,0:0:0:0:
0,55,73138,1,0,3:0:0:0:
26,384,73804,5,2,0:0:0:0:
13,307,73970,1,2,0:0:0:0:
66,252,74138,2,0,P|112:256|153:236,1,93.75,2|8,0:0|0:3,0:0:0:0:
306,173,74471,2,0,P|260:193|238:238,1,103.125000983477,8|0,0:1|0:0,0:0:0:0:
99,338,74804,6,0,B|147:381|216:374|248:318|248:318|171:312|152:233,1,309.37500295043,4|0,1:2|0:0,0:0:0:0:
142,154,75471,1,2,0:0:0:0:
313,247,75804,1,0,3:0:0:0:
344,362,76804,5,0,0:0:0:0:
460,310,76970,1,8,0:3:0:0:
465,383,77138,2,0,P|470:344|459:308,1,75,8|0,0:0|0:0,0:0:0:0:
384,284,77471,6,0,P|434:235|521:258,2,150,8|8|0,0:1|0:0|1:0,0:0:0:0:
487,148,78470,1,0,3:0:0:0:
401,65,79138,5,2,0:0:0:0:
493,73,79305,1,2,0:0:0:0:
406,10,79471,2,0,P|407:38|401:66,1,56.2500021457673,2|8,0:0|0:3,0:0:0:0:
487,148,79805,2,0,P|489:111|494:73,1,75,8|0,0:0|0:0,0:0:0:0:
389,146,80138,6,0,B|284:135|284:135|327:178,1,150,8|0,0:1|0:0,2:0:0:0:
371,226,80638,1,2,0:0:0:0:
371,226,80805,1,2,0:0:0:0:
273,349,81138,1,0,3:0:0:0:
473,299,82138,5,0,0:0:0:0:
399,322,82304,1,8,0:3:0:0:
327,293,82472,2,0,P|284:273|222:289,1,75,8|0,0:0|0:0,0:0:0:0:
136,362,82804,6,0,P|197:382|275:345,2,150,8|8|0,0:1|0:0|1:0,0:0:0:0:
197,222,83805,1,0,3:0:0:0:
1,154,84471,5,2,0:0:0:0:
187,129,84638,1,2,0:0:0:0:
102,190,84804,1,2,0:0:0:0:
83,30,85138,5,4,3:2:0:0:
