osu file format v14

[General]
AudioFilename: audio.mp3
AudioLeadIn: 0
PreviewTime: 72501
Countdown: 0
SampleSet: Normal
StackLeniency: 0.7
Mode: 1
LetterboxInBreaks: 0
WidescreenStoryboard: 0

[Editor]
Bookmarks: 22632,42737,62842,72894,113104,133208,153313,173418,196035,213627,232632
DistanceSpacing: 0.4
BeatDivisor: 4
GridSize: 32
TimelineZoom: 3.399998

[Metadata]
Title:Koe
TitleUnicode:声
Artist:Feryquitous feat. Sennzai
ArtistUnicode:Feryquitous feat. Sennzai
Creator:_DUSK_
Version:Utterance
Source:Deemo
Tags:Faputa Rhuzerv Irui Diverse System C93 comiket
BeatmapID:1949987
BeatmapSetID:934045

[Difficulty]
HPDrainRate:6
CircleSize:4
OverallDifficulty:6.5
ApproachRate:9
SliderMultiplier:1.4
SliderTickRate:1

[Events]
//Background and Video events
0,0,"Saikou.jpg",0,0
//Break Periods
//Storyboard Layer 0 (Background)
//Storyboard Layer 1 (Fail)
//Storyboard Layer 2 (Pass)
//Storyboard Layer 3 (Foreground)
//Storyboard Sound Samples

[TimingPoints]
15,314.13612565445,4,1,0,20,1,0
22632,-100,4,1,0,100,0,0
41952,-102.040816326531,4,1,0,100,0,0
42266,-106.382978723404,4,1,0,100,0,0
42737,-113.636363636364,4,1,0,100,0,0
52632,-108.695652173913,4,1,0,100,0,0
52789,-106.382978723404,4,1,0,100,0,0
61271,-108.695652173913,4,1,0,100,0,0
61585,-113.636363636364,4,1,0,100,0,0
62213,-116.279069767442,4,1,0,100,0,0
62842,-100,4,1,0,100,0,0
72894,-95.2380952380952,4,1,0,100,0,1
92999,-95.2380952380952,4,1,0,100,0,0
93077,-125,4,1,0,100,0,0
93548,-121.951219512195,4,1,0,100,0,0
93588,-119.047619047619,4,1,0,100,0,0
93627,-116.279069767442,4,1,0,100,0,0
93863,-113.636363636364,4,1,0,100,0,0
94098,-111.111111111111,4,1,0,100,0,0
94334,-108.695652173913,4,1,0,100,0,0
94569,-106.382978723404,4,1,0,100,0,0
94805,-104.166666666667,4,1,0,100,0,0
95041,-102.040816326531,4,1,0,100,0,0
95198,-100,4,1,0,100,0,0
95276,-98.0392156862745,4,1,0,100,0,0
95355,-96.1538461538461,4,1,0,100,0,0
95512,-66.6666666666667,4,1,0,100,0,1
95826,-95.2380952380952,4,1,0,100,0,1
111690,-97.0873786407767,4,1,0,100,0,1
111847,-98.0392156862745,4,1,0,100,0,0
113103,-100,4,1,0,100,0,0
132580,-105.263157894737,4,1,0,100,0,0
133130,-100,4,1,0,100,0,0
133287,-166.666666666667,4,1,0,70,0,0
142004,-161.290322580645,4,1,0,70,0,0
142318,-156.25,4,1,0,70,0,0
142632,-151.515151515152,4,1,0,70,0,0
142946,-147.058823529412,4,1,0,70,0,0
143261,-142.857142857143,4,1,0,70,0,0
153313,-95.2380952380952,4,1,0,100,0,0
172632,-97.0873786407767,4,1,0,100,0,0
172789,-99.009900990099,4,1,0,100,0,0
173339,-90.9090909090909,4,1,0,100,0,0
173496,-142.857142857143,4,1,0,100,0,0
192187,-142.857142857143,4,1,0,20,0,0
193522,-95.2380952380952,4,1,0,100,0,0
193601,-125,4,1,0,100,0,0
194072,-121.951219512195,4,1,0,100,0,0
194111,-119.047619047619,4,1,0,100,0,0
194151,-116.279069767442,4,1,0,100,0,0
194386,-113.636363636364,4,1,0,100,0,0
194622,-111.111111111111,4,1,0,100,0,0
194857,-108.695652173913,4,1,0,100,0,0
195093,-106.382978723404,4,1,0,100,0,0
195329,-104.166666666667,4,1,0,100,0,0
195564,-102.040816326531,4,1,0,100,0,0
195721,-100,4,1,0,100,0,0
195800,-98.0392156862745,4,1,0,100,0,0
195878,-96.1538461538461,4,1,0,100,0,0
196035,-66.6666666666667,4,1,0,100,0,1
196349,-95.2380952380952,4,1,0,100,0,1
212213,-97.0873786407767,4,1,0,100,0,1
212371,-99.009900990099,4,1,0,100,0,0
212999,-142.857142857143,4,1,0,100,0,0

[HitObjects]
256,192,22632,5,12,0:0:0:0:
256,192,22789,1,0,0:0:0:0:
256,192,22868,1,0,0:0:0:0:
256,192,22946,1,8,0:0:0:0:
256,192,23103,1,0,0:0:0:0:
256,192,23260,1,8,0:0:0:0:
256,192,23339,1,8,0:0:0:0:
256,192,23418,1,0,0:0:0:0:
256,192,23575,1,8,0:0:0:0:
256,192,23889,1,0,0:0:0:0:
256,192,24046,1,0,0:0:0:0:
256,192,24124,1,0,0:0:0:0:
256,192,24203,1,8,0:0:0:0:
256,192,24360,1,0,0:0:0:0:
256,192,24517,1,8,0:0:0:0:
256,192,24596,1,8,0:0:0:0:
256,192,24674,1,0,0:0:0:0:
256,192,24753,1,0,0:0:0:0:
256,192,24831,1,8,0:0:0:0:
256,192,24988,1,0,0:0:0:0:
256,192,25145,1,8,0:0:0:0:
256,192,25302,1,0,0:0:0:0:
256,192,25381,1,0,0:0:0:0:
256,192,25459,1,8,0:0:0:0:
256,192,25617,1,0,0:0:0:0:
256,192,25774,1,8,0:0:0:0:
256,192,25852,1,0,0:0:0:0:
256,192,25931,1,0,0:0:0:0:
256,192,26088,1,8,0:0:0:0:
256,192,26402,1,0,0:0:0:0:
256,192,26559,1,0,0:0:0:0:
256,192,26637,1,0,0:0:0:0:
256,192,26716,1,8,0:0:0:0:
256,192,26873,1,0,0:0:0:0:
256,192,27030,1,8,0:0:0:0:
256,192,27109,1,0,0:0:0:0:
256,192,27187,1,8,0:0:0:0:
256,192,27266,1,8,0:0:0:0:
256,192,27344,1,0,0:0:0:0:
256,192,27501,1,0,0:0:0:0:
256,192,27658,1,8,0:0:0:0:
256,192,27815,1,0,0:0:0:0:
256,192,27894,1,0,0:0:0:0:
256,192,27973,1,8,0:0:0:0:
256,192,28130,1,0,0:0:0:0:
256,192,28287,1,8,0:0:0:0:
256,192,28365,1,0,0:0:0:0:
256,192,28444,1,8,0:0:0:0:
256,192,28601,1,8,0:0:0:0:
256,192,28915,1,0,0:0:0:0:
256,192,29072,1,0,0:0:0:0:
256,192,29151,1,8,0:0:0:0:
256,192,29229,1,8,0:0:0:0:
256,192,29386,1,0,0:0:0:0:
256,192,29465,1,0,0:0:0:0:
256,192,29543,1,8,0:0:0:0:
256,192,29622,1,0,0:0:0:0:
256,192,29700,1,8,0:0:0:0:
256,192,29857,1,8,0:0:0:0:
256,192,30014,1,0,0:0:0:0:
256,192,30171,1,8,0:0:0:0:
256,192,30329,1,0,0:0:0:0:
256,192,30407,1,0,0:0:0:0:
256,192,30486,1,8,0:0:0:0:
256,192,30643,1,0,0:0:0:0:
256,192,30800,1,8,0:0:0:0:
256,192,30957,1,8,0:0:0:0:
256,192,31035,1,0,0:0:0:0:
256,192,31114,1,8,0:0:0:0:
256,192,31271,1,0,0:0:0:0:
256,192,31428,1,0,0:0:0:0:
256,192,31507,1,0,0:0:0:0:
256,192,31585,1,8,0:0:0:0:
256,192,31742,1,0,0:0:0:0:
256,192,31821,1,0,0:0:0:0:
256,192,31899,1,0,0:0:0:0:
256,192,31978,1,8,0:0:0:0:
256,192,32056,1,0,0:0:0:0:
256,192,32135,1,0,0:0:0:0:
256,192,32213,1,8,0:0:0:0:
256,192,32527,1,8,0:0:0:0:
256,192,32685,1,12,0:0:0:0:
256,192,32842,1,0,0:0:0:0:
256,192,32920,1,0,0:0:0:0:
256,192,32999,1,8,0:0:0:0:
256,192,33156,1,0,0:0:0:0:
256,192,33313,1,8,0:0:0:0:
256,192,33391,1,8,0:0:0:0:
256,192,33470,1,0,0:0:0:0:
256,192,33548,1,0,0:0:0:0:
256,192,33627,1,8,0:0:0:0:
256,192,33941,1,0,0:0:0:0:
256,192,34098,1,0,0:0:0:0:
256,192,34177,1,0,0:0:0:0:
256,192,34255,1,8,0:0:0:0:
256,192,34412,1,0,0:0:0:0:
256,192,34569,1,8,0:0:0:0:
256,192,34648,1,0,0:0:0:0:
256,192,34726,1,8,0:0:0:0:
256,192,34805,1,8,0:0:0:0:
256,192,34884,1,0,0:0:0:0:
256,192,35041,1,8,0:0:0:0:
256,192,35198,1,8,0:0:0:0:
256,192,35355,1,0,0:0:0:0:
256,192,35433,1,0,0:0:0:0:
256,192,35512,1,8,0:0:0:0:
256,192,35669,1,0,0:0:0:0:
256,192,35826,1,0,0:0:0:0:
256,192,35904,1,8,0:0:0:0:
256,192,35983,1,0,0:0:0:0:
256,192,36062,1,0,0:0:0:0:
256,192,36140,1,8,0:0:0:0:
256,192,36454,1,0,0:0:0:0:
256,192,36611,1,0,0:0:0:0:
256,192,36690,1,0,0:0:0:0:
256,192,36768,1,8,0:0:0:0:
256,192,36925,1,0,0:0:0:0:
256,192,37082,1,8,0:0:0:0:
256,192,37161,1,0,0:0:0:0:
256,192,37240,1,8,0:0:0:0:
256,192,37318,1,8,0:0:0:0:
256,192,37397,1,0,0:0:0:0:
256,192,37554,1,8,0:0:0:0:
256,192,37711,1,0,0:0:0:0:
256,192,37868,1,8,0:0:0:0:
256,192,37946,1,8,0:0:0:0:
256,192,38025,1,0,0:0:0:0:
256,192,38182,1,8,0:0:0:0:
256,192,38260,1,0,0:0:0:0:
256,192,38339,1,8,0:0:0:0:
256,192,38496,1,0,0:0:0:0:
256,192,38653,1,8,0:0:0:0:
256,192,38967,1,0,0:0:0:0:
256,192,39124,1,0,0:0:0:0:
256,192,39203,1,0,0:0:0:0:
256,192,39281,1,8,0:0:0:0:
256,192,39438,1,0,0:0:0:0:
256,192,39596,1,8,0:0:0:0:
256,192,39674,1,0,0:0:0:0:
256,192,39753,1,0,0:0:0:0:
256,192,39831,1,0,0:0:0:0:
256,192,39910,1,8,0:0:0:0:
256,192,40067,1,0,0:0:0:0:
256,192,40224,1,8,0:0:0:0:
256,192,40381,1,0,0:0:0:0:
256,192,40459,1,0,0:0:0:0:
256,192,40538,1,8,0:0:0:0:
256,192,40695,1,0,0:0:0:0:
256,192,40852,1,8,0:0:0:0:
256,192,40931,1,8,0:0:0:0:
256,192,41009,1,0,0:0:0:0:
256,192,41088,1,0,0:0:0:0:
256,192,41166,1,8,0:0:0:0:
256,192,41480,1,0,0:0:0:0:
256,192,41637,1,8,0:0:0:0:
256,192,41716,1,8,0:0:0:0:
256,192,41795,1,0,0:0:0:0:
256,192,41952,1,0,0:0:0:0:
256,192,42266,1,8,0:0:0:0:
256,192,42737,1,12,0:0:0:0:
256,192,43365,1,8,0:0:0:0:
256,192,43993,1,0,0:0:0:0:
256,192,44622,1,8,0:0:0:0:
256,192,44779,1,0,0:0:0:0:
256,192,44936,1,0,0:0:0:0:
256,192,45250,1,0,0:0:0:0:
256,192,45878,1,8,0:0:0:0:
256,192,46507,1,0,0:0:0:0:
256,192,47135,1,8,0:0:0:0:
256,192,47292,1,0,0:0:0:0:
256,192,47606,1,0,0:0:0:0:
256,192,47763,1,0,0:0:0:0:
256,192,48391,1,8,0:0:0:0:
256,192,49020,1,0,0:0:0:0:
256,192,49648,1,8,0:0:0:0:
256,192,49805,1,0,0:0:0:0:
256,192,49962,1,0,0:0:0:0:
256,192,50276,1,0,0:0:0:0:
256,192,50904,1,8,0:0:0:0:
256,192,51533,1,0,0:0:0:0:
256,192,52161,1,8,0:0:0:0:
256,192,52318,1,0,0:0:0:0:
256,192,52632,1,0,0:0:0:0:
256,192,52789,1,0,0:0:0:0:
256,192,52946,1,8,0:0:0:0:
256,192,53261,1,0,0:0:0:0:
256,192,53339,1,0,0:0:0:0:
256,192,53418,1,8,0:0:0:0:
256,192,53575,1,0,0:0:0:0:
256,192,53889,1,8,0:0:0:0:
256,192,54046,1,0,0:0:0:0:
256,192,54203,1,8,0:0:0:0:
256,192,54282,1,0,0:0:0:0:
256,192,54360,1,8,0:0:0:0:
256,192,54517,1,0,0:0:0:0:
256,192,54674,1,8,0:0:0:0:
256,192,54753,1,8,0:0:0:0:
256,192,54831,1,0,0:0:0:0:
256,192,54988,1,0,0:0:0:0:
256,192,55145,1,8,0:0:0:0:
256,192,55302,1,0,0:0:0:0:
256,192,55460,1,8,0:0:0:0:
256,192,55774,1,0,0:0:0:0:
256,192,55852,1,0,0:0:0:0:
256,192,55931,1,8,0:0:0:0:
256,192,56088,1,0,0:0:0:0:
256,192,56402,1,8,0:0:0:0:
256,192,56559,1,0,0:0:0:0:
256,192,56716,1,8,0:0:0:0:
256,192,56795,1,8,0:0:0:0:
256,192,56873,1,0,0:0:0:0:
256,192,57030,1,0,0:0:0:0:
256,192,57187,1,8,0:0:0:0:
256,192,57266,1,0,0:0:0:0:
256,192,57344,1,0,0:0:0:0:
256,192,57501,1,8,0:0:0:0:
256,192,57658,1,0,0:0:0:0:
256,192,57816,1,0,0:0:0:0:
256,192,57973,1,8,0:0:0:0:
256,192,58287,1,0,0:0:0:0:
256,192,58365,1,0,0:0:0:0:
256,192,58444,1,8,0:0:0:0:
256,192,58601,1,0,0:0:0:0:
256,192,58915,1,8,0:0:0:0:
256,192,59072,1,0,0:0:0:0:
256,192,59229,1,0,0:0:0:0:
256,192,59308,1,0,0:0:0:0:
256,192,59386,1,8,0:0:0:0:
256,192,59543,1,0,0:0:0:0:
256,192,59700,1,8,0:0:0:0:
256,192,59779,1,8,0:0:0:0:
256,192,59857,1,0,0:0:0:0:
256,192,60014,1,0,0:0:0:0:
256,192,60172,1,8,0:0:0:0:
256,192,60329,1,0,0:0:0:0:
256,192,60643,5,0,0:0:0:0:
256,192,60800,1,0,0:0:0:0:
256,192,60957,1,8,0:0:0:0:
256,192,61114,1,8,0:0:0:0:
256,192,61271,1,0,0:0:0:0:
256,192,61585,1,8,0:0:0:0:
256,192,62213,1,0,0:0:0:0:
256,192,62842,1,4,0:0:0:0:
256,192,63156,1,0,0:0:0:0:
256,192,63208,1,8,0:0:0:0:
256,192,63261,1,8,0:0:0:0:
256,192,63313,1,0,0:0:0:0:
256,192,63470,1,0,0:0:0:0:
256,192,63627,1,8,0:0:0:0:
256,192,63784,1,8,0:0:0:0:
256,192,63941,1,0,0:0:0:0:
256,192,64098,1,8,0:0:0:0:
256,192,64255,1,8,0:0:0:0:
256,192,64412,1,0,0:0:0:0:
256,192,64569,1,8,0:0:0:0:
256,192,64726,1,8,0:0:0:0:
256,192,64884,1,0,0:0:0:0:
256,192,65041,1,8,0:0:0:0:
256,192,65198,1,8,0:0:0:0:
256,192,65355,1,0,0:0:0:0:
256,192,65512,1,8,0:0:0:0:
256,192,65669,1,0,0:0:0:0:
256,192,65826,1,0,0:0:0:0:
256,192,65983,1,0,0:0:0:0:
256,192,66140,1,8,0:0:0:0:
256,192,66297,1,8,0:0:0:0:
256,192,66454,1,0,0:0:0:0:
256,192,66611,1,0,0:0:0:0:
256,192,66768,1,0,0:0:0:0:
256,192,66925,1,12,0:0:0:0:
256,192,67082,1,12,0:0:0:0:
256,192,67240,1,12,0:0:0:0:
256,192,67397,1,0,0:0:0:0:
256,192,67554,1,8,0:0:0:0:
256,192,67711,1,8,0:0:0:0:
256,192,67868,1,8,0:0:0:0:
256,192,67920,1,0,0:0:0:0:
256,192,67973,1,0,0:0:0:0:
256,192,68025,1,8,0:0:0:0:
256,192,68182,1,0,0:0:0:0:
256,192,68234,1,8,0:0:0:0:
256,192,68287,1,8,0:0:0:0:
256,192,68339,1,0,0:0:0:0:
256,192,68496,1,0,0:0:0:0:
256,192,68653,1,8,0:0:0:0:
256,192,68732,1,0,0:0:0:0:
256,192,68810,1,8,0:0:0:0:
256,192,68967,1,0,0:0:0:0:
256,192,69124,1,8,0:0:0:0:
256,192,69203,1,0,0:0:0:0:
256,192,69281,1,8,0:0:0:0:
256,192,69438,1,0,0:0:0:0:
256,192,69596,1,8,0:0:0:0:
256,192,69674,1,0,0:0:0:0:
256,192,69753,1,8,0:0:0:0:
256,192,69910,1,0,0:0:0:0:
256,192,70067,1,8,0:0:0:0:
256,192,70145,1,0,0:0:0:0:
256,192,70224,1,8,0:0:0:0:
256,192,70381,1,0,0:0:0:0:
256,192,70538,1,8,0:0:0:0:
256,192,70695,1,0,0:0:0:0:
256,192,70852,1,0,0:0:0:0:
256,192,71009,1,8,0:0:0:0:
256,192,71088,1,0,0:0:0:0:
256,192,71166,1,8,0:0:0:0:
256,192,71245,1,8,0:0:0:0:
256,192,71323,1,0,0:0:0:0:
256,192,71480,1,8,0:0:0:0:
256,192,71559,1,8,0:0:0:0:
256,192,71637,1,8,0:0:0:0:
256,192,71716,1,0,0:0:0:0:
256,192,71795,1,8,0:0:0:0:
256,192,71952,1,8,0:0:0:0:
256,192,72030,1,0,0:0:0:0:
256,192,72109,1,8,0:0:0:0:
256,192,72187,1,0,0:0:0:0:
256,192,72266,1,8,0:0:0:0:
256,192,72894,1,4,0:0:0:0:
256,192,73051,1,0,0:0:0:0:
256,192,73130,1,0,0:0:0:0:
256,192,73208,1,8,0:0:0:0:
256,192,73365,1,0,0:0:0:0:
256,192,73444,1,8,0:0:0:0:
256,192,73522,1,8,0:0:0:0:
256,192,73679,1,0,0:0:0:0:
256,192,73836,1,8,0:0:0:0:
256,192,73915,1,0,0:0:0:0:
256,192,73993,1,8,0:0:0:0:
256,192,74072,1,8,0:0:0:0:
256,192,74151,1,0,0:0:0:0:
256,192,74308,1,0,0:0:0:0:
256,192,74465,1,8,0:0:0:0:
256,192,74622,1,0,0:0:0:0:
256,192,74700,1,8,0:0:0:0:
256,192,74779,1,0,0:0:0:0:
256,192,74857,1,8,0:0:0:0:
256,192,74936,1,0,0:0:0:0:
256,192,75093,1,8,0:0:0:0:
256,192,75250,1,8,0:0:0:0:
256,192,75329,1,8,0:0:0:0:
256,192,75407,1,0,0:0:0:0:
256,192,75564,1,0,0:0:0:0:
256,192,75721,1,8,0:0:0:0:
256,192,75878,1,0,0:0:0:0:
256,192,75957,1,8,0:0:0:0:
256,192,76035,1,0,0:0:0:0:
256,192,76114,1,0,0:0:0:0:
256,192,76192,1,8,0:0:0:0:
256,192,76349,1,8,0:0:0:0:
256,192,76507,1,8,0:0:0:0:
256,192,76585,1,0,0:0:0:0:
256,192,76664,1,0,0:0:0:0:
256,192,76821,1,0,0:0:0:0:
256,192,76978,1,8,0:0:0:0:
256,192,77135,1,0,0:0:0:0:
256,192,77213,1,0,0:0:0:0:
256,192,77292,1,8,0:0:0:0:
256,192,77370,1,0,0:0:0:0:
256,192,77527,1,8,0:0:0:0:
256,192,77606,1,8,0:0:0:0:
256,192,77763,1,8,0:0:0:0:
256,192,77842,1,8,0:0:0:0:
256,192,77920,1,0,0:0:0:0:
256,192,78077,1,0,0:0:0:0:
256,192,78234,1,8,0:0:0:0:
256,192,78391,1,0,0:0:0:0:
256,192,78470,1,0,0:0:0:0:
256,192,78548,1,8,0:0:0:0:
256,192,78627,1,8,0:0:0:0:
256,192,78706,1,0,0:0:0:0:
256,192,78863,1,8,0:0:0:0:
256,192,79020,1,0,0:0:0:0:
256,192,79098,1,0,0:0:0:0:
256,192,79177,1,8,0:0:0:0:
256,192,79334,1,0,0:0:0:0:
256,192,79491,1,8,0:0:0:0:
256,192,79648,1,8,0:0:0:0:
256,192,79726,1,0,0:0:0:0:
256,192,79805,1,8,0:0:0:0:
256,192,79884,1,8,0:0:0:0:
256,192,79962,1,0,0:0:0:0:
256,192,80119,1,8,0:0:0:0:
256,192,80276,1,8,0:0:0:0:
256,192,80433,1,0,0:0:0:0:
256,192,80512,1,8,0:0:0:0:
256,192,80590,1,0,0:0:0:0:
256,192,80747,1,8,0:0:0:0:
256,192,80904,1,0,0:0:0:0:
256,192,80983,1,0,0:0:0:0:
256,192,81062,1,8,0:0:0:0:
256,192,81140,1,0,0:0:0:0:
256,192,81219,1,0,0:0:0:0:
256,192,81376,1,8,0:0:0:0:
256,192,81533,1,8,0:0:0:0:
256,192,81611,1,8,0:0:0:0:
256,192,81690,1,0,0:0:0:0:
256,192,81847,1,8,0:0:0:0:
256,192,82004,1,0,0:0:0:0:
256,192,82082,1,8,0:0:0:0:
256,192,82161,1,0,0:0:0:0:
256,192,82318,1,8,0:0:0:0:
256,192,82397,1,0,0:0:0:0:
256,192,82475,1,8,0:0:0:0:
256,192,82554,1,8,0:0:0:0:
256,192,82632,1,0,0:0:0:0:
256,192,82711,1,8,0:0:0:0:
256,192,82789,1,8,0:0:0:0:
256,192,82868,1,8,0:0:0:0:
256,192,82946,1,0,0:0:0:0:
256,192,83260,1,8,0:0:0:0:
256,192,83418,1,0,0:0:0:0:
256,192,83496,1,8,0:0:0:0:
256,192,83575,1,0,0:0:0:0:
256,192,83653,1,0,0:0:0:0:
256,192,83732,1,8,0:0:0:0:
256,192,83889,1,8,0:0:0:0:
256,192,84046,1,8,0:0:0:0:
256,192,84124,1,8,0:0:0:0:
256,192,84203,1,0,0:0:0:0:
256,192,84360,1,0,0:0:0:0:
256,192,84517,1,8,0:0:0:0:
256,192,84674,1,0,0:0:0:0:
256,192,84753,1,0,0:0:0:0:
256,192,84831,1,8,0:0:0:0:
256,192,84910,1,0,0:0:0:0:
256,192,85067,1,0,0:0:0:0:
256,192,85145,1,8,0:0:0:0:
256,192,85302,1,8,0:0:0:0:
256,192,85381,1,0,0:0:0:0:
256,192,85459,1,8,0:0:0:0:
256,192,85617,1,0,0:0:0:0:
256,192,85774,1,8,0:0:0:0:
256,192,85931,1,8,0:0:0:0:
256,192,86009,1,0,0:0:0:0:
256,192,86088,1,0,0:0:0:0:
256,192,86166,1,8,0:0:0:0:
256,192,86245,1,0,0:0:0:0:
256,192,86402,1,8,0:0:0:0:
256,192,86559,1,0,0:0:0:0:
256,192,86637,1,8,0:0:0:0:
256,192,86716,1,8,0:0:0:0:
256,192,86873,1,0,0:0:0:0:
256,192,86952,1,0,0:0:0:0:
256,192,87030,1,8,0:0:0:0:
256,192,87187,1,0,0:0:0:0:
256,192,87266,1,0,0:0:0:0:
256,192,87344,1,8,0:0:0:0:
256,192,87423,1,0,0:0:0:0:
256,192,87580,1,0,0:0:0:0:
256,192,87658,1,8,0:0:0:0:
256,192,87815,1,8,0:0:0:0:
256,192,87894,1,8,0:0:0:0:
256,192,87973,1,0,0:0:0:0:
256,192,88130,1,0,0:0:0:0:
256,192,88287,1,8,0:0:0:0:
256,192,88444,1,0,0:0:0:0:
256,192,88601,1,0,0:0:0:0:
256,192,88679,1,0,0:0:0:0:
256,192,88758,1,8,0:0:0:0:
256,192,88836,1,8,0:0:0:0:
256,192,88915,1,0,0:0:0:0:
256,192,89072,1,8,0:0:0:0:
256,192,89229,1,0,0:0:0:0:
256,192,89386,1,0,0:0:0:0:
256,192,89465,1,0,0:0:0:0:
256,192,89543,1,8,0:0:0:0:
256,192,89700,1,0,0:0:0:0:
256,192,89857,1,8,0:0:0:0:
256,192,89936,1,0,0:0:0:0:
256,192,90014,1,8,0:0:0:0:
256,192,90171,1,8,0:0:0:0:
256,192,90329,1,8,0:0:0:0:
256,192,90407,1,8,0:0:0:0:
256,192,90486,1,0,0:0:0:0:
256,192,90564,1,8,0:0:0:0:
256,192,90643,1,0,0:0:0:0:
256,192,90800,1,8,0:0:0:0:
256,192,90957,1,0,0:0:0:0:
256,192,91035,1,8,0:0:0:0:
256,192,91114,1,0,0:0:0:0:
256,192,91192,1,8,0:0:0:0:
256,192,91271,1,0,0:0:0:0:
256,192,91428,1,8,0:0:0:0:
256,192,91585,1,8,0:0:0:0:
256,192,91664,1,8,0:0:0:0:
256,192,91742,1,0,0:0:0:0:
256,192,91899,1,8,0:0:0:0:
256,192,92056,1,0,0:0:0:0:
256,192,92135,1,8,0:0:0:0:
256,192,92213,1,0,0:0:0:0:
256,192,92370,1,8,0:0:0:0:
256,192,92527,1,0,0:0:0:0:
256,192,92685,1,0,0:0:0:0:
256,192,92763,1,0,0:0:0:0:
256,192,92842,1,8,0:0:0:0:
256,192,92920,1,8,0:0:0:0:
256,192,92999,1,4,0:0:0:0:
256,192,93313,1,8,0:0:0:0:
256,192,93548,1,0,0:0:0:0:
256,192,93588,1,0,0:0:0:0:
256,192,93627,1,8,0:0:0:0:
256,192,93863,1,8,0:0:0:0:
256,192,94098,1,8,0:0:0:0:
256,192,94334,1,8,0:0:0:0:
256,192,94569,1,8,0:0:0:0:
256,192,94805,1,8,0:0:0:0:
256,192,95041,1,8,0:0:0:0:
256,192,95198,1,8,0:0:0:0:
256,192,95276,1,8,0:0:0:0:
256,192,95355,1,0,0:0:0:0:
256,192,95512,1,12,0:0:0:0:
256,192,95826,1,8,0:0:0:0:
256,192,95983,1,0,0:0:0:0:
256,192,96062,1,8,0:0:0:0:
256,192,96140,1,0,0:0:0:0:
256,192,96297,1,0,0:0:0:0:
256,192,96454,1,8,0:0:0:0:
256,192,96611,1,0,0:0:0:0:
256,192,96690,1,0,0:0:0:0:
256,192,96768,1,8,0:0:0:0:
256,192,96925,1,0,0:0:0:0:
256,192,97082,1,8,0:0:0:0:
256,192,97240,1,8,0:0:0:0:
256,192,97318,1,8,0:0:0:0:
256,192,97397,1,0,0:0:0:0:
256,192,97475,1,8,0:0:0:0:
256,192,97632,1,0,0:0:0:0:
256,192,97711,1,8,0:0:0:0:
256,192,97868,1,8,0:0:0:0:
256,192,97946,1,0,0:0:0:0:
256,192,98025,1,8,0:0:0:0:
256,192,98103,1,8,0:0:0:0:
256,192,98182,1,0,0:0:0:0:
256,192,98339,1,8,0:0:0:0:
256,192,98496,1,0,0:0:0:0:
256,192,98575,1,0,0:0:0:0:
256,192,98653,1,8,0:0:0:0:
256,192,98732,1,8,0:0:0:0:
256,192,98810,1,0,0:0:0:0:
256,192,98967,1,8,0:0:0:0:
256,192,99124,1,0,0:0:0:0:
256,192,99203,1,8,0:0:0:0:
256,192,99281,1,8,0:0:0:0:
256,192,99438,1,0,0:0:0:0:
256,192,99596,1,8,0:0:0:0:
256,192,99674,1,0,0:0:0:0:
256,192,99753,1,0,0:0:0:0:
256,192,99910,1,8,0:0:0:0:
256,192,99988,1,8,0:0:0:0:
256,192,100067,1,0,0:0:0:0:
256,192,100224,1,8,0:0:0:0:
256,192,100538,1,0,0:0:0:0:
256,192,100695,1,0,0:0:0:0:
256,192,100852,1,8,0:0:0:0:
256,192,101009,1,0,0:0:0:0:
256,192,101088,1,8,0:0:0:0:
256,192,101166,1,0,0:0:0:0:
256,192,101245,1,0,0:0:0:0:
256,192,101323,1,8,0:0:0:0:
256,192,101480,1,8,0:0:0:0:
256,192,101637,1,8,0:0:0:0:
256,192,101716,1,8,0:0:0:0:
256,192,101795,1,0,0:0:0:0:
256,192,101952,1,8,0:0:0:0:
256,192,102109,1,0,0:0:0:0:
256,192,102187,1,8,0:0:0:0:
256,192,102266,1,0,0:0:0:0:
256,192,102344,1,8,0:0:0:0:
256,192,102423,1,8,0:0:0:0:
256,192,102501,1,0,0:0:0:0:
256,192,102580,1,8,0:0:0:0:
256,192,102894,1,0,0:0:0:0:
256,192,103051,1,0,0:0:0:0:
256,192,103208,1,0,0:0:0:0:
256,192,103287,1,0,0:0:0:0:
256,192,103365,1,8,0:0:0:0:
256,192,103522,1,0,0:0:0:0:
256,192,103679,1,8,0:0:0:0:
256,192,103758,1,0,0:0:0:0:
256,192,103836,1,8,0:0:0:0:
256,192,103993,1,8,0:0:0:0:
256,192,104151,1,8,0:0:0:0:
256,192,104229,1,8,0:0:0:0:
256,192,104308,1,0,0:0:0:0:
256,192,104543,1,0,0:0:0:0:
256,192,104622,1,8,0:0:0:0:
256,192,104779,1,0,0:0:0:0:
256,192,104857,1,0,0:0:0:0:
256,192,104936,1,8,0:0:0:0:
256,192,105014,1,0,0:0:0:0:
256,192,105171,1,0,0:0:0:0:
256,192,105250,1,8,0:0:0:0:
256,192,105407,1,8,0:0:0:0:
256,192,105486,1,8,0:0:0:0:
256,192,105564,1,0,0:0:0:0:
256,192,105721,1,0,0:0:0:0:
256,192,105878,1,8,0:0:0:0:
256,192,106035,1,8,0:0:0:0:
256,192,106114,1,0,0:0:0:0:
256,192,106192,1,8,0:0:0:0:
256,192,106271,1,8,0:0:0:0:
256,192,106349,1,0,0:0:0:0:
256,192,106507,1,8,0:0:0:0:
256,192,106664,1,8,0:0:0:0:
256,192,106742,1,8,0:0:0:0:
256,192,106821,1,0,0:0:0:0:
256,192,106899,1,0,0:0:0:0:
256,192,106978,1,8,0:0:0:0:
256,192,107135,1,8,0:0:0:0:
256,192,107292,1,8,0:0:0:0:
256,192,107370,1,8,0:0:0:0:
256,192,107449,1,0,0:0:0:0:
256,192,107527,1,0,0:0:0:0:
256,192,107606,1,0,0:0:0:0:
256,192,107685,1,0,0:0:0:0:
256,192,107763,1,8,0:0:0:0:
256,192,107920,1,8,0:0:0:0:
256,192,107999,1,8,0:0:0:0:
256,192,108077,1,0,0:0:0:0:
256,192,108234,1,0,0:0:0:0:
256,192,108391,1,8,0:0:0:0:
256,192,108548,1,0,0:0:0:0:
256,192,108627,1,0,0:0:0:0:
256,192,108706,1,8,0:0:0:0:
256,192,108784,1,0,0:0:0:0:
256,192,108863,1,8,0:0:0:0:
256,192,108941,1,8,0:0:0:0:
256,192,109020,1,0,0:0:0:0:
256,192,109177,1,8,0:0:0:0:
256,192,109334,1,0,0:0:0:0:
256,192,109491,1,0,0:0:0:0:
256,192,109569,1,0,0:0:0:0:
256,192,109648,1,8,0:0:0:0:
256,192,109805,1,0,0:0:0:0:
256,192,109884,1,8,0:0:0:0:
256,192,109962,1,8,0:0:0:0:
256,192,110041,1,8,0:0:0:0:
256,192,110119,1,0,0:0:0:0:
256,192,110276,1,8,0:0:0:0:
256,192,110433,1,8,0:0:0:0:
256,192,110512,1,8,0:0:0:0:
256,192,110590,1,0,0:0:0:0:
256,192,110747,1,0,0:0:0:0:
256,192,110904,1,8,0:0:0:0:
256,192,111062,1,0,0:0:0:0:
256,192,111140,1,8,0:0:0:0:
256,192,111219,1,0,0:0:0:0:
256,192,111297,1,0,0:0:0:0:
256,192,111376,1,8,0:0:0:0:
256,192,111454,1,0,0:0:0:0:
256,192,111533,1,8,0:0:0:0:
256,192,111690,1,0,0:0:0:0:
256,192,111847,1,8,0:0:0:0:
256,192,113103,1,12,0:0:0:0:
256,192,113418,1,8,0:0:0:0:
256,192,113575,1,0,0:0:0:0:
256,192,113653,1,0,0:0:0:0:
256,192,113732,1,0,0:0:0:0:
256,192,113889,1,0,0:0:0:0:
256,192,114046,1,8,0:0:0:0:
256,192,114203,1,8,0:0:0:0:
256,192,114360,1,0,0:0:0:0:
256,192,114517,1,0,0:0:0:0:
256,192,114596,1,0,0:0:0:0:
256,192,114674,1,8,0:0:0:0:
256,192,114831,1,0,0:0:0:0:
256,192,114988,1,8,0:0:0:0:
256,192,115067,1,8,0:0:0:0:
256,192,115145,1,0,0:0:0:0:
256,192,115224,1,0,0:0:0:0:
256,192,115302,1,8,0:0:0:0:
256,192,115617,1,0,0:0:0:0:
256,192,115774,1,0,0:0:0:0:
256,192,115931,1,8,0:0:0:0:
256,192,116088,1,0,0:0:0:0:
256,192,116166,1,8,0:0:0:0:
256,192,116245,1,0,0:0:0:0:
256,192,116402,1,0,0:0:0:0:
256,192,116559,1,8,0:0:0:0:
256,192,116716,1,8,0:0:0:0:
256,192,116873,1,0,0:0:0:0:
256,192,117030,1,0,0:0:0:0:
256,192,117109,1,0,0:0:0:0:
256,192,117187,1,8,0:0:0:0:
256,192,117344,1,0,0:0:0:0:
256,192,117501,1,8,0:0:0:0:
256,192,117580,1,0,0:0:0:0:
256,192,117658,1,8,0:0:0:0:
256,192,117737,1,8,0:0:0:0:
256,192,117815,1,0,0:0:0:0:
256,192,117973,1,8,0:0:0:0:
256,192,118130,1,0,0:0:0:0:
256,192,118444,1,8,0:0:0:0:
256,192,118601,1,0,0:0:0:0:
256,192,118679,1,0,0:0:0:0:
256,192,118758,1,8,0:0:0:0:
256,192,118915,1,0,0:0:0:0:
256,192,119072,1,8,0:0:0:0:
256,192,119124,1,8,0:0:0:0:
256,192,119177,1,8,0:0:0:0:
256,192,119229,1,8,0:0:0:0:
256,192,119308,1,8,0:0:0:0:
256,192,119386,1,0,0:0:0:0:
256,192,119543,1,0,0:0:0:0:
256,192,119622,1,0,0:0:0:0:
256,192,119700,1,8,0:0:0:0:
256,192,119857,1,0,0:0:0:0:
256,192,120014,1,8,0:0:0:0:
256,192,120093,1,8,0:0:0:0:
256,192,120171,1,0,0:0:0:0:
256,192,120250,1,0,0:0:0:0:
256,192,120329,1,8,0:0:0:0:
256,192,120643,1,0,0:0:0:0:
256,192,120800,1,0,0:0:0:0:
256,192,120957,1,8,0:0:0:0:
256,192,121114,1,0,0:0:0:0:
256,192,121192,1,8,0:0:0:0:
256,192,121271,1,0,0:0:0:0:
256,192,121428,1,0,0:0:0:0:
256,192,121585,1,8,0:0:0:0:
256,192,121742,1,8,0:0:0:0:
256,192,121899,1,0,0:0:0:0:
256,192,122056,1,8,0:0:0:0:
256,192,122213,1,0,0:0:0:0:
256,192,122266,1,0,0:0:0:0:
256,192,122318,1,0,0:0:0:0:
256,192,122370,1,8,0:0:0:0:
256,192,122527,1,0,0:0:0:0:
256,192,122606,1,0,0:0:0:0:
256,192,122685,1,8,0:0:0:0:
256,192,122999,1,0,0:0:0:0:
256,192,123156,1,12,0:0:0:0:
256,192,123313,1,0,0:0:0:0:
256,192,123470,1,8,0:0:0:0:
256,192,123627,1,0,0:0:0:0:
256,192,123706,1,0,0:0:0:0:
256,192,123784,1,8,0:0:0:0:
256,192,123941,1,0,0:0:0:0:
256,192,124098,1,8,0:0:0:0:
256,192,124177,1,8,0:0:0:0:
256,192,124255,1,0,0:0:0:0:
256,192,124334,1,0,0:0:0:0:
256,192,124412,1,8,0:0:0:0:
256,192,124569,1,0,0:0:0:0:
256,192,124726,1,8,0:0:0:0:
256,192,124805,1,0,0:0:0:0:
256,192,124884,1,8,0:0:0:0:
256,192,124962,1,8,0:0:0:0:
256,192,125041,1,0,0:0:0:0:
256,192,125198,1,0,0:0:0:0:
256,192,125355,1,8,0:0:0:0:
256,192,125669,1,0,0:0:0:0:
256,192,125826,1,0,0:0:0:0:
256,192,125983,1,8,0:0:0:0:
256,192,126140,1,0,0:0:0:0:
256,192,126219,1,0,0:0:0:0:
256,192,126297,1,8,0:0:0:0:
256,192,126454,1,0,0:0:0:0:
256,192,126611,1,8,0:0:0:0:
256,192,126690,1,8,0:0:0:0:
256,192,126768,1,0,0:0:0:0:
256,192,126925,1,8,0:0:0:0:
256,192,127082,1,8,0:0:0:0:
256,192,127161,1,8,0:0:0:0:
256,192,127240,1,8,0:0:0:0:
256,192,127397,1,0,0:0:0:0:
256,192,127554,1,0,0:0:0:0:
256,192,127711,1,8,0:0:0:0:
256,192,127868,1,0,0:0:0:0:
256,192,128025,1,8,0:0:0:0:
256,192,128182,1,0,0:0:0:0:
256,192,128496,1,8,0:0:0:0:
256,192,128653,1,0,0:0:0:0:
256,192,128732,1,0,0:0:0:0:
256,192,128810,1,0,0:0:0:0:
256,192,128967,1,0,0:0:0:0:
256,192,129124,1,8,0:0:0:0:
256,192,129281,1,0,0:0:0:0:
256,192,129360,1,0,0:0:0:0:
256,192,129438,1,8,0:0:0:0:
256,192,129596,1,0,0:0:0:0:
256,192,129753,1,8,0:0:0:0:
256,192,129831,1,0,0:0:0:0:
256,192,129910,1,8,0:0:0:0:
256,192,129988,1,8,0:0:0:0:
256,192,130067,1,0,0:0:0:0:
256,192,130224,1,0,0:0:0:0:
256,192,130381,1,8,0:0:0:0:
256,192,130459,1,8,0:0:0:0:
256,192,130538,1,0,0:0:0:0:
256,192,130852,1,0,0:0:0:0:
256,192,131009,1,8,0:0:0:0:
256,192,131166,1,8,0:0:0:0:
256,192,131245,1,0,0:0:0:0:
256,192,131323,1,0,0:0:0:0:
256,192,131402,1,8,0:0:0:0:
256,192,131480,1,0,0:0:0:0:
256,192,131637,1,8,0:0:0:0:
256,192,131795,1,8,0:0:0:0:
256,192,131873,1,8,0:0:0:0:
256,192,131952,1,0,0:0:0:0:
256,192,132580,1,8,0:0:0:0:
256,192,133208,1,12,0:0:0:0:
256,192,134465,1,8,0:0:0:0:
256,192,135093,1,0,0:0:0:0:
256,192,135721,1,8,0:0:0:0:
256,192,136978,1,0,0:0:0:0:
256,192,138234,1,8,0:0:0:0:
256,192,139491,1,0,0:0:0:0:
256,192,140119,1,8,0:0:0:0:
256,192,140747,1,0,0:0:0:0:
256,192,141376,1,0,0:0:0:0:
256,192,142004,1,8,0:0:0:0:
256,192,142318,1,8,0:0:0:0:
256,192,142632,1,0,0:0:0:0:
256,192,142946,1,8,0:0:0:0:
256,192,143261,5,0,0:0:0:0:
256,192,143732,1,0,0:0:0:0:
256,192,143889,1,8,0:0:0:0:
256,192,144203,1,0,0:0:0:0:
256,192,144517,1,8,0:0:0:0:
256,192,144674,1,0,0:0:0:0:
256,192,145145,1,8,0:0:0:0:
256,192,145617,1,0,0:0:0:0:
256,192,145774,1,0,0:0:0:0:
256,192,146245,1,8,0:0:0:0:
256,192,146402,1,0,0:0:0:0:
256,192,146716,1,0,0:0:0:0:
256,192,146873,1,8,0:0:0:0:
256,192,147030,1,8,0:0:0:0:
256,192,147658,1,0,0:0:0:0:
256,192,148287,1,0,0:0:0:0:
256,192,148758,1,0,0:0:0:0:
256,192,148915,1,8,0:0:0:0:
256,192,149229,1,0,0:0:0:0:
256,192,149543,1,8,0:0:0:0:
256,192,149700,1,0,0:0:0:0:
256,192,150171,1,8,0:0:0:0:
256,192,150643,1,0,0:0:0:0:
256,192,150800,1,0,0:0:0:0:
256,192,151271,1,0,0:0:0:0:
256,192,151428,1,8,0:0:0:0:
256,192,151742,1,0,0:0:0:0:
256,192,151899,1,8,0:0:0:0:
256,192,152056,1,8,0:0:0:0:
256,192,152685,1,0,0:0:0:0:
256,192,153313,1,4,0:0:0:0:
256,192,153470,1,0,0:0:0:0:
256,192,153548,1,0,0:0:0:0:
256,192,153627,1,8,0:0:0:0:
256,192,153679,1,8,0:0:0:0:
256,192,153732,1,8,0:0:0:0:
256,192,153784,1,0,0:0:0:0:
256,192,153941,1,0,0:0:0:0:
256,192,154020,1,8,0:0:0:0:
256,192,154098,1,0,0:0:0:0:
256,192,154255,1,8,0:0:0:0:
256,192,154334,1,8,0:0:0:0:
256,192,154412,1,0,0:0:0:0:
256,192,154464,1,0,0:0:0:0:
256,192,154517,1,0,0:0:0:0:
256,192,154569,1,8,0:0:0:0:
256,192,154726,1,0,0:0:0:0:
256,192,154805,1,0,0:0:0:0:
256,192,154884,1,8,0:0:0:0:
256,192,154962,1,0,0:0:0:0:
256,192,155041,1,8,0:0:0:0:
256,192,155119,1,0,0:0:0:0:
256,192,155198,1,8,0:0:0:0:
256,192,155276,1,0,0:0:0:0:
256,192,155355,1,8,0:0:0:0:
256,192,155512,1,8,0:0:0:0:
256,192,155669,1,8,0:0:0:0:
256,192,155826,1,0,0:0:0:0:
256,192,156140,1,8,0:0:0:0:
256,192,156297,1,8,0:0:0:0:
256,192,156376,1,8,0:0:0:0:
256,192,156454,1,0,0:0:0:0:
256,192,156533,1,0,0:0:0:0:
256,192,156611,1,8,0:0:0:0:
256,192,156690,1,8,0:0:0:0:
256,192,156768,1,8,0:0:0:0:
256,192,156847,1,8,0:0:0:0:
256,192,156925,1,0,0:0:0:0:
256,192,156978,1,8,0:0:0:0:
256,192,157030,1,8,0:0:0:0:
256,192,157082,1,0,0:0:0:0:
256,192,157240,1,0,0:0:0:0:
256,192,157318,1,8,0:0:0:0:
256,192,157397,1,0,0:0:0:0:
256,192,157475,1,0,0:0:0:0:
256,192,157554,1,8,0:0:0:0:
256,192,157632,1,8,0:0:0:0:
256,192,157711,1,8,0:0:0:0:
256,192,157789,1,0,0:0:0:0:
256,192,157868,1,8,0:0:0:0:
256,192,157946,1,0,0:0:0:0:
256,192,158025,1,8,0:0:0:0:
256,192,158182,1,0,0:0:0:0:
256,192,158339,1,8,0:0:0:0:
256,192,158496,1,0,0:0:0:0:
256,192,158575,1,0,0:0:0:0:
256,192,158653,1,8,0:0:0:0:
256,192,158706,1,8,0:0:0:0:
256,192,158758,1,8,0:0:0:0:
256,192,158810,1,0,0:0:0:0:
256,192,158967,1,0,0:0:0:0:
256,192,159046,1,8,0:0:0:0:
256,192,159124,1,0,0:0:0:0:
256,192,159281,1,0,0:0:0:0:
256,192,159360,1,0,0:0:0:0:
256,192,159438,1,8,0:0:0:0:
256,192,159491,1,8,0:0:0:0:
256,192,159543,1,8,0:0:0:0:
256,192,159596,1,0,0:0:0:0:
256,192,159674,1,0,0:0:0:0:
256,192,159753,1,8,0:0:0:0:
256,192,159831,1,8,0:0:0:0:
256,192,159910,1,0,0:0:0:0:
256,192,159988,1,0,0:0:0:0:
256,192,160067,1,8,0:0:0:0:
256,192,160145,1,0,0:0:0:0:
256,192,160224,1,8,0:0:0:0:
256,192,160302,1,0,0:0:0:0:
256,192,160381,1,8,0:0:0:0:
256,192,160538,1,8,0:0:0:0:
256,192,160695,1,0,0:0:0:0:
256,192,160852,1,0,0:0:0:0:
256,192,161166,1,8,0:0:0:0:
256,192,161323,1,0,0:0:0:0:
256,192,161402,1,0,0:0:0:0:
256,192,161480,1,8,0:0:0:0:
256,192,161559,1,0,0:0:0:0:
256,192,161637,1,8,0:0:0:0:
256,192,161716,1,8,0:0:0:0:
256,192,161795,1,0,0:0:0:0:
256,192,161873,1,0,0:0:0:0:
256,192,161952,1,8,0:0:0:0:
256,192,162004,1,0,0:0:0:0:
256,192,162056,1,0,0:0:0:0:
256,192,162109,1,8,0:0:0:0:
256,192,162187,1,0,0:0:0:0:
256,192,162266,1,0,0:0:0:0:
256,192,162344,1,8,0:0:0:0:
256,192,162423,1,0,0:0:0:0:
256,192,162501,1,8,0:0:0:0:
256,192,162580,1,8,0:0:0:0:
256,192,162658,1,8,0:0:0:0:
256,192,162737,1,0,0:0:0:0:
256,192,163365,1,4,0:0:0:0:
256,192,163522,1,8,0:0:0:0:
256,192,163679,1,0,0:0:0:0:
256,192,163836,1,8,0:0:0:0:
256,192,163915,1,8,0:0:0:0:
256,192,163993,1,0,0:0:0:0:
256,192,164072,1,0,0:0:0:0:
256,192,164151,1,8,0:0:0:0:
256,192,164229,1,0,0:0:0:0:
256,192,164308,1,8,0:0:0:0:
256,192,164386,1,0,0:0:0:0:
256,192,164465,1,8,0:0:0:0:
256,192,164543,1,8,0:0:0:0:
256,192,164622,1,0,0:0:0:0:
256,192,164674,1,0,0:0:0:0:
256,192,164726,1,0,0:0:0:0:
256,192,164779,1,8,0:0:0:0:
256,192,164857,1,0,0:0:0:0:
256,192,164936,1,8,0:0:0:0:
256,192,165014,1,0,0:0:0:0:
256,192,165093,1,8,0:0:0:0:
256,192,165171,1,0,0:0:0:0:
256,192,165250,1,8,0:0:0:0:
256,192,165329,1,8,0:0:0:0:
256,192,165407,1,0,0:0:0:0:
256,192,165486,1,0,0:0:0:0:
256,192,165564,1,8,0:0:0:0:
256,192,165643,1,0,0:0:0:0:
256,192,165721,1,8,0:0:0:0:
256,192,165800,1,8,0:0:0:0:
256,192,165878,1,0,0:0:0:0:
256,192,166035,1,0,0:0:0:0:
256,192,166114,1,0,0:0:0:0:
256,192,166192,1,8,0:0:0:0:
256,192,166245,1,8,0:0:0:0:
256,192,166297,1,8,0:0:0:0:
256,192,166349,1,0,0:0:0:0:
256,192,166428,1,0,0:0:0:0:
256,192,166507,1,8,0:0:0:0:
256,192,166664,1,0,0:0:0:0:
256,192,166742,1,0,0:0:0:0:
256,192,166821,1,8,0:0:0:0:
256,192,166899,1,0,0:0:0:0:
256,192,166978,1,8,0:0:0:0:
256,192,167056,1,8,0:0:0:0:
256,192,167135,1,0,0:0:0:0:
256,192,167187,1,8,0:0:0:0:
256,192,167240,1,8,0:0:0:0:
256,192,167292,1,0,0:0:0:0:
256,192,167370,1,8,0:0:0:0:
256,192,167449,1,8,0:0:0:0:
256,192,167527,1,0,0:0:0:0:
256,192,167606,1,8,0:0:0:0:
256,192,167685,1,8,0:0:0:0:
256,192,167763,1,0,0:0:0:0:
256,192,167842,1,0,0:0:0:0:
256,192,167920,1,8,0:0:0:0:
256,192,167999,1,8,0:0:0:0:
256,192,168077,1,0,0:0:0:0:
256,192,168156,1,8,0:0:0:0:
256,192,168234,1,0,0:0:0:0:
256,192,168313,1,0,0:0:0:0:
256,192,168391,1,8,0:0:0:0:
256,192,168548,1,8,0:0:0:0:
256,192,168706,1,0,0:0:0:0:
256,192,168863,1,8,0:0:0:0:
256,192,168941,1,8,0:0:0:0:
256,192,169020,1,0,0:0:0:0:
256,192,169098,1,0,0:0:0:0:
256,192,169177,1,8,0:0:0:0:
256,192,169255,1,0,0:0:0:0:
256,192,169334,1,8,0:0:0:0:
256,192,169412,1,8,0:0:0:0:
256,192,169491,1,0,0:0:0:0:
256,192,169569,1,0,0:0:0:0:
256,192,169648,1,8,0:0:0:0:
256,192,169700,1,0,0:0:0:0:
256,192,169753,1,0,0:0:0:0:
256,192,169805,1,8,0:0:0:0:
256,192,169884,1,0,0:0:0:0:
256,192,169962,1,0,0:0:0:0:
256,192,170041,1,8,0:0:0:0:
256,192,170119,1,8,0:0:0:0:
256,192,170198,1,0,0:0:0:0:
256,192,170276,1,8,0:0:0:0:
256,192,170355,1,8,0:0:0:0:
256,192,170433,1,0,0:0:0:0:
256,192,170512,1,0,0:0:0:0:
256,192,170590,1,8,0:0:0:0:
256,192,170669,1,0,0:0:0:0:
256,192,170747,1,8,0:0:0:0:
256,192,170826,1,8,0:0:0:0:
256,192,170904,1,0,0:0:0:0:
256,192,171062,1,0,0:0:0:0:
256,192,171140,1,0,0:0:0:0:
256,192,171219,1,8,0:0:0:0:
256,192,171271,1,8,0:0:0:0:
256,192,171323,1,8,0:0:0:0:
256,192,171376,1,8,0:0:0:0:
256,192,171454,1,8,0:0:0:0:
256,192,171533,1,0,0:0:0:0:
256,192,171690,1,0,0:0:0:0:
256,192,171768,1,0,0:0:0:0:
256,192,171847,1,8,0:0:0:0:
256,192,171925,1,0,0:0:0:0:
256,192,172004,1,8,0:0:0:0:
256,192,172082,1,0,0:0:0:0:
256,192,172161,1,8,0:0:0:0:
256,192,172213,1,8,0:0:0:0:
256,192,172266,1,8,0:0:0:0:
256,192,172318,1,0,0:0:0:0:
256,192,172397,1,0,0:0:0:0:
256,192,172475,1,8,0:0:0:0:
256,192,172632,1,8,0:0:0:0:
256,192,172789,5,8,0:0:0:0:
256,192,173418,5,4,0:0:0:0:
256,192,174674,1,8,0:0:0:0:
256,192,175302,1,8,0:0:0:0:
256,192,175931,1,0,0:0:0:0:
256,192,177187,1,0,0:0:0:0:
256,192,177815,1,8,0:0:0:0:
256,192,178444,1,8,0:0:0:0:
256,192,179700,1,8,0:0:0:0:
256,192,180329,1,8,0:0:0:0:
256,192,180957,1,0,0:0:0:0:
256,192,182213,1,0,0:0:0:0:
256,192,183470,1,8,0:0:0:0:
256,192,184726,1,8,0:0:0:0:
256,192,185355,1,0,0:0:0:0:
256,192,185983,1,0,0:0:0:0:
256,192,187240,1,0,0:0:0:0:
256,192,187868,1,0,0:0:0:0:
256,192,188496,1,8,0:0:0:0:
256,192,189753,1,8,0:0:0:0:
256,192,190381,1,8,0:0:0:0:
256,192,191009,1,0,0:0:0:0:
256,192,192266,12,0,193208,0:0:0:0:
256,192,193522,5,4,0:0:0:0:
256,192,193836,1,8,0:0:0:0:
256,192,194072,1,0,0:0:0:0:
256,192,194111,1,0,0:0:0:0:
256,192,194151,1,8,0:0:0:0:
256,192,194386,1,8,0:0:0:0:
256,192,194622,1,8,0:0:0:0:
256,192,194857,1,8,0:0:0:0:
256,192,195093,1,8,0:0:0:0:
256,192,195329,1,8,0:0:0:0:
256,192,195564,1,8,0:0:0:0:
256,192,195721,1,8,0:0:0:0:
256,192,195800,1,8,0:0:0:0:
256,192,195878,1,0,0:0:0:0:
256,192,196035,1,12,0:0:0:0:
256,192,196349,1,8,0:0:0:0:
256,192,196507,1,0,0:0:0:0:
256,192,196585,1,8,0:0:0:0:
256,192,196664,1,0,0:0:0:0:
256,192,196742,1,0,0:0:0:0:
256,192,196821,1,8,0:0:0:0:
256,192,196978,1,8,0:0:0:0:
256,192,197135,1,8,0:0:0:0:
256,192,197213,1,8,0:0:0:0:
256,192,197292,1,0,0:0:0:0:
256,192,197449,1,0,0:0:0:0:
256,192,197606,1,8,0:0:0:0:
256,192,197763,1,0,0:0:0:0:
256,192,197842,1,0,0:0:0:0:
256,192,197920,1,8,0:0:0:0:
256,192,197999,1,0,0:0:0:0:
256,192,198077,1,0,0:0:0:0:
256,192,198156,1,8,0:0:0:0:
256,192,198234,1,8,0:0:0:0:
256,192,198391,1,8,0:0:0:0:
256,192,198470,1,8,0:0:0:0:
256,192,198548,1,0,0:0:0:0:
256,192,198627,1,8,0:0:0:0:
256,192,198706,1,0,0:0:0:0:
256,192,198863,1,8,0:0:0:0:
256,192,199020,1,0,0:0:0:0:
256,192,199098,1,8,0:0:0:0:
256,192,199177,1,8,0:0:0:0:
256,192,199255,1,8,0:0:0:0:
256,192,199334,1,0,0:0:0:0:
256,192,199491,1,8,0:0:0:0:
256,192,199648,1,8,0:0:0:0:
256,192,199726,1,0,0:0:0:0:
256,192,199805,1,8,0:0:0:0:
256,192,199884,1,8,0:0:0:0:
256,192,199962,1,0,0:0:0:0:
256,192,200041,1,0,0:0:0:0:
256,192,200119,1,8,0:0:0:0:
256,192,200276,1,0,0:0:0:0:
256,192,200355,1,0,0:0:0:0:
256,192,200433,1,8,0:0:0:0:
256,192,200512,1,0,0:0:0:0:
256,192,200669,1,0,0:0:0:0:
256,192,200747,1,8,0:0:0:0:
256,192,200904,1,8,0:0:0:0:
256,192,200983,1,8,0:0:0:0:
256,192,201062,1,0,0:0:0:0:
256,192,201219,1,0,0:0:0:0:
256,192,201376,1,8,0:0:0:0:
256,192,201533,1,8,0:0:0:0:
256,192,201611,1,0,0:0:0:0:
256,192,201690,1,8,0:0:0:0:
256,192,201847,1,0,0:0:0:0:
256,192,202003,5,8,0:0:0:0:
256,192,202161,1,8,0:0:0:0:
256,192,202240,1,8,0:0:0:0:
256,192,202317,1,0,0:0:0:0:
256,192,202474,5,8,0:0:0:0:
256,192,202553,1,0,0:0:0:0:
256,192,202631,1,0,0:0:0:0:
256,192,202710,1,8,0:0:0:0:
256,192,202789,1,0,0:0:0:0:
256,192,202945,1,8,0:0:0:0:
256,192,203025,1,0,0:0:0:0:
256,192,203103,1,8,0:0:0:0:
256,192,203260,1,0,0:0:0:0:
256,192,203417,1,8,0:0:0:0:
256,192,203495,1,8,0:0:0:0:
256,192,203574,1,0,0:0:0:0:
256,192,203889,1,8,0:0:0:0:
256,192,204046,1,8,0:0:0:0:
256,192,204124,1,8,0:0:0:0:
256,192,204203,1,0,0:0:0:0:
256,192,204281,1,8,0:0:0:0:
256,192,204360,1,0,0:0:0:0:
256,192,204438,1,0,0:0:0:0:
256,192,204517,1,8,0:0:0:0:
256,192,204674,1,0,0:0:0:0:
256,192,204753,1,0,0:0:0:0:
256,192,204831,1,8,0:0:0:0:
256,192,204910,1,8,0:0:0:0:
256,192,204988,1,0,0:0:0:0:
256,192,205145,1,8,0:0:0:0:
256,192,205302,1,8,0:0:0:0:
256,192,205381,1,0,0:0:0:0:
256,192,205459,1,8,0:0:0:0:
256,192,205538,1,8,0:0:0:0:
256,192,205617,1,0,0:0:0:0:
256,192,205695,1,0,0:0:0:0:
256,192,205774,1,8,0:0:0:0:
256,192,205931,1,8,0:0:0:0:
256,192,206009,1,8,0:0:0:0:
256,192,206088,1,0,0:0:0:0:
256,192,206166,1,8,0:0:0:0:
256,192,206245,1,0,0:0:0:0:
256,192,206402,1,8,0:0:0:0:
256,192,206559,1,0,0:0:0:0:
256,192,206637,1,0,0:0:0:0:
256,192,206716,1,0,0:0:0:0:
256,192,206795,1,8,0:0:0:0:
256,192,206873,1,0,0:0:0:0:
256,192,206952,1,0,0:0:0:0:
256,192,207030,1,8,0:0:0:0:
256,192,207187,1,8,0:0:0:0:
256,192,207266,1,0,0:0:0:0:
256,192,207344,1,8,0:0:0:0:
256,192,207423,1,8,0:0:0:0:
256,192,207580,1,0,0:0:0:0:
256,192,207658,1,8,0:0:0:0:
256,192,207815,1,8,0:0:0:0:
256,192,207894,1,0,0:0:0:0:
256,192,207973,1,0,0:0:0:0:
256,192,208051,1,8,0:0:0:0:
256,192,208130,1,0,0:0:0:0:
256,192,208208,1,8,0:0:0:0:
256,192,208287,1,8,0:0:0:0:
256,192,208444,1,8,0:0:0:0:
256,192,208522,1,8,0:0:0:0:
256,192,208601,1,0,0:0:0:0:
256,192,208758,1,0,0:0:0:0:
256,192,208836,1,0,0:0:0:0:
256,192,208915,1,8,0:0:0:0:
256,192,209072,1,0,0:0:0:0:
256,192,209151,1,0,0:0:0:0:
256,192,209229,1,8,0:0:0:0:
256,192,209308,1,0,0:0:0:0:
256,192,209386,1,8,0:0:0:0:
256,192,209465,1,8,0:0:0:0:
256,192,209543,1,8,0:0:0:0:
256,192,209700,1,8,0:0:0:0:
256,192,209857,1,0,0:0:0:0:
256,192,210014,1,0,0:0:0:0:
256,192,210093,1,8,0:0:0:0:
256,192,210171,1,8,0:0:0:0:
256,192,210329,1,8,0:0:0:0:
256,192,210407,1,8,0:0:0:0:
256,192,210486,1,0,0:0:0:0:
256,192,210564,1,0,0:0:0:0:
256,192,210643,1,8,0:0:0:0:
256,192,210721,1,0,0:0:0:0:
256,192,210800,1,8,0:0:0:0:
256,192,210957,1,8,0:0:0:0:
256,192,211035,1,8,0:0:0:0:
256,192,211113,5,0,0:0:0:0:
256,192,211270,1,0,0:0:0:0:
256,192,211349,1,0,0:0:0:0:
256,192,211427,1,8,0:0:0:0:
256,192,211584,1,0,0:0:0:0:
256,192,211741,1,8,0:0:0:0:
256,192,211820,1,8,0:0:0:0:
256,192,211898,1,0,0:0:0:0:
256,192,212055,1,8,0:0:0:0:
256,192,212212,1,8,0:0:0:0:
256,192,212371,1,0,0:0:0:0:
256,192,212999,5,0,0:0:0:0:
256,192,213312,1,0,0:0:0:0:
256,192,213627,1,12,0:0:0:0:
256,192,214255,1,8,0:0:0:0:
256,192,214569,1,8,0:0:0:0:
256,192,214727,1,8,0:0:0:0:
256,192,214883,1,0,0:0:0:0:
256,192,215355,1,8,0:0:0:0:
256,192,215511,1,0,0:0:0:0:
256,192,215826,1,8,0:0:0:0:
256,192,215983,1,0,0:0:0:0:
256,192,216139,1,8,0:0:0:0:
256,192,217239,1,8,0:0:0:0:
256,192,217396,1,0,0:0:0:0:
256,192,217868,1,0,0:0:0:0:
256,192,218024,1,8,0:0:0:0:
256,192,218339,1,0,0:0:0:0:
256,192,218653,1,8,0:0:0:0:
256,192,219439,1,0,0:0:0:0:
256,192,219596,1,0,0:0:0:0:
256,192,219753,1,8,0:0:0:0:
256,192,219909,1,8,0:0:0:0:
256,192,220381,1,8,0:0:0:0:
256,192,220537,1,0,0:0:0:0:
256,192,220851,1,8,0:0:0:0:
256,192,221009,1,0,0:0:0:0:
256,192,221165,1,0,0:0:0:0:
256,192,221323,1,8,0:0:0:0:
256,192,221638,1,0,0:0:0:0:
256,192,222108,1,0,0:0:0:0:
256,192,222265,1,8,0:0:0:0:
256,192,222423,1,8,0:0:0:0:
256,192,222894,1,8,0:0:0:0:
256,192,223050,1,0,0:0:0:0:
256,192,223208,1,8,0:0:0:0:
256,192,223522,1,8,0:0:0:0:
256,192,223679,1,0,0:0:0:0:
256,192,223994,1,0,0:0:0:0:
256,192,224151,1,0,0:0:0:0:
256,192,224307,1,8,0:0:0:0:
256,192,224465,1,0,0:0:0:0:
256,192,224622,1,0,0:0:0:0:
256,192,224779,1,8,0:0:0:0:
256,192,224935,1,0,0:0:0:0:
256,192,225407,1,8,0:0:0:0:
256,192,225564,1,0,0:0:0:0:
256,192,225878,1,8,0:0:0:0:
256,192,226035,1,8,0:0:0:0:
256,192,226193,1,0,0:0:0:0:
256,192,227291,1,8,0:0:0:0:
256,192,227448,1,0,0:0:0:0:
256,192,227920,1,0,0:0:0:0:
256,192,228076,1,8,0:0:0:0:
256,192,228234,1,0,0:0:0:0:
256,192,228549,1,0,0:0:0:0:
256,192,228705,1,8,0:0:0:0:
256,192,229019,1,0,0:0:0:0:
256,192,229176,1,8,0:0:0:0:
256,192,229333,1,0,0:0:0:0:
256,192,229491,1,0,0:0:0:0:
256,192,229647,1,8,0:0:0:0:
256,192,229804,1,8,0:0:0:0:
256,192,229961,1,0,0:0:0:0:
256,192,230276,1,0,0:0:0:0:
256,192,230433,1,0,0:0:0:0:
256,192,230589,1,8,0:0:0:0:
256,192,230904,1,8,0:0:0:0:
256,192,231218,1,0,0:0:0:0:
256,192,231689,1,0,0:0:0:0:
256,192,232160,1,0,0:0:0:0:
256,192,232474,1,8,0:0:0:0:
256,192,232632,1,0,0:0:0:0:
