osu file format v14

[General]
AudioFilename: audio.mp3
AudioLeadIn: 0
PreviewTime: 72501
Countdown: 0
SampleSet: Normal
StackLeniency: 0.7
Mode: 1
LetterboxInBreaks: 0
WidescreenStoryboard: 0

[Editor]
Bookmarks: 22632,42737,62842,72894,113104,133208,153313,173418,196035,213627,232632
DistanceSpacing: 0.4
BeatDivisor: 4
GridSize: 32
TimelineZoom: 1.399999

[Metadata]
Title:Koe
TitleUnicode:声
Artist:Feryquitous feat. Sennzai
ArtistUnicode:Feryquitous feat. Sennzai
Creator:_DUSK_
Version:Fapu's Muzukashii
Source:Deemo
Tags:Faputa Rhuzerv Irui Diverse System C93 comiket
BeatmapID:2006867
BeatmapSetID:934045

[Difficulty]
HPDrainRate:6
CircleSize:2
OverallDifficulty:5
ApproachRate:9
SliderMultiplier:1.4
SliderTickRate:1

[Events]
//Background and Video events
0,0,"Saikou.jpg",0,0
//Break Periods
//Storyboard Layer 0 (Background)
//Storyboard Layer 1 (Fail)
//Storyboard Layer 2 (Pass)
//Storyboard Layer 3 (Foreground)
//Storyboard Sound Samples

[TimingPoints]
15,314.13612565445,4,1,0,20,1,0
22632,-100,4,1,0,100,0,0
72894,-100,4,1,0,100,0,1
92999,-100,4,1,0,100,0,0
95512,-100,4,1,0,100,0,1
111847,-100,4,1,0,100,0,0
192187,-100,4,1,0,20,0,0
193522,-100,4,1,0,100,0,0
196035,-100,4,1,0,100,0,1
212371,-100,4,1,0,100,0,0

[HitObjects]
256,192,22632,5,12,0:0:0:0:
256,192,23104,1,0,0:0:0:0:
256,192,23261,1,8,0:0:0:0:
256,192,23418,1,8,0:0:0:0:
256,192,23575,1,0,0:0:0:0:
256,192,23889,1,8,0:0:0:0:
256,192,24046,1,0,0:0:0:0:
256,192,24360,1,0,0:0:0:0:
256,192,24517,1,8,0:0:0:0:
256,192,24674,1,0,0:0:0:0:
256,192,24831,1,8,0:0:0:0:
256,192,24988,1,8,0:0:0:0:
256,192,25145,1,8,0:0:0:0:
256,192,25617,1,0,0:0:0:0:
256,192,25774,1,8,0:0:0:0:
256,192,25931,1,8,0:0:0:0:
256,192,26088,1,0,0:0:0:0:
256,192,26402,1,8,0:0:0:0:
256,192,26559,1,0,0:0:0:0:
256,192,26873,1,0,0:0:0:0:
256,192,27030,1,12,0:0:0:0:
256,192,27344,1,12,0:0:0:0:
256,192,27658,1,4,0:0:0:0:
256,192,28130,1,8,0:0:0:0:
256,192,28287,1,0,0:0:0:0:
256,192,28444,1,8,0:0:0:0:
256,192,28601,1,0,0:0:0:0:
256,192,28915,1,0,0:0:0:0:
256,192,29072,1,8,0:0:0:0:
256,192,29386,1,8,0:0:0:0:
256,192,29543,1,0,0:0:0:0:
256,192,29700,1,8,0:0:0:0:
256,192,29857,1,8,0:0:0:0:
256,192,30014,1,8,0:0:0:0:
256,192,30172,1,0,0:0:0:0:
256,192,30643,1,8,0:0:0:0:
256,192,30800,1,0,0:0:0:0:
256,192,30957,1,8,0:0:0:0:
256,192,31114,1,0,0:0:0:0:
256,192,31428,1,12,0:0:0:0:
256,192,31899,1,0,0:0:0:0:
256,192,31978,1,0,0:0:0:0:
256,192,32056,1,0,0:0:0:0:
256,192,32213,1,8,0:0:0:0:
256,192,32528,1,8,0:0:0:0:
256,192,32685,1,4,0:0:0:0:
256,192,33156,1,0,0:0:0:0:
256,192,33313,1,8,0:0:0:0:
256,192,33470,1,8,0:0:0:0:
256,192,33627,1,0,0:0:0:0:
256,192,33941,1,8,0:0:0:0:
256,192,34255,1,0,0:0:0:0:
256,192,34412,1,8,0:0:0:0:
256,192,34569,1,8,0:0:0:0:
256,192,34727,1,0,0:0:0:0:
256,192,34884,1,8,0:0:0:0:
256,192,35198,1,0,0:0:0:0:
256,192,35669,1,8,0:0:0:0:
256,192,35826,1,0,0:0:0:0:
256,192,35983,1,8,0:0:0:0:
256,192,36140,1,0,0:0:0:0:
256,192,36454,1,8,0:0:0:0:
256,192,36768,1,0,0:0:0:0:
256,192,36925,1,8,0:0:0:0:
256,192,37083,1,4,0:0:0:0:
256,192,37397,1,4,0:0:0:0:
256,192,37711,1,12,0:0:0:0:
256,192,38182,1,8,0:0:0:0:
256,192,38339,1,0,0:0:0:0:
256,192,38496,1,0,0:0:0:0:
256,192,38653,1,8,0:0:0:0:
256,192,38967,1,0,0:0:0:0:
256,192,39282,1,8,0:0:0:0:
256,192,39439,1,8,0:0:0:0:
256,192,39596,1,0,0:0:0:0:
256,192,39753,1,8,0:0:0:0:
256,192,39910,1,0,0:0:0:0:
256,192,40224,1,8,0:0:0:0:
256,192,40695,1,0,0:0:0:0:
256,192,40852,1,8,0:0:0:0:
256,192,41009,1,0,0:0:0:0:
256,192,41166,1,8,0:0:0:0:
256,192,41480,1,0,0:0:0:0:
256,192,41638,1,0,0:0:0:0:
256,192,41952,1,0,0:0:0:0:
256,192,42266,1,8,0:0:0:0:
256,192,42737,1,4,0:0:0:0:
256,192,43365,1,8,0:0:0:0:
256,192,43994,1,8,0:0:0:0:
256,192,44622,1,0,0:0:0:0:
256,192,45250,1,8,0:0:0:0:
256,192,45878,1,0,0:0:0:0:
256,192,46507,1,8,0:0:0:0:
256,192,47135,1,0,0:0:0:0:
256,192,47449,1,0,0:0:0:0:
256,192,47763,1,8,0:0:0:0:
256,192,48391,1,8,0:0:0:0:
256,192,49020,1,0,0:0:0:0:
256,192,49648,1,8,0:0:0:0:
256,192,49962,1,0,0:0:0:0:
256,192,50276,1,8,0:0:0:0:
256,192,50905,1,8,0:0:0:0:
256,192,51533,1,8,0:0:0:0:
256,192,52161,1,0,0:0:0:0:
256,192,52475,1,0,0:0:0:0:
256,192,52789,1,8,0:0:0:0:
256,192,53261,1,0,0:0:0:0:
256,192,53418,1,8,0:0:0:0:
256,192,53732,1,0,0:0:0:0:
256,192,54046,1,8,0:0:0:0:
256,192,54517,1,0,0:0:0:0:
256,192,54674,1,8,0:0:0:0:
256,192,54831,1,0,0:0:0:0:
256,192,54988,1,0,0:0:0:0:
256,192,55302,1,8,0:0:0:0:
256,192,55774,1,0,0:0:0:0:
256,192,55931,1,8,0:0:0:0:
256,192,56245,1,0,0:0:0:0:
256,192,56402,1,0,0:0:0:0:
256,192,56559,1,8,0:0:0:0:
256,192,56873,1,0,0:0:0:0:
256,192,57187,1,8,0:0:0:0:
256,192,57344,1,0,0:0:0:0:
256,192,57658,1,0,0:0:0:0:
256,192,57816,1,0,0:0:0:0:
256,192,57973,1,8,0:0:0:0:
256,192,58444,1,8,0:0:0:0:
256,192,58758,1,0,0:0:0:0:
256,192,59072,1,8,0:0:0:0:
256,192,59229,1,8,0:0:0:0:
256,192,59543,1,0,0:0:0:0:
256,192,59700,1,8,0:0:0:0:
256,192,59857,1,0,0:0:0:0:
256,192,60014,1,0,0:0:0:0:
256,192,60329,1,8,0:0:0:0:
256,192,60486,1,0,0:0:0:0:
256,192,60957,1,8,0:0:0:0:
256,192,61271,1,0,0:0:0:0:
256,192,61428,1,0,0:0:0:0:
256,192,61585,1,8,0:0:0:0:
256,192,62213,1,0,0:0:0:0:
256,192,62842,1,12,0:0:0:0:
256,192,63470,1,0,0:0:0:0:
256,192,63627,1,8,0:0:0:0:
256,192,63784,1,8,0:0:0:0:
256,192,63941,1,0,0:0:0:0:
256,192,64098,1,8,0:0:0:0:
256,192,64255,1,8,0:0:0:0:
256,192,64569,1,8,0:0:0:0:
256,192,64727,1,8,0:0:0:0:
256,192,64884,1,0,0:0:0:0:
256,192,65041,1,8,0:0:0:0:
256,192,65198,1,0,0:0:0:0:
256,192,65355,1,8,0:0:0:0:
256,192,65669,1,0,0:0:0:0:
256,192,65826,1,0,0:0:0:0:
256,192,65983,1,8,0:0:0:0:
256,192,66140,1,8,0:0:0:0:
256,192,66297,1,0,0:0:0:0:
256,192,66454,1,8,0:0:0:0:
256,192,66611,1,0,0:0:0:0:
256,192,66925,1,8,0:0:0:0:
256,192,67083,1,8,0:0:0:0:
256,192,67240,1,8,0:0:0:0:
256,192,67397,1,0,0:0:0:0:
256,192,67554,1,8,0:0:0:0:
256,192,67868,1,12,0:0:0:0:
256,192,68496,1,0,0:0:0:0:
256,192,68653,1,8,0:0:0:0:
256,192,68810,1,8,0:0:0:0:
256,192,68967,1,0,0:0:0:0:
256,192,69124,1,8,0:0:0:0:
256,192,69282,1,0,0:0:0:0:
256,192,69596,1,8,0:0:0:0:
256,192,69753,1,0,0:0:0:0:
256,192,69910,1,0,0:0:0:0:
256,192,70067,1,8,0:0:0:0:
256,192,70224,1,8,0:0:0:0:
256,192,70381,1,0,0:0:0:0:
256,192,70695,1,0,0:0:0:0:
256,192,70852,1,0,0:0:0:0:
256,192,71009,1,8,0:0:0:0:
256,192,71166,1,8,0:0:0:0:
256,192,71323,1,0,0:0:0:0:
256,192,71480,1,8,0:0:0:0:
256,192,71638,1,0,0:0:0:0:
256,192,71952,1,8,0:0:0:0:
256,192,72109,1,8,0:0:0:0:
256,192,72266,1,8,0:0:0:0:
256,192,72894,1,4,0:0:0:0:
256,192,73365,1,8,0:0:0:0:
256,192,73679,1,0,0:0:0:0:
256,192,73836,1,8,0:0:0:0:
256,192,73994,1,8,0:0:0:0:
256,192,74151,1,0,0:0:0:0:
256,192,74465,1,8,0:0:0:0:
256,192,74622,1,0,0:0:0:0:
256,192,74936,1,8,0:0:0:0:
256,192,75093,1,8,0:0:0:0:
256,192,75250,1,0,0:0:0:0:
256,192,75407,1,8,0:0:0:0:
256,192,75878,1,0,0:0:0:0:
256,192,76035,1,8,0:0:0:0:
256,192,76193,1,8,0:0:0:0:
256,192,76350,1,0,0:0:0:0:
256,192,76507,1,8,0:0:0:0:
256,192,76664,1,0,0:0:0:0:
256,192,76978,1,0,0:0:0:0:
256,192,77135,1,8,0:0:0:0:
256,192,77449,1,0,0:0:0:0:
256,192,77528,1,0,0:0:0:0:
256,192,77606,1,0,0:0:0:0:
256,192,77763,1,8,0:0:0:0:
256,192,77920,1,0,0:0:0:0:
256,192,78234,1,8,0:0:0:0:
256,192,78549,1,0,0:0:0:0:
256,192,78706,1,0,0:0:0:0:
256,192,78863,1,8,0:0:0:0:
256,192,79020,1,8,0:0:0:0:
256,192,79177,1,0,0:0:0:0:
256,192,79491,1,8,0:0:0:0:
256,192,79648,1,0,0:0:0:0:
256,192,79805,1,8,0:0:0:0:
256,192,80119,1,8,0:0:0:0:
256,192,80433,1,0,0:0:0:0:
256,192,81062,1,0,0:0:0:0:
256,192,81376,1,8,0:0:0:0:
256,192,81533,1,0,0:0:0:0:
256,192,81690,1,8,0:0:0:0:
256,192,81847,1,0,0:0:0:0:
256,192,81925,1,0,0:0:0:0:
256,192,82083,1,0,0:0:0:0:
256,192,82161,1,0,0:0:0:0:
256,192,82318,1,8,0:0:0:0:
256,192,82632,1,8,0:0:0:0:
256,192,82946,1,0,0:0:0:0:
256,192,83575,1,8,0:0:0:0:
256,192,83889,1,8,0:0:0:0:
256,192,84046,1,8,0:0:0:0:
256,192,84203,1,0,0:0:0:0:
256,192,84517,1,8,0:0:0:0:
256,192,84674,1,0,0:0:0:0:
256,192,84831,1,8,0:0:0:0:
256,192,85145,1,8,0:0:0:0:
256,192,85302,1,8,0:0:0:0:
256,192,85460,1,0,0:0:0:0:
256,192,85774,1,8,0:0:0:0:
256,192,86088,1,0,0:0:0:0:
256,192,86245,1,0,0:0:0:0:
256,192,86402,1,8,0:0:0:0:
256,192,86716,1,0,0:0:0:0:
256,192,86873,1,8,0:0:0:0:
256,192,86952,1,8,0:0:0:0:
256,192,87030,1,8,0:0:0:0:
256,192,87187,1,0,0:0:0:0:
256,192,87501,1,0,0:0:0:0:
256,192,87580,1,0,0:0:0:0:
256,192,87658,1,0,0:0:0:0:
256,192,87816,1,8,0:0:0:0:
256,192,87973,1,0,0:0:0:0:
256,192,88130,1,8,0:0:0:0:
256,192,88287,1,8,0:0:0:0:
256,192,88601,1,0,0:0:0:0:
256,192,88758,1,8,0:0:0:0:
256,192,88836,1,8,0:0:0:0:
256,192,88915,1,8,0:0:0:0:
256,192,89072,1,8,0:0:0:0:
256,192,89229,1,0,0:0:0:0:
256,192,89857,1,8,0:0:0:0:
256,192,90172,1,8,0:0:0:0:
256,192,90486,1,0,0:0:0:0:
256,192,90800,1,8,0:0:0:0:
256,192,90957,1,0,0:0:0:0:
256,192,91271,1,0,0:0:0:0:
256,192,91428,1,8,0:0:0:0:
256,192,91585,1,8,0:0:0:0:
256,192,91742,1,0,0:0:0:0:
256,192,91899,1,8,0:0:0:0:
256,192,91978,1,8,0:0:0:0:
256,192,92135,1,8,0:0:0:0:
256,192,92213,1,8,0:0:0:0:
256,192,92371,1,0,0:0:0:0:
256,192,92685,1,8,0:0:0:0:
256,192,92763,1,8,0:0:0:0:
256,192,92842,1,8,0:0:0:0:
256,192,92999,1,4,0:0:0:0:
256,192,93313,1,8,0:0:0:0:
256,192,93627,1,0,0:0:0:0:
256,192,93863,1,0,0:0:0:0:
256,192,94098,1,8,0:0:0:0:
256,192,94334,1,8,0:0:0:0:
256,192,94569,1,0,0:0:0:0:
256,192,94805,1,0,0:0:0:0:
256,192,95041,1,8,0:0:0:0:
256,192,95198,1,0,0:0:0:0:
256,192,95512,1,12,0:0:0:0:
256,192,95983,1,0,0:0:0:0:
256,192,96140,1,8,0:0:0:0:
256,192,96297,1,8,0:0:0:0:
256,192,96454,1,0,0:0:0:0:
256,192,96611,1,8,0:0:0:0:
256,192,96768,1,0,0:0:0:0:
256,192,96925,1,8,0:0:0:0:
256,192,97004,1,8,0:0:0:0:
256,192,97083,1,8,0:0:0:0:
256,192,97240,1,0,0:0:0:0:
256,192,97397,1,8,0:0:0:0:
256,192,97711,1,0,0:0:0:0:
256,192,97868,1,0,0:0:0:0:
256,192,98025,1,8,0:0:0:0:
256,192,98339,1,0,0:0:0:0:
256,192,98653,1,8,0:0:0:0:
256,192,98810,1,8,0:0:0:0:
256,192,98967,1,0,0:0:0:0:
256,192,99124,1,8,0:0:0:0:
256,192,99282,1,8,0:0:0:0:
256,192,99439,1,0,0:0:0:0:
256,192,99517,1,0,0:0:0:0:
256,192,99596,1,0,0:0:0:0:
256,192,99753,1,0,0:0:0:0:
256,192,99910,1,8,0:0:0:0:
256,192,100224,1,8,0:0:0:0:
256,192,100538,1,0,0:0:0:0:
256,192,100852,1,8,0:0:0:0:
256,192,101009,1,0,0:0:0:0:
256,192,101166,1,8,0:0:0:0:
256,192,101480,1,8,0:0:0:0:
256,192,101638,1,8,0:0:0:0:
256,192,101795,1,0,0:0:0:0:
256,192,101952,1,8,0:0:0:0:
256,192,102030,1,8,0:0:0:0:
256,192,102187,1,8,0:0:0:0:
256,192,102266,1,8,0:0:0:0:
256,192,102423,1,0,0:0:0:0:
256,192,102737,1,8,0:0:0:0:
256,192,103051,1,0,0:0:0:0:
256,192,103679,1,8,0:0:0:0:
256,192,103994,1,8,0:0:0:0:
256,192,104151,1,8,0:0:0:0:
256,192,104308,1,0,0:0:0:0:
256,192,104465,1,8,0:0:0:0:
256,192,104543,1,8,0:0:0:0:
256,192,104622,1,8,0:0:0:0:
256,192,104779,1,0,0:0:0:0:
256,192,104936,1,8,0:0:0:0:
256,192,105250,1,8,0:0:0:0:
256,192,105564,1,0,0:0:0:0:
256,192,106193,1,8,0:0:0:0:
256,192,106350,1,0,0:0:0:0:
256,192,106507,1,8,0:0:0:0:
256,192,106821,1,0,0:0:0:0:
256,192,106978,1,8,0:0:0:0:
256,192,107056,1,8,0:0:0:0:
256,192,107135,1,8,0:0:0:0:
256,192,107292,1,0,0:0:0:0:
256,192,107606,1,0,0:0:0:0:
256,192,107685,1,0,0:0:0:0:
256,192,107763,1,0,0:0:0:0:
256,192,107920,1,8,0:0:0:0:
256,192,108077,1,0,0:0:0:0:
256,192,108391,1,8,0:0:0:0:
256,192,108706,1,0,0:0:0:0:
256,192,108863,1,8,0:0:0:0:
256,192,108941,1,8,0:0:0:0:
256,192,109020,1,8,0:0:0:0:
256,192,109177,1,8,0:0:0:0:
256,192,109334,1,0,0:0:0:0:
256,192,109962,1,8,0:0:0:0:
256,192,110276,1,8,0:0:0:0:
256,192,110590,1,0,0:0:0:0:
256,192,110905,1,8,0:0:0:0:
256,192,111219,1,0,0:0:0:0:
256,192,111376,1,0,0:0:0:0:
256,192,111533,1,8,0:0:0:0:
256,192,111690,1,0,0:0:0:0:
256,192,111847,1,8,0:0:0:0:
256,192,113104,1,12,0:0:0:0:
256,192,113575,1,0,0:0:0:0:
256,192,113732,1,8,0:0:0:0:
256,192,114046,1,0,0:0:0:0:
256,192,114203,1,0,0:0:0:0:
256,192,114517,1,8,0:0:0:0:
256,192,114674,1,0,0:0:0:0:
256,192,114753,1,0,0:0:0:0:
256,192,114831,1,0,0:0:0:0:
256,192,114988,1,8,0:0:0:0:
256,192,115145,1,8,0:0:0:0:
256,192,115302,1,0,0:0:0:0:
256,192,115617,1,8,0:0:0:0:
256,192,116088,1,0,0:0:0:0:
256,192,116245,1,8,0:0:0:0:
256,192,116559,1,0,0:0:0:0:
256,192,116873,1,8,0:0:0:0:
256,192,117030,1,8,0:0:0:0:
256,192,117344,1,0,0:0:0:0:
256,192,117501,1,8,0:0:0:0:
256,192,117658,1,8,0:0:0:0:
256,192,117816,1,0,0:0:0:0:
256,192,117973,1,8,0:0:0:0:
256,192,118287,1,8,0:0:0:0:
256,192,118758,1,8,0:0:0:0:
256,192,119072,1,0,0:0:0:0:
256,192,119151,1,0,0:0:0:0:
256,192,119229,1,0,0:0:0:0:
256,192,119386,1,8,0:0:0:0:
256,192,119543,1,8,0:0:0:0:
256,192,119857,1,0,0:0:0:0:
256,192,120014,1,8,0:0:0:0:
256,192,120172,1,0,0:0:0:0:
256,192,120329,1,8,0:0:0:0:
256,192,120486,1,8,0:0:0:0:
256,192,120800,1,0,0:0:0:0:
256,192,121271,1,8,0:0:0:0:
256,192,121585,1,8,0:0:0:0:
256,192,121742,1,0,0:0:0:0:
256,192,121899,1,8,0:0:0:0:
256,192,122056,1,0,0:0:0:0:
256,192,122135,1,0,0:0:0:0:
256,192,122213,1,0,0:0:0:0:
256,192,122371,1,8,0:0:0:0:
256,192,122528,1,0,0:0:0:0:
256,192,122685,1,0,0:0:0:0:
256,192,122999,1,0,0:0:0:0:
256,192,123156,1,12,0:0:0:0:
256,192,123627,1,0,0:0:0:0:
256,192,123784,1,8,0:0:0:0:
256,192,124098,1,0,0:0:0:0:
256,192,124255,1,0,0:0:0:0:
256,192,124569,1,8,0:0:0:0:
256,192,124727,1,0,0:0:0:0:
256,192,124805,1,0,0:0:0:0:
256,192,124884,1,0,0:0:0:0:
256,192,125041,1,8,0:0:0:0:
256,192,125198,1,8,0:0:0:0:
256,192,125355,1,0,0:0:0:0:
256,192,125669,1,8,0:0:0:0:
256,192,126140,1,0,0:0:0:0:
256,192,126297,1,8,0:0:0:0:
256,192,126611,1,0,0:0:0:0:
256,192,126925,1,8,0:0:0:0:
256,192,127083,1,8,0:0:0:0:
256,192,127397,1,0,0:0:0:0:
256,192,127554,1,8,0:0:0:0:
256,192,127711,1,8,0:0:0:0:
256,192,127868,1,0,0:0:0:0:
256,192,128025,1,8,0:0:0:0:
256,192,128339,1,8,0:0:0:0:
256,192,128810,1,8,0:0:0:0:
256,192,129124,1,0,0:0:0:0:
256,192,129203,1,0,0:0:0:0:
256,192,129282,1,0,0:0:0:0:
256,192,129439,1,8,0:0:0:0:
256,192,129596,1,8,0:0:0:0:
256,192,129910,1,0,0:0:0:0:
256,192,130067,1,8,0:0:0:0:
256,192,130224,1,0,0:0:0:0:
256,192,130381,1,8,0:0:0:0:
256,192,130538,1,8,0:0:0:0:
256,192,130852,1,0,0:0:0:0:
256,192,131323,1,8,0:0:0:0:
256,192,131638,1,8,0:0:0:0:
256,192,131795,1,0,0:0:0:0:
256,192,131952,1,8,0:0:0:0:
256,192,132109,1,0,0:0:0:0:
256,192,132187,1,0,0:0:0:0:
256,192,132266,1,0,0:0:0:0:
256,192,132423,1,8,0:0:0:0:
256,192,132580,1,0,0:0:0:0:
256,192,133208,1,4,0:0:0:0:
256,192,135721,1,8,0:0:0:0:
256,192,138234,1,8,0:0:0:0:
256,192,140747,1,0,0:0:0:0:
256,192,141376,1,0,0:0:0:0:
256,192,142004,1,8,0:0:0:0:
256,192,142318,1,0,0:0:0:0:
256,192,142632,1,8,0:0:0:0:
256,192,142946,1,8,0:0:0:0:
256,192,143261,1,0,0:0:0:0:
256,192,143889,1,8,0:0:0:0:
256,192,144517,1,8,0:0:0:0:
256,192,145145,1,0,0:0:0:0:
256,192,145774,1,8,0:0:0:0:
256,192,146402,1,0,0:0:0:0:
256,192,147030,1,8,0:0:0:0:
256,192,147658,1,0,0:0:0:0:
256,192,147973,1,0,0:0:0:0:
256,192,148287,1,8,0:0:0:0:
256,192,148915,1,8,0:0:0:0:
256,192,149543,1,0,0:0:0:0:
256,192,150172,1,8,0:0:0:0:
256,192,150800,1,8,0:0:0:0:
256,192,151428,1,8,0:0:0:0:
256,192,152056,1,8,0:0:0:0:
256,192,152685,1,0,0:0:0:0:
256,192,153313,1,12,0:0:0:0:
256,192,153627,1,0,0:0:0:0:
256,192,153784,1,8,0:0:0:0:
256,192,154098,1,0,0:0:0:0:
256,192,154255,1,8,0:0:0:0:
256,192,154569,1,0,0:0:0:0:
256,192,154727,1,8,0:0:0:0:
256,192,154884,1,0,0:0:0:0:
256,192,154962,1,0,0:0:0:0:
256,192,155041,1,0,0:0:0:0:
256,192,155198,1,8,0:0:0:0:
256,192,155826,1,4,0:0:0:0:
256,192,156140,1,8,0:0:0:0:
256,192,156297,1,0,0:0:0:0:
256,192,156611,1,8,0:0:0:0:
256,192,156768,1,0,0:0:0:0:
256,192,157083,1,8,0:0:0:0:
256,192,157240,1,0,0:0:0:0:
256,192,157397,1,8,0:0:0:0:
256,192,157475,1,8,0:0:0:0:
256,192,157554,1,8,0:0:0:0:
256,192,157711,1,0,0:0:0:0:
256,192,158339,1,12,0:0:0:0:
256,192,158653,1,0,0:0:0:0:
256,192,158810,1,8,0:0:0:0:
256,192,159124,1,8,0:0:0:0:
256,192,159282,1,0,0:0:0:0:
256,192,159596,1,0,0:0:0:0:
256,192,159753,1,8,0:0:0:0:
256,192,159910,1,8,0:0:0:0:
256,192,160067,1,0,0:0:0:0:
256,192,160224,1,8,0:0:0:0:
256,192,160302,1,8,0:0:0:0:
256,192,160381,1,8,0:0:0:0:
256,192,160538,1,8,0:0:0:0:
256,192,160852,1,4,0:0:0:0:
256,192,161166,1,8,0:0:0:0:
256,192,161323,1,0,0:0:0:0:
256,192,161638,1,0,0:0:0:0:
256,192,161795,1,8,0:0:0:0:
256,192,162109,1,8,0:0:0:0:
256,192,162266,1,0,0:0:0:0:
256,192,162423,1,8,0:0:0:0:
256,192,162501,1,8,0:0:0:0:
256,192,162580,1,8,0:0:0:0:
256,192,162737,1,0,0:0:0:0:
256,192,163365,1,12,0:0:0:0:
256,192,163994,1,0,0:0:0:0:
256,192,164151,1,8,0:0:0:0:
256,192,164308,1,8,0:0:0:0:
256,192,164465,1,0,0:0:0:0:
256,192,164622,1,8,0:0:0:0:
256,192,164936,1,0,0:0:0:0:
256,192,165093,1,0,0:0:0:0:
256,192,165250,1,8,0:0:0:0:
256,192,165407,1,8,0:0:0:0:
256,192,165564,1,8,0:0:0:0:
256,192,165721,1,0,0:0:0:0:
256,192,165878,1,12,0:0:0:0:
256,192,166507,1,0,0:0:0:0:
256,192,166664,1,8,0:0:0:0:
256,192,166821,1,8,0:0:0:0:
256,192,166978,1,0,0:0:0:0:
256,192,167135,1,8,0:0:0:0:
256,192,167449,1,8,0:0:0:0:
256,192,167606,1,8,0:0:0:0:
256,192,167763,1,8,0:0:0:0:
256,192,167920,1,0,0:0:0:0:
256,192,168077,1,8,0:0:0:0:
256,192,168234,1,8,0:0:0:0:
256,192,168391,1,4,0:0:0:0:
256,192,169020,1,8,0:0:0:0:
256,192,169177,1,8,0:0:0:0:
256,192,169334,1,0,0:0:0:0:
256,192,169491,1,8,0:0:0:0:
256,192,169648,1,0,0:0:0:0:
256,192,169962,1,8,0:0:0:0:
256,192,170119,1,0,0:0:0:0:
256,192,170276,1,8,0:0:0:0:
256,192,170433,1,8,0:0:0:0:
256,192,170590,1,0,0:0:0:0:
256,192,170747,1,8,0:0:0:0:
256,192,170905,1,4,0:0:0:0:
256,192,171533,1,8,0:0:0:0:
256,192,171690,1,8,0:0:0:0:
256,192,171847,1,0,0:0:0:0:
256,192,172004,1,8,0:0:0:0:
256,192,172161,1,0,0:0:0:0:
256,192,172475,1,8,0:0:0:0:
256,192,172632,1,8,0:0:0:0:
256,192,172789,1,8,0:0:0:0:
256,192,173418,1,12,0:0:0:0:
256,192,174674,1,0,0:0:0:0:
256,192,175302,1,0,0:0:0:0:
256,192,175931,1,0,0:0:0:0:
256,192,177187,1,0,0:0:0:0:
256,192,177816,1,8,0:0:0:0:
256,192,178444,1,8,0:0:0:0:
256,192,179700,1,0,0:0:0:0:
256,192,180329,1,8,0:0:0:0:
256,192,180957,1,8,0:0:0:0:
256,192,182213,1,0,0:0:0:0:
256,192,183470,1,0,0:0:0:0:
256,192,184727,1,8,0:0:0:0:
256,192,185355,1,8,0:0:0:0:
256,192,185983,1,0,0:0:0:0:
256,192,187240,1,8,0:0:0:0:
256,192,187868,1,8,0:0:0:0:
256,192,188496,1,8,0:0:0:0:
256,192,189753,1,0,0:0:0:0:
256,192,190381,1,8,0:0:0:0:
256,192,191009,1,8,0:0:0:0:
256,192,193522,1,4,0:0:0:0:
256,192,193836,1,8,0:0:0:0:
256,192,194151,1,0,0:0:0:0:
256,192,194386,1,0,0:0:0:0:
256,192,194622,1,8,0:0:0:0:
256,192,194857,1,8,0:0:0:0:
256,192,195093,1,0,0:0:0:0:
256,192,195329,1,0,0:0:0:0:
256,192,195564,1,8,0:0:0:0:
256,192,195721,1,0,0:0:0:0:
256,192,196035,1,12,0:0:0:0:
256,192,196507,1,0,0:0:0:0:
256,192,196664,1,8,0:0:0:0:
256,192,196821,1,8,0:0:0:0:
256,192,196978,1,0,0:0:0:0:
256,192,197135,1,8,0:0:0:0:
256,192,197292,1,0,0:0:0:0:
256,192,197449,1,8,0:0:0:0:
256,192,197528,1,8,0:0:0:0:
256,192,197606,1,8,0:0:0:0:
256,192,197763,1,8,0:0:0:0:
256,192,197920,1,0,0:0:0:0:
256,192,198234,1,0,0:0:0:0:
256,192,198391,1,0,0:0:0:0:
256,192,198549,1,8,0:0:0:0:
256,192,198863,1,0,0:0:0:0:
256,192,199177,1,8,0:0:0:0:
256,192,199334,1,8,0:0:0:0:
256,192,199491,1,0,0:0:0:0:
256,192,199648,1,8,0:0:0:0:
256,192,199805,1,8,0:0:0:0:
256,192,199962,1,0,0:0:0:0:
256,192,200041,1,0,0:0:0:0:
256,192,200119,1,0,0:0:0:0:
256,192,200276,1,0,0:0:0:0:
256,192,200433,1,8,0:0:0:0:
256,192,200747,1,8,0:0:0:0:
256,192,201062,1,0,0:0:0:0:
256,192,201376,1,8,0:0:0:0:
256,192,201533,1,0,0:0:0:0:
256,192,201690,1,8,0:0:0:0:
256,192,202004,1,8,0:0:0:0:
256,192,202161,1,8,0:0:0:0:
256,192,202318,1,0,0:0:0:0:
256,192,202475,1,8,0:0:0:0:
256,192,202554,1,8,0:0:0:0:
256,192,202711,1,8,0:0:0:0:
256,192,202789,1,8,0:0:0:0:
256,192,202946,1,0,0:0:0:0:
256,192,203261,1,8,0:0:0:0:
256,192,203575,1,0,0:0:0:0:
256,192,204203,1,8,0:0:0:0:
256,192,204517,1,8,0:0:0:0:
256,192,204674,1,8,0:0:0:0:
256,192,204831,1,0,0:0:0:0:
256,192,204988,1,8,0:0:0:0:
256,192,205067,1,8,0:0:0:0:
256,192,205145,1,8,0:0:0:0:
256,192,205302,1,0,0:0:0:0:
256,192,205460,1,8,0:0:0:0:
256,192,205774,1,8,0:0:0:0:
256,192,206088,1,0,0:0:0:0:
256,192,206716,1,8,0:0:0:0:
256,192,206873,1,0,0:0:0:0:
256,192,207030,1,8,0:0:0:0:
256,192,207344,1,0,0:0:0:0:
256,192,207501,1,8,0:0:0:0:
256,192,207580,1,8,0:0:0:0:
256,192,207658,1,8,0:0:0:0:
256,192,207816,1,0,0:0:0:0:
256,192,208130,1,0,0:0:0:0:
256,192,208208,1,0,0:0:0:0:
256,192,208287,1,0,0:0:0:0:
256,192,208444,1,8,0:0:0:0:
256,192,208601,1,0,0:0:0:0:
256,192,208915,1,8,0:0:0:0:
256,192,209229,1,0,0:0:0:0:
256,192,209386,1,8,0:0:0:0:
256,192,209465,1,8,0:0:0:0:
256,192,209543,1,8,0:0:0:0:
256,192,209700,1,8,0:0:0:0:
256,192,209857,1,0,0:0:0:0:
256,192,210486,1,8,0:0:0:0:
256,192,210800,1,8,0:0:0:0:
256,192,211114,1,0,0:0:0:0:
256,192,211428,1,8,0:0:0:0:
256,192,211742,1,0,0:0:0:0:
256,192,211899,1,0,0:0:0:0:
256,192,212056,1,8,0:0:0:0:
256,192,212213,1,0,0:0:0:0:
256,192,212371,1,8,0:0:0:0:
256,192,212999,1,0,0:0:0:0:
256,192,213313,1,0,0:0:0:0:
256,192,213627,1,12,0:0:0:0:
256,192,214255,1,8,0:0:0:0:
256,192,214884,1,8,0:0:0:0:
256,192,215512,1,0,0:0:0:0:
256,192,215826,1,0,0:0:0:0:
256,192,216140,1,8,0:0:0:0:
256,192,217240,1,8,0:0:0:0:
256,192,218025,1,8,0:0:0:0:
256,192,218653,1,0,0:0:0:0:
256,192,219439,1,0,0:0:0:0:
256,192,219596,1,8,0:0:0:0:
256,192,219753,1,8,0:0:0:0:
256,192,220538,1,0,0:0:0:0:
256,192,220852,1,8,0:0:0:0:
256,192,221166,1,0,0:0:0:0:
256,192,222109,1,0,0:0:0:0:
256,192,222266,1,8,0:0:0:0:
256,192,223051,1,0,0:0:0:0:
256,192,223365,1,0,0:0:0:0:
256,192,223679,1,8,0:0:0:0:
256,192,224308,1,8,0:0:0:0:
256,192,224936,1,0,0:0:0:0:
256,192,225564,1,8,0:0:0:0:
256,192,225878,1,8,0:0:0:0:
256,192,226193,1,0,0:0:0:0:
256,192,227292,1,8,0:0:0:0:
256,192,227449,1,0,0:0:0:0:
256,192,228077,1,8,0:0:0:0:
256,192,228706,1,8,0:0:0:0:
256,192,229491,1,0,0:0:0:0:
256,192,229648,1,8,0:0:0:0:
256,192,229805,1,8,0:0:0:0:
256,192,229962,1,0,0:0:0:0:
256,192,230590,1,8,0:0:0:0:
256,192,230905,1,8,0:0:0:0:
256,192,231219,1,0,0:0:0:0:
256,192,232475,1,8,0:0:0:0:
