osu file format v14

[General]
AudioFilename: audio.mp3
AudioLeadIn: 0
PreviewTime: 173102
Countdown: 0
SampleSet: Normal
StackLeniency: 0.7
Mode: 1
LetterboxInBreaks: 0
WidescreenStoryboard: 1

[Editor]
DistanceSpacing: 0.4
BeatDivisor: 4
GridSize: 32
TimelineZoom: 3.499999

[Metadata]
Title:Koe
TitleUnicode:声
Artist:Feryquitous feat. Sennzai
ArtistUnicode:Feryquitous feat. Sennzai
Creator:Skull Kid
Version:Oni
Source:Deemo
Tags:Rhuzerv Irui Diverse System C93 comiket eae Hirok Axer
BeatmapID:2071799
BeatmapSetID:958909

[Difficulty]
HPDrainRate:6
CircleSize:4
OverallDifficulty:5
ApproachRate:9
SliderMultiplier:1.4
SliderTickRate:1

[Events]
//Background and Video events
0,0,"BG.jpg",0,60
//Break Periods
2,133407,142659
//Storyboard Layer 0 (Background)
//Storyboard Layer 1 (Fail)
//Storyboard Layer 2 (Pass)
//Storyboard Layer 3 (Foreground)
//Storyboard Layer 4 (Overlay)
//Storyboard Sound Samples

[TimingPoints]
2527,314.13612565445,4,1,0,40,1,0
2527,-125,4,1,0,40,0,0
12579,-111.111111111111,4,1,0,50,0,0
22317,-100,4,1,0,75,0,0
42736,-111.111111111111,4,1,0,75,0,0
43050,-111.111111111111,4,1,0,65,0,0
52474,-111.111111111111,4,1,0,70,0,0
61898,-111.111111111111,4,1,0,50,0,0
62684,-100,4,1,0,90,0,0
72579,-100,4,1,0,80,0,0
72893,-100,4,1,0,80,0,1
92998,-100,4,1,0,80,0,0
95511,-100,4,1,0,80,0,1
111846,-100,4,1,0,80,0,0
112788,-100,4,1,0,75,0,0
132893,-100,4,1,0,70,0,0
133364,-102.564102564103,4,1,0,50,0,0
135720,-105.263157894737,4,1,0,50,0,0
136977,-108.108108108108,4,1,0,50,0,0
138233,-111.111111111111,4,1,0,50,0,0
139490,-114.285714285714,4,1,0,50,0,0
140746,-117.647058823529,4,1,0,50,0,0
142003,-121.212121212121,4,1,0,50,0,0
143259,-125,4,1,0,50,0,0
153155,-100,4,1,0,90,0,0
173102,-100,4,1,0,80,0,0
173731,-125,4,1,0,50,0,0
193364,-100,4,1,0,80,0,0
196034,-100,4,1,0,80,0,1
212369,-100,4,1,0,80,0,0
212684,-100,4,1,0,70,0,0

[HitObjects]
256,192,2527,5,0,0:0:0:0:
256,192,2684,1,8,0:0:0:0:
256,192,3940,1,8,0:0:0:0:
256,192,4883,1,8,0:0:0:0:
256,192,5197,1,0,0:0:0:0:
256,192,6453,1,8,0:0:0:0:
256,192,6924,1,8,0:0:0:0:
256,192,7081,1,8,0:0:0:0:
256,192,7239,1,0,0:0:0:0:
256,192,7396,1,8,0:0:0:0:
256,192,7710,1,0,0:0:0:0:
256,192,8966,1,8,0:0:0:0:
256,192,9909,1,8,0:0:0:0:
256,192,10223,1,0,0:0:0:0:
256,192,11479,1,8,0:0:0:0:
256,192,11951,1,8,0:0:0:0:
256,192,12108,1,8,0:0:0:0:
256,192,12265,1,0,0:0:0:0:
256,192,12422,1,8,0:0:0:0:
256,192,12736,1,0,0:0:0:0:
256,192,13992,1,8,0:0:0:0:
256,192,14935,1,8,0:0:0:0:
256,192,15249,1,0,0:0:0:0:
256,192,16506,1,8,0:0:0:0:
256,192,16977,1,8,0:0:0:0:
256,192,17134,1,8,0:0:0:0:
256,192,17291,1,0,0:0:0:0:
256,192,17448,1,8,0:0:0:0:
256,192,17762,1,0,0:0:0:0:
256,192,19019,1,8,0:0:0:0:
256,192,19961,1,8,0:0:0:0:
256,192,22631,1,4,0:0:0:0:
256,192,22788,1,8,0:0:0:0:
256,192,22867,1,8,0:0:0:0:
256,192,22945,1,0,0:0:0:0:
256,192,23102,1,8,0:0:0:0:
256,192,23259,1,0,0:0:0:0:
256,192,23417,1,0,0:0:0:0:
256,192,23574,1,8,0:0:0:0:
256,192,23888,1,0,0:0:0:0:
256,192,24045,1,0,0:0:0:0:
256,192,24359,1,8,0:0:0:0:
256,192,24516,1,0,0:0:0:0:
256,192,24673,1,0,0:0:0:0:
256,192,24752,1,0,0:0:0:0:
256,192,24830,1,8,0:0:0:0:
256,192,24987,1,8,0:0:0:0:
256,192,25144,1,0,0:0:0:0:
256,192,25301,1,8,0:0:0:0:
256,192,25380,1,8,0:0:0:0:
256,192,25458,1,0,0:0:0:0:
256,192,25616,1,8,0:0:0:0:
256,192,25773,1,0,0:0:0:0:
256,192,25930,1,0,0:0:0:0:
256,192,26087,1,8,0:0:0:0:
256,192,26401,1,0,0:0:0:0:
256,192,26558,1,8,0:0:0:0:
256,192,26636,1,8,0:0:0:0:
256,192,26715,1,0,0:0:0:0:
256,192,26872,1,0,0:0:0:0:
256,192,27029,1,8,0:0:0:0:
256,192,27343,1,0,0:0:0:0:
256,192,27500,1,8,0:0:0:0:
256,192,27657,1,0,0:0:0:0:
256,192,27814,1,8,0:0:0:0:
256,192,27893,1,8,0:0:0:0:
256,192,27972,1,0,0:0:0:0:
256,192,28129,1,8,0:0:0:0:
256,192,28286,1,0,0:0:0:0:
256,192,28443,1,0,0:0:0:0:
256,192,28600,1,8,0:0:0:0:
256,192,28914,1,0,0:0:0:0:
256,192,29071,1,0,0:0:0:0:
256,192,29385,1,8,0:0:0:0:
256,192,29542,1,0,0:0:0:0:
256,192,29699,1,0,0:0:0:0:
256,192,29778,1,0,0:0:0:0:
256,192,29856,1,8,0:0:0:0:
256,192,30013,1,8,0:0:0:0:
256,192,30170,1,0,0:0:0:0:
256,192,30328,1,8,0:0:0:0:
256,192,30406,1,8,0:0:0:0:
256,192,30485,1,0,0:0:0:0:
256,192,30642,1,8,0:0:0:0:
256,192,30799,1,0,0:0:0:0:
256,192,30956,1,0,0:0:0:0:
256,192,31113,1,8,0:0:0:0:
256,192,31427,1,0,0:0:0:0:
256,192,31584,1,8,0:0:0:0:
256,192,31663,1,8,0:0:0:0:
256,192,31741,1,0,0:0:0:0:
256,192,31820,1,0,0:0:0:0:
256,192,31898,1,8,0:0:0:0:
256,192,32055,1,0,0:0:0:0:
256,192,32212,1,8,0:0:0:0:
256,192,32526,1,8,0:0:0:0:
256,192,32684,1,4,0:0:0:0:
256,192,32841,1,8,0:0:0:0:
256,192,32919,1,8,0:0:0:0:
256,192,32998,1,0,0:0:0:0:
256,192,33155,1,8,0:0:0:0:
256,192,33312,1,0,0:0:0:0:
256,192,33469,1,0,0:0:0:0:
256,192,33626,1,8,0:0:0:0:
256,192,33940,1,0,0:0:0:0:
256,192,34097,1,0,0:0:0:0:
256,192,34411,1,8,0:0:0:0:
256,192,34568,1,0,0:0:0:0:
256,192,34725,1,0,0:0:0:0:
256,192,34804,1,0,0:0:0:0:
256,192,34883,1,8,0:0:0:0:
256,192,35040,1,8,0:0:0:0:
256,192,35197,1,0,0:0:0:0:
256,192,35354,1,8,0:0:0:0:
256,192,35432,1,8,0:0:0:0:
256,192,35511,1,0,0:0:0:0:
256,192,35668,1,8,0:0:0:0:
256,192,35825,1,0,0:0:0:0:
256,192,35982,1,0,0:0:0:0:
256,192,36139,1,8,0:0:0:0:
256,192,36453,1,0,0:0:0:0:
256,192,36610,1,8,0:0:0:0:
256,192,36689,1,8,0:0:0:0:
256,192,36767,1,0,0:0:0:0:
256,192,36924,1,0,0:0:0:0:
256,192,37081,1,8,0:0:0:0:
256,192,37396,1,0,0:0:0:0:
256,192,37553,1,8,0:0:0:0:
256,192,37710,1,0,0:0:0:0:
256,192,37867,1,8,0:0:0:0:
256,192,37945,1,8,0:0:0:0:
256,192,38024,1,0,0:0:0:0:
256,192,38181,1,8,0:0:0:0:
256,192,38338,1,0,0:0:0:0:
256,192,38495,1,0,0:0:0:0:
256,192,38652,1,8,0:0:0:0:
256,192,38966,1,0,0:0:0:0:
256,192,39123,1,0,0:0:0:0:
256,192,39437,1,8,0:0:0:0:
256,192,39595,1,0,0:0:0:0:
256,192,39752,1,0,0:0:0:0:
256,192,39830,1,0,0:0:0:0:
256,192,39909,1,8,0:0:0:0:
256,192,40066,1,8,0:0:0:0:
256,192,40223,1,0,0:0:0:0:
256,192,40380,1,8,0:0:0:0:
256,192,40458,1,8,0:0:0:0:
256,192,40537,1,0,0:0:0:0:
256,192,40694,1,8,0:0:0:0:
256,192,40851,1,0,0:0:0:0:
256,192,41008,1,0,0:0:0:0:
256,192,41165,1,8,0:0:0:0:
256,192,41479,1,0,0:0:0:0:
256,192,41636,1,8,0:0:0:0:
256,192,41715,1,8,0:0:0:0:
256,192,41794,1,0,0:0:0:0:
256,192,41951,1,8,0:0:0:0:
256,192,42265,1,0,0:0:0:0:
256,192,42736,1,4,0:0:0:0:
256,192,43207,1,0,0:0:0:0:
256,192,43364,1,8,0:0:0:0:
256,192,43678,1,0,0:0:0:0:
256,192,43835,1,8,0:0:0:0:
256,192,43992,1,0,0:0:0:0:
256,192,44150,1,8,0:0:0:0:
256,192,44228,1,8,0:0:0:0:
256,192,44307,1,0,0:0:0:0:
256,192,44464,1,0,0:0:0:0:
256,192,44621,1,8,0:0:0:0:
256,192,44778,1,0,0:0:0:0:
256,192,44935,1,8,0:0:0:0:
256,192,45092,1,8,0:0:0:0:
256,192,45249,1,0,0:0:0:0:
256,192,45720,1,0,0:0:0:0:
256,192,45877,1,8,0:0:0:0:
256,192,46191,1,0,0:0:0:0:
256,192,46348,1,8,0:0:0:0:
256,192,46506,1,0,0:0:0:0:
256,192,46820,1,0,0:0:0:0:
256,192,47134,1,8,0:0:0:0:
256,192,47291,1,0,0:0:0:0:
256,192,47605,1,0,0:0:0:0:
256,192,47762,1,0,0:0:0:0:
256,192,48233,1,0,0:0:0:0:
256,192,48390,1,8,0:0:0:0:
256,192,48705,1,0,0:0:0:0:
256,192,48862,1,8,0:0:0:0:
256,192,49019,1,0,0:0:0:0:
256,192,49176,1,8,0:0:0:0:
256,192,49254,1,8,0:0:0:0:
256,192,49333,1,0,0:0:0:0:
256,192,49490,1,0,0:0:0:0:
256,192,49647,1,8,0:0:0:0:
256,192,49804,1,0,0:0:0:0:
256,192,49961,1,8,0:0:0:0:
256,192,50118,1,8,0:0:0:0:
256,192,50275,1,0,0:0:0:0:
256,192,50746,1,0,0:0:0:0:
256,192,50903,1,8,0:0:0:0:
256,192,51218,1,0,0:0:0:0:
256,192,51375,1,8,0:0:0:0:
256,192,51532,1,0,0:0:0:0:
256,192,51846,1,0,0:0:0:0:
256,192,52160,1,8,0:0:0:0:
256,192,52317,1,0,0:0:0:0:
256,192,52474,1,8,0:0:0:0:
256,192,52631,1,8,0:0:0:0:
256,192,52788,1,4,0:0:0:0:
256,192,53259,1,0,0:0:0:0:
256,192,53417,1,8,0:0:0:0:
256,192,53731,1,0,0:0:0:0:
256,192,53888,1,8,0:0:0:0:
256,192,54045,1,0,0:0:0:0:
256,192,54202,1,8,0:0:0:0:
256,192,54280,1,8,0:0:0:0:
256,192,54359,1,0,0:0:0:0:
256,192,54437,1,0,0:0:0:0:
256,192,54516,1,8,0:0:0:0:
256,192,54673,1,0,0:0:0:0:
256,192,54830,1,0,0:0:0:0:
256,192,54987,1,8,0:0:0:0:
256,192,55144,1,8,0:0:0:0:
256,192,55301,1,0,0:0:0:0:
256,192,55773,1,0,0:0:0:0:
256,192,55930,1,8,0:0:0:0:
256,192,56244,1,0,0:0:0:0:
256,192,56401,1,8,0:0:0:0:
256,192,56558,1,0,0:0:0:0:
256,192,56715,1,8,0:0:0:0:
256,192,56794,1,8,0:0:0:0:
256,192,56872,1,0,0:0:0:0:
256,192,57029,1,0,0:0:0:0:
256,192,57186,1,8,0:0:0:0:
256,192,57343,1,0,0:0:0:0:
256,192,57657,1,0,0:0:0:0:
256,192,57814,1,0,0:0:0:0:
256,192,58286,1,0,0:0:0:0:
256,192,58443,1,8,0:0:0:0:
256,192,58757,1,0,0:0:0:0:
256,192,58914,1,8,0:0:0:0:
256,192,59071,1,0,0:0:0:0:
256,192,59228,1,8,0:0:0:0:
256,192,59307,1,8,0:0:0:0:
256,192,59385,1,0,0:0:0:0:
256,192,59464,1,0,0:0:0:0:
256,192,59542,1,8,0:0:0:0:
256,192,59699,1,0,0:0:0:0:
256,192,59856,1,0,0:0:0:0:
256,192,60013,1,8,0:0:0:0:
256,192,60170,1,8,0:0:0:0:
256,192,60328,1,0,0:0:0:0:
256,192,60799,1,0,0:0:0:0:
256,192,60956,1,8,0:0:0:0:
256,192,61270,1,0,0:0:0:0:
256,192,61427,1,0,0:0:0:0:
256,192,61584,1,8,0:0:0:0:
256,192,62212,1,0,0:0:0:0:
256,192,62841,1,4,0:0:0:0:
256,192,63155,1,4,0:0:0:0:
256,192,63469,1,8,0:0:0:0:
256,192,63626,1,8,0:0:0:0:
256,192,63783,1,8,0:0:0:0:
256,192,63940,1,4,0:0:0:0:
256,192,64254,1,4,0:0:0:0:
256,192,64568,1,8,0:0:0:0:
256,192,64725,1,8,0:0:0:0:
256,192,64883,1,4,0:0:0:0:
256,192,65197,1,8,0:0:0:0:
256,192,65354,1,4,0:0:0:0:
256,192,65668,1,8,0:0:0:0:
256,192,65825,1,0,0:0:0:0:
256,192,65982,1,8,0:0:0:0:
256,192,66139,1,8,0:0:0:0:
256,192,66296,1,0,0:0:0:0:
256,192,66453,1,8,0:0:0:0:
256,192,66532,1,8,0:0:0:0:
256,192,66610,1,0,0:0:0:0:
256,192,66767,1,0,0:0:0:0:
256,192,66924,1,8,0:0:0:0:
256,192,67081,1,0,0:0:0:0:
256,192,67239,1,8,0:0:0:0:
256,192,67317,1,8,0:0:0:0:
256,192,67396,1,0,0:0:0:0:
256,192,67474,1,0,0:0:0:0:
256,192,67553,1,8,0:0:0:0:
256,192,67710,1,8,0:0:0:0:
256,192,67867,1,4,0:0:0:0:
256,192,68181,1,4,0:0:0:0:
256,192,68495,1,8,0:0:0:0:
256,192,68652,1,8,0:0:0:0:
256,192,68809,1,8,0:0:0:0:
256,192,68966,1,4,0:0:0:0:
256,192,69280,1,4,0:0:0:0:
256,192,69595,1,8,0:0:0:0:
256,192,69752,1,8,0:0:0:0:
256,192,69909,1,4,0:0:0:0:
256,192,70223,1,8,0:0:0:0:
256,192,70380,1,4,0:0:0:0:
256,192,70694,1,8,0:0:0:0:
256,192,70851,1,0,0:0:0:0:
256,192,71008,1,8,0:0:0:0:
256,192,71165,1,8,0:0:0:0:
256,192,71322,1,0,0:0:0:0:
256,192,71479,1,8,0:0:0:0:
256,192,71558,1,8,0:0:0:0:
256,192,71636,1,0,0:0:0:0:
256,192,71794,1,8,0:0:0:0:
256,192,71951,1,0,0:0:0:0:
256,192,72108,1,0,0:0:0:0:
256,192,72265,1,8,0:0:0:0:
256,192,72893,1,4,0:0:0:0:
256,192,73207,1,0,0:0:0:0:
256,192,73364,1,8,0:0:0:0:
256,192,73678,1,0,0:0:0:0:
256,192,73835,1,8,0:0:0:0:
256,192,73992,1,0,0:0:0:0:
256,192,74071,1,0,0:0:0:0:
256,192,74150,1,8,0:0:0:0:
256,192,74307,1,0,0:0:0:0:
256,192,74464,1,0,0:0:0:0:
256,192,74621,1,8,0:0:0:0:
256,192,74935,1,0,0:0:0:0:
256,192,75092,1,8,0:0:0:0:
256,192,75249,1,0,0:0:0:0:
256,192,75406,1,0,0:0:0:0:
256,192,75720,1,8,0:0:0:0:
256,192,76034,1,0,0:0:0:0:
256,192,76191,1,0,0:0:0:0:
256,192,76348,1,8,0:0:0:0:
256,192,76506,1,0,0:0:0:0:
256,192,76584,1,0,0:0:0:0:
256,192,76663,1,8,0:0:0:0:
256,192,76820,1,8,0:0:0:0:
256,192,76977,1,0,0:0:0:0:
256,192,77134,1,8,0:0:0:0:
256,192,77212,1,8,0:0:0:0:
256,192,77291,1,0,0:0:0:0:
256,192,77369,1,0,0:0:0:0:
256,192,77448,1,8,0:0:0:0:
256,192,77605,1,0,0:0:0:0:
256,192,77762,1,8,0:0:0:0:
256,192,77919,1,0,0:0:0:0:
256,192,78233,1,8,0:0:0:0:
256,192,78547,1,0,0:0:0:0:
256,192,78705,1,8,0:0:0:0:
256,192,78862,1,8,0:0:0:0:
256,192,79019,1,0,0:0:0:0:
256,192,79097,1,0,0:0:0:0:
256,192,79176,1,8,0:0:0:0:
256,192,79333,1,0,0:0:0:0:
256,192,79490,1,0,0:0:0:0:
256,192,79647,1,8,0:0:0:0:
256,192,79961,1,0,0:0:0:0:
256,192,80118,1,8,0:0:0:0:
256,192,80275,1,0,0:0:0:0:
256,192,80432,1,0,0:0:0:0:
256,192,80746,1,8,0:0:0:0:
256,192,81061,1,0,0:0:0:0:
256,192,81218,1,0,0:0:0:0:
256,192,81375,1,8,0:0:0:0:
256,192,81532,1,8,0:0:0:0:
256,192,81689,1,0,0:0:0:0:
256,192,81846,1,8,0:0:0:0:
256,192,81924,1,8,0:0:0:0:
256,192,82003,1,0,0:0:0:0:
256,192,82081,1,0,0:0:0:0:
256,192,82160,1,8,0:0:0:0:
256,192,82317,1,0,0:0:0:0:
256,192,82474,1,8,0:0:0:0:
256,192,82788,1,8,0:0:0:0:
256,192,82945,1,4,0:0:0:0:
256,192,83259,1,8,0:0:0:0:
256,192,83574,1,0,0:0:0:0:
256,192,83731,1,0,0:0:0:0:
256,192,83888,1,8,0:0:0:0:
256,192,84045,1,0,0:0:0:0:
256,192,84123,1,0,0:0:0:0:
256,192,84202,1,8,0:0:0:0:
256,192,84359,1,8,0:0:0:0:
256,192,84516,1,0,0:0:0:0:
256,192,84673,1,8,0:0:0:0:
256,192,84987,1,0,0:0:0:0:
256,192,85144,1,8,0:0:0:0:
256,192,85301,1,0,0:0:0:0:
256,192,85458,1,0,0:0:0:0:
256,192,85773,1,8,0:0:0:0:
256,192,85930,1,0,0:0:0:0:
256,192,86244,1,0,0:0:0:0:
256,192,86401,1,8,0:0:0:0:
256,192,86558,1,8,0:0:0:0:
256,192,86636,1,8,0:0:0:0:
256,192,86715,1,0,0:0:0:0:
256,192,86872,1,0,0:0:0:0:
256,192,87029,1,8,0:0:0:0:
256,192,87186,1,0,0:0:0:0:
256,192,87343,1,8,0:0:0:0:
256,192,87422,1,8,0:0:0:0:
256,192,87500,1,0,0:0:0:0:
256,192,87579,1,0,0:0:0:0:
256,192,87657,1,8,0:0:0:0:
256,192,87814,1,8,0:0:0:0:
256,192,87972,1,0,0:0:0:0:
256,192,88286,1,8,0:0:0:0:
256,192,88443,1,0,0:0:0:0:
256,192,88757,1,8,0:0:0:0:
256,192,88835,1,8,0:0:0:0:
256,192,88914,1,8,0:0:0:0:
256,192,89071,1,8,0:0:0:0:
256,192,89228,1,0,0:0:0:0:
256,192,89385,1,0,0:0:0:0:
256,192,89542,1,8,0:0:0:0:
256,192,89856,1,0,0:0:0:0:
256,192,90013,1,0,0:0:0:0:
256,192,90170,1,8,0:0:0:0:
256,192,90328,1,0,0:0:0:0:
256,192,90406,1,0,0:0:0:0:
256,192,90485,1,8,0:0:0:0:
256,192,90642,1,8,0:0:0:0:
256,192,90799,1,0,0:0:0:0:
256,192,90956,1,8,0:0:0:0:
256,192,91270,1,0,0:0:0:0:
256,192,91427,1,8,0:0:0:0:
256,192,91584,1,0,0:0:0:0:
256,192,91898,1,8,0:0:0:0:
256,192,92055,1,0,0:0:0:0:
256,192,92134,1,8,0:0:0:0:
256,192,92212,1,0,0:0:0:0:
256,192,92369,1,8,0:0:0:0:
256,192,92448,1,8,0:0:0:0:
256,192,92526,1,0,0:0:0:0:
256,192,92605,1,0,0:0:0:0:
256,192,92684,1,8,0:0:0:0:
256,192,92841,1,8,0:0:0:0:
256,192,92998,1,4,0:0:0:0:
256,192,93312,1,0,0:0:0:0:
256,192,93626,1,12,0:0:0:0:
256,192,93862,1,12,0:0:0:0:
256,192,94097,1,4,0:0:0:0:
256,192,94333,1,12,0:0:0:0:
256,192,94568,1,4,0:0:0:0:
256,192,94804,1,4,0:0:0:0:
256,192,95040,1,12,0:0:0:0:
256,192,95197,1,0,0:0:0:0:
256,192,95275,1,0,0:0:0:0:
256,192,95354,1,8,0:0:0:0:
256,192,95511,1,4,0:0:0:0:
256,192,95825,1,8,0:0:0:0:
256,192,96139,1,0,0:0:0:0:
256,192,96296,1,0,0:0:0:0:
256,192,96453,1,8,0:0:0:0:
256,192,96610,1,0,0:0:0:0:
256,192,96689,1,0,0:0:0:0:
256,192,96767,1,8,0:0:0:0:
256,192,96924,1,8,0:0:0:0:
256,192,97081,1,0,0:0:0:0:
256,192,97239,1,8,0:0:0:0:
256,192,97317,1,8,0:0:0:0:
256,192,97396,1,0,0:0:0:0:
256,192,97474,1,0,0:0:0:0:
256,192,97553,1,8,0:0:0:0:
256,192,97710,1,0,0:0:0:0:
256,192,97867,1,8,0:0:0:0:
256,192,98024,1,0,0:0:0:0:
256,192,98338,1,8,0:0:0:0:
256,192,98652,1,0,0:0:0:0:
256,192,98809,1,8,0:0:0:0:
256,192,98966,1,8,0:0:0:0:
256,192,99123,1,0,0:0:0:0:
256,192,99202,1,0,0:0:0:0:
256,192,99280,1,8,0:0:0:0:
256,192,99437,1,0,0:0:0:0:
256,192,99595,1,0,0:0:0:0:
256,192,99752,1,8,0:0:0:0:
256,192,100066,1,0,0:0:0:0:
256,192,100223,1,8,0:0:0:0:
256,192,100380,1,0,0:0:0:0:
256,192,100537,1,0,0:0:0:0:
256,192,100851,1,8,0:0:0:0:
256,192,101165,1,0,0:0:0:0:
256,192,101322,1,0,0:0:0:0:
256,192,101479,1,8,0:0:0:0:
256,192,101636,1,8,0:0:0:0:
256,192,101794,1,0,0:0:0:0:
256,192,101951,1,8,0:0:0:0:
256,192,102029,1,8,0:0:0:0:
256,192,102108,1,0,0:0:0:0:
256,192,102186,1,0,0:0:0:0:
256,192,102265,1,8,0:0:0:0:
256,192,102422,1,0,0:0:0:0:
256,192,102579,1,8,0:0:0:0:
256,192,102893,1,8,0:0:0:0:
256,192,103050,1,4,0:0:0:0:
256,192,103364,1,8,0:0:0:0:
256,192,103678,1,0,0:0:0:0:
256,192,103835,1,0,0:0:0:0:
256,192,103992,1,8,0:0:0:0:
256,192,104150,1,0,0:0:0:0:
256,192,104228,1,0,0:0:0:0:
256,192,104307,1,8,0:0:0:0:
256,192,104464,1,8,0:0:0:0:
256,192,104621,1,0,0:0:0:0:
256,192,104778,1,8,0:0:0:0:
256,192,105092,1,0,0:0:0:0:
256,192,105249,1,8,0:0:0:0:
256,192,105406,1,0,0:0:0:0:
256,192,105563,1,0,0:0:0:0:
256,192,105877,1,8,0:0:0:0:
256,192,106034,1,0,0:0:0:0:
256,192,106348,1,0,0:0:0:0:
256,192,106506,1,8,0:0:0:0:
256,192,106663,1,8,0:0:0:0:
256,192,106741,1,8,0:0:0:0:
256,192,106820,1,0,0:0:0:0:
256,192,106977,1,0,0:0:0:0:
256,192,107134,1,8,0:0:0:0:
256,192,107291,1,0,0:0:0:0:
256,192,107448,1,8,0:0:0:0:
256,192,107526,1,8,0:0:0:0:
256,192,107605,1,0,0:0:0:0:
256,192,107684,1,0,0:0:0:0:
256,192,107762,1,8,0:0:0:0:
256,192,107919,1,8,0:0:0:0:
256,192,108076,1,0,0:0:0:0:
256,192,108390,1,8,0:0:0:0:
256,192,108547,1,0,0:0:0:0:
256,192,108862,1,8,0:0:0:0:
256,192,108940,1,8,0:0:0:0:
256,192,109019,1,8,0:0:0:0:
256,192,109176,1,8,0:0:0:0:
256,192,109333,1,0,0:0:0:0:
256,192,109490,1,0,0:0:0:0:
256,192,109647,1,8,0:0:0:0:
256,192,109961,1,0,0:0:0:0:
256,192,110118,1,0,0:0:0:0:
256,192,110275,1,8,0:0:0:0:
256,192,110432,1,0,0:0:0:0:
256,192,110511,1,0,0:0:0:0:
256,192,110589,1,8,0:0:0:0:
256,192,110746,1,8,0:0:0:0:
256,192,110903,1,0,0:0:0:0:
256,192,111061,1,8,0:0:0:0:
256,192,111375,1,0,0:0:0:0:
256,192,111453,1,0,0:0:0:0:
256,192,111532,1,8,0:0:0:0:
256,192,111689,1,8,0:0:0:0:
256,192,111846,1,0,0:0:0:0:
256,192,113102,1,4,0:0:0:0:
256,192,113338,1,8,0:0:0:0:
256,192,113417,1,0,0:0:0:0:
256,192,113574,1,0,0:0:0:0:
256,192,113731,1,8,0:0:0:0:
256,192,114045,1,0,0:0:0:0:
256,192,114202,1,0,0:0:0:0:
256,192,114359,1,0,0:0:0:0:
256,192,114516,1,8,0:0:0:0:
256,192,114830,1,8,0:0:0:0:
256,192,114987,1,0,0:0:0:0:
256,192,115144,1,0,0:0:0:0:
256,192,115223,1,0,0:0:0:0:
256,192,115301,1,8,0:0:0:0:
256,192,115458,1,0,0:0:0:0:
256,192,115616,1,8,0:0:0:0:
256,192,115773,1,8,0:0:0:0:
256,192,115930,1,0,0:0:0:0:
256,192,116244,1,8,0:0:0:0:
256,192,116558,1,8,0:0:0:0:
256,192,116715,1,0,0:0:0:0:
256,192,116872,1,0,0:0:0:0:
256,192,117029,1,8,0:0:0:0:
256,192,117343,1,0,0:0:0:0:
256,192,117500,1,8,0:0:0:0:
256,192,117579,1,8,0:0:0:0:
256,192,117657,1,0,0:0:0:0:
256,192,117814,1,0,0:0:0:0:
256,192,117972,1,8,0:0:0:0:
256,192,118286,1,0,0:0:0:0:
256,192,118600,1,0,0:0:0:0:
256,192,118757,1,8,0:0:0:0:
256,192,119071,1,8,0:0:0:0:
256,192,119150,1,8,0:0:0:0:
256,192,119228,1,8,0:0:0:0:
256,192,119307,1,8,0:0:0:0:
256,192,119385,1,0,0:0:0:0:
256,192,119542,1,8,0:0:0:0:
256,192,119856,1,0,0:0:0:0:
256,192,119935,1,0,0:0:0:0:
256,192,120013,1,8,0:0:0:0:
256,192,120170,1,0,0:0:0:0:
256,192,120328,1,8,0:0:0:0:
256,192,120485,1,8,0:0:0:0:
256,192,120642,1,0,0:0:0:0:
256,192,120799,1,8,0:0:0:0:
256,192,121113,1,0,0:0:0:0:
256,192,121270,1,8,0:0:0:0:
256,192,121427,1,0,0:0:0:0:
256,192,121506,1,0,0:0:0:0:
256,192,121584,1,8,0:0:0:0:
256,192,121741,1,8,0:0:0:0:
256,192,121898,1,0,0:0:0:0:
256,192,122055,1,8,0:0:0:0:
256,192,122134,1,8,0:0:0:0:
256,192,122212,1,0,0:0:0:0:
256,192,122291,1,0,0:0:0:0:
256,192,122369,1,8,0:0:0:0:
256,192,122526,1,8,0:0:0:0:
256,192,122684,1,0,0:0:0:0:
256,192,122998,1,8,0:0:0:0:
256,192,123155,1,4,0:0:0:0:
256,192,123390,1,8,0:0:0:0:
256,192,123469,1,0,0:0:0:0:
256,192,123626,1,0,0:0:0:0:
256,192,123783,1,8,0:0:0:0:
256,192,124097,1,0,0:0:0:0:
256,192,124254,1,0,0:0:0:0:
256,192,124411,1,0,0:0:0:0:
256,192,124568,1,8,0:0:0:0:
256,192,124883,1,8,0:0:0:0:
256,192,125040,1,0,0:0:0:0:
256,192,125197,1,0,0:0:0:0:
256,192,125275,1,0,0:0:0:0:
256,192,125354,1,8,0:0:0:0:
256,192,125511,1,0,0:0:0:0:
256,192,125668,1,8,0:0:0:0:
256,192,125825,1,8,0:0:0:0:
256,192,125982,1,0,0:0:0:0:
256,192,126296,1,8,0:0:0:0:
256,192,126610,1,8,0:0:0:0:
256,192,126767,1,0,0:0:0:0:
256,192,126924,1,0,0:0:0:0:
256,192,127081,1,8,0:0:0:0:
256,192,127396,1,0,0:0:0:0:
256,192,127553,1,8,0:0:0:0:
256,192,127631,1,8,0:0:0:0:
256,192,127710,1,0,0:0:0:0:
256,192,127867,1,0,0:0:0:0:
256,192,128024,1,8,0:0:0:0:
256,192,128338,1,0,0:0:0:0:
256,192,128652,1,0,0:0:0:0:
256,192,128809,1,8,0:0:0:0:
256,192,128966,1,0,0:0:0:0:
256,192,129045,1,0,0:0:0:0:
256,192,129123,1,8,0:0:0:0:
256,192,129202,1,8,0:0:0:0:
256,192,129280,1,0,0:0:0:0:
256,192,129595,1,8,0:0:0:0:
256,192,129909,1,8,0:0:0:0:
256,192,129987,1,8,0:0:0:0:
256,192,130066,1,0,0:0:0:0:
256,192,130223,1,0,0:0:0:0:
256,192,130380,1,8,0:0:0:0:
256,192,130458,1,8,0:0:0:0:
256,192,130537,1,8,0:0:0:0:
256,192,130694,1,0,0:0:0:0:
256,192,130851,1,8,0:0:0:0:
256,192,131165,1,0,0:0:0:0:
256,192,131322,1,8,0:0:0:0:
256,192,131479,1,0,0:0:0:0:
256,192,131558,1,0,0:0:0:0:
256,192,131636,1,8,0:0:0:0:
256,192,131794,1,8,0:0:0:0:
256,192,131951,1,0,0:0:0:0:
256,192,132108,1,8,0:0:0:0:
256,192,132186,1,8,0:0:0:0:
256,192,132265,1,0,0:0:0:0:
256,192,132422,1,8,0:0:0:0:
256,192,132500,1,8,0:0:0:0:
256,192,132579,1,8,0:0:0:0:
256,192,133207,1,4,0:0:0:0:
256,192,143259,5,0,0:0:0:0:
256,192,143888,1,8,0:0:0:0:
256,192,144516,1,8,0:0:0:0:
256,192,145144,1,8,0:0:0:0:
256,192,145773,1,0,0:0:0:0:
256,192,147029,1,8,0:0:0:0:
256,192,147657,1,8,0:0:0:0:
256,192,148286,1,0,0:0:0:0:
256,192,148914,1,8,0:0:0:0:
256,192,149542,1,0,0:0:0:0:
256,192,150170,1,8,0:0:0:0:
256,192,150799,1,0,0:0:0:0:
256,192,151427,1,0,0:0:0:0:
256,192,152055,1,8,0:0:0:0:
256,192,152684,1,0,0:0:0:0:
256,192,153312,1,4,0:0:0:0:
256,192,153469,1,0,0:0:0:0:
256,192,153626,1,8,0:0:0:0:
256,192,153705,1,8,0:0:0:0:
256,192,153783,1,8,0:0:0:0:
256,192,153862,1,8,0:0:0:0:
256,192,153940,1,0,0:0:0:0:
256,192,154097,1,0,0:0:0:0:
256,192,154411,1,8,0:0:0:0:
256,192,154725,1,0,0:0:0:0:
256,192,154804,1,0,0:0:0:0:
256,192,154883,1,0,0:0:0:0:
256,192,155040,1,8,0:0:0:0:
256,192,155197,1,0,0:0:0:0:
256,192,155354,1,0,0:0:0:0:
256,192,155432,1,0,0:0:0:0:
256,192,155511,1,8,0:0:0:0:
256,192,155668,1,8,0:0:0:0:
256,192,155825,1,4,0:0:0:0:
256,192,156139,1,8,0:0:0:0:
256,192,156296,1,0,0:0:0:0:
256,192,156375,1,0,0:0:0:0:
256,192,156453,1,8,0:0:0:0:
256,192,156532,1,8,0:0:0:0:
256,192,156610,1,0,0:0:0:0:
256,192,156767,1,0,0:0:0:0:
256,192,156924,1,8,0:0:0:0:
256,192,157239,1,0,0:0:0:0:
256,192,157317,1,8,0:0:0:0:
256,192,157396,1,0,0:0:0:0:
256,192,157553,1,8,0:0:0:0:
256,192,157710,1,0,0:0:0:0:
256,192,157867,1,0,0:0:0:0:
256,192,157945,1,0,0:0:0:0:
256,192,158024,1,8,0:0:0:0:
256,192,158181,1,8,0:0:0:0:
256,192,158338,1,4,0:0:0:0:
256,192,158495,1,0,0:0:0:0:
256,192,158652,1,8,0:0:0:0:
256,192,158731,1,8,0:0:0:0:
256,192,158809,1,8,0:0:0:0:
256,192,158888,1,8,0:0:0:0:
256,192,158966,1,0,0:0:0:0:
256,192,159123,1,0,0:0:0:0:
256,192,159437,1,8,0:0:0:0:
256,192,159752,1,0,0:0:0:0:
256,192,159830,1,0,0:0:0:0:
256,192,159909,1,0,0:0:0:0:
256,192,160066,1,8,0:0:0:0:
256,192,160223,1,0,0:0:0:0:
256,192,160380,1,0,0:0:0:0:
256,192,160458,1,0,0:0:0:0:
256,192,160537,1,8,0:0:0:0:
256,192,160694,1,8,0:0:0:0:
256,192,160851,1,4,0:0:0:0:
256,192,161165,1,8,0:0:0:0:
256,192,161322,1,0,0:0:0:0:
256,192,161401,1,0,0:0:0:0:
256,192,161479,1,8,0:0:0:0:
256,192,161558,1,8,0:0:0:0:
256,192,161636,1,0,0:0:0:0:
256,192,161794,1,0,0:0:0:0:
256,192,161951,1,8,0:0:0:0:
256,192,162265,1,0,0:0:0:0:
256,192,162343,1,8,0:0:0:0:
256,192,162422,1,0,0:0:0:0:
256,192,162579,1,0,0:0:0:0:
256,192,162736,1,8,0:0:0:0:
256,192,163364,1,4,0:0:0:0:
256,192,163521,1,0,0:0:0:0:
256,192,163678,1,8,0:0:0:0:
256,192,163835,1,0,0:0:0:0:
256,192,163914,1,0,0:0:0:0:
256,192,163992,1,8,0:0:0:0:
256,192,164071,1,8,0:0:0:0:
256,192,164150,1,0,0:0:0:0:
256,192,164307,1,0,0:0:0:0:
256,192,164464,1,8,0:0:0:0:
256,192,164778,1,0,0:0:0:0:
256,192,164856,1,0,0:0:0:0:
256,192,164935,1,0,0:0:0:0:
256,192,165092,1,8,0:0:0:0:
256,192,165249,1,0,0:0:0:0:
256,192,165406,1,0,0:0:0:0:
256,192,165485,1,0,0:0:0:0:
256,192,165563,1,8,0:0:0:0:
256,192,165720,1,8,0:0:0:0:
256,192,165877,1,4,0:0:0:0:
256,192,166191,1,8,0:0:0:0:
256,192,166270,1,8,0:0:0:0:
256,192,166348,1,8,0:0:0:0:
256,192,166427,1,8,0:0:0:0:
256,192,166506,1,0,0:0:0:0:
256,192,166663,1,0,0:0:0:0:
256,192,166820,1,0,0:0:0:0:
256,192,166977,1,8,0:0:0:0:
256,192,167291,1,0,0:0:0:0:
256,192,167369,1,8,0:0:0:0:
256,192,167448,1,0,0:0:0:0:
256,192,167605,1,8,0:0:0:0:
256,192,167762,1,0,0:0:0:0:
256,192,167919,1,0,0:0:0:0:
256,192,167998,1,0,0:0:0:0:
256,192,168076,1,8,0:0:0:0:
256,192,168233,1,8,0:0:0:0:
256,192,168390,1,4,0:0:0:0:
256,192,168547,1,0,0:0:0:0:
256,192,168705,1,8,0:0:0:0:
256,192,168862,1,0,0:0:0:0:
256,192,168940,1,0,0:0:0:0:
256,192,169019,1,8,0:0:0:0:
256,192,169097,1,8,0:0:0:0:
256,192,169176,1,0,0:0:0:0:
256,192,169333,1,0,0:0:0:0:
256,192,169490,1,8,0:0:0:0:
256,192,169804,1,0,0:0:0:0:
256,192,169883,1,0,0:0:0:0:
256,192,169961,1,0,0:0:0:0:
256,192,170118,1,8,0:0:0:0:
256,192,170275,1,0,0:0:0:0:
256,192,170432,1,0,0:0:0:0:
256,192,170511,1,0,0:0:0:0:
256,192,170589,1,8,0:0:0:0:
256,192,170746,1,8,0:0:0:0:
256,192,170903,1,4,0:0:0:0:
256,192,171218,1,8,0:0:0:0:
256,192,171296,1,8,0:0:0:0:
256,192,171375,1,8,0:0:0:0:
256,192,171453,1,8,0:0:0:0:
256,192,171532,1,0,0:0:0:0:
256,192,171689,1,0,0:0:0:0:
256,192,171846,1,0,0:0:0:0:
256,192,172003,1,8,0:0:0:0:
256,192,172317,1,0,0:0:0:0:
256,192,172396,1,8,0:0:0:0:
256,192,172474,1,0,0:0:0:0:
256,192,172631,1,0,0:0:0:0:
256,192,172788,1,8,0:0:0:0:
256,192,173417,1,4,0:0:0:0:
256,192,174673,1,8,0:0:0:0:
256,192,175301,1,0,0:0:0:0:
256,192,175930,1,0,0:0:0:0:
256,192,177186,1,8,0:0:0:0:
256,192,177814,1,8,0:0:0:0:
256,192,178443,1,0,0:0:0:0:
256,192,179699,1,8,0:0:0:0:
256,192,180328,1,8,0:0:0:0:
256,192,180956,1,8,0:0:0:0:
256,192,182212,1,8,0:0:0:0:
256,192,183469,1,0,0:0:0:0:
256,192,184725,1,8,0:0:0:0:
256,192,185354,1,0,0:0:0:0:
256,192,185982,1,0,0:0:0:0:
256,192,187239,1,8,0:0:0:0:
256,192,187867,1,8,0:0:0:0:
256,192,188495,1,0,0:0:0:0:
256,192,189752,1,8,0:0:0:0:
256,192,190380,1,8,0:0:0:0:
256,192,191008,1,8,0:0:0:0:
256,192,193521,1,4,0:0:0:0:
256,192,193835,1,0,0:0:0:0:
256,192,194150,1,12,0:0:0:0:
256,192,194385,1,12,0:0:0:0:
256,192,194621,1,4,0:0:0:0:
256,192,194856,1,12,0:0:0:0:
256,192,195092,1,4,0:0:0:0:
256,192,195328,1,4,0:0:0:0:
256,192,195563,1,12,0:0:0:0:
256,192,195720,1,0,0:0:0:0:
256,192,195799,1,0,0:0:0:0:
256,192,195877,1,8,0:0:0:0:
256,192,196034,1,4,0:0:0:0:
256,192,196348,1,8,0:0:0:0:
256,192,196663,1,0,0:0:0:0:
256,192,196820,1,0,0:0:0:0:
256,192,196977,1,8,0:0:0:0:
256,192,197134,1,0,0:0:0:0:
256,192,197212,1,0,0:0:0:0:
256,192,197291,1,8,0:0:0:0:
256,192,197448,1,8,0:0:0:0:
256,192,197605,1,0,0:0:0:0:
256,192,197762,1,8,0:0:0:0:
256,192,197841,1,8,0:0:0:0:
256,192,197919,1,0,0:0:0:0:
256,192,197998,1,0,0:0:0:0:
256,192,198076,1,8,0:0:0:0:
256,192,198233,1,0,0:0:0:0:
256,192,198390,1,8,0:0:0:0:
256,192,198547,1,0,0:0:0:0:
256,192,198862,1,8,0:0:0:0:
256,192,199176,1,0,0:0:0:0:
256,192,199333,1,8,0:0:0:0:
256,192,199490,1,8,0:0:0:0:
256,192,199647,1,0,0:0:0:0:
256,192,199725,1,0,0:0:0:0:
256,192,199804,1,8,0:0:0:0:
256,192,199961,1,0,0:0:0:0:
256,192,200118,1,0,0:0:0:0:
256,192,200275,1,8,0:0:0:0:
256,192,200589,1,0,0:0:0:0:
256,192,200746,1,8,0:0:0:0:
256,192,200903,1,0,0:0:0:0:
256,192,201061,1,0,0:0:0:0:
256,192,201375,1,8,0:0:0:0:
256,192,201689,1,0,0:0:0:0:
256,192,201846,1,0,0:0:0:0:
256,192,202003,1,8,0:0:0:0:
256,192,202160,1,8,0:0:0:0:
256,192,202317,1,0,0:0:0:0:
256,192,202474,1,8,0:0:0:0:
256,192,202553,1,8,0:0:0:0:
256,192,202631,1,0,0:0:0:0:
256,192,202710,1,0,0:0:0:0:
256,192,202788,1,8,0:0:0:0:
256,192,202945,1,0,0:0:0:0:
256,192,203102,1,8,0:0:0:0:
256,192,203417,1,8,0:0:0:0:
256,192,203574,1,4,0:0:0:0:
256,192,203888,1,8,0:0:0:0:
256,192,204202,1,0,0:0:0:0:
256,192,204359,1,0,0:0:0:0:
256,192,204516,1,8,0:0:0:0:
256,192,204673,1,0,0:0:0:0:
256,192,204752,1,0,0:0:0:0:
256,192,204830,1,8,0:0:0:0:
256,192,204987,1,8,0:0:0:0:
256,192,205144,1,0,0:0:0:0:
256,192,205301,1,8,0:0:0:0:
256,192,205616,1,0,0:0:0:0:
256,192,205773,1,8,0:0:0:0:
256,192,205930,1,0,0:0:0:0:
256,192,206087,1,0,0:0:0:0:
256,192,206401,1,8,0:0:0:0:
256,192,206558,1,0,0:0:0:0:
256,192,206872,1,0,0:0:0:0:
256,192,207029,1,8,0:0:0:0:
256,192,207186,1,8,0:0:0:0:
256,192,207265,1,8,0:0:0:0:
256,192,207343,1,0,0:0:0:0:
256,192,207500,1,0,0:0:0:0:
256,192,207657,1,8,0:0:0:0:
256,192,207814,1,0,0:0:0:0:
256,192,207972,1,8,0:0:0:0:
256,192,208050,1,8,0:0:0:0:
256,192,208129,1,0,0:0:0:0:
256,192,208207,1,0,0:0:0:0:
256,192,208286,1,8,0:0:0:0:
256,192,208443,1,8,0:0:0:0:
256,192,208600,1,0,0:0:0:0:
256,192,208914,1,8,0:0:0:0:
256,192,209071,1,0,0:0:0:0:
256,192,209385,1,8,0:0:0:0:
256,192,209464,1,8,0:0:0:0:
256,192,209542,1,8,0:0:0:0:
256,192,209699,1,8,0:0:0:0:
256,192,209856,1,0,0:0:0:0:
256,192,210013,1,0,0:0:0:0:
256,192,210170,1,8,0:0:0:0:
256,192,210485,1,0,0:0:0:0:
256,192,210642,1,0,0:0:0:0:
256,192,210799,1,8,0:0:0:0:
256,192,210956,1,0,0:0:0:0:
256,192,211034,1,0,0:0:0:0:
256,192,211113,1,8,0:0:0:0:
256,192,211270,1,8,0:0:0:0:
256,192,211427,1,0,0:0:0:0:
256,192,211584,1,8,0:0:0:0:
256,192,211898,1,0,0:0:0:0:
256,192,211977,1,0,0:0:0:0:
256,192,212055,1,8,0:0:0:0:
256,192,212212,1,8,0:0:0:0:
256,192,212369,1,0,0:0:0:0:
256,192,212998,1,0,0:0:0:0:
256,192,213312,1,0,0:0:0:0:
256,192,213626,1,12,0:0:0:0:
