osu file format v14

[General]
AudioFilename: audio.mp3
AudioLeadIn: 0
PreviewTime: 152265
Countdown: 0
SampleSet: Soft
StackLeniency: 0.7
Mode: 0
LetterboxInBreaks: 0
WidescreenStoryboard: 1

[Editor]
Bookmarks: 21217,39948,133607,152339
DistanceSpacing: 0.5
BeatDivisor: 4
GridSize: 8
TimelineZoom: 2.2

[Metadata]
Title:Kairikou
TitleUnicode:乖離光
Artist:Feryquitous feat. Aitsuki Nakuru
ArtistUnicode:Feryquitous feat. 藍月なくる
Creator:cococolaco
Version:Hard
Source:
Tags:フェリキタス soleil de minuit loli catgirl loli_catgirl
BeatmapID:1750359
BeatmapSetID:832836

[Difficulty]
HPDrainRate:5
CircleSize:3.7
OverallDifficulty:7
ApproachRate:8
SliderMultiplier:1.4
SliderTickRate:1

[Events]
//Background and Video events
0,0,"bg.png",0,0
//Break Periods
2,21417,39198
2,133806,151589
//Storyboard Layer 0 (Background)
//Storyboard Layer 1 (Fail)
//Storyboard Layer 2 (Pass)
//Storyboard Layer 3 (Foreground)
//Storyboard Sound Samples

[TimingPoints]
144,292.682926829268,4,2,1,70,1,0
2485,-111.111111111111,4,2,1,60,0,0
58680,-111.111111111111,4,2,1,50,0,0
77412,-90.9090909090908,4,2,1,75,0,1
85607,-90.9090909090908,4,2,1,75,0,0
85900,-166.666666666667,4,2,1,75,0,0
86778,-90.9090909090908,4,2,1,75,0,1
95851,-90.9090909090908,4,2,1,75,0,0
96143,-90.9090909090908,4,2,1,75,0,1
104339,-90.9090909090908,4,2,1,75,0,0
104631,-166.666666666667,4,2,1,75,0,0
105509,-90.9090909090908,4,2,1,75,0,1
114875,-111.111111111111,4,2,1,60,0,0
133607,-111.111111111111,4,2,1,75,0,0
152339,-111.111111111111,4,2,1,60,0,0
171070,-133.333333333333,4,2,1,60,0,0
189802,-90.9090909090909,4,2,1,75,0,1
197997,-90.9090909090909,4,2,1,75,0,0
198290,-166.666666666667,4,2,1,75,0,0
199168,-90.9090909090909,4,2,1,75,0,1
208534,-90.9090909090909,4,2,1,75,0,0
210290,-90.9090909090909,4,2,0,75,0,0
210583,-90.9090909090909,4,2,1,75,0,0
210729,-90.9090909090909,4,2,1,75,0,1
216729,-90.9090909090909,4,2,1,75,0,0
217022,-166.666666666667,4,2,1,75,0,0
217900,-90.9090909090909,4,2,1,75,0,1
226095,-90.9090909090909,4,2,1,75,0,0
227265,-90.9090909090909,4,2,1,75,0,1
235753,-166.666666666667,4,2,1,75,0,0
236485,-90.9090909090909,4,2,0,75,0,0
236631,-90.9090909090909,4,2,1,75,0,1
245997,-111.111111111111,4,2,1,60,0,0

[Colours]
Combo1 : 151,45,143
Combo2 : 11,55,130
Combo3 : 44,138,158
Combo4 : 100,53,179

[HitObjects]
75,109,2485,6,0,P|91:192|97:261,1,125.999996154785,4|2,0:0|0:3,0:0:0:0:
184,330,2924,2,0,P|191:267|204:205,1,125.999996154785,2|4,0:0|0:0,0:0:0:0:
511,94,3509,2,0,B|442:84|465:126|375:123,1,125.999996154785,2|2,0:1|0:3,0:0:0:0:
301,85,3948,2,0,P|294:128|298:162,1,62.9999980773926,2|2,0:0|1:0,0:0:0:0:
370,218,4241,1,2,0:0:0:0:
370,218,4387,2,0,P|376:261|368:358,1,125.999996154785,0|2,1:0|0:1,0:0:0:0:
281,275,4826,5,2,0:1:0:0:
281,275,4973,2,0,P|239:274|135:246,1,125.999996154785,2|2,0:0|0:3,0:0:0:0:
187,93,5558,1,0,1:0:0:0:
0,184,5851,2,0,P|42:183|146:155,1,125.999996154785,2|2,0:1|0:3,0:0:0:0:
187,93,6290,1,2,0:1:0:0:
187,93,6436,2,0,P|229:94|333:122,1,125.999996154785,2|0,1:0|1:0,0:0:0:0:
403,57,6875,1,12,0:0:0:0:
403,57,7022,1,8,0:0:0:0:
487,107,7168,6,0,P|496:61|497:31,2,62.9999980773926,4|0|10,0:0|0:0|0:0,0:0:0:0:
405,160,7607,2,0,P|412:221|425:292,1,125.999996154785,2|0,0:0|1:0,0:0:0:0:
314,250,8046,1,2,0:3:0:0:
236,308,8192,2,0,P|193:307|99:292,1,125.999996154785,2|0,1:0|1:0,0:0:0:0:
60,209,8631,2,0,P|95:202|140:196,1,62.9999980773926,8|2,0:0|0:1,0:0:0:0:
219,150,8924,2,0,P|224:114|225:82,1,62.9999980773926,0|0,1:0|1:0,0:0:0:0:
312,205,9217,2,0,P|317:241|318:273,1,62.9999980773926,2|2,1:0|0:1,0:0:0:0:
441,125,9509,6,0,P|378:119|316:109,1,125.999996154785,2|0,1:0|1:0,0:0:0:0:
77,319,10095,2,0,P|67:262|61:194,1,125.999996154785,2|2,0:0|0:3,0:0:0:0:
169,242,10534,2,0,P|225:239|292:191,1,125.999996154785,12|2,0:0|0:3,0:0:0:0:
369,280,10973,2,0,P|377:313|381:350,2,62.9999980773926,0|2|2,1:0|0:1|1:0,0:0:0:0:
464,215,11412,1,0,1:0:0:0:
464,215,11485,1,0,1:0:0:0:
464,215,11558,2,0,L|483:145,1,62.9999980773926,8|2,0:0|0:1,0:0:0:0:
384,96,11851,6,0,L|249:109,1,125.999996154785,4|8,0:0|0:0,0:0:0:0:
161,69,12290,2,0,P|147:106|167:211,1,125.999996154785,2|0,0:0|1:0,0:0:0:0:
2,302,12875,2,0,B|50:275|50:275|120:284,1,125.999996154785,2|0,0:1|1:0,0:0:0:0:
224,308,13314,2,0,L|291:297,1,62.9999980773926,8|2,0:0|0:1,0:0:0:0:
376,252,13607,2,0,P|414:243|452:228,1,62.9999980773926,0|0,1:0|1:0,0:0:0:0:
469,222,13826,1,0,1:0:0:0:
469,221,13900,2,0,P|480:187|484:151,1,62.9999980773926,8|2,0:0|0:1,0:0:0:0:
367,31,14192,6,0,P|377:88|397:173,1,125.999996154785,2|8,0:1|0:0,0:0:0:0:
280,118,14631,2,0,P|246:135|154:146,1,125.999996154785,2|0,0:0|1:0,0:0:0:0:
361,272,15217,2,0,P|423:275|481:299,1,125.999996154785,2|0,0:1|1:0,0:0:0:0:
304,343,15656,2,0,P|271:356|236:361,1,62.9999980773926,10|2,0:0|1:0,0:0:0:0:
272,236,15948,2,0,L|206:221,1,62.9999980773926,2|0,0:1|1:0,0:0:0:0:
313,146,16241,2,0,L|258:104,1,62.9999980773926,8|2,0:0|0:1,0:0:0:0:
160,61,16534,6,0,P|170:102|180:192,1,125.999996154785,2|10,0:1|0:0,0:0:0:0:
51,258,16973,2,0,P|57:195|70:133,1,125.999996154785,2|2,0:0|0:0,0:0:0:0:
279,234,17558,2,0,P|317:242|412:233,1,125.999996154785,12|0,0:0|1:0,0:0:0:0:
475,171,17997,2,0,P|482:131|482:100,1,62.9999980773926,8|2,0:0|0:1,0:0:0:0:
368,57,18290,2,0,P|376:106|387:136,1,62.9999980773926,2|0,1:0|1:0,0:0:0:0:
271,92,18583,2,0,L|201:79,1,62.9999980773926,8|2,0:0|0:1,0:0:0:0:
245,191,18875,5,2,0:1:0:0:
245,191,19022,2,0,L|264:320,2,125.999996154785,2|2|0,0:0|0:0|0:0,0:0:0:0:
113,198,19900,2,0,B|85:137|85:137|102:62,1,125.999996154785,4|0,1:2|0:0,0:0:0:0:
133,324,20485,5,0,1:0:0:0:
133,324,20778,2,0,L|114:396,2,62.9999980773926,0|0|0,1:0|3:0|3:0,0:0:0:0:
164,233,21217,5,4,0:3:0:0:
420,78,39948,6,0,P|396:123|402:210,1,125.999996154785,4|2,0:1|0:0,0:0:0:0:
294,156,40387,1,0,0:0:0:0:
229,230,40534,2,0,P|175:250|100:264,1,125.999996154785,2|10,0:1|0:0,0:0:0:0:
326,279,41119,2,0,P|332:314|342:353,2,62.9999980773926,6|0|2,0:0|0:0|0:1,0:0:0:0:
241,208,41558,2,0,P|251:161|262:141,1,62.9999980773926,2|0,1:0|0:0,0:0:0:0:
202,60,41851,2,0,P|166:66|139:78,2,62.9999980773926,2|0|2,1:0|0:0|0:3,0:0:0:0:
305,18,42290,6,0,P|355:30|452:15,1,125.999996154785,4|2,0:0|0:0,0:0:0:0:
404,197,42875,1,2,0:1:0:0:
404,197,43022,2,0,L|411:282,2,62.9999980773926,2|2|2,1:0|0:0|1:0,0:0:0:0:
304,174,43461,2,0,L|314:311,1,125.999996154785,2|2,0:0|0:0,0:0:0:0:
210,250,43900,2,0,P|165:248|88:292,1,125.999996154785,2|0,1:2|0:0,0:0:0:0:
111,165,44339,1,8,0:0:0:0:
111,165,44485,1,8,0:0:0:0:
29,74,44631,6,0,P|81:73|161:55,1,125.999996154785,4|8,0:0|0:0,0:0:0:0:
295,151,45217,2,0,P|330:156|367:167,1,62.9999980773926,2|0,0:0|1:0,0:0:0:0:
436,105,45509,2,0,P|471:99|508:89,1,62.9999980773926,2|12,0:0|0:0,0:0:0:0:
450,202,45802,1,2,0:0:0:0:
450,202,45948,2,0,P|458:239|464:271,1,62.9999980773926,0|8,1:0|0:0,0:0:0:0:
354,321,46241,1,8,0:0:0:0:
354,321,46387,2,0,P|356:276|361:248,1,62.9999980773926,0|0,1:0|1:0,0:0:0:0:
258,282,46680,1,8,0:0:0:0:
189,212,46826,6,0,P|156:199|124:194,1,62.9999980773926,2|4,0:0|0:0,0:0:0:0:
67,314,47119,2,0,P|100:301|132:296,1,62.9999980773926,2|8,0:0|0:0,0:0:0:0:
31,219,47412,2,0,P|42:178|52:75,1,125.999996154785,2|0,0:0|1:0,0:0:0:0:
143,44,47851,2,0,P|148:76|156:109,1,62.9999980773926,2|12,0:0|0:0,0:0:0:0:
278,195,48143,2,0,L|272:267,1,62.9999980773926,10|0,0:0|1:0,0:0:0:0:
374,232,48436,1,8,0:0:0:0:
357,139,48583,2,0,P|384:115|387:20,1,125.999996154785,8|2,0:0|1:2,0:0:0:0:
360,30,48948,1,0,1:0:0:0:
360,30,49022,2,0,L|290:39,1,62.9999980773926,8|2,0:0|0:0,0:0:0:0:
130,123,49314,6,2,P|95:118|54:106,2,62.9999980773926,6|0|8,0:1|0:0|0:0,0:1:0:0:
203,45,49753,2,0,P|218:78|221:182,1,125.999996154785,2|2,0:0|0:1,0:0:0:0:
131,223,50192,2,0,P|118:254|112:287,1,62.9999980773926,8|0,0:0|0:0,0:0:0:0:
198,366,50485,1,2,0:0:0:0:
198,366,50631,2,2,P|241:351|264:333,1,62.9999980773926,2|8,1:2|0:0,0:1:0:0:
288,241,50924,2,2,P|261:218|235:205,1,62.9999980773926,2|2,0:0|1:0,0:1:0:0:
348,89,51217,2,0,P|344:125|346:152,1,62.9999980773926,0|8,1:0|0:0,0:0:0:0:
404,244,51509,1,2,0:1:0:0:
404,244,51656,6,2,P|415:275|420:379,2,125.999996154785,4|8|0,0:0|0:0|1:0,0:1:0:0:
493,200,52387,2,0,P|500:155|508:131,1,62.9999980773926,0|8,1:0|0:0,0:0:0:0:
438,54,52680,2,2,B|373:60|397:86|315:99,1,125.999996154785,2|0,0:1|1:0,0:1:0:0:
233,68,53119,1,8,0:0:0:0:
233,68,53265,2,0,L|163:57,1,62.9999980773926,2|0,0:0|1:0,0:0:0:0:
116,165,53558,1,0,1:0:0:0:
116,165,53631,1,0,1:0:0:0:
116,165,53704,2,0,L|186:154,1,62.9999980773926,12|0,0:0|0:0,0:0:0:0:
269,200,53997,6,2,P|282:233|276:341,1,125.999996154785,0|8,1:0|0:0,0:1:0:0:
190,303,54436,1,2,0:0:0:0:
190,303,54583,2,0,L|109:314,2,62.9999980773926,2|0|8,1:2|1:0|0:0,0:0:0:0:
282,322,55022,2,2,P|310:303|406:285,1,125.999996154785,2|0,0:1|1:0,0:1:0:0:
472,204,55461,1,8,0:0:0:0:
402,140,55607,2,0,P|394:94|391:66,1,62.9999980773926,2|0,0:1|0:0,0:0:0:0:
299,29,55900,2,0,P|291:75|288:103,1,62.9999980773926,0|0,1:0|1:0,0:0:0:0:
197,44,56192,1,2,0:0:0:0:
103,94,56339,5,6,0:0:0:0:
103,94,56485,2,0,P|99:52|91:20,1,62.9999980773926,2|10,0:0|0:0,0:0:0:0:
194,141,56778,1,2,0:1:0:0:
194,141,56924,2,0,L|187:211,2,62.9999980773926,2|2|10,1:0|1:0|0:0,0:0:0:0:
293,183,57363,2,0,P|355:182|436:176,1,125.999996154785,2|0,0:1|0:0,0:0:0:0:
483,278,57802,1,8,0:0:0:0:
483,278,57948,2,0,P|421:279|340:285,1,125.999996154785,4|4,0:0|0:3,0:0:0:0:
106,114,58680,6,2,B|175:96|164:160|244:138,2,125.999996154785,6|0|10,0:1|0:0|0:0,0:1:0:0:
44,176,59558,1,2,0:0:0:0:
69,257,59851,2,0,P|85:288|177:325,1,125.999996154785,2|2,0:0|0:1,0:0:0:0:
240,275,60436,2,0,P|299:263|374:263,1,125.999996154785,10|2,0:0|0:1,0:0:0:0:
443,203,61022,2,0,P|458:239|474:333,2,125.999996154785,4|2|10,0:0|0:0|0:0,0:0:0:0:
356,172,61900,1,2,0:1:0:0:
298,86,62192,2,2,P|360:79|421:65,2,125.999996154785,2|2|8,0:1|0:1|0:0,0:1:0:0:
85,47,63070,2,0,P|93:76|100:109,1,62.9999980773926,2|2,0:0|0:0,0:0:0:0:
117,123,63363,6,0,P|118:166|102:269,2,125.999996154785,2|0|10,0:0|0:0|0:0,0:0:0:0:
218,149,64241,1,2,0:1:0:0:
318,98,64534,2,0,P|328:132|297:230,1,125.999996154785,2|0,0:0|1:0,0:0:0:0:
217,245,65119,2,0,P|195:303|205:364,1,125.999996154785,10|2,0:0|0:1,0:0:0:0:
307,319,65704,2,0,P|369:312|449:306,2,125.999996154785,4|2|10,0:0|0:1|0:0,0:0:0:0:
209,361,66583,1,2,0:1:0:0:
122,304,66875,2,2,P|98:260|102:168,1,125.999996154785,2|2,0:0|0:1,0:1:0:0:
177,73,67461,2,2,P|137:87|42:89,1,125.999996154785,10|0,0:0|0:0,0:1:0:0:
190,174,68046,5,2,0:0:0:0:
270,121,68339,2,0,B|291:180|291:180|264:242,2,125.999996154785,2|10|2,0:1|0:0|0:1,0:0:0:0:
393,67,69217,2,0,P|392:125|383:192,1,125.999996154785,2|2,0:0|0:0,0:0:0:0:
480,304,69802,2,0,P|481:246|490:179,1,125.999996154785,10|0,0:0|0:0,0:0:0:0:
378,285,70387,1,2,0:1:0:0:
297,229,70680,2,0,P|252:221|159:224,1,125.999996154785,2|8,0:1|0:0,0:0:0:0:
61,66,71265,1,2,0:1:0:0:
1,152,71558,2,2,B|80:163|80:163|156:122|156:122|260:134,1,251.999992309571,2|8,0:1|0:0,0:1:0:0:
321,185,72436,2,0,P|329:220|332:255,1,62.9999980773926,2|2,0:0|0:0,0:0:0:0:
423,191,72729,6,0,P|428:156|446:64,2,125.999996154785,2|2|8,0:0|0:3|0:0,0:0:0:0:
348,341,73607,2,0,P|309:339|279:334,1,62.9999980773926,2|2,0:0|0:0,0:0:0:0:
190,291,73900,2,0,P|143:301|98:312,1,94.499997116089,2|0,0:1|0:0,0:0:0:0:
81,300,74192,2,0,L|12:285,1,62.9999980773926,2|0,0:1|0:0,0:0:0:0:
116,216,74485,2,0,P|130:186|134:84,1,125.999996154785,8|2,0:0|0:0,0:0:0:0:
240,32,75070,6,0,P|238:94|260:153,1,125.999996154785,2|2,0:1|0:1,0:0:0:0:
365,177,75656,2,0,L|431:163,2,62.9999980773926,8|2|2,0:0|0:0|0:0,0:0:0:0:
292,246,76095,1,0,1:0:0:0:
57,59,77119,5,2,0:0:0:0:
57,59,77265,1,2,0:0:0:0:
57,59,77412,2,0,P|81:128|88:222,1,154.000004699707,4|8,0:3|0:0,0:0:0:0:
182,267,77851,1,0,0:0:0:0:
182,267,77997,2,0,P|184:217|193:172,1,77.0000023498536,0|0,1:0|1:0,0:0:0:0:
292,135,78290,2,0,P|289:184|281:230,1,77.0000023498536,8|0,0:0|0:0,0:0:0:0:
351,61,78583,6,0,P|399:90|501:83,1,154.000004699707,4|8,0:0|0:0,0:0:0:0:
401,194,79022,1,0,1:0:0:0:
479,269,79168,2,0,P|487:314|487:357,1,77.0000023498536,2|0,0:0|1:0,0:0:0:0:
305,306,79461,2,0,P|306:267|313:229,1,77.0000023498536,4|0,0:2|0:0,0:0:0:0:
139,277,79753,6,0,B|52:268|77:335|-17:327,2,154.000004699707,4|8|0,0:0|0:0|1:0,0:0:0:0:
212,212,80485,1,0,1:0:0:0:
129,149,80631,2,0,P|83:162|49:169,1,77.0000023498536,8|0,0:0|0:0,0:0:0:0:
205,42,80924,6,0,B|224:76|224:76|218:117,1,77.0000023498536,0|0,1:0|1:0,0:0:0:0:
302,180,81217,2,0,B|321:146|321:146|315:105,1,77.0000023498536,14|2,0:0|0:0,0:0:0:0:
396,30,81509,2,0,B|415:64|415:64|409:105,1,77.0000023498536,4|2,0:0|1:2,0:0:0:0:
463,195,81802,1,12,0:0:0:0:
463,195,81948,1,8,0:0:0:0:
388,265,82095,6,0,P|311:275|221:280,1,154.000004699707,4|10,0:1|0:0,0:0:0:0:
73,173,82680,2,0,P|57:117|60:86,1,77.0000023498536,0|0,1:0|1:0,0:0:0:0:
18,268,82973,2,0,P|78:268|134:310,1,115.50000352478,8|0,0:0|0:0,0:0:0:0:
139,314,83265,6,0,B|132:232|185:236|159:136,1,154.000004699707,4|8,0:0|0:0,0:0:0:0:
238,91,83704,2,0,P|252:138|269:167,1,77.0000023498536,4|0,0:0|0:0,0:0:0:0:
410,109,83997,2,0,P|366:101|337:81,1,77.0000023498536,4|0,0:0|0:0,0:0:0:0:
312,244,84290,1,0,1:0:0:0:
312,244,84436,6,0,P|356:220|479:215,1,154.000004699707,4|8,0:0|0:0,0:0:0:0:
485,317,84875,1,0,0:0:0:0:
485,317,85022,2,0,P|434:315|403:299,1,77.0000023498536,0|0,1:0|1:0,0:0:0:0:
322,343,85314,2,0,P|271:345|240:361,1,77.0000023498536,2|2,0:0|0:0,0:0:0:0:
213,259,85607,5,8,0:0:0:0:
213,259,85900,6,0,P|211:187|233:81,1,167.999994873047,4|0,0:3|0:0,0:0:0:0:
13,160,86778,6,0,B|91:127|93:187|171:165,1,154.000004699707,4|8,0:1|0:0,0:0:0:0:
237,99,87217,1,0,0:0:0:0:
237,99,87363,2,0,P|276:105|319:121,1,77.0000023498536,0|0,1:0|1:0,0:0:0:0:
380,186,87656,2,0,P|385:226|384:267,1,77.0000023498536,10|2,0:2|0:0,0:0:0:0:
495,288,87948,6,0,P|484:241|487:122,1,154.000004699707,6|8,0:0|0:0,0:0:0:0:
420,45,88387,1,0,0:0:0:0:
326,97,88534,2,0,P|279:93|235:83,1,77.0000023498536,0|0,1:0|1:0,0:0:0:0:
185,172,88826,2,0,P|138:176|94:186,1,77.0000023498536,8|0,0:0|1:0,0:0:0:0:
136,94,89119,6,0,P|175:117|195:242,1,154.000004699707,4|8,0:2|0:0,0:0:0:0:
133,344,89558,1,2,0:0:0:0:
133,344,89704,2,0,L|118:248,1,77.0000023498536,4|0,0:0|0:0,0:0:0:0:
298,196,89997,2,0,L|286:272,1,77.0000023498536,10|0,0:0|0:0,0:0:0:0:
466,318,90290,6,0,B|457:280|457:280|469:236,1,77.0000023498536,0|0,1:0|1:0,0:0:0:0:
379,158,90583,2,0,B|388:194|388:194|379:232,1,77.0000023498536,4|0,0:0|1:0,0:0:0:0:
204,220,90875,2,0,B|194:183|194:183|203:145,1,77.0000023498536,6|0,0:0|1:0,0:0:0:0:
125,54,91168,1,10,0:0:0:0:
125,54,91314,1,10,0:0:0:0:
69,155,91461,6,0,L|182:132,1,115.50000352478,4|0,0:1|0:0,0:0:0:0:
203,145,91753,2,0,L|293:152,1,77.0000023498536,8|2,0:0|0:0,0:0:0:0:
356,92,92046,1,0,1:0:0:0:
356,92,92192,2,0,L|432:78,1,77.0000023498536,2|8,1:2|0:0,0:0:0:0:
414,187,92485,1,2,0:0:0:0:
414,187,92631,6,0,P|410:241|413:357,1,154.000004699707,4|8,0:0|0:0,0:0:0:0:
313,274,93070,1,2,1:2:0:0:
231,326,93217,2,0,P|192:336|151:341,1,77.0000023498536,2|2,0:0|1:2,0:0:0:0:
70,290,93509,1,10,0:0:0:0:
116,211,93656,1,2,1:2:0:0:
116,211,93802,6,0,P|126:164|107:49,2,154.000004699707,4|8|0,0:0|0:0|1:0,0:0:0:0:
207,236,94534,1,2,1:2:0:0:
277,175,94680,2,0,P|274:131|261:93,1,77.0000023498536,8|2,0:0|0:0,0:0:0:0:
372,147,94973,6,0,P|407:157|453:163,1,77.0000023498536,4|0,0:3|0:0,0:0:0:0:
421,262,95265,2,0,P|386:252|340:246,1,77.0000023498536,8|0,0:0|1:0,0:0:0:0:
261,157,95558,2,0,P|267:113|290:83,1,77.0000023498536,8|0,0:0|1:0,0:0:0:0:
376,57,95851,1,12,0:0:0:0:
376,57,95997,1,12,0:0:0:0:
452,128,96143,6,0,P|460:177|467:308,1,154.000004699707,4|8,0:1|0:0,0:0:0:0:
378,332,96583,1,2,0:0:0:0:
378,332,96729,2,0,P|328:324|247:404,1,154.000004699707,0|8,1:0|0:0,0:0:0:0:
158,319,97168,1,0,0:0:0:0:
158,319,97314,2,0,P|140:279|132:165,1,154.000004699707,4|8,0:0|0:0,0:0:0:0:
241,150,97753,5,2,0:1:0:0:
241,150,97900,2,0,L|336:166,1,77.0000023498536,2|2,1:0|0:1,0:0:0:0:
307,70,98192,2,0,L|231:57,1,77.0000023498536,8|2,0:0|0:1,0:0:0:0:
150,155,98485,2,2,L|328:185,1,154.000004699707,6|8,0:0|0:0,0:1:0:0:
402,154,98924,1,2,0:0:0:0:
402,154,99070,2,0,P|419:198|423:241,1,77.0000023498536,0|0,1:0|1:0,0:0:0:0:
315,355,99363,2,0,P|332:311|336:268,1,77.0000023498536,8|2,0:0|0:1,0:0:0:0:
234,286,99656,6,2,P|184:285|95:344,1,154.000004699707,2|8,0:1|0:0,0:1:0:0:
115,211,100095,1,0,1:0:0:0:
36,148,100241,2,0,P|21:106|18:69,2,77.0000023498536,2|0|8,0:2|0:0|0:0,0:0:0:0:
115,211,100680,1,8,0:0:0:0:
180,129,100826,6,0,L|264:115,2,77.0000023498536,4|2|8,0:1|0:1|0:0,0:0:0:0:
228,212,101265,1,2,0:1:0:0:
300,269,101412,2,0,L|382:284,1,77.0000023498536,2|2,1:1|1:1,0:0:0:0:
471,268,101704,2,0,L|492:355,2,77.0000023498536,12|2|0,0:0|0:0|1:0,0:0:0:0:
470,139,102143,1,2,0:1:0:0:
396,192,102290,2,0,L|320:178,1,77.0000023498536,8|2,0:0|0:1,0:0:0:0:
259,80,102583,5,4,0:0:0:0:
210,259,102875,1,4,0:0:0:0:
98,98,103168,6,2,B|190:108|167:161|255:169,1,154.000004699707,2|10,1:1|0:0,0:1:0:0:
325,138,103607,2,2,P|362:127|404:122,1,77.0000023498536,2|0,0:1|1:0,0:1:0:0:
390,219,103900,1,2,0:1:0:0:
347,304,104046,2,0,P|384:314|426:320,1,77.0000023498536,8|2,0:0|0:1,0:0:0:0:
297,227,104339,5,12,0:0:0:0:
297,227,104631,6,0,B|221:216|239:280|140:287,1,167.999994873047,4|0,0:3|0:0,0:0:0:0:
66,90,105509,6,0,P|57:149|67:270,1,154.000004699707,4|8,0:1|0:0,0:0:0:0:
167,308,105948,1,2,0:0:0:0:
167,308,106095,2,0,P|172:231|162:155,1,154.000004699707,0|8,1:0|0:0,0:0:0:0:
267,79,106534,1,2,0:1:0:0:
267,79,106681,2,0,P|261:155|271:231,1,154.000004699707,4|8,0:0|0:0,0:0:0:0:
391,245,107119,5,2,1:1:0:0:
391,245,107265,2,0,L|485:260,1,77.0000023498536,2|2,0:1|1:1,0:0:0:0:
422,346,107558,2,0,L|345:333,1,77.0000023498536,8|2,0:0|0:1,0:0:0:0:
305,215,107851,2,2,L|493:245,1,154.000004699707,4|8,0:0|0:0,0:1:0:0:
417,143,108290,1,2,0:0:0:0:
471,61,108436,2,0,P|424:55|382:46,1,77.0000023498536,0|0,1:0|1:0,0:0:0:0:
311,113,108729,1,8,0:0:0:0:
224,68,108875,1,2,1:1:0:0:
224,68,108948,1,0,1:0:0:0:
224,68,109022,6,0,P|198:103|201:227,1,154.000004699707,2|8,0:1|0:0,0:0:0:0:
98,285,109461,2,0,P|96:240|86:210,2,77.0000023498536,2|0|0,0:1|1:0|1:0,0:0:0:0:
4,269,109900,1,8,0:0:0:0:
4,269,110046,1,2,0:1:0:0:
23,130,110192,6,0,L|6:49,2,77.0000023498536,4|2|8,0:1|0:0|0:0,0:0:0:0:
85,209,110631,1,2,0:1:0:0:
164,152,110778,2,0,L|243:157,1,77.0000023498536,2|2,1:1|1:0,0:0:0:0:
310,62,111070,2,0,L|233:57,2,77.0000023498536,4|2|4,0:0|0:0|0:0,0:0:0:0:
381,120,111509,1,2,0:1:0:0:
468,78,111656,1,8,0:0:0:0:
468,78,111802,2,0,B|492:121|492:121|461:223,1,154.000004699707,2|0,1:0|1:0,0:0:0:0:
381,291,112241,2,0,L|364:209,1,77.0000023498536,8|2,0:0|0:1,0:0:0:0:
277,275,112534,6,0,P|193:290|123:290,1,154.000004699707,4|8,0:0|0:0,0:0:0:0:
82,204,112973,1,2,0:0:0:0:
82,204,113119,2,0,P|131:195|168:202,1,77.0000023498536,0|0,1:0|1:0,0:0:0:0:
216,92,113412,2,0,P|167:101|130:94,1,77.0000023498536,8|2,0:0|0:1,0:0:0:0:
63,51,113704,5,8,0:0:0:0:
251,186,113997,1,8,0:0:0:0:
251,186,114143,2,0,P|259:139|278:32,1,154.000004699707,0|0,1:0|1:0,0:0:0:0:
374,86,114583,1,8,0:0:0:0:
374,86,114729,1,4,0:0:0:0:
470,62,114875,6,0,B|488:156|419:134|446:254,2,188.999994232178,4|2|2,0:1|0:0|0:0,0:0:0:0:
341,184,116046,2,0,P|342:232|368:320,1,125.999996154785,0|0,1:0|0:0,0:0:0:0:
236,261,116631,2,0,P|189:246|72:331,1,188.999994232178,2|2,0:0|0:0,0:0:0:0:
109,229,117217,6,0,P|91:165|88:86,1,125.999996154785,4|0,0:0|0:0,0:0:0:0:
262,33,117802,2,0,P|280:97|283:176,1,125.999996154785,2|2,0:0|0:0,0:0:0:0:
188,157,118241,2,0,L|175:89,1,62.9999980773926,2|0,0:0|0:0,0:0:0:0:
304,172,118534,2,0,L|292:233,1,62.9999980773926,0|2,1:0|0:0,0:0:0:0:
458,28,118973,2,0,P|464:68|490:168,1,125.999996154785,2|8,0:0|0:0,0:0:0:0:
388,133,119412,1,8,0:0:0:0:
300,78,119558,6,0,B|214:72|212:135|112:136,2,188.999994232178,4|2|2,0:0|0:0|0:0,0:0:0:0:
388,133,120583,1,12,0:0:0:0:
354,230,120729,2,0,P|354:269|363:317,1,62.9999980773926,0|2,0:0|1:2,0:0:0:0:
357,292,120948,1,0,1:0:0:0:
357,292,121022,1,8,0:0:0:0:
185,221,121314,6,0,P|121:214|42:218,1,125.999996154785,6|10,0:0|0:0,0:0:0:0:
5,140,121753,1,2,0:0:0:0:
5,140,121900,2,0,P|30:78|63:55,1,94.499997116089,0|0,1:0|0:0,0:0:0:0:
71,72,122192,2,0,L|137:80,1,62.9999980773926,2|2,0:3|0:3,0:0:0:0:
197,197,122485,2,0,L|134:189,2,62.9999980773926,2|0|2,0:3|1:0|0:0,0:0:0:0:
279,139,122924,1,12,0:0:0:0:
279,139,123509,6,0,P|293:169|302:286,1,125.999996154785,4|0,0:0|0:0,0:0:0:0:
385,320,123948,2,0,P|396:282|397:250,1,62.9999980773926,10|2,0:0|0:0,0:0:0:0:
207,252,124241,6,0,P|209:283|219:313,2,62.9999980773926,4|2|8,0:1|0:0|0:0,0:0:0:0:
118,199,124680,2,0,P|132:144|123:64,1,125.999996154785,2|0,0:0|1:0,0:0:0:0:
220,119,125119,2,0,P|260:137|293:138,1,62.9999980773926,2|8,0:0|0:0,0:0:0:0:
367,84,125412,1,2,0:0:0:0:
367,84,125558,2,0,P|403:72|446:67,1,62.9999980773926,2|8,0:0|0:0,0:0:0:0:
481,183,125851,2,0,P|450:177|420:167,1,62.9999980773926,2|4,0:0|0:0,0:0:0:0:
338,247,126143,1,0,1:0:0:0:
338,247,126217,1,0,1:0:0:0:
338,247,126290,2,0,L|355:327,1,62.9999980773926,8|2,0:0|0:0,0:0:0:0:
240,295,126583,6,0,P|182:284|93:275,1,125.999996154785,4|8,0:0|0:0,0:0:0:0:
56,186,127022,2,0,P|90:183|135:169,1,62.9999980773926,0|0,0:0|1:0,0:0:0:0:
232,53,127314,2,0,P|229:87|215:132,1,62.9999980773926,2|10,1:2|0:0,0:0:0:0:
215,202,127607,2,0,L|187:58,1,125.999996154785,4|0,0:0|1:0,0:0:0:0:
99,65,128046,2,0,L|15:90,2,62.9999980773926,2|8|2,0:0|0:0|1:2,0:0:0:0:
190,78,128485,1,0,1:0:0:0:
287,86,128631,2,0,P|325:79|373:63,1,62.9999980773926,8|2,0:0|0:0,0:0:0:0:
444,144,128924,6,0,P|399:155|356:223,1,125.999996154785,4|10,0:0|0:2,0:0:0:0:
407,308,129363,1,2,0:0:0:0:
407,308,129509,2,0,P|439:299|475:295,2,62.9999980773926,2|2|10,0:0|1:2|0:0,0:0:0:0:
308,302,129948,2,0,L|160:284,1,125.999996154785,6|2,0:0|1:2,0:0:0:0:
138,185,130387,1,8,0:0:0:0:
138,185,130534,2,0,L|263:200,1,125.999996154785,2|0,0:0|1:0,0:0:0:0:
352,153,130973,2,0,P|364:120|364:91,1,62.9999980773926,10|2,0:0|0:0,0:0:0:0:
455,53,131265,5,6,0:0:0:0:
455,53,131412,2,0,L|466:133,1,62.9999980773926,2|10,0:0|0:0,0:0:0:0:
444,214,131704,1,2,0:0:0:0:
444,214,131851,2,0,L|440:294,2,62.9999980773926,2|2|2,0:0|1:2|0:0,0:0:0:0:
335,236,132290,6,0,B|166:212|229:350|48:324,1,314.999990386963,6|4,0:0|0:3,0:0:0:0:
10,208,133314,2,0,P|20:141|31:82,1,125.999996154785,2|4,0:0|0:0,0:0:0:0:
317,140,152339,6,0,B|413:115|399:201|501:183,2,188.999994232178,4|0|2,0:1|0:0|0:0,0:0:0:0:
238,198,153363,1,0,0:0:0:0:
238,198,153509,2,0,P|193:196|116:164,1,125.999996154785,2|4,0:0|0:0,0:0:0:0:
333,44,154095,2,0,P|378:46|455:78,1,125.999996154785,2|2,0:0|0:0,0:0:0:0:
199,98,154680,6,0,P|194:171|195:295,2,188.999994232178,4|0|2,0:0|0:0|0:0,0:0:0:0:
75,219,155851,2,0,P|87:271|93:360,1,125.999996154785,4|2,0:0|0:0,0:0:0:0:
317,328,156436,2,0,P|305:276|299:187,1,125.999996154785,4|2,0:0|0:0,0:0:0:0:
366,86,157022,6,0,P|341:130|189:160,1,188.999994232178,4|0,0:0|0:0,0:0:0:0:
130,121,157607,2,0,B|104:169|104:169|134:259,1,125.999996154785,2|2,0:0|0:0,0:0:0:0:
204,303,158046,1,2,0:1:0:0:
204,303,158192,2,0,L|187:382,2,62.9999980773926,2|2|2,0:1|0:1|0:0,0:0:0:0:
286,252,158631,1,2,0:0:0:0:
366,317,158778,2,0,P|397:316|484:261,1,125.999996154785,2|4,0:0|0:0,0:0:0:0:
256,192,159363,12,0,161412,0:0:0:0:
85,271,161704,6,0,L|101:205,1,62.9999980773926,4|8,0:3|0:3,0:0:0:0:
194,192,161997,2,0,L|175:50,1,125.999996154785,0|8,1:0|0:0,0:0:0:0:
286,97,162436,1,8,0:3:0:0:
286,97,162583,2,0,P|324:90|349:77,1,62.9999980773926,0|8,1:0|0:3,0:0:0:0:
428,133,162875,2,0,P|456:146|487:150,2,62.9999980773926,2|2|12,1:2|0:0|0:3,0:0:0:0:
352,200,163314,1,2,1:2:0:0:
439,241,163461,2,0,P|455:290|456:377,1,125.999996154785,2|8,1:2|0:3,0:0:0:0:
283,268,164046,6,0,B|216:268|233:309|155:322,1,125.999996154785,6|0,0:0|1:0,0:0:0:0:
76,279,164485,1,0,0:0:0:0:
76,279,164631,2,0,P|69:243|68:212,1,62.9999980773926,8|8,0:0|0:3,0:0:0:0:
152,167,164924,2,0,P|159:203|160:234,1,62.9999980773926,4|0,0:0|1:0,0:0:0:0:
248,173,165217,2,0,P|301:161|341:92,1,125.999996154785,2|8,0:0|0:3,0:0:0:0:
326,14,165656,1,0,1:0:0:0:
415,48,165802,2,0,L|497:39,2,62.9999980773926,8|8|12,0:0|0:3|0:3,0:0:0:0:
60,74,166387,6,0,P|81:132|91:195,1,125.999996154785,6|0,0:0|1:0,0:0:0:0:
187,235,166826,2,0,P|185:193|188:159,1,62.9999980773926,0|12,0:0|0:0,0:0:0:0:
258,114,167119,1,8,0:3:0:0:
343,159,167265,1,0,1:0:0:0:
422,110,167412,2,0,P|389:141|397:294,1,188.999994232178,8|8,0:3|0:3,0:0:0:0:
347,367,167997,1,2,1:2:0:0:
251,326,168143,2,0,P|213:329|170:339,2,62.9999980773926,10|0|8,0:0|0:0|0:3,0:0:0:0:
491,170,168729,6,0,B|349:155|393:249|234:224,2,251.999992309571,4|12|2,0:3|0:0|0:0,0:0:0:0:
288,123,170192,5,8,0:3:0:0:
350,48,170339,2,0,L|362:9,2,31.4999990386963,0|0|8,1:0|1:0|0:0,0:0:0:0:
288,123,170631,1,8,0:3:0:0:
197,78,170778,2,0,B|165:72|165:72|121:88,1,62.9999980773926,4|8,0:3|0:0,0:0:0:0:
34,75,171070,6,0,P|45:127|49:179,1,105.000004005432,4|2,0:1|0:0,0:0:0:0:
151,286,171656,2,2,P|155:233|165:182,1,105.000004005432,8|2,0:0|0:1,0:1:0:0:
263,222,172241,1,2,0:0:0:0:
362,128,172534,1,8,0:0:0:0:
396,230,172826,2,2,L|292:215,1,105.000004005432,12|2,0:0|0:1,0:1:0:0:
184,342,173412,2,2,L|287:327,2,105.000004005432,6|2|8,0:0|0:1|0:0,0:1:0:0:
104,283,174290,1,2,0:0:0:0:
167,208,174583,2,2,P|180:176|180:-1,1,210.000008010865,2|10,0:1|0:0,0:1:0:0:
94,64,175461,2,0,P|90:94|96:121,1,52.5000020027161,2|2,0:0|0:0,0:0:0:0:
119,136,175753,6,0,P|172:128|246:119,1,105.000004005432,4|2,0:0|0:0,0:0:0:0:
293,263,176339,2,2,P|345:269|396:277,1,105.000004005432,8|2,0:0|0:1,0:1:0:0:
343,163,176924,2,0,P|331:131|319:53,1,105.000004005432,0|2,1:0|0:1,0:0:0:0:
182,225,177509,2,2,P|194:257|206:335,1,105.000004005432,8|2,0:0|0:1,0:1:0:0:
29,197,178095,2,2,P|21:149|27:73,2,105.000004005432,4|2|8,0:0|0:0|0:0,0:1:0:0:
95,266,178973,1,2,0:1:0:0:
235,141,179265,2,2,P|284:131|349:108,1,105.000004005432,2|2,0:0|0:1,0:1:0:0:
414,205,179851,2,2,P|365:215|300:238,1,105.000004005432,8|2,0:0|0:1,0:1:0:0:
146,82,180436,5,4,0:0:0:0:
104,187,180729,1,2,0:0:0:0:
194,251,181022,2,0,P|203:278|209:364,1,105.000004005432,8|0,0:0|0:0,0:0:0:0:
21,258,181607,2,2,P|12:231|6:145,2,105.000004005432,2|0|8,0:1|1:0|0:0,0:1:0:0:
110,304,182485,1,2,0:1:0:0:
105,187,182778,1,4,0:0:0:0:
207,240,183070,2,2,P|247:246|334:239,1,105.000004005432,2|8,0:0|0:0,0:1:0:0:
383,174,183656,1,2,0:1:0:0:
463,237,183948,2,2,B|484:276|484:276|475:336,2,105.000004005432,2|2|8,0:1|0:1|0:0,0:1:0:0:
383,174,184826,2,0,P|386:129|393:105,1,52.5000020027161,2|2,0:0|0:0,0:0:0:0:
467,86,185119,6,0,P|391:82|253:59,1,210.000008010865,4|8,0:0|0:0,0:0:0:0:
167,110,185997,2,0,L|152:171,1,52.5000020027161,2|2,0:0|1:0,0:0:0:0:
172,179,186290,2,2,B|194:215|194:215|180:292,1,105.000004005432,2|2,0:1|0:0,0:1:0:0:
78,228,186875,2,2,B|56:192|56:192|70:115,1,105.000004005432,8|2,0:0|0:0,0:1:0:0:
262,143,187461,2,0,L|381:126,1,105.000004005432,0|2,1:0|0:0,0:0:0:0:
344,266,188046,2,0,L|278:277,2,52.5000020027161,8|2|2,0:0|0:0|0:0,0:0:0:0:
423,213,188485,1,0,1:0:0:0:
423,213,188631,6,0,B|445:268|445:268|432:304|432:304|451:367,1,157.500006008148,4|0,0:3|0:0,0:0:0:0:
83,302,189509,5,2,0:0:0:0:
83,302,189656,1,2,0:0:0:0:
83,302,189802,2,0,P|95:237|97:128,1,154.000004699707,4|10,0:3|0:0,0:0:0:0:
206,223,190241,1,0,0:0:0:0:
206,223,190387,2,0,P|246:215|286:196,1,77.0000023498536,0|0,1:0|1:0,0:0:0:0:
395,277,190680,2,0,P|355:285|315:304,1,77.0000023498536,10|2,0:0|0:0,0:0:0:0:
378,190,190973,6,0,P|381:147|412:41,1,154.000004699707,4|8,0:0|0:0,0:0:0:0:
270,83,191412,1,0,1:0:0:0:
270,83,191558,2,0,P|281:122|286:169,1,77.0000023498536,2|0,0:0|1:0,0:0:0:0:
98,261,191851,2,0,P|87:222|82:175,1,77.0000023498536,2|0,1:2|0:0,0:0:0:0:
181,69,192143,6,0,L|181:249,2,154.000004699707,4|10|0,0:0|0:0|1:0,0:0:0:0:
93,36,192875,1,0,1:0:0:0:
22,99,193022,2,0,L|30:189,1,77.0000023498536,10|0,0:0|0:0,0:0:0:0:
171,241,193314,6,0,B|132:255|132:255|85:244,1,77.0000023498536,2|0,1:2|1:0,0:0:0:0:
5,340,193607,2,0,B|44:354|44:354|91:343,1,77.0000023498536,12|0,0:0|1:0,0:0:0:0:
250,358,193900,2,0,B|211:344|211:344|164:355,1,77.0000023498536,6|0,0:0|1:0,0:0:0:0:
271,265,194192,1,12,0:0:0:0:
271,265,194339,1,8,0:0:0:0:
189,198,194485,6,0,P|172:160|183:45,1,154.000004699707,4|8,0:1|0:0,0:0:0:0:
180,50,195070,2,0,L|273:33,1,77.0000023498536,2|0,0:0|1:0,0:0:0:0:
281,134,195363,2,0,P|333:148|405:168,1,115.50000352478,8|0,0:0|0:0,0:0:0:0:
419,162,195656,6,0,B|451:209|451:209|428:309,1,154.000004699707,4|8,0:0|0:0,0:0:0:0:
347,358,196095,2,0,L|334:270,1,77.0000023498536,6|0,0:0|0:0,0:0:0:0:
138,274,196387,2,0,P|132:317|115:356,1,77.0000023498536,6|8,0:0|0:0,0:0:0:0:
251,302,196680,1,2,1:2:0:0:
251,302,196826,6,0,P|227:253|216:141,1,154.000004699707,4|8,0:0|0:0,0:0:0:0:
143,88,197265,1,2,0:0:0:0:
143,88,197412,2,0,P|93:99|60:114,1,77.0000023498536,0|0,1:0|1:0,0:0:0:0:
213,12,197704,2,0,P|263:23|296:38,1,77.0000023498536,10|2,0:0|0:0,0:0:0:0:
345,114,197997,5,8,0:0:0:0:
345,114,198290,6,0,P|404:107|512:59,1,167.999994873047,4|0,0:3|0:0,0:0:0:0:
471,218,199168,6,0,P|415:216|311:198,1,154.000004699707,4|10,0:1|0:0,0:0:0:0:
222,175,199607,1,0,0:0:0:0:
148,247,199753,2,0,P|140:286|147:341,1,77.0000023498536,2|2,1:2|1:2,0:0:0:0:
39,194,200046,2,0,P|31:155|38:100,1,77.0000023498536,8|2,0:0|0:0,0:0:0:0:
132,141,200339,6,0,P|184:134|261:63,1,154.000004699707,4|10,0:0|0:0,0:0:0:0:
339,145,200778,1,0,1:0:0:0:
339,145,200924,2,0,P|349:184|354:224,2,77.0000023498536,2|0|10,0:0|1:0|0:0,0:0:0:0:
467,13,201509,6,0,P|452:64|451:176,1,154.000004699707,4|10,0:0|0:0,0:0:0:0:
491,254,201948,1,0,0:0:0:0:
417,321,202095,2,0,L|326:309,1,77.0000023498536,2|0,1:2|1:0,0:0:0:0:
259,225,202387,2,0,L|168:237,1,77.0000023498536,10|0,0:0|0:0,0:0:0:0:
212,384,202680,6,0,B|231:346|231:346|224:298,1,77.0000023498536,0|0,1:0|1:0,0:0:0:0:
104,181,202973,2,0,B|85:219|85:219|92:267,1,77.0000023498536,4|0,0:0|1:0,0:0:0:0:
59,352,203265,2,0,L|150:326,1,77.0000023498536,4|0,0:0|1:0,0:0:0:0:
202,220,203558,1,12,0:0:0:0:
202,220,203704,1,8,0:0:0:0:
312,249,203851,6,0,L|479:264,1,154.000004699707,4|10,0:1|0:0,0:0:0:0:
409,164,204290,1,2,0:0:0:0:
466,81,204436,1,2,1:2:0:0:
466,81,204583,2,0,P|418:77|368:63,1,77.0000023498536,2|8,1:2|0:0,0:0:0:0:
239,138,204875,2,0,P|277:140|315:148,1,77.0000023498536,2|4,0:0|0:0,0:0:0:0:
283,31,205168,5,2,0:0:0:0:
283,31,205314,2,0,L|201:47,1,77.0000023498536,10|2,0:0|1:2,0:0:0:0:
75,98,205607,1,2,0:0:0:0:
75,98,205753,2,0,L|0:83,2,77.0000023498536,2|10|0,1:2|0:0|1:0,0:0:0:0:
138,1,206192,6,0,P|158:51|154:162,1,154.000004699707,6|8,0:0|0:0,0:0:0:0:
90,226,206631,1,0,0:0:0:0:
90,226,206778,2,0,P|98:266|102:308,1,77.0000023498536,0|2,1:0|1:2,0:0:0:0:
184,378,207070,2,0,P|190:334|209:264,1,115.50000352478,8|0,0:0|0:0,0:0:0:0:
227,253,207363,6,2,B|266:253|266:253|307:233,2,77.0000023498536,4|0|8,0:0|1:0|0:0,0:1:0:0:
178,171,207802,2,2,B|239:165|239:165|276:144|276:144|342:149,2,154.000004699707,4|4|8,0:0|0:0|0:0,0:1:0:0:
77,214,208534,5,4,0:0:0:0:
387,129,210290,6,0,L|458:107,2,77.0000023498536,4|4|8,0:3|0:3|0:0,0:0:0:0:
387,129,210729,6,0,B|270:100|309:213|163:184,1,231.000007049561,4|10,0:3|0:0,0:0:0:0:
88,140,211314,1,0,0:0:0:0:
27,220,211461,2,0,P|22:261|27:308,1,77.0000023498536,0|0,1:0|1:0,0:0:0:0:
121,380,211753,2,0,P|131:331|119:257,1,115.50000352478,10|0,0:0|0:0,0:0:0:0:
122,266,212046,6,0,L|203:276,1,77.0000023498536,2|0,1:2|1:0,0:0:0:0:
298,358,212339,2,0,L|216:368,1,77.0000023498536,6|0,0:0|1:0,0:0:0:0:
291,264,212631,2,0,L|367:254,1,77.0000023498536,4|0,0:0|1:0,0:0:0:0:
469,296,212924,1,12,0:0:0:0:
469,296,213070,1,0,1:0:0:0:
436,187,213217,6,0,P|413:136|420:29,1,154.000004699707,4|10,0:1|0:0,0:0:0:0:
319,104,213656,1,0,1:0:0:0:
240,47,213802,2,0,P|184:60|153:61,1,77.0000023498536,2|0,0:0|1:0,0:0:0:0:
97,146,214095,2,0,P|153:159|184:160,1,77.0000023498536,14|0,0:0|0:0,0:0:0:0:
263,201,214387,6,0,P|285:240|277:357,1,154.000004699707,4|8,0:0|0:0,0:0:0:0:
181,366,214826,2,0,P|186:323|196:288,1,77.0000023498536,2|0,1:2|0:0,0:0:0:0:
5,250,215119,2,0,P|14:287|19:325,1,77.0000023498536,2|8,0:0|0:0,0:0:0:0:
103,282,215412,1,0,1:0:0:0:
103,282,215558,6,0,L|86:125,2,154.000004699707,4|10|0,0:0|0:0|1:0,0:0:0:0:
193,220,216290,1,0,1:0:0:0:
279,269,216436,2,0,P|319:274|358:270,1,77.0000023498536,10|0,0:0|0:0,0:0:0:0:
423,358,216729,5,8,0:0:0:0:
423,358,217022,6,0,B|468:318|468:318|444:205,1,167.999994873047,4|0,0:3|0:0,0:0:0:0:
366,36,217900,6,0,P|339:72|361:182,1,154.000004699707,4|10,0:1|0:0,0:0:0:0:
251,138,218339,1,0,0:0:0:0:
173,200,218485,2,0,P|133:199|86:195,1,77.0000023498536,2|2,1:2|1:2,0:0:0:0:
43,90,218778,2,0,P|83:91|130:95,1,77.0000023498536,10|2,0:0|0:0,0:0:0:0:
210,42,219070,6,0,P|281:39|382:20,1,154.000004699707,4|10,0:0|0:0,0:0:0:0:
452,76,219509,1,0,1:0:0:0:
393,164,219656,2,0,P|383:205|423:323,1,154.000004699707,4|8,0:0|0:0,0:0:0:0:
177,278,220241,6,0,B|93:293|132:337|48:352,2,154.000004699707,4|8|2,0:0|0:0|1:2,0:0:0:0:
229,199,220973,1,0,1:0:0:0:
288,120,221119,2,0,P|246:116|207:107,1,77.0000023498536,10|0,0:0|0:0,0:0:0:0:
38,84,221412,6,0,B|29:120|29:120|43:161,1,77.0000023498536,0|0,1:0|1:0,0:0:0:0:
131,199,221704,2,0,B|140:163|140:163|126:122,1,77.0000023498536,12|0,0:0|1:0,0:0:0:0:
208,34,221997,2,0,B|199:70|199:70|213:111,1,77.0000023498536,6|0,0:0|1:0,0:0:0:0:
293,150,222290,1,12,0:0:0:0:
293,150,222436,1,8,0:0:0:0:
385,110,222583,6,0,P|403:184|417:273,1,154.000004699707,4|10,0:1|0:0,0:0:0:0:
323,319,223022,2,0,P|320:270|331:234,1,77.0000023498536,2|0,0:0|1:0,0:0:0:0:
505,234,223314,2,0,P|508:283|497:319,1,77.0000023498536,2|8,0:0|0:0,0:0:0:0:
415,260,223607,1,0,1:0:0:0:
383,168,223753,6,0,P|366:120|356:7,1,154.000004699707,4|10,0:0|0:0,0:0:0:0:
261,80,224192,1,2,1:2:0:0:
173,48,224339,2,0,P|122:52|74:138,1,154.000004699707,2|8,0:0|0:0,0:0:0:0:
170,297,224924,6,0,P|181:240|172:127,2,154.000004699707,4|8|0,0:0|0:0|1:0,0:0:0:0:
90,363,225656,1,0,1:0:0:0:
82,270,225802,2,0,P|69:226|68:190,1,77.0000023498536,10|2,0:0|0:0,0:0:0:0:
218,216,226095,6,2,B|291:212|291:212|343:166|343:166|434:159,1,231.000007049561,2|0,0:1|0:0,0:1:0:0:
431,159,226680,1,2,0:1:0:0:
335,343,227119,5,0,0:0:0:0:
335,343,227265,2,0,P|360:299|347:186,1,154.000004699707,4|8,0:3|0:0,0:0:0:0:
278,123,227704,1,2,0:0:0:0:
336,36,227851,2,0,P|377:36|425:42,1,77.0000023498536,2|0,0:0|0:0,0:0:0:0:
260,136,228143,2,0,P|218:135|171:130,1,77.0000023498536,8|2,0:0|0:0,0:0:0:0:
86,102,228436,6,0,B|57:153|57:153|90:242,1,154.000004699707,2|8,0:0|0:0,0:0:0:0:
102,339,228875,1,2,0:0:0:0:
192,287,229022,2,0,L|184:211,1,77.0000023498536,2|0,0:0|1:0,0:0:0:0:
355,126,229314,2,0,L|363:202,1,77.0000023498536,8|2,0:0|0:0,0:0:0:0:
283,318,229607,6,2,L|266:164,1,154.000004699707,4|8,0:0|0:0,0:1:0:0:
352,38,230046,1,2,0:1:0:0:
438,75,230192,2,0,B|455:113|455:113|447:151,1,77.0000023498536,2|2,1:1|0:1,0:0:0:0:
351,278,230485,2,0,B|334:240|334:240|342:202,1,77.0000023498536,8|2,0:0|0:1,0:0:0:0:
508,244,230778,6,2,L|431:233,2,77.0000023498536,2|0|8,1:1|1:0|0:0,0:1:0:0:
450,330,231217,2,0,P|389:333|304:374,1,154.000004699707,0|2,1:0|0:1,0:0:0:0:
233,290,231656,1,8,0:0:0:0:
233,290,231802,1,2,1:2:0:0:
134,327,231948,6,2,P|112:292|136:179,1,154.000004699707,4|8,0:0|0:0,0:1:0:0:
291,128,232387,1,2,0:0:0:0:
202,109,232534,2,0,P|208:152|215:189,1,77.0000023498536,0|0,1:0|1:0,0:0:0:0:
111,98,232826,2,0,P|117:60|123:21,1,77.0000023498536,8|0,0:0|0:0,0:0:0:0:
216,18,233119,6,2,P|260:35|371:19,1,154.000004699707,2|8,0:1|0:0,0:1:0:0:
428,87,233558,1,2,0:1:0:0:
464,179,233704,2,0,P|413:173|381:173,1,77.0000023498536,2|0,0:1|1:0,0:0:0:0:
416,275,233997,2,0,P|414:313|409:351,1,77.0000023498536,8|0,0:0|0:0,0:0:0:0:
316,255,234290,6,2,P|301:217|306:101,1,154.000004699707,4|8,0:0|0:0,0:1:0:0:
208,167,234729,1,2,0:1:0:0:
129,112,234875,2,2,B|91:106|91:106|45:122,1,77.0000023498536,0|0,1:0|1:0,0:1:0:0:
178,258,235168,2,2,B|216:264|216:264|262:248,1,77.0000023498536,8|2,0:0|0:1,0:1:0:0:
92,204,235461,6,2,L|86:292,1,77.0000023498536,8|0,0:0|0:0,0:1:0:0:
86,280,235753,6,0,B|173:261|156:326|249:318,1,167.999994873047,4|0,0:3|0:0,0:0:0:0:
374,276,236631,6,0,B|401:231|401:231|383:128,1,154.000004699707,4|8,0:1|0:0,0:0:0:0:
413,36,237070,1,2,0:0:0:0:
487,101,237217,2,0,L|479:191,1,77.0000023498536,2|0,1:2|1:0,0:0:0:0:
285,229,237509,2,0,L|291:152,1,77.0000023498536,10|2,0:0|0:1,0:0:0:0:
165,104,237802,6,0,P|124:130|7:142,1,154.000004699707,2|8,0:1|0:0,0:0:0:0:
81,248,238241,1,2,0:1:0:0:
81,248,238387,2,2,P|133:231|163:233,1,77.0000023498536,2|2,1:0|1:0,0:1:0:0:
300,362,238680,2,2,P|248:379|218:377,1,77.0000023498536,8|2,0:0|0:1,0:1:0:0:
246,281,238973,6,2,L|258:119,1,154.000004699707,4|8,0:0|0:0,0:1:0:0:
170,65,239412,1,2,0:0:0:0:
170,65,239558,2,0,L|162:153,2,77.0000023498536,0|0|8,1:0|1:0|0:0,0:0:0:0:
272,34,239997,1,2,1:1:0:0:
272,34,240070,1,0,1:0:0:0:
272,34,240143,6,2,P|314:43|434:-8,1,154.000004699707,2|8,1:0|0:0,0:1:0:0:
441,122,240583,2,2,P|433:171|437:283,1,154.000004699707,2|2,1:1|1:1,0:1:0:0:
336,263,241022,1,8,0:0:0:0:
336,263,241168,1,8,0:0:0:0:
257,327,241314,6,0,B|223:343|223:343|179:343,2,77.0000023498536,4|2|8,0:0|0:0|0:0,0:0:0:0:
336,263,241753,1,2,0:1:0:0:
268,187,241900,2,0,L|252:99,1,77.0000023498536,2|2,1:0|1:0,0:0:0:0:
336,47,242192,6,0,L|349:122,2,77.0000023498536,4|2|4,0:0|0:0|0:0,0:0:0:0:
248,16,242631,1,2,0:1:0:0:
169,73,242778,2,0,L|74:62,1,77.0000023498536,8|2,0:0|1:0,0:0:0:0:
34,156,243070,2,0,L|186:173,1,154.000004699707,2|8,0:0|0:0,0:0:0:0:
484,177,243656,6,2,B|406:172|423:223|331:228,1,154.000004699707,4|8,0:2|0:0,0:1:0:0:
270,295,244095,1,2,0:1:0:0:
270,295,244241,2,0,P|228:288|188:288,1,77.0000023498536,0|0,1:0|1:0,0:0:0:0:
143,196,244534,2,2,P|185:189|225:189,1,77.0000023498536,10|2,0:0|0:1,0:1:0:0:
319,138,244826,6,2,P|334:102|336:61,1,77.0000023498536,8|0,0:0|0:0,0:1:0:0:
241,84,245119,2,2,P|164:95|33:2,1,231.000007049561,8|0,0:0|1:0,0:1:0:0:
90,106,245704,1,8,0:0:0:0:
90,106,245851,1,8,0:0:0:0:
29,190,245997,6,0,P|21:240|31:330,1,125.999996154785,4|0,0:1|0:0,0:0:0:0:
128,338,246436,1,0,0:0:0:0:
128,338,246583,2,0,P|157:345|203:347,2,62.9999980773926,0|2|0,0:0|0:0|0:0,0:0:0:0:
121,240,247022,2,0,P|163:227|257:239,1,125.999996154785,10|0,0:0|1:0,0:0:0:0:
324,288,247461,1,8,0:0:0:0:
390,215,247607,2,0,P|399:165|400:135,1,62.9999980773926,2|0,0:0|0:0,0:0:0:0:
308,123,247900,2,0,L|273:131,2,31.4999990386963,0|0|8,1:0|1:0|0:0,0:0:0:0:
380,65,248192,1,0,0:0:0:0:
478,99,248339,6,0,P|488:140|480:245,1,125.999996154785,4|8,0:0|0:0,0:0:0:0:
429,298,248778,1,2,0:0:0:0:
351,243,248924,1,2,0:0:0:0:
351,243,249070,2,0,L|266:254,1,62.9999980773926,2|2,1:2|0:0,0:0:0:0:
233,351,249363,6,0,P|202:303|62:287,1,188.999994232178,12|2,0:0|0:0,0:0:0:0:
129,176,249948,2,0,P|123:126|116:103,1,62.9999980773926,2|2,1:2|1:2,0:0:0:0:
227,144,250241,1,0,1:0:0:0:
227,144,250314,1,0,1:0:0:0:
227,144,250387,2,0,P|257:151|288:157,1,62.9999980773926,8|2,0:0|0:0,0:0:0:0:
375,108,250680,6,0,P|402:138|412:243,1,125.999996154785,4|8,0:0|0:0,0:0:0:0:
351,302,251119,2,0,P|345:338|344:366,2,62.9999980773926,2|2|0,0:0|0:0|1:0,0:0:0:0:
272,246,251558,1,2,0:0:0:0:
203,310,251704,2,0,P|165:318|61:281,1,125.999996154785,12|0,0:0|1:0,0:0:0:0:
53,199,252143,1,8,0:0:0:0:
144,221,252290,2,0,P|153:187|153:152,1,62.9999980773926,2|0,0:0|1:0,0:0:0:0:
236,90,252583,2,0,P|237:121|245:151,1,62.9999980773926,0|8,1:0|0:0,0:0:0:0:
327,196,252875,1,2,0:0:0:0:
327,196,253022,6,0,P|378:187|480:186,1,125.999996154785,6|0,0:0|0:0,0:0:0:0:
485,84,253461,2,0,P|445:90|409:88,1,62.9999980773926,0|2,0:0|0:0,0:0:0:0:
349,22,253753,2,0,P|318:16|286:16,1,62.9999980773926,2|2,1:2|0:0,0:0:0:0:
249,110,254046,6,0,P|280:109|311:104,1,62.9999980773926,12|0,0:0|1:0,0:0:0:0:
388,188,254339,1,0,1:0:0:0:
388,188,254412,1,0,1:0:0:0:
388,188,254485,2,0,L|397:220,2,31.4999990386963,0|0|4,1:0|1:0|1:2,0:0:0:0:
