osu file format v14

[General]
AudioFilename: audio.mp3
AudioLeadIn: 0
PreviewTime: 77083
Countdown: 0
SampleSet: Soft
StackLeniency: 0.5
Mode: 0
LetterboxInBreaks: 0
WidescreenStoryboard: 1

[Editor]
Bookmarks: 21216,39948,58680,77411,96143,114875,119558,124241,133607,152338,161704,171070,189802,207363,208533,210729,226094,227265,236631,245997,254631
DistanceSpacing: 0.5
BeatDivisor: 4
GridSize: 32
TimelineZoom: 3.299999

[Metadata]
Title:Kairikou
TitleUnicode:乖離光
Artist:Feryquitous feat. Aitsuki Nakuru
ArtistUnicode:Feryquitous feat. 藍月なくる
Creator:Ryuusei Aika
Version:den0saur's Insane
Source:
Tags:フェリキタス soleil de minuit Pino -[Pino]- Hailie Kibbleru den0saur Dynamix DJmax Parad_X wothe Suzuki_1112 1112deng Miura Skystar Amamiya Yuko
BeatmapID:1626474
BeatmapSetID:740862

[Difficulty]
HPDrainRate:5.5
CircleSize:4
OverallDifficulty:7.5
ApproachRate:9
SliderMultiplier:1.5
SliderTickRate:1

[Events]
//Background and Video events
0,0,"BG.jpg",0,0
//Break Periods
2,21417,29397
2,152539,160812
//Storyboard Layer 0 (Background)
//Storyboard Layer 1 (Fail)
//Storyboard Layer 2 (Pass)
//Storyboard Layer 3 (Foreground)
//Storyboard Sound Samples

[TimingPoints]
144,292.682926829268,4,2,1,70,1,0
38631,-200,4,2,1,70,0,0
39948,-117.647058823529,4,2,1,50,0,0
41851,-117.647058823529,4,2,1,40,0,0
44339,-117.647058823529,4,2,1,70,0,0
44631,-117.647058823529,4,2,1,50,0,0
49314,-100,4,2,1,70,0,0
58680,-166.666666666667,4,2,1,70,0,0
75656,-142.857142857143,4,2,1,70,0,0
76241,-166.666666666667,4,2,1,70,0,0
77412,-100,4,2,1,70,0,1
85607,-200,4,2,1,70,0,0
86485,-133.333333333333,4,2,1,70,0,0
86778,-100,4,2,1,70,0,1
96143,-100,4,2,1,70,0,0
104631,-200,4,2,1,70,0,0
105509,-100,4,2,1,70,0,0
113704,-133.333333333333,4,2,1,70,0,0
114875,-166.666666666667,4,2,1,70,0,0
114948,-166.666666666667,4,2,0,50,0,0
119558,-166.666666666667,4,2,1,50,0,0
121314,-142.857142857143,4,2,1,50,0,0
124241,-100,4,2,1,70,0,0
133607,-100,4,2,1,70,0,0
161412,-200,4,2,1,70,0,0
161704,-200,4,2,1,70,0,0
171070,-166.666666666667,4,2,1,70,0,0
188046,-142.857142857143,4,2,1,70,0,0
188631,-200,4,2,1,70,0,0
189802,-100,4,2,1,70,0,1
197997,-200,4,2,1,70,0,0
199168,-100,4,2,1,70,0,1
207070,-100,4,2,1,70,0,0
210729,-100,4,2,1,70,0,1
216729,-200,4,2,1,70,0,0
217900,-100,4,2,1,70,0,1
226095,-133.333333333333,4,2,1,70,0,0
227265,-100,4,2,1,70,0,0
235753,-200,4,2,1,70,0,0
236631,-100,4,2,1,70,0,0
245119,-133.333333333333,4,2,1,70,0,0
245997,-200,4,2,1,60,0,0
253022,-142.857142857143,4,2,1,60,0,0
254046,-133.333333333333,4,2,1,60,0,0
254339,-100,4,2,1,60,0,0

[Colours]
Combo1 : 71,88,90
Combo2 : 183,193,193
Combo3 : 89,116,133
Combo4 : 122,185,194

[HitObjects]
150,187,144,6,0,P|152:224|164:259,1,75,2|0,1:0|0:0,0:0:0:0:
164,259,364,1,0,0:0:0:0:
164,259,437,2,0,B|264:245|225:284|312:268,1,150,2|2,1:0|1:0,0:0:0:0:
384,340,876,1,0,0:0:0:0:
454,282,1023,2,0,L|460:183,1,75,2|0,1:0|0:0,0:0:0:0:
326,171,1314,5,2,1:0:0:0:
242,141,1461,2,0,L|234:88,4,37.5,8|8|4|4|2,0:3|0:3|0:3|0:3|1:3,0:0:0:0:
242,141,2046,1,2,1:3:0:0:
206,308,2339,5,0,0:0:0:0:
206,308,2486,2,0,L|52:302,1,150,2|2,3:1|1:0,0:0:0:0:
100,217,2924,2,0,P|140:220|172:210,1,75,0|2,0:0|1:0,0:0:0:0:
155,39,3217,2,0,P|116:35|80:43,1,75,0|2,0:0|1:0,0:0:0:0:
123,127,3510,2,0,L|285:116,1,150,0|0,0:0|0:0,0:0:0:0:
384,38,3948,1,2,1:0:0:0:
384,38,4095,1,0,0:0:0:0:
479,63,4242,1,2,1:0:0:0:
479,63,4388,2,0,P|499:101|496:156,1,75,0|2,0:0|1:0,0:0:0:0:
445,206,4680,1,0,0:0:0:0:
326,197,4826,6,0,L|195:210,1,112.5,2|0,1:0|0:0,0:0:0:0:
214,208,5119,2,0,P|194:246|197:301,1,75,2|0,1:0|0:0,0:0:0:0:
260,334,5412,1,2,1:0:0:0:
260,334,5558,1,0,0:0:0:0:
125,127,5852,2,0,L|3:115,1,112.5,0|0,0:0|0:0,0:0:0:0:
14,116,6144,2,0,P|7:72|15:24,1,75,0|2,0:0|1:0,0:0:0:0:
187,47,6437,2,0,B|285:30|242:67|334:53,1,150,0|0,0:0|0:0,0:0:0:0:
512,104,6875,1,10,0:1:0:0:
512,104,7022,1,8,0:0:0:0:
424,148,7169,6,0,P|416:74|433:-2,1,150,2|10,1:0|0:1,0:0:0:0:
512,209,7608,1,0,0:0:0:0:
512,209,7681,1,0,0:0:0:0:
512,209,7754,1,2,0:1:0:0:
443,275,7901,2,0,P|443:318|431:373,1,75,0|0,0:0|0:0,0:0:0:0:
315,377,8193,2,0,L|146:369,1,150,8|0,0:0|1:0,0:0:0:0:
101,315,8632,1,10,0:1:0:0:
101,315,8779,1,0,0:0:0:0:
150,196,8925,2,0,P|188:194|236:210,1,75,2|0,0:1|0:0,0:0:0:0:
309,280,9217,1,10,1:0:0:0:
389,247,9363,1,0,0:0:0:0:
501,285,9510,6,0,L|511:133,1,150,2|10,1:0|0:1,0:0:0:0:
510,135,9875,1,0,0:0:0:0:
510,135,9948,1,0,0:0:0:0:
420,109,10095,2,0,P|415:70|414:24,1,75,2|0,0:1|0:0,0:0:0:0:
321,72,10388,1,2,1:0:0:0:
321,72,10535,2,0,P|320:123|244:182,1,150,8|0,0:0|0:0,0:0:0:0:
102,116,10974,1,2,1:0:0:0:
95,31,11120,1,8,0:0:0:0:
183,34,11265,2,0,P|191:73|192:125,1,75,2|0,1:0|1:0,0:0:0:0:
41,196,11558,1,10,0:1:0:0:
34,213,11852,6,0,B|125:193|88:245|195:216,1,150,4|0,1:2|0:0,0:0:0:0:
273,157,12291,1,0,0:0:0:0:
273,157,12584,1,0,1:0:0:0:
359,133,12730,1,0,0:0:0:0:
437,177,12876,2,0,P|442:219|425:263,1,75,8|0,0:0|0:0,0:0:0:0:
301,291,13168,1,0,1:0:0:0:
301,291,13314,1,8,0:0:0:0:
224,330,13460,1,2,0:1:0:0:
224,330,13607,2,0,P|158:323|67:324,1,150,2|8,0:1|0:0,0:0:0:0:
393,356,14193,6,0,P|447:355|506:345,1,112.5,0|0,1:2|0:0,0:0:0:0:
505,346,14485,2,0,L|509:270,1,75,8|0,0:0|0:0,0:0:0:0:
453,207,14778,1,0,0:0:0:0:
453,207,14924,1,0,1:0:0:0:
351,0,15217,2,0,L|269:7,1,75,8|0,0:0|0:0,0:0:0:0:
402,77,15509,1,0,1:0:0:0:
402,77,15656,2,0,L|483:80,1,75,8|2,0:0|0:1,0:0:0:0:
511,167,15948,2,0,P|441:164|386:219,1,150,2|8,0:1|0:0,0:0:0:0:
122,342,16534,6,0,L|113:188,1,150,0|8,1:2|0:0,0:0:0:0:
194,144,16974,2,0,P|207:182|201:236,1,75,0|0,0:0|0:0,0:0:0:0:
22,209,17265,2,0,P|22:172|36:134,1,75,0|0,1:0|0:0,0:0:0:0:
118,83,17559,2,0,P|185:106|257:79,1,150,8|0,0:0|1:0,0:0:0:0:
352,87,17997,2,0,B|342:12,1,75,8|2,0:0|0:1,0:0:0:0:
456,38,18290,1,2,0:1:0:0:
456,38,18436,1,0,1:0:0:0:
512,97,18582,2,0,B|502:172,1,75,8|0,0:0|0:0,0:0:0:0:
328,203,18875,5,0,1:2:0:0:
328,203,19023,2,0,B|316:293|354:257|340:352,1,150,0|0,0:0|0:0,0:0:0:0:
340,350,19607,2,0,P|301:354|266:372,1,75,0|0,1:0|0:0,0:0:0:0:
457,371,19900,1,10,0:1:0:0:
114,278,20485,5,2,1:3:0:0:
114,278,20779,5,2,1:3:0:0:
189,237,20925,2,0,P|196:197|194:158,1,75,0|0,0:0|0:0,0:0:0:0:
123,76,21217,1,6,1:2:0:0:
66,255,29997,5,8,0:3:0:0:
66,255,30143,1,8,0:3:0:0:
66,255,30290,1,4,0:3:0:0:
66,255,30584,6,0,P|58:184|66:93,1,150,6|0,1:2|0:0,0:0:0:0:
230,200,31168,2,0,P|240:128|237:48,1,150,2|10,1:0|0:0,0:0:0:0:
188,326,31753,2,0,P|263:339|341:290,1,150,2|10,1:0|0:0,0:0:0:0:
394,112,32339,2,0,L|398:38,1,75,2|0,1:0|0:0,0:0:0:0:
508,132,32631,1,10,0:0:0:0:
508,132,32778,1,0,0:0:0:0:
470,210,32924,6,0,P|395:223|317:174,1,150,2|10,1:2|0:0,0:0:0:0:
146,41,33509,2,0,P|75:27|7:58,1,150,2|10,1:0|0:0,0:0:0:0:
233,17,33948,1,0,0:0:0:0:
233,17,34095,2,0,L|316:24,1,75,2|0,1:0|0:0,0:0:0:0:
185,118,34388,2,0,L|102:125,1,75,10|0,0:0|0:0,0:0:0:0:
34,221,34680,2,0,L|191:207,1,150,2|10,1:0|0:0,0:0:0:0:
173,225,35265,6,0,B|268:207|230:249|331:227,1,150,6|10,1:0|0:0,0:0:0:0:
449,85,35851,1,2,1:0:0:0:
449,85,35997,1,0,0:0:0:0:
504,148,36143,2,0,P|512:192|509:234,1,75,10|0,0:0|0:0,0:0:0:0:
410,344,36436,2,0,P|404:270|417:195,1,150,2|10,1:0|0:0,0:0:0:0:
262,379,37022,1,2,1:0:0:0:
262,379,37168,1,0,0:0:0:0:
189,338,37314,2,0,P|144:338|103:349,1,75,10|0,0:0|0:0,0:0:0:0:
19,265,37607,6,0,L|197:239,1,150,2|10,1:2|0:0,0:0:0:0:
424,129,38192,1,2,1:0:0:0:
329,87,38339,1,0,0:0:0:0:
247,141,38485,1,10,0:0:0:0:
247,141,38631,6,0,P|247:171|252:221,3,75,0|2|2|2,0:0|0:3|0:3|0:3,0:0:0:0:
333,182,39657,1,0,3:0:0:0:
147,134,39948,6,0,P|150:73|142:6,1,127.50000243187,6|0,0:0|0:0,0:0:0:0:
19,108,40534,2,0,P|14:170|19:236,1,127.50000243187,0|0,0:0|0:0,0:0:0:0:
18,234,41119,2,0,L|88:245,1,63.7500012159348,0|0,0:0|0:0,0:0:0:0:
118,331,41412,1,0,0:0:0:0:
118,331,41558,2,0,L|249:312,1,127.50000243187,0|0,0:0|0:0,0:0:0:0:
459,238,42143,5,0,0:0:0:0:
459,238,42290,2,0,P|395:226|331:232,1,127.50000243187,0|0,0:0|0:0,0:0:0:0:
385,340,42875,2,0,P|445:350|511:345,1,127.50000243187,0|0,0:0|0:0,0:0:0:0:
499,169,43461,2,0,P|511:123|511:76,1,95.6250018239022,0|0,0:0|0:0,0:0:0:0:
511,76,43753,1,0,0:0:0:0:
449,15,43900,2,0,L|387:3,1,63.7500012159348,0|0,0:0|0:0,0:0:0:0:
396,127,44192,2,0,L|330:132,1,63.7500012159348,0|8,0:0|0:0,0:0:0:0:
160,81,44485,1,8,0:0:0:0:
160,81,44631,6,0,P|136:153|150:200,1,127.50000243187,0|8,3:0|0:1,0:0:0:0:
150,200,45217,2,0,L|287:217,1,127.50000243187,0|0,0:1|1:0,0:0:0:0:
344,132,45656,1,8,0:0:0:0:
344,132,45802,2,0,P|342:103|335:69,1,63.7500012159348,0|0,0:1|1:0,0:0:0:0:
449,0,46095,2,0,P|475:14|509:22,1,63.7500012159348,8|2,0:1|0:0,0:0:0:0:
512,147,46387,1,2,0:1:0:0:
512,147,46534,2,0,P|486:163|463:186,1,63.7500012159348,8|10,0:3|1:0,0:0:0:0:
430,95,46826,6,0,L|304:80,1,127.50000243187,0|0,0:0|0:0,0:0:0:0:
62,123,47412,2,0,P|35:171|44:241,1,127.50000243187,0|0,0:0|0:0,0:0:0:0:
261,196,47997,1,8,0:0:0:0:
313,261,48143,2,0,P|312:292|305:324,1,63.7500012159348,10|0,0:0|0:0,0:0:0:0:
209,359,48436,5,10,0:0:0:0:
131,335,48583,1,10,0:0:0:0:
433,237,48875,5,8,0:3:0:0:
511,213,49021,1,4,0:3:0:0:
300,111,49314,6,0,B|202:97|245:130|152:120,1,150,6|10,1:0|0:0,0:0:0:0:
152,120,49900,2,0,P|144:79|142:39,1,75,2|0,1:0|0:0,0:0:0:0:
58,160,50192,2,0,P|56:200|48:241,1,75,10|0,0:0|0:0,0:0:0:0:
154,324,50485,2,0,L|145:249,1,75,2|0,1:0|0:0,0:0:0:0:
146,250,50924,2,0,P|226:232|294:267,1,150,0|0,0:0|0:0,0:0:0:0:
333,357,51363,5,10,0:0:0:0:
396,305,51509,2,0,L|479:313,1,75,0|2,0:0|1:0,0:0:0:0:
512,227,51802,2,0,L|355:211,1,150,0|0,0:0|0:0,0:0:0:0:
243,117,52241,1,2,1:0:0:0:
159,149,52387,1,0,0:0:0:0:
159,149,52680,2,0,B|139:57|192:92|166:-5,1,150,0|0,0:0|0:0,0:0:0:0:
71,170,53119,2,0,P|67:130|58:89,1,75,10|0,0:0|0:0,0:0:0:0:
4,247,53412,1,2,1:0:0:0:
120,279,53558,1,0,0:0:0:0:
34,327,53704,1,10,0:0:0:0:
34,327,53997,6,0,L|192:304,1,150,2|10,1:0|0:0,0:0:0:0:
279,321,54436,2,0,P|283:285|267:236,1,75,0|2,0:0|1:0,0:0:0:0:
379,368,54729,2,0,P|375:332|391:283,1,75,0|10,0:0|0:0,0:0:0:0:
344,175,55022,2,0,L|513:190,1,150,0|0,0:0|0:0,0:0:0:0:
506,107,55461,1,10,0:0:0:0:
365,43,55607,2,0,P|293:53|267:118,1,150,0|0,0:0|0:0,0:0:0:0:
210,343,56192,5,0,0:0:0:0:
210,343,56339,2,0,P|208:305|202:265,1,75,2|0,1:0|0:0,0:0:0:0:
128,210,56631,1,10,0:0:0:0:
109,301,56778,1,0,0:0:0:0:
34,249,56924,2,0,P|35:211|42:171,1,75,2|0,1:0|0:0,0:0:0:0:
263,188,57217,1,10,0:0:0:0:
263,188,57363,2,2,B|382:142|365:253|485:222,1,225,0|10,0:0|0:0,0:1:0:0:
497,130,57948,1,2,1:3:0:0:
497,130,58241,1,2,1:3:0:0:
301,280,58680,6,0,P|256:282|215:301,1,89.9999972534181,4|0,1:2|0:0,0:0:0:0:
144,346,59265,1,8,0:0:0:0:
144,346,59558,1,0,0:0:0:0:
355,202,59851,2,0,P|403:204|441:219,1,89.9999972534181,0|2,1:0|0:3,0:0:0:0:
512,268,60436,1,8,0:0:0:0:
512,268,60729,1,0,0:0:0:0:
239,224,61022,6,0,P|178:252|113:241,1,134.999995880127,0|2,1:0|0:0,0:0:0:0:
113,241,61607,2,0,L|100:151,1,89.9999972534181,8|0,0:0|0:0,0:0:0:0:
186,100,62046,1,0,0:0:0:0:
186,100,62192,2,0,L|200:4,2,89.9999972534181,0|2|8,1:0|0:0|0:0,0:0:0:0:
444,241,63070,6,0,L|488:230,1,44.999998626709,0|0,0:0|0:0,0:0:0:0:
435,105,63363,2,0,P|358:144|355:230,1,179.999994506836,0|8,1:0|0:0,0:0:0:0:
271,286,64241,2,0,P|270:242|262:197,1,89.9999972534181,0|0,0:0|1:0,0:0:0:0:
198,143,64826,1,2,0:3:0:0:
153,226,65119,1,8,0:0:0:0:
196,310,65412,1,0,0:0:0:0:
381,316,65704,6,0,L|471:331,1,89.9999972534181,0|0,1:0|0:0,0:0:0:0:
509,247,66290,2,0,L|412:230,1,89.9999972534181,8|2,0:0|0:0,0:0:0:0:
297,168,66875,1,0,1:0:0:0:
220,201,67168,1,2,0:3:0:0:
89,139,67461,1,10,0:0:0:0:
79,154,68046,6,0,P|69:111|69:66,1,89.9999972534181,0|0,1:2|0:0,0:0:0:0:
140,14,68631,1,8,0:0:0:0:
140,14,68924,1,0,0:0:0:0:
19,215,69217,2,0,P|16:259|29:302,1,89.9999972534181,0|2,1:0|0:3,0:0:0:0:
113,332,69802,1,8,0:0:0:0:
113,332,70095,1,0,0:0:0:0:
354,271,70388,6,0,P|415:297|479:282,1,134.999995880127,0|0,1:0|0:0,0:0:0:0:
479,281,70973,1,8,0:0:0:0:
242,143,71265,1,0,0:0:0:0:
242,143,71412,2,0,P|254:100|245:56,1,89.9999972534181,0|0,0:0|0:0,0:0:0:0:
246,57,71851,2,0,L|157:39,1,89.9999972534181,2|8,0:0|0:0,0:0:0:0:
128,303,72436,6,0,L|83:309,1,44.999998626709,0|0,0:0|0:0,0:0:0:0:
181,241,72729,1,0,1:0:0:0:
304,222,73022,1,0,0:0:0:0:
280,102,73314,1,8,0:0:0:0:
341,37,73461,1,0,0:0:0:0:
341,37,73607,2,0,L|386:31,1,44.999998626709,0|0,0:0|0:0,0:0:0:0:
490,86,73900,2,0,P|509:124|498:168,1,89.9999972534181,0|2,1:0|0:3,0:0:0:0:
410,246,74485,2,0,P|386:282|389:326,1,89.9999972534181,8|0,0:0|0:0,0:0:0:0:
389,327,75070,6,0,L|481:342,1,89.9999972534181,0|0,1:0|0:0,0:0:0:0:
265,299,75656,2,0,L|211:305,1,52.4999983978272,8|0,0:0|0:0,0:0:0:0:
210,202,75948,2,0,L|152:194,1,52.4999983978272,2|0,0:0|0:0,0:0:0:0:
100,374,76241,6,0,P|79:375|56:380,5,44.999998626709,2|0|0|2|0|0,0:3|0:0|0:0|0:3|0:0|0:0,0:0:0:0:
243,142,77412,6,0,P|270:71|344:65,1,150,6|10,3:2|0:0,0:0:0:0:
322,175,77851,1,0,0:0:0:0:
203,223,77997,1,2,1:0:0:0:
203,223,78143,1,0,0:0:0:0:
128,182,78290,2,0,P|127:148|119:106,1,75,10|0,0:0|0:0,0:0:0:0:
75,307,78583,6,0,L|0:297,1,75,2|0,1:0|0:0,0:0:0:0:
208,351,78875,2,0,L|319:335,1,112.5,10|0,0:0|0:0,0:0:0:0:
319,335,79168,2,0,P|316:279|354:238,1,112.5,2|0,1:0|0:0,0:0:0:0:
351,239,79461,2,0,L|443:251,1,75,10|0,0:0|0:0,0:0:0:0:
479,169,79753,6,0,L|320:148,1,150,2|10,1:0|0:0,0:0:0:0:
140,117,80192,1,0,0:0:0:0:
199,43,80339,2,0,P|229:106|200:186,1,150,2|10,1:0|0:0,0:0:0:0:
71,245,80778,1,0,0:0:0:0:
13,175,80924,6,0,P|47:162|84:159,1,75,2|0,1:0|0:0,0:0:0:0:
159,260,81217,1,10,0:0:0:0:
285,212,81363,1,0,0:0:0:0:
329,290,81509,2,0,P|386:293|442:306,1,112.5,2|0,1:0|0:0,0:0:0:0:
439,305,81802,2,0,L|450:381,1,75,10|8,0:0|0:0,0:0:0:0:
482,198,82095,1,6,1:0:0:0:
482,198,82387,6,0,L|492:55,1,112.5,10|0,0:0|0:0,0:0:0:0:
489,85,82680,2,0,P|454:66|411:61,1,75,2|0,1:0|0:0,0:0:0:0:
439,305,82973,2,0,P|475:297|507:279,1,75,10|0,0:0|0:0,0:0:0:0:
381,188,83265,2,0,B|296:176|328:215|231:203,1,150,2|10,1:0|0:0,0:0:0:0:
71,179,83704,2,0,L|158:167,1,75,0|2,0:0|1:0,0:0:0:0:
20,269,83997,2,0,L|178:281,1,150,2|2,1:0|0:1,0:0:0:0:
288,355,84436,5,2,1:0:0:0:
288,355,84583,1,0,0:0:0:0:
377,336,84729,2,0,P|383:300|383:257,1,75,10|0,0:0|0:0,0:0:0:0:
254,108,85022,1,2,1:0:0:0:
254,108,85168,1,0,0:0:0:0:
266,15,85314,1,10,0:0:0:0:
288,355,85607,5,2,1:0:0:0:
288,355,85900,2,0,P|288:305|236:283,1,112.5,10|8,0:0|0:3,0:0:0:0:
194,378,86485,2,4,L|163:381,2,28.1250010728836,8|4|4,0:3|0:3|0:3,0:0:0:0:
92,257,86778,6,0,P|85:180|85:106,1,150,6|10,3:2|0:0,0:0:0:0:
155,53,87217,1,0,0:0:0:0:
260,125,87363,1,2,1:0:0:0:
260,125,87509,1,0,0:0:0:0:
329,64,87656,2,0,P|363:65|405:73,1,75,10|0,0:0|0:0,0:0:0:0:
297,204,87949,6,0,P|258:211|228:229,1,75,2|0,1:0|0:0,0:0:0:0:
405,186,88241,2,0,P|458:196|504:229,1,112.5,10|0,0:0|0:0,0:0:0:0:
504,229,88534,2,0,L|485:318,1,75,2|0,1:0|0:0,0:0:0:0:
415,351,88826,1,10,0:0:0:0:
340,320,88972,1,0,0:0:0:0:
218,360,89119,6,0,L|59:339,1,150,2|10,1:0|0:0,0:0:0:0:
130,167,89558,1,0,0:0:0:0:
206,215,89705,2,0,L|365:196,1,150,2|10,1:0|0:0,0:0:0:0:
486,62,90144,1,0,0:0:0:0:
408,100,90290,2,0,P|371:95|335:84,1,75,2|0,1:0|0:0,0:0:0:0:
190,106,90583,1,10,0:0:0:0:
110,83,90729,1,0,0:0:0:0:
134,3,90875,2,0,P|174:7|206:18,1,75,2|0,1:0|0:0,0:0:0:0:
326,186,91168,5,10,0:0:0:0:
374,269,91314,1,8,0:0:0:0:
321,347,91461,1,6,1:0:0:0:
321,347,91753,2,0,L|178:357,1,112.5,10|0,0:0|0:0,0:0:0:0:
208,354,92046,1,2,1:0:0:0:
167,251,92192,1,2,1:0:0:0:
168,251,92485,6,0,B|75:234|113:280|5:259,1,150,2|2,1:0|0:1,0:0:0:0:
11,154,92924,1,10,0:0:0:0:
11,154,93070,2,0,L|0:79,1,75,0|2,0:0|1:0,0:0:0:0:
95,24,93363,2,0,L|104:98,1,75,0|10,0:0|0:0,0:0:0:0:
232,173,93656,6,0,P|307:187|380:158,1,150,2|2,1:0|0:1,0:0:0:0:
350,264,94095,2,0,P|387:254|423:254,1,75,10|0,0:0|0:0,0:0:0:0:
500,305,94388,1,2,1:0:0:0:
500,305,94534,1,0,0:0:0:0:
411,361,94680,5,10,0:0:0:0:
451,80,94973,1,2,1:0:0:0:
424,371,95266,2,0,B|349:382|349:382|285:342,1,150,10|10,0:0|0:0,0:0:0:0:
112,125,95851,5,4,0:3:0:0:
141,2,95997,1,4,0:3:0:0:
123,112,96143,2,0,P|135:144|131:185,1,75,6|0,3:2|0:0,0:0:0:0:
29,216,96436,2,0,P|17:184|21:143,1,75,10|0,0:0|0:0,0:0:0:0:
205,64,96729,2,0,L|368:49,1,150,2|10,1:0|0:0,0:0:0:0:
303,322,97314,2,0,L|140:307,1,150,2|10,1:0|0:0,0:0:0:0:
91,242,97753,5,0,0:0:0:0:
91,242,97900,1,2,1:0:0:0:
174,199,98046,1,0,0:0:0:0:
250,273,98192,1,10,0:0:0:0:
285,157,98339,1,0,0:0:0:0:
316,338,98485,6,2,P|333:230|215:81,1,300,2|2,1:0|1:0,0:1:0:0:
207,295,99217,1,0,0:0:0:0:
149,360,99363,2,0,L|51:376,1,75,10|0,0:0|0:0,0:0:0:0:
22,197,99656,6,2,P|92:194|142:270,1,150,2|10,1:0|0:0,0:1:0:0:
56,280,100095,1,0,0:0:0:0:
0,107,100241,2,2,B|83:93|83:93|148:117|148:117|218:103,1,225,2|0,1:0|0:0,0:1:0:0:
352,43,100826,6,0,P|340:79|341:116,1,75,2|0,1:0|0:0,0:0:0:0:
426,155,101119,1,10,0:0:0:0:
426,155,101265,1,0,0:0:0:0:
501,79,101412,2,2,P|501:40|489:5,1,75,2|0,1:0|0:0,0:1:0:0:
403,174,101704,2,2,P|401:211|413:246,1,75,10|0,0:0|0:0,0:1:0:0:
512,261,101997,6,0,B|418:247|462:284|364:269,1,150,2|10,1:0|0:0,0:0:0:0:
183,220,102436,1,0,0:0:0:0:
100,263,102583,2,2,P|89:230|90:190,1,75,2|0,1:0|0:0,0:1:0:0:
272,226,102875,2,2,P|272:263|260:298,1,75,10|0,0:0|0:0,0:1:0:0:
66,354,103168,6,2,P|54:209|189:149,1,300,2|2,1:0|1:0,0:1:0:0:
267,214,103900,1,0,0:0:0:0:
324,150,104046,2,0,L|312:69,1,75,10|0,0:0|0:0,0:0:0:0:
391,13,104339,5,2,1:0:0:0:
391,13,104631,2,2,P|447:20|462:71,1,112.5,12|8,0:1|0:3,0:1:0:0:
413,166,105217,1,8,0:3:0:0:
413,166,105290,1,4,0:3:0:0:
413,166,105363,1,4,0:3:0:0:
308,182,105509,6,0,P|258:221|279:311,1,150,6|10,3:2|0:0,0:0:0:0:
356,270,105948,1,0,0:0:0:0:
439,306,106095,2,0,P|479:299|512:307,1,75,2|0,1:0|0:0,0:0:0:0:
365,361,106388,1,10,0:0:0:0:
365,361,106534,1,0,0:0:0:0:
212,350,106680,2,0,P|134:346|66:370,1,150,2|10,1:0|0:0,0:0:0:0:
3,298,107119,5,0,0:0:0:0:
3,298,107265,1,2,1:0:0:0:
36,208,107412,1,0,0:0:0:0:
97,276,107558,1,10,0:0:0:0:
51,183,107704,1,0,0:0:0:0:
118,90,107851,6,2,B|271:23|271:157|406:127,1,300,2|2,1:0|1:0,0:1:0:0:
507,108,108583,1,0,0:0:0:0:
484,32,108729,2,0,P|445:28|412:40,1,75,10|0,0:0|0:0,0:0:0:0:
184,172,109022,6,2,P|97:185|24:145,1,150,2|10,1:0|0:0,0:1:0:0:
234,250,109461,2,2,P|335:238|424:332,1,225,0|0,0:0|0:0,0:1:0:0:
318,319,110046,1,8,0:0:0:0:
244,375,110192,6,2,P|201:374|161:361,1,75,6|0,1:0|0:0,0:1:0:0:
117,209,110485,1,10,0:0:0:0:
35,187,110631,1,0,0:0:0:0:
16,270,110778,2,2,P|50:290|95:296,1,75,2|0,1:0|0:0,0:1:0:0:
283,219,111070,5,10,0:0:0:0:
364,184,111217,1,0,0:0:0:0:
306,121,111363,1,2,1:0:0:0:
228,154,111509,1,0,0:0:0:0:
352,195,111656,2,2,P|438:198|490:149,1,150,10|2,0:0|1:0,0:1:0:0:
453,9,112095,1,0,0:0:0:0:
362,0,112241,2,2,P|364:36|374:73,1,75,10|0,0:0|0:0,0:1:0:0:
298,287,112534,6,2,P|192:240|186:130,1,225,2|0,1:0|0:0,0:1:0:0:
75,187,113119,2,0,L|86:98,1,75,2|0,1:0|0:0,0:0:0:0:
0,254,113412,2,0,L|12:335,1,75,10|0,0:0|0:0,0:0:0:0:
2,49,113705,5,2,1:0:0:0:
2,49,113997,2,2,P|74:93|164:62,1,168.750006437302,10|8,0:0|0:3,0:1:0:0:
234,128,114583,1,4,0:3:0:0:
249,38,114729,1,4,0:3:0:0:
246,152,114875,6,0,L|384:170,1,134.999995880127,4|2,0:0|0:0,0:0:0:0:
160,207,115607,1,0,0:0:0:0:
160,207,115753,2,0,P|116:205|74:222,1,89.9999972534181,2|0,0:0|0:0,0:0:0:0:
43,317,116192,2,0,P|62:355|98:382,1,89.9999972534181,2|0,0:0|0:0,0:0:0:0:
196,364,116632,1,2,0:0:0:0:
196,364,116778,2,0,P|220:321|224:282,1,89.9999972534181,0|2,0:0|0:0,0:0:0:0:
133,299,117217,1,0,0:0:0:0:
496,200,117656,5,0,0:0:0:0:
496,200,117802,2,0,P|501:230|514:257,1,44.999998626709,2|0,0:0|0:0,0:0:0:0:
413,329,118095,1,0,0:0:0:0:
413,329,118241,2,0,P|385:318|355:316,1,44.999998626709,2|0,0:0|0:0,0:0:0:0:
340,196,118534,1,2,0:0:0:0:
340,196,118680,2,0,P|364:177|380:152,1,44.999998626709,0|0,0:0|0:0,0:0:0:0:
419,242,118973,5,2,0:0:0:0:
419,242,119119,1,0,1:0:0:0:
280,277,119265,1,8,0:3:0:0:
280,277,119412,1,8,0:3:0:0:
162,188,119558,6,0,P|114:180|73:180,1,89.9999972534181,2|10,1:0|0:1,0:0:0:0:
33,84,119997,2,0,P|80:91|122:92,1,89.9999972534181,0|0,0:0|0:0,0:0:0:0:
254,30,120436,1,2,1:0:0:0:
254,30,120582,2,0,P|281:19|310:17,1,44.999998626709,8|2,0:0|0:1,0:0:0:0:
319,109,120875,1,0,1:0:0:0:
319,109,121022,2,0,P|346:119|375:121,1,44.999998626709,10|0,0:1|0:0,0:0:0:0:
512,56,121314,5,2,0:1:0:0:
412,33,121460,1,8,0:3:0:0:
412,33,121534,1,8,0:3:0:0:
412,33,121607,1,10,1:0:0:0:
463,144,121753,1,0,0:0:0:0:
395,199,121900,2,0,L|290:211,1,104.999996795654,2|10,1:0|0:1,0:0:0:0:
186,273,122339,5,0,0:0:0:0:
247,342,122485,1,2,0:1:0:0:
185,255,122631,1,0,0:0:0:0:
131,346,122778,1,2,1:0:0:0:
177,163,122924,1,8,0:0:0:0:
177,163,123509,6,0,L|185:102,1,52.4999983978272,8|0,0:0|0:0,0:0:0:0:
429,82,123948,5,8,0:0:0:0:
429,82,124095,1,8,0:0:0:0:
498,133,124241,2,0,P|502:170|490:206,1,75,6|0,1:2|0:0,0:0:0:0:
490,205,124534,2,0,L|340:220,1,150,10|2,0:0|1:0,0:0:0:0:
327,316,124973,2,0,L|252:310,1,75,0|10,0:0|0:0,0:0:0:0:
167,195,125265,1,0,0:0:0:0:
167,195,125412,1,2,1:0:0:0:
101,258,125558,2,0,L|26:266,1,75,0|10,0:0|0:0,0:0:0:0:
26,265,125851,2,0,P|-4:196|19:125,1,150,0|0,0:0|0:0,0:0:0:0:
134,92,126290,5,10,0:0:0:0:
134,92,126436,2,0,L|212:88,1,75,0|2,0:0|1:0,0:0:0:0:
244,182,126729,2,0,L|94:189,1,150,0|0,0:0|0:0,0:0:0:0:
74,293,127168,1,2,1:0:0:0:
74,293,127314,2,0,P|36:301|6:320,1,75,0|10,0:0|0:0,0:0:0:0:
168,303,127607,2,0,B|262:288|222:331|322:310,1,150,0|0,0:0|0:0,0:0:0:0:
392,243,128046,2,0,P|396:203|405:162,1,75,10|0,0:0|0:0,0:0:0:0:
463,110,128339,1,2,1:0:0:0:
347,78,128485,1,0,0:0:0:0:
433,30,128631,1,10,0:0:0:0:
433,30,128924,6,0,L|271:44,1,150,2|10,1:0|0:0,0:0:0:0:
197,95,129363,1,0,0:0:0:0:
154,0,129509,1,2,1:0:0:0:
89,51,129656,2,0,P|79:87|83:124,1,75,0|10,0:0|0:0,0:0:0:0:
159,229,129948,1,0,0:0:0:0:
159,229,130241,2,0,L|67:243,1,75,0|10,0:0|0:0,0:0:0:0:
248,197,130534,2,0,L|400:220,1,150,0|0,0:0|0:0,0:0:0:0:
441,350,130973,1,10,0:0:0:0:
508,290,131119,1,0,0:0:0:0:
422,360,131266,6,0,P|386:352|349:353,1,75,2|0,1:0|0:0,0:0:0:0:
182,298,131558,1,10,0:0:0:0:
95,331,131705,1,0,0:0:0:0:
190,280,131851,2,0,P|226:288|263:288,1,75,2|0,1:0|0:0,0:0:0:0:
391,218,132144,1,10,0:0:0:0:
474,183,132290,6,0,L|481:67,1,112.5,0|4,1:0|0:3,0:0:0:0:
459,0,132583,2,0,L|466:116,1,112.5,8|8,0:3|0:0,0:0:0:0:
386,311,133022,1,0,3:0:0:0:
122,186,133607,6,0,B|112:81|155:141|145:26,1,150,6|10,3:2|0:0,0:0:0:0:
28,314,134192,2,0,P|100:308|152:364,1,150,2|10,1:0|0:0,0:0:0:0:
350,118,134778,2,0,P|277:112|226:168,1,150,2|10,1:0|0:0,0:0:0:0:
511,298,135363,2,0,L|504:380,1,75,2|0,1:0|0:0,0:0:0:0:
434,247,135656,2,0,L|431:166,1,75,10|0,0:0|0:0,0:0:0:0:
334,355,135948,6,0,P|337:285|328:192,1,150,2|10,1:0|0:0,0:0:0:0:
110,93,136534,1,2,1:0:0:0:
49,209,136680,1,0,0:0:0:0:
111,332,136826,1,10,0:0:0:0:
111,332,137119,5,2,1:0:0:0:
120,243,137265,1,0,0:0:0:0:
208,253,137412,1,10,0:0:0:0:
202,342,137558,1,0,0:0:0:0:
29,317,137704,2,0,P|20:278|19:230,1,75,2|0,1:0|0:0,0:0:0:0:
93,140,137997,1,10,0:0:0:0:
108,52,138143,1,8,0:0:0:0:
149,211,138290,6,0,B|251:225|205:183|298:198,1,150,2|10,1:0|0:0,0:0:0:0:
511,11,138875,2,0,B|432:26,1,75,2|0,1:0|0:0,0:0:0:0:
334,8,139168,1,10,0:0:0:0:
334,8,139314,1,0,0:0:0:0:
295,128,139461,1,2,1:0:0:0:
397,115,139607,1,0,0:0:0:0:
245,41,139753,2,0,B|170:32,1,75,10|0,0:0|0:0,0:0:0:0:
102,214,140046,2,0,P|163:207|198:114,1,150,2|10,1:0|0:0,0:0:0:0:
449,301,140631,6,0,P|388:294|353:201,1,150,2|10,1:0|0:0,0:0:0:0:
107,370,141217,1,2,1:0:0:0:
210,340,141363,1,0,0:0:0:0:
210,340,141656,1,2,1:0:0:0:
43,284,141802,2,0,L|34:114,1,150,2|10,1:0|0:0,0:0:0:0:
293,384,142387,2,0,P|291:346|296:293,1,75,2|0,1:0|0:0,0:0:0:0:
438,217,142680,1,10,0:0:0:0:
415,122,142826,1,8,0:0:0:0:
360,261,142973,6,0,P|288:277|221:248,1,150,6|10,3:2|0:0,0:0:0:0:
75,95,143558,1,2,1:0:0:0:
218,23,143704,1,0,0:0:0:0:
184,99,143851,1,10,0:0:0:0:
132,35,143997,1,0,0:0:0:0:
261,91,144143,2,0,P|267:128|266:166,1,75,2|0,1:0|0:0,0:0:0:0:
359,117,144436,1,10,0:0:0:0:
341,39,144583,1,0,0:0:0:0:
334,243,144729,2,0,P|401:272|473:256,1,150,2|10,1:0|0:0,0:0:0:0:
162,333,145314,6,0,P|94:362|22:346,1,150,2|10,1:0|0:0,0:0:0:0:
240,279,145753,1,0,0:0:0:0:
358,359,145900,1,2,1:0:0:0:
254,371,146046,1,0,0:0:0:0:
254,371,146339,5,2,1:0:0:0:
455,341,146485,2,0,P|458:305|459:263,1,75,2|0,1:0|0:0,0:0:0:0:
169,158,146778,2,0,P|168:199|173:236,1,75,10|0,0:0|0:0,0:0:0:0:
420,161,147070,1,2,1:0:0:0:
420,161,147363,1,10,0:0:0:0:
306,193,147509,1,8,0:0:0:0:
505,184,147656,6,0,P|509:108|492:3,1,150,2|10,1:0|0:0,0:0:0:0:
92,120,148241,2,0,P|87:195|105:301,1,150,2|10,1:0|0:0,0:0:0:0:
378,32,148826,1,2,1:0:0:0:
282,14,148973,1,0,0:0:0:0:
193,63,149119,1,10,0:0:0:0:
97,45,149265,1,0,0:0:0:0:
318,102,149412,2,0,P|380:120|402:210,1,150,2|10,1:0|0:0,0:0:0:0:
323,262,149851,1,0,0:0:0:0:
154,214,149997,6,0,L|75:205,1,75,2|0,1:0|0:0,0:0:0:0:
303,283,150290,2,0,L|377:274,1,75,10|0,0:0|0:0,0:0:0:0:
204,355,150583,1,2,1:0:0:0:
98,343,150729,1,0,0:0:0:0:
0,384,150875,1,10,0:0:0:0:
403,347,151168,5,0,0:0:0:0:
510,352,151314,1,0,0:0:0:0:
510,352,151607,1,0,0:0:0:0:
510,352,151900,2,0,P|518:289|476:180,1,150,0|0,0:0|0:0,0:0:0:0:
286,185,152339,5,0,3:0:0:0:
118,250,161412,6,0,P|119:231|117:212,1,37.5,0|0,0:0|0:0,0:0:0:0:
144,222,161704,5,8,0:3:0:0:
134,131,161851,1,4,0:3:0:0:
225,121,161997,1,4,0:3:0:0:
441,166,162290,1,8,0:3:0:0:
441,166,162436,1,4,0:3:0:0:
441,166,162729,6,0,P|439:130|441:89,1,75,4|0,0:3|0:3,0:0:0:0:
431,1,163168,1,4,0:3:0:0:
342,11,163314,1,4,0:3:0:0:
352,99,163461,1,8,0:3:0:0:
352,99,163753,1,4,0:3:0:0:
245,249,164046,5,8,0:3:0:0:
242,337,164193,1,4,0:3:0:0:
155,334,164339,1,4,0:3:0:0:
0,262,164632,1,8,0:3:0:0:
0,262,164778,1,4,0:3:0:0:
0,262,165070,6,0,P|2:221|-1:176,1,75,4|0,0:3|0:3,0:0:0:0:
77,143,165510,1,4,0:3:0:0:
77,143,165656,2,0,L|128:148,1,37.5,4|8,0:3|0:3,0:0:0:0:
185,101,165948,1,4,0:3:0:0:
230,178,166095,1,4,0:3:0:0:
319,183,166241,1,4,0:3:0:0:
387,125,166388,5,8,0:3:0:0:
387,125,166534,2,0,L|382:74,1,37.5,4|8,0:3|0:3,0:0:0:0:
383,87,166973,1,8,0:3:0:0:
383,87,167119,1,4,0:3:0:0:
493,12,167412,6,0,P|490:49|494:86,1,75,4|0,0:3|0:3,0:0:0:0:
493,85,167851,1,4,0:3:0:0:
450,232,168143,2,0,L|446:195,1,37.5,8|0,0:3|0:0,0:0:0:0:
446,195,168436,1,4,0:3:0:0:
366,353,168729,5,8,0:3:0:0:
279,366,168875,1,4,0:3:0:0:
265,280,169022,1,4,0:3:0:0:
154,200,169314,1,8,0:3:0:0:
154,200,169461,1,4,0:3:0:0:
154,200,169753,6,0,P|151:158|154:112,1,75,8|0,0:3|0:3,0:0:0:0:
60,177,170192,1,8,0:3:0:0:
0,238,170338,1,8,0:3:0:0:
0,238,170412,1,8,0:3:0:0:
0,238,170485,1,8,0:3:0:0:
152,292,170631,1,8,0:3:0:0:
248,335,170777,1,4,0:3:0:0:
350,290,170924,1,4,0:3:0:0:
261,346,171070,6,0,P|216:348|175:367,1,89.9999972534181,4|0,1:2|0:0,0:0:0:0:
91,372,171655,1,8,0:0:0:0:
91,372,171948,1,0,0:0:0:0:
345,315,172241,2,0,P|393:317|431:332,1,89.9999972534181,0|2,1:0|0:3,0:0:0:0:
512,311,172826,1,8,0:0:0:0:
512,311,173119,1,0,0:0:0:0:
276,231,173412,6,0,P|270:163|276:87,1,134.999995880127,0|2,1:0|0:0,0:0:0:0:
274,96,173997,2,0,L|364:83,1,89.9999972534181,8|0,0:0|0:0,0:0:0:0:
403,175,174436,1,0,0:0:0:0:
403,175,174582,2,0,L|499:189,2,89.9999972534181,0|2|8,1:0|0:0|0:0,0:0:0:0:
100,232,175460,6,0,L|55:242,1,44.999998626709,0|0,0:0|0:0,0:0:0:0:
108,367,175753,2,0,P|185:328|188:242,1,179.999994506836,0|8,1:0|0:0,0:0:0:0:
289,315,176631,2,0,P|281:270|286:226,1,89.9999972534181,0|0,0:0|1:0,0:0:0:0:
385,168,177217,2,0,L|434:175,1,44.999998626709,2|0,0:3|0:0,0:0:0:0:
429,174,177509,2,0,P|443:128|438:84,1,89.9999972534181,8|0,0:0|0:0,0:0:0:0:
239,71,178094,6,0,L|148:55,1,89.9999972534181,0|0,1:0|0:0,0:0:0:0:
111,140,178680,2,0,L|207:156,1,89.9999972534181,8|2,0:0|0:0,0:0:0:0:
282,123,179265,1,0,1:0:0:0:
333,247,179558,1,2,0:3:0:0:
281,372,179851,1,10,0:0:0:0:
116,222,180436,6,0,P|71:221|27:231,1,89.9999972534181,0|0,1:2|0:0,0:0:0:0:
132,324,181021,1,8,0:0:0:0:
213,304,181314,1,0,0:0:0:0:
385,158,181607,2,0,P|428:144|473:147,1,89.9999972534181,0|2,1:0|0:3,0:0:0:0:
379,259,182192,1,8,0:0:0:0:
296,245,182485,1,0,0:0:0:0:
158,113,182778,6,0,P|96:86|32:101,1,134.999995880127,0|0,1:0|0:0,0:0:0:0:
32,100,183363,1,8,0:0:0:0:
259,82,183656,1,0,0:0:0:0:
258,82,183802,2,0,P|296:102|338:89,1,89.9999972534181,0|0,0:0|0:0,0:0:0:0:
338,89,184241,2,0,L|356:0,1,89.9999972534181,2|8,0:0|0:0,0:0:0:0:
363,316,184826,6,0,L|369:361,1,44.999998626709,0|0,0:0|0:0,0:0:0:0:
425,265,185119,1,0,1:0:0:0:
511,320,185412,1,0,0:0:0:0:
278,300,185704,1,8,0:0:0:0:
220,367,185851,1,0,0:0:0:0:
220,367,185997,2,0,L|175:377,1,44.999998626709,0|0,0:0|0:0,0:0:0:0:
86,291,186290,2,0,P|129:301|174:295,1,89.9999972534181,0|2,1:0|0:3,0:0:0:0:
135,184,186875,2,0,P|92:174|47:180,1,89.9999972534181,8|0,0:0|0:0,0:0:0:0:
329,179,187460,6,0,L|344:87,1,89.9999972534181,0|0,1:0|0:0,0:0:0:0:
98,5,188046,6,0,L|45:10,1,52.4999983978272,8|0,0:0|0:0,0:0:0:0:
100,112,188338,2,0,L|158:120,1,52.4999983978272,2|0,0:0|0:0,0:0:0:0:
74,234,188631,6,0,P|114:198|167:212,1,112.5,2|2,0:3|0:0,0:0:0:0:
464,220,189802,6,0,B|360:198|412:251|291:221,1,150,6|10,3:2|0:0,0:0:0:0:
173,243,190241,1,0,0:0:0:0:
187,335,190387,1,2,1:0:0:0:
187,335,190533,1,0,0:0:0:0:
274,313,190680,2,0,P|308:314|350:322,1,75,10|0,0:0|0:0,0:0:0:0:
89,250,190973,6,0,P|85:212|78:177,1,75,2|0,1:0|0:0,0:0:0:0:
229,170,191265,2,0,L|255:61,1,112.5,10|0,0:0|0:0,0:0:0:0:
255,60,191558,2,0,P|213:23|159:27,1,112.5,2|0,1:0|0:0,0:0:0:0:
159,27,191851,1,10,0:0:0:0:
80,64,191997,1,0,0:0:0:0:
330,149,192143,6,0,P|413:151|481:133,1,150,2|10,1:0|0:0,0:0:0:0:
399,320,192582,1,0,0:0:0:0:
323,277,192729,2,0,P|239:275|172:293,1,150,2|10,1:0|0:0,0:0:0:0:
6,290,193168,1,0,0:0:0:0:
61,223,193314,6,0,L|50:143,1,75,2|0,1:0|0:0,0:0:0:0:
117,76,193607,1,10,0:0:0:0:
117,76,193753,1,0,0:0:0:0:
165,272,193899,2,0,L|149:385,1,112.5,2|0,1:0|0:0,0:0:0:0:
149,383,194192,2,0,P|105:382|59:369,1,75,10|8,0:0|0:0,0:0:0:0:
344,341,194485,1,6,1:0:0:0:
344,341,194777,6,0,L|457:348,1,112.5,10|0,0:0|0:0,0:0:0:0:
457,349,195070,2,0,P|476:314|481:271,1,75,2|0,1:0|0:0,0:0:0:0:
237,299,195363,2,0,P|245:335|263:367,1,75,10|0,0:0|0:0,0:0:0:0:
361,240,195655,2,0,B|373:155|334:187|346:90,1,150,2|10,1:0|0:0,0:0:0:0:
446,81,196094,2,0,P|451:45|439:10,1,75,0|2,0:0|1:0,0:0:0:0:
257,205,196387,2,0,L|101:194,1,150,2|2,1:0|0:1,0:0:0:0:
91,13,196826,5,2,1:0:0:0:
183,22,196973,1,0,0:0:0:0:
162,109,197119,2,0,P|124:110|88:102,1,75,10|0,0:0|0:0,0:0:0:0:
44,271,197412,1,2,1:0:0:0:
44,271,197558,1,0,0:0:0:0:
137,283,197704,1,10,0:0:0:0:
479,240,197997,5,2,1:0:0:0:
479,240,198290,2,0,P|479:190|427:168,1,112.5,10|8,0:0|0:3,0:0:0:0:
387,255,198875,1,8,0:3:0:0:
387,255,198948,1,4,0:3:0:0:
387,255,199022,1,4,0:3:0:0:
333,153,199168,6,0,B|322:63|365:93|343:1,1,150,6|10,3:2|0:0,0:0:0:0:
244,5,199607,1,0,0:0:0:0:
230,166,199753,1,2,1:0:0:0:
230,166,199899,1,0,0:0:0:0:
288,240,200046,2,0,P|287:277|293:316,1,75,10|0,0:0|0:0,0:0:0:0:
170,100,200339,6,0,P|170:65|156:26,1,75,2|0,1:0|0:0,0:0:0:0:
147,226,200631,2,0,P|129:266|74:303,1,112.5,10|0,0:0|0:0,0:0:0:0:
73,304,200924,2,0,L|-26:278,1,75,2|0,1:0|0:0,0:0:0:0:
2,120,201216,1,10,0:0:0:0:
90,144,201362,1,0,0:0:0:0:
288,223,201509,6,0,P|365:214|415:286,1,150,2|10,1:0|0:0,0:0:0:0:
512,127,201948,1,0,0:0:0:0:
500,38,202095,2,0,P|425:45|387:114,1,150,2|10,1:0|0:0,0:0:0:0:
420,365,202534,1,0,0:0:0:0:
330,374,202680,2,0,P|323:338|326:299,1,75,2|0,1:0|0:0,0:0:0:0:
252,93,202973,1,10,0:0:0:0:
241,10,203119,1,0,0:0:0:0:
158,21,203265,2,0,P|156:59|161:95,1,75,2|0,1:0|0:0,0:0:0:0:
305,226,203558,5,10,0:0:0:0:
406,208,203704,1,8,0:0:0:0:
512,197,203851,1,6,1:0:0:0:
512,197,204143,2,0,L|369:187,1,112.5,10|0,0:0|0:0,0:0:0:0:
399,189,204436,1,2,1:0:0:0:
353,300,204582,1,2,1:0:0:0:
353,300,204875,6,0,L|270:310,1,75,2|2,1:0|0:0,0:0:0:0:
93,230,205168,1,0,1:0:0:0:
93,230,205314,1,10,0:0:0:0:
175,202,205460,2,0,P|177:165|186:127,1,75,0|2,0:0|1:0,0:0:0:0:
91,72,205753,2,0,P|90:111|82:146,1,75,0|10,0:0|0:0,0:0:0:0:
76,362,206046,6,0,P|150:356|185:286,1,150,2|2,1:0|0:1,0:0:0:0:
267,361,206485,2,0,L|271:286,1,75,10|0,0:0|0:0,0:0:0:0:
338,218,206778,1,2,1:0:0:0:
338,218,206924,1,0,0:0:0:0:
308,57,207070,5,10,0:0:0:0:
188,340,207363,5,2,1:0:0:0:
493,303,207656,5,10,0:0:0:0:
331,260,208095,5,8,0:3:0:0:
353,163,208241,1,4,0:3:0:0:
341,283,208387,1,4,0:3:0:0:
337,146,208533,1,4,0:0:0:0:
111,272,210143,5,4,0:3:0:0:
111,272,210290,1,8,0:0:0:0:
181,212,210436,2,0,L|176:133,1,75,8|8,0:0|0:0,0:0:0:0:
103,71,210729,6,0,P|171:100|243:85,1,150,6|0,0:1|0:0,0:0:0:0:
414,151,211168,1,10,0:0:0:0:
503,153,211314,1,0,0:0:0:0:
507,63,211461,2,0,P|435:49|368:79,1,150,2|10,1:0|0:0,0:0:0:0:
341,261,211900,1,0,0:0:0:0:
341,261,212046,6,0,P|395:272|448:256,1,112.5,2|0,1:0|0:0,0:0:0:0:
449,256,212339,1,10,0:0:0:0:
426,172,212485,1,0,0:0:0:0:
239,340,212631,2,0,P|185:354|131:341,1,112.5,2|0,1:0|0:0,0:0:0:0:
130,341,212924,2,0,L|140:255,1,75,10|8,0:0|0:0,0:0:0:0:
44,131,213217,1,6,1:0:0:0:
45,131,213509,6,0,P|39:75|46:19,1,112.5,10|0,0:0|0:0,0:0:0:0:
46,20,213802,2,0,L|137:11,1,75,2|0,1:0|0:0,0:0:0:0:
190,250,214095,2,0,L|99:259,1,75,10|0,0:0|0:0,0:0:0:0:
173,126,214387,2,0,B|256:108|227:149|323:130,1,150,2|10,1:0|0:0,0:0:0:0:
512,44,214826,2,0,B|434:55|434:55|477:19,1,112.5,2|0,1:0|0:0,0:0:0:0:
460,34,215119,2,0,L|471:192,1,150,2|2,1:0|0:1,0:0:0:0:
352,317,215558,5,2,1:0:0:0:
377,234,215705,1,0,0:0:0:0:
369,340,215851,2,0,L|293:328,1,75,10|0,0:0|0:0,0:0:0:0:
133,207,216144,1,2,1:0:0:0:
133,207,216290,1,0,0:0:0:0:
262,191,216436,1,10,0:0:0:0:
3,142,216729,5,2,1:0:0:0:
3,142,217022,2,0,B|57:155|57:155|111:118,1,112.5,10|8,0:0|0:3,0:0:0:0:
32,56,217607,1,8,0:3:0:0:
32,56,217680,1,4,0:3:0:0:
32,56,217754,1,4,0:3:0:0:
0,233,217900,6,0,B|72:251|72:251|133:208,1,150,6|10,3:2|0:0,0:0:0:0:
204,143,218339,1,0,0:0:0:0:
299,154,218485,1,2,1:0:0:0:
299,154,218631,1,0,0:0:0:0:
389,256,218778,1,10,0:0:0:0:
472,269,218924,1,0,0:0:0:0:
480,179,219071,6,0,P|445:165|408:164,1,75,2|0,1:0|0:0,0:0:0:0:
349,29,219363,2,0,P|339:83|293:120,1,112.5,10|0,0:0|0:0,0:0:0:0:
296,118,219656,2,0,L|213:102,1,75,2|0,1:0|0:0,0:0:0:0:
17,221,219948,2,0,L|107:209,1,75,10|0,0:0|0:0,0:0:0:0:
152,326,220241,6,0,L|1:346,1,150,2|10,1:0|0:0,0:0:0:0:
147,129,220680,1,0,0:0:0:0:
210,196,220826,2,0,L|360:218,1,150,2|10,1:0|0:0,0:0:0:0:
477,289,221266,1,0,0:0:0:0:
435,367,221412,2,0,L|359:377,1,75,2|0,1:0|0:0,0:0:0:0:
191,275,221705,1,10,0:0:0:0:
81,322,221851,1,0,0:0:0:0:
162,371,221997,2,2,B|201:233|86:278|111:149,1,225,2|8,1:0|0:0,0:1:0:0:
108,165,222583,6,0,P|171:153|216:107,1,112.5,6|0,1:0|0:0,0:0:0:0:
206,122,222875,1,10,0:0:0:0:
160,32,223022,1,0,0:0:0:0:
66,72,223168,1,2,1:0:0:0:
297,70,223314,1,0,0:0:0:0:
297,70,223387,1,0,0:0:0:0:
297,70,223461,1,10,0:0:0:0:
376,34,223607,6,0,P|416:32|459:24,1,75,0|2,0:0|1:0,0:0:0:0:
357,209,223900,2,0,P|335:173|306:142,1,75,0|10,0:0|0:0,0:0:0:0:
512,134,224192,2,0,P|492:169|479:210,1,75,0|2,0:0|1:0,0:0:0:0:
416,124,224485,1,0,1:0:0:0:
416,124,224631,1,10,0:0:0:0:
416,124,224778,1,0,0:0:0:0:
375,279,224924,6,0,P|329:290|284:296,1,75,2|0,1:0|0:0,0:0:0:0:
431,355,225217,2,0,P|471:345|504:341,1,75,10|0,0:0|0:0,0:0:0:0:
505,257,225510,1,2,1:0:0:0:
505,257,225656,1,0,0:0:0:0:
307,372,225802,1,10,0:0:0:0:
307,372,226095,6,2,P|130:288|174:109,1,393.750015020371,0|0,0:0|0:0,0:1:0:0:
230,55,227265,6,0,P|304:48|376:28,1,150,6|10,3:2|0:0,0:0:0:0:
489,266,227851,2,0,P|415:274|344:297,1,150,2|10,1:0|0:0,0:0:0:0:
47,210,228436,2,0,P|54:135|48:61,1,150,2|10,1:0|0:0,0:0:0:0:
45,364,229022,2,0,P|80:357|123:353,1,75,2|0,1:0|0:0,0:0:0:0:
188,254,229314,2,0,P|180:215|177:176,1,75,10|0,0:0|0:0,0:0:0:0:
403,151,229607,6,2,P|344:203|252:183,1,150,0|10,0:0|0:0,0:1:0:0:
229,76,230046,1,0,0:0:0:0:
229,76,230192,2,2,P|235:35|237:-7,1,75,2|0,1:0|0:0,0:1:0:0:
128,4,230485,1,10,0:0:0:0:
138,82,230631,1,0,0:0:0:0:
348,55,230778,6,2,B|450:41|394:87|509:71,1,150,2|10,1:0|0:0,0:1:0:0:
200,157,231363,2,2,P|100:198|86:305,1,225,2|0,1:0|0:0,0:1:0:0:
196,272,231948,6,0,P|184:308|185:345,1,75,2|0,1:0|0:0,0:0:0:0:
270,384,232241,1,10,0:0:0:0:
270,384,232387,1,0,0:0:0:0:
345,308,232534,2,0,P|345:269|333:234,1,75,2|0,1:0|0:0,0:0:0:0:
273,143,232826,2,0,P|260:107|262:70,1,75,10|0,0:0|0:0,0:0:0:0:
361,22,233119,6,2,B|510:34,1,150,2|10,1:0|0:0,0:1:0:0:
303,144,233558,1,0,0:0:0:0:
239,220,233704,2,2,B|89:232,1,150,2|10,1:0|0:0,0:1:0:0:
426,341,234290,6,2,P|438:196|303:136,1,300,2|2,1:0|1:0,0:1:0:0:
233,201,235022,1,0,0:0:0:0:
176,137,235168,2,0,L|188:56,1,75,10|0,0:0|0:0,0:0:0:0:
98,8,235461,5,2,1:0:0:0:
98,8,235753,2,2,P|29:19|27:89,1,150,12|8,0:1|0:3,0:0:0:0:
27,88,236412,1,4,0:3:0:0:
27,88,236485,1,4,0:3:0:0:
0,254,236631,6,0,B|99:237|55:283|163:262,1,150,6|10,3:2|0:0,0:0:0:0:
223,206,237070,1,0,0:0:0:0:
140,170,237216,2,0,P|100:177|67:169,1,75,2|0,1:0|0:0,0:0:0:0:
214,115,237509,1,10,0:0:0:0:
214,115,237656,1,0,0:0:0:0:
367,126,237802,2,0,P|445:130|509:100,1,150,2|10,1:0|0:0,0:0:0:0:
507,210,238241,5,0,0:0:0:0:
507,210,238387,1,2,1:0:0:0:
401,215,238534,1,0,0:0:0:0:
312,270,238680,1,10,0:0:0:0:
262,356,238826,1,0,0:0:0:0:
143,326,238973,6,2,P|36:261|81:101,1,300,2|2,1:0|1:0,0:1:0:0:
249,99,239704,1,0,0:0:0:0:
226,23,239851,2,0,P|188:23|150:38,1,75,10|0,0:0|0:0,0:0:0:0:
160,224,240143,6,2,P|229:249|301:234,1,150,2|10,1:0|0:0,0:1:0:0:
512,150,240582,2,2,P|411:162|322:68,1,225,0|10,0:0|0:0,0:1:0:0:
410,6,241168,1,8,0:0:0:0:
491,1,241314,6,2,P|490:44|477:84,1,75,6|0,1:0|0:0,0:1:0:0:
289,218,241607,1,10,0:0:0:0:
267,300,241753,1,0,0:0:0:0:
350,319,241899,2,2,P|370:285|376:240,1,75,2|0,1:0|0:0,0:1:0:0:
90,167,242192,5,10,0:0:0:0:
12,198,242338,1,0,0:0:0:0:
69,259,242485,1,2,1:0:0:0:
147,233,242631,1,0,0:0:0:0:
273,289,242777,2,2,B|363:268|323:324|443:291,1,150,10|2,0:0|1:0,0:1:0:0:
512,232,243216,1,0,0:0:0:0:
489,152,243363,2,2,P|453:154|416:164,1,75,10|0,0:0|0:0,0:1:0:0:
272,377,243656,6,2,P|158:337|160:220,1,225,2|0,1:0|0:0,0:1:0:0:
238,141,244241,2,0,L|327:152,1,75,2|0,1:0|0:0,0:0:0:0:
171,66,244534,2,0,L|90:78,1,75,10|0,0:0|0:0,0:0:0:0:
455,128,244826,5,2,1:0:0:0:
455,128,245119,2,2,P|429:204|345:222,1,168.750006437302,10|8,0:0|0:3,0:1:0:0:
233,288,245704,1,4,0:3:0:0:
218,198,245850,1,4,0:3:0:0:
221,312,245997,6,0,P|173:310|139:313,1,75,4|8,1:2|0:0,0:0:0:0:
26,290,246436,1,0,0:0:0:0:
26,290,246583,1,0,0:0:0:0:
87,220,246729,1,0,1:0:0:0:
87,220,246875,1,0,0:0:0:0:
36,100,247022,6,0,P|39:57|35:17,1,75,8|0,0:0|1:0,0:0:0:0:
140,40,247461,1,8,0:0:0:0:
140,40,247607,2,0,P|136:83|142:127,1,75,2|0,0:1|1:0,0:0:0:0:
229,164,248046,1,8,0:0:0:0:
229,164,248192,1,0,0:0:0:0:
358,125,248339,6,0,P|401:128|443:124,1,75,0|0,1:2|0:0,0:0:0:0:
471,209,248778,1,0,0:0:0:0:
471,209,248924,1,0,0:0:0:0:
372,220,249070,1,0,1:0:0:0:
372,220,249217,1,0,0:0:0:0:
291,316,249363,6,0,P|247:314|204:318,1,75,8|0,0:0|1:0,0:0:0:0:
151,211,249802,1,8,0:0:0:0:
95,271,249948,2,0,P|51:273|14:270,1,75,2|0,0:1|1:0,0:0:0:0:
20,270,250314,1,0,1:0:0:0:
20,271,250387,1,8,0:0:0:0:
224,164,250680,6,0,P|226:119|222:80,1,75,0|8,1:2|0:0,0:0:0:0:
307,46,251119,1,0,0:0:0:0:
307,46,251265,1,0,0:0:0:0:
375,110,251412,1,0,1:0:0:0:
375,110,251704,6,0,P|372:156|376:196,1,75,8|0,0:0|1:0,0:0:0:0:
245,245,252144,1,8,0:0:0:0:
326,276,252290,2,0,P|331:320|329:355,1,75,2|0,0:1|1:0,0:0:0:0:
329,350,252656,1,0,1:0:0:0:
329,350,252729,1,8,0:0:0:0:
415,317,252875,1,0,0:0:0:0:
236,319,253022,6,0,P|184:319|130:301,1,104.999996795654,0|0,1:2|0:0,0:0:0:0:
393,203,253607,2,0,P|444:203|505:179,1,104.999996795654
494,185,254046,2,0,L|497:118,1,56.2500021457673,10|8,0:1|0:3,0:0:0:0:
357,101,254339,2,0,L|349:48,3,37.5,8|8|4|4,0:3|0:3|0:3|0:3,0:0:0:0:
427,6,254631,5,4,3:1:0:0:
