osu file format v14

[General]
AudioFilename: audio.mp3
AudioLeadIn: 0
PreviewTime: 77083
Countdown: 0
SampleSet: Normal
StackLeniency: 0.2
Mode: 0
LetterboxInBreaks: 0
WidescreenStoryboard: 1

[Editor]
Bookmarks: 144,76387,114875,152339,188631,210729,217900,227265,236631,245997
DistanceSpacing: 0.6
BeatDivisor: 4
GridSize: 32
TimelineZoom: 2.4

[Metadata]
Title:Kairikou
TitleUnicode:乖離光
Artist:Feryquitous feat. Aitsuki Nakuru
ArtistUnicode:Feryquitous feat. 藍月なくる
Creator:Ryuusei Aika
Version:Skystar's Irregular
Source:
Tags:フェリキタス soleil de minuit Pino -[Pino]- Hailie Kibbleru den0saur Dynamix DJmax Parad_X wothe Suzuki_1112 1112deng Miura Skystar Amamiya Yuko
BeatmapID:1723257
BeatmapSetID:740862

[Difficulty]
HPDrainRate:5.5
CircleSize:4
OverallDifficulty:8.6
ApproachRate:9.6
SliderMultiplier:2
SliderTickRate:1

[Events]
//Background and Video events
0,0,"BG.jpg",0,0
//Break Periods
2,115075,118610
2,152539,161195
//Storyboard Layer 0 (Background)
//Storyboard Layer 1 (Fail)
//Storyboard Layer 2 (Pass)
//Storyboard Layer 3 (Foreground)
//Storyboard Sound Samples

[TimingPoints]
144,292.682926829268,4,1,11,38,1,0
290,-500,4,1,11,38,0,0
948,-100,4,1,11,38,0,0
2046,-250,4,1,11,49,0,0
2339,-250,4,1,11,5,0,0
2485,-66.6666666666667,4,1,11,38,0,0
7607,-133.333333333333,4,1,11,38,0,0
8192,-66.6666666666667,4,1,11,38,0,0
12290,-133.333333333333,4,1,11,38,0,0
12729,-66.6666666666667,4,1,11,38,0,0
16973,-133.333333333333,4,1,11,38,0,0
17558,-66.6666666666667,4,1,11,38,0,0
19607,-133.333333333333,4,1,11,38,0,0
19900,-66.6666666666667,4,1,11,49,0,0
20485,-50,4,1,11,49,0,0
20924,-200,4,1,11,31,0,0
21217,-66.6666666666667,4,1,11,49,0,0
26192,-133.333333333333,4,1,11,49,0,0
26485,-66.6666666666667,4,1,11,49,0,0
29997,-133.333333333333,4,1,11,38,0,0
30583,-66.6666666666667,4,1,11,49,0,0
35558,-133.333333333333,4,1,11,49,0,0
35851,-66.6666666666667,4,1,11,49,0,0
38192,-133.333333333333,4,1,11,38,0,0
38778,-100,4,1,11,49,0,0
39948,-133.333333333333,4,1,11,38,0,0
40826,-80,4,1,11,38,0,0
42290,-133.333333333333,4,1,11,38,0,0
43022,-80,4,1,11,38,0,0
43900,-133.333333333333,4,1,11,38,0,0
44192,-133.333333333333,4,1,11,49,0,0
44631,-100,4,1,11,49,0,0
45656,-80,4,1,11,49,0,0
47558,-133.333333333333,4,1,11,49,0,0
47997,-80,4,1,11,49,0,0
49314,-100,4,1,11,38,0,0
57948,-133.333333333333,4,1,11,49,0,0
58680,-100,4,1,11,38,0,0
59851,-133.333333333333,4,1,11,38,0,0
71265,-80,4,1,11,49,0,0
71631,-100,4,1,11,38,0,0
72729,-200,4,1,11,38,0,0
73241,-100,4,1,11,38,0,0
75363,-80,4,1,11,38,0,0
76095,-66.6666666666667,4,1,11,38,0,0
76241,-66.6666666666667,4,1,11,5,0,0
76387,-66.6666666666667,4,1,11,38,0,0
77119,-333.333333333333,4,1,11,31,0,0
77412,-66.6666666666667,4,1,11,59,0,1
77631,-66.6666666666667,4,1,11,5,0,1
77704,-100,4,1,11,59,0,0
78583,-80,4,1,11,59,0,0
78802,-80,4,1,11,5,0,0
78875,-80,4,1,11,59,0,0
79095,-80,4,1,11,5,0,0
79168,-80,4,1,11,59,0,0
79387,-80,4,1,11,5,0,0
79461,-80,4,1,11,59,0,0
79680,-80,4,1,11,5,0,0
79753,-100,4,1,11,59,0,0
80265,-80,4,1,11,59,0,0
80558,-80,4,1,11,5,0,0
80631,-80,4,1,11,59,0,0
80924,-100,4,1,11,59,0,0
81509,-80,4,1,11,59,0,0
81729,-80,4,1,11,5,0,0
81802,-80,4,1,11,59,0,0
82314,-80,4,1,11,5,0,0
82387,-100,4,1,11,59,0,0
82534,-100,4,1,11,5,0,0
82680,-100,4,1,11,59,0,0
83192,-100,4,1,11,5,0,0
83265,-100,4,1,11,59,0,0
83412,-100,4,1,11,5,0,0
83558,-100,4,1,11,59,0,0
84290,-80,4,1,11,59,0,0
84509,-80,4,1,11,5,0,0
84583,-80,4,1,11,59,0,0
84875,-80,4,1,11,5,0,0
85022,-80,4,1,11,59,0,0
85461,-80,4,1,11,5,0,0
85607,-133.333333333333,4,1,11,59,0,0
85753,-133.333333333333,4,1,11,5,0,0
85900,-100,4,1,11,59,0,0
86192,-100,4,1,11,5,0,0
86339,-100,4,1,11,59,0,0
86778,-66.6666666666667,4,1,11,59,0,1
86997,-66.6666666666667,4,1,11,5,0,1
87070,-80,4,1,11,59,0,0
88168,-80,4,1,11,5,0,0
88241,-80,4,1,11,59,0,0
88461,-80,4,1,11,5,0,0
88534,-80,4,1,11,59,0,0
88753,-80,4,1,11,5,0,0
88826,-80,4,1,11,59,0,0
89046,-80,4,1,11,5,0,0
89119,-100,4,1,11,59,0,0
89704,-80,4,1,11,59,0,0
89924,-80,4,1,11,5,0,0
89997,-80,4,1,11,59,0,0
90290,-100,4,1,11,59,0,0
91680,-100,4,1,11,5,0,0
91753,-100,4,1,11,59,0,0
92485,-80,4,1,11,59,0,0
92704,-80,4,1,11,5,0,0
92778,-100,4,1,11,59,0,0
93436,-100,4,1,11,5,0,0
93509,-100,4,1,11,59,0,0
94022,-100,4,1,11,5,0,0
94095,-100,4,1,11,59,0,0
95192,-100,4,1,11,5,0,0
95265,-80,4,1,11,59,0,0
96363,-80,4,1,11,5,0,0
96436,-80,4,1,11,59,0,0
96583,-80,4,1,11,5,0,0
96729,-80,4,1,11,59,0,0
97241,-80,4,1,11,5,0,0
97314,-80,4,1,11,59,0,0
97534,-80,4,1,11,5,0,0
97607,-80,4,1,11,59,0,0
98704,-80,4,1,11,5,0,0
98778,-80,4,1,11,59,0,0
98924,-80,4,1,11,5,0,0
99070,-80,4,1,11,59,0,0
99583,-80,4,1,11,5,0,0
99656,-80,4,1,11,59,0,0
100461,-80,4,1,11,5,0,0
100534,-80,4,1,11,59,0,0
104339,-133.333333333333,4,1,11,59,0,0
104485,-133.333333333333,4,1,11,5,0,0
104631,-100,4,1,11,59,0,0
104924,-100,4,1,11,5,0,0
105070,-100,4,1,11,59,0,0
105509,-80,4,1,11,59,0,0
105729,-80,4,1,11,5,0,0
105802,-80,4,1,11,59,0,0
106607,-80,4,1,11,5,0,0
106680,-80,4,1,11,49,0,0
106900,-80,4,1,11,5,0,0
106973,-80,4,1,11,59,0,0
108070,-80,4,1,11,5,0,0
108143,-80,4,1,11,59,0,0
108290,-80,4,1,11,5,0,0
108436,-80,4,1,11,59,0,0
108948,-80,4,1,11,5,0,0
109022,-80,4,1,11,59,0,0
109826,-80,4,1,11,5,0,0
109900,-80,4,1,11,59,0,0
113704,-133.333333333333,4,1,11,59,0,0
113851,-133.333333333333,4,1,11,5,0,0
113997,-100,4,1,11,59,0,0
114217,-100,4,1,11,5,0,0
114436,-100,4,1,11,59,0,0
114509,-100,4,1,11,5,0,0
114583,-100,4,1,11,59,0,0
114656,-100,4,1,11,5,0,0
114729,-100,4,1,11,59,0,0
114802,-100,4,1,11,5,0,0
114875,-100,4,1,11,59,0,0
119558,-133.333333333333,4,1,11,49,0,0
120583,-100,4,1,11,49,0,0
122339,-133.333333333333,4,1,11,49,0,0
122485,-80,4,1,11,49,0,0
122631,-57.1428571428571,4,1,11,49,0,0
122924,-400,4,1,11,49,0,0
123509,-66.6666666666667,4,1,11,49,0,0
124241,-66.6666666666667,4,1,11,49,0,0
132583,-133.333333333333,4,1,11,49,0,0
132802,-100,4,1,11,49,0,0
133022,-80,4,1,11,49,0,0
133461,-66.6666666666667,4,1,11,49,0,0
133900,-100,4,1,11,49,0,0
134485,-80,4,1,11,49,0,0
152046,-66.6666666666667,4,1,11,49,0,0
161704,-200,4,1,11,49,0,0
170997,-80,4,1,11,49,0,0
171363,-133.333333333333,4,1,11,49,0,0
171948,-100,4,1,11,49,0,0
172534,-80,4,1,11,49,0,0
173119,-133.333333333333,4,1,11,49,0,0
173997,-100,4,1,11,49,0,0
175168,-80,4,1,11,49,0,0
176046,-133.333333333333,4,1,11,49,0,0
176631,-100,4,1,11,49,0,0
177509,-80,4,1,11,49,0,0
178387,-100,4,1,11,49,0,0
178680,-80,4,1,11,49,0,0
179558,-100,4,1,11,49,0,0
179851,-80,4,1,11,49,0,0
180729,-133.333333333333,4,1,11,49,0,0
181022,-100,4,1,11,49,0,0
182192,-80,4,1,11,49,0,0
182485,-133.333333333333,4,1,11,49,0,0
183363,-100,4,1,11,49,0,0
183656,-66.6666666666667,4,1,11,49,0,0
184095,-100,4,1,11,49,0,0
187168,-133.333333333333,4,1,11,49,0,0
188631,-200,4,1,11,49,0,0
188924,-200,4,1,11,49,0,0
189070,-300,4,1,11,49,0,0
189509,-300,4,1,11,49,0,0
189802,-66.6666666666667,4,1,11,59,0,1
190022,-66.6666666666667,4,1,11,5,0,1
190095,-80,4,1,11,59,0,0
191192,-80,4,1,11,5,0,0
191265,-100,4,1,11,59,0,0
191412,-100,4,1,11,5,0,0
191558,-100,4,1,11,59,0,0
191704,-100,4,1,11,5,0,0
191851,-100,4,1,11,59,0,0
192070,-100,4,1,11,5,0,0
192143,-80,4,1,11,59,0,0
192290,-80,4,1,11,5,0,0
192436,-80,4,1,11,59,0,0
192656,-80,4,1,11,5,0,0
192729,-66.6666666666667,4,1,11,59,0,0
192875,-66.6666666666667,4,1,11,5,0,0
193022,-66.6666666666667,4,1,11,59,0,0
193461,-66.6666666666667,4,1,11,5,0,0
193607,-66.6666666666667,4,1,11,59,0,0
193826,-66.6666666666667,4,1,11,5,0,0
193900,-66.6666666666667,4,1,11,59,0,0
194412,-66.6666666666667,4,1,11,5,0,0
194485,-80,4,1,11,59,0,0
194704,-80,4,1,11,5,0,0
194778,-80,4,1,11,59,0,0
194924,-80,4,1,11,5,0,0
195070,-80,4,1,11,59,0,0
195583,-80,4,1,11,5,0,0
195656,-100,4,1,11,59,0,0
195802,-100,4,1,11,5,0,0
195948,-100,4,1,11,59,0,0
197339,-100,4,1,11,5,0,0
197412,-100,4,1,11,59,0,0
197778,-100,4,1,11,5,0,0
197997,-200,4,1,11,59,0,0
198070,-200,4,1,11,5,0,0
198290,-100,4,1,11,59,0,0
198583,-100,4,1,11,5,0,0
198729,-100,4,1,11,59,0,0
199022,-80,4,1,11,59,0,0
199095,-80,4,1,11,5,0,0
199168,-66.6666666666667,4,1,11,59,0,1
199387,-66.6666666666667,4,1,11,5,0,1
199461,-80,4,1,11,59,0,0
200558,-80,4,1,11,5,0,0
200631,-100,4,1,11,59,0,0
200778,-100,4,1,11,5,0,0
200924,-100,4,1,11,59,0,0
201070,-100,4,1,11,5,0,0
201217,-100,4,1,11,59,0,0
201436,-100,4,1,11,5,0,0
201509,-80,4,1,11,59,0,0
201656,-80,4,1,11,5,0,0
201802,-80,4,1,11,59,0,0
202022,-80,4,1,11,5,0,0
202095,-66.6666666666667,4,1,11,59,0,0
202241,-66.6666666666667,4,1,11,5,0,0
202387,-66.6666666666667,4,1,11,59,0,0
202826,-66.6666666666667,4,1,11,5,0,0
202900,-66.6666666666667,4,1,11,59,0,0
203119,-66.6666666666667,4,1,11,5,0,0
203265,-66.6666666666667,4,1,11,59,0,0
203778,-66.6666666666667,4,1,11,5,0,0
203851,-80,4,1,11,59,0,0
204070,-80,4,1,11,5,0,0
204143,-80,4,1,11,59,0,0
204290,-80,4,1,11,5,0,0
204436,-80,4,1,11,59,0,0
205095,-66.6666666666667,4,1,11,59,0,0
206046,-100,4,1,11,59,0,0
207363,-200,4,1,11,59,0,0
207509,-200,4,1,11,5,0,0
207656,-80,4,1,11,59,0,0
207948,-80,4,1,11,5,0,0
208095,-100,4,1,11,59,0,0
208534,-200,4,1,11,59,0,1
208607,-200,4,1,11,5,0,0
210143,-200,4,1,11,59,0,0
210217,-200,4,1,11,5,0,0
210290,-66.6666666666667,4,1,11,59,0,0
210363,-66.6666666666667,4,1,11,5,0,0
210436,-57.1428571428571,4,1,11,59,0,0
210509,-57.1428571428571,4,1,11,5,0,0
210583,-50,4,1,11,59,0,0
210656,-50,4,1,11,5,0,0
210729,-66.6666666666667,4,1,11,59,0,1
210948,-66.6666666666667,4,1,11,5,0,1
211022,-66.6666666666667,4,1,11,59,0,0
211314,-66.6666666666667,4,1,11,5,0,0
211461,-66.6666666666667,4,1,11,59,0,0
211900,-66.6666666666667,4,1,11,5,0,0
212046,-66.6666666666667,4,1,11,59,0,0
212192,-66.6666666666667,4,1,11,5,0,0
212339,-66.6666666666667,4,1,11,59,0,0
212558,-66.6666666666667,4,1,11,5,0,0
212631,-66.6666666666667,4,1,11,59,0,0
213143,-66.6666666666667,4,1,11,5,0,0
213217,-66.6666666666667,4,1,11,59,0,0
213436,-66.6666666666667,4,1,11,5,0,0
213509,-66.6666666666667,4,1,11,59,0,0
213656,-66.6666666666667,4,1,11,5,0,0
213802,-66.6666666666667,4,1,11,59,0,0
214314,-66.6666666666667,4,1,11,5,0,0
214387,-66.6666666666667,4,1,11,59,0,0
214534,-66.6666666666667,4,1,11,5,0,0
214680,-66.6666666666667,4,1,11,59,0,0
216070,-66.6666666666667,4,1,11,5,0,0
216143,-66.6666666666667,4,1,11,59,0,0
216436,-100,4,1,11,59,0,0
216509,-100,4,1,11,5,0,0
216729,-200,4,1,11,59,0,0
216802,-200,4,1,11,5,0,0
217022,-100,4,1,11,59,0,0
217314,-100,4,1,11,5,0,0
217461,-100,4,1,11,59,0,0
217753,-66.6666666666667,4,1,11,59,0,0
217826,-66.6666666666667,4,1,11,5,0,0
217900,-66.6666666666667,4,1,11,59,0,1
218119,-66.6666666666667,4,1,11,5,0,1
218192,-66.6666666666667,4,1,11,59,0,0
219290,-66.6666666666667,4,1,11,5,0,0
219363,-66.6666666666667,4,1,11,59,0,0
219509,-66.6666666666667,4,1,11,5,0,0
219656,-66.6666666666667,4,1,11,59,0,0
219802,-66.6666666666667,4,1,11,5,0,0
219948,-66.6666666666667,4,1,11,59,0,0
220168,-66.6666666666667,4,1,11,25,0,0
220241,-66.6666666666667,4,1,11,59,0,0
220387,-66.6666666666667,4,1,11,25,0,0
220534,-66.6666666666667,4,1,11,59,0,0
220680,-66.6666666666667,4,1,11,25,0,0
220826,-66.6666666666667,4,1,11,59,0,0
220973,-66.6666666666667,4,1,11,25,0,0
221119,-66.6666666666667,4,1,11,59,0,0
221558,-66.6666666666667,4,1,11,5,0,0
221704,-66.6666666666667,4,1,11,59,0,0
221851,-66.6666666666667,4,1,11,5,0,0
221997,-66.6666666666667,4,1,11,59,0,0
222363,-66.6666666666667,4,1,11,5,0,0
222436,-66.6666666666667,4,1,11,59,0,0
222509,-66.6666666666667,4,1,11,5,0,0
222583,-66.6666666666667,4,1,11,59,0,0
222802,-66.6666666666667,4,1,11,5,0,0
222875,-66.6666666666667,4,1,11,59,0,0
223973,-66.6666666666667,4,1,11,5,0,0
224046,-66.6666666666667,4,1,11,59,0,0
227485,-66.6666666666667,4,1,11,5,0,0
227558,-80,4,1,11,59,0,0
227704,-80,4,1,11,5,0,0
227851,-80,4,1,11,59,0,0
228363,-80,4,1,11,5,0,0
228436,-80,4,1,11,59,0,0
228583,-80,4,1,11,5,0,0
228729,-80,4,1,11,59,0,0
228875,-80,4,1,11,5,0,0
229022,-80,4,1,11,59,0,0
229534,-80,4,1,11,5,0,0
229607,-66.6666666666667,4,1,11,59,0,0
229826,-66.6666666666667,4,1,11,5,0,0
229900,-66.6666666666667,4,1,11,59,0,0
230485,-80,4,1,11,59,0,0
231948,-66.6666666666667,4,1,11,59,0,0
232607,-80,4,1,11,59,0,0
233265,-80,4,1,11,5,0,0
233412,-80,4,1,11,59,0,0
233851,-80,4,1,11,5,0,0
233997,-80,4,1,11,59,0,0
234290,-66.6666666666667,4,1,11,59,0,0
235387,-200,4,1,11,59,0,0
235607,-200,4,1,11,5,0,0
235753,-66.6666666666667,4,1,11,59,0,0
236046,-66.6666666666667,4,1,11,5,0,0
236192,-66.6666666666667,4,1,11,59,0,0
236558,-66.6666666666667,4,1,11,59,0,0
236851,-66.6666666666667,4,1,11,5,0,0
236924,-80,4,1,11,59,0,0
237070,-80,4,1,11,5,0,0
237217,-80,4,1,11,59,0,0
237729,-80,4,1,11,5,0,0
237802,-80,4,1,11,59,0,0
238022,-80,4,1,11,5,0,0
238095,-80,4,1,11,59,0,0
238900,-66.6666666666667,4,1,11,59,0,0
239192,-66.6666666666667,4,1,11,5,0,0
239265,-80,4,1,11,59,0,0
240070,-80,4,1,11,5,0,0
240143,-80,4,1,11,59,0,0
240729,-66.6666666666667,4,1,11,59,0,0
240948,-66.6666666666667,4,1,11,5,0,0
241022,-66.6666666666667,4,1,11,59,0,0
245046,-66.6666666666667,4,1,11,5,0,0
245119,-66.6666666666667,4,1,11,59,0,0
245339,-66.6666666666667,4,1,11,5,0,0
245412,-66.6666666666667,4,1,11,49,0,0
254046,-50,4,1,11,49,0,0

[Colours]
Combo1 : 71,88,90
Combo2 : 183,193,193
Combo3 : 89,116,133
Combo4 : 122,185,194

[HitObjects]
239,55,144,5,0,0:0:0:0:
192,118,290,1,2,2:0:0:0:
173,126,363,1,2,2:0:0:0:
155,115,436,2,0,L|148:70,1,40,0|2,2:2|2:2,0:0:0:0:
410,106,875,5,0,0:0:0:0:
431,182,1022,2,0,B|324:153|363:256|234:210,1,200,2|2,2:0|2:0,0:0:0:0:
244,213,1461,5,0,0:0:0:0:
261,260,1534,1,0,0:0:0:0:
246,297,1607,1,0,0:0:0:0:
238,325,1680,1,0,0:0:0:0:
247,347,1753,1,4,0:2:0:0:
253,342,2046,6,0,L|159:350,1,80,4|0,0:2|0:0,0:0:0:0:
56,384,2485,6,0,P|40:317|65:190,1,150.000005722046,2|0,0:0|2:0,0:0:0:0:
138,315,2778,5,0,0:0:0:0:
203,265,2924,1,0,0:0:0:0:
133,242,3070,1,0,0:0:0:0:
133,242,3217,5,0,0:0:0:0:
239,341,3363,1,0,0:0:0:0:
306,250,3509,2,0,B|377:216|377:216|486:260,1,150.000005722046,2|0,0:0|2:0,0:0:0:0:
507,291,3802,5,0,0:0:0:0:
443,351,3948,1,0,0:0:0:0:
364,314,4095,1,2,0:0:0:0:
299,85,4241,5,0,0:0:0:0:
388,38,4387,1,0,0:0:0:0:
458,109,4534,1,2,0:0:0:0:
324,191,4680,5,2,0:0:0:0:
233,161,4826,2,0,P|252:245|256:327,1,150.000005722046,2|0,0:0|0:0,0:0:0:0:
147,359,5119,5,0,0:0:0:0:
138,272,5265,1,0,0:0:0:0:
52,252,5412,1,0,0:0:0:0:
58,273,5558,5,0,0:0:0:0:
105,180,5704,1,0,0:0:0:0:
36,93,5851,2,0,B|91:44|91:44|201:82,1,150.000005722046,2|0,0:0|0:0,0:0:0:0:
253,164,6143,5,0,0:0:0:0:
271,83,6290,1,2,0:0:0:0:
371,205,6436,6,0,L|348:8,1,150.000005722046,2|0,0:0|0:0,0:0:0:0:
434,42,6729,1,0,0:0:0:0:
478,116,6875,5,8,0:0:0:0:
371,312,7022,1,8,0:0:0:0:
450,347,7168,6,0,P|452:258|272:195,1,300.000011444092,6|8,0:0|0:0,0:0:0:0:
254,333,7607,2,0,B|246:295|246:295|259:246,1,75.0000028610231
237,130,7900,1,0,0:0:0:0:
253,57,8046,1,0,0:0:0:0:
10,89,8192,6,0,P|112:103|168:278,1,300.000011444092,10|0,0:0|0:0,0:0:0:0:
155,287,8631,2,0,B|104:243|104:243|-11:261,1,150.000005722046,8|2,0:0|0:0,0:0:0:0:
259,232,8924,5,0,0:0:0:0:
246,320,9070,1,0,0:0:0:0:
351,169,9217,6,0,P|341:254|491:336,1,225.000008583069,10|0,0:0|2:0,0:0:0:0:
443,364,9509,6,0,B|458:296|458:296|429:200,1,150.000005722046,2|0,0:0|0:0,0:0:0:0:
335,42,9802,5,8,0:0:0:0:
418,88,9948,1,0,0:0:0:0:
415,11,10095,1,0,0:0:0:0:
331,118,10241,1,0,0:0:0:0:
218,54,10387,1,0,0:0:0:0:
146,110,10534,2,0,P|71:110|14:249,1,225.000008583069,10|0,0:0|2:0,0:0:0:0:
33,242,10826,1,0,0:0:0:0:
6,342,10973,6,2,B|80:364|80:364|182:301,1,150.000005722046,0|10,0:0|0:0,0:0:0:0:
305,284,11265,2,0,B|310:250|310:250|297:190,1,75.0000028610231,0|0,0:0|2:0,0:0:0:0:
224,275,11412,5,0,0:0:0:0:
217,265,11485,1,0,0:0:0:0:
226,255,11558,2,0,P|220:332|294:394,1,150.000005722046,8|0,0:0|2:0,0:0:0:0:
497,120,11851,6,0,B|307:51|402:227|187:161,1,300.000011444092,2|8,0:0|0:0,0:0:0:0:
239,162,12290,6,0,L|248:54,1,75.0000028610231
261,243,12583,1,0,0:0:0:0:
251,322,12729,1,0,0:0:0:0:
20,365,12875,6,0,P|133:332|142:164,1,300.000011444092,10|0,0:0|0:0,0:0:0:0:
63,100,13314,2,0,P|51:184|80:277,1,150.000005722046,8|2,0:0|0:0,0:0:0:0:
215,210,13607,5,0,0:0:0:0:
199,285,13753,1,0,0:0:0:0:
185,100,13900,6,0,P|267:107|294:255,1,225.000008583069,8|0,0:0|2:0,0:0:0:0:
292,248,14192,6,0,B|364:264|364:264|446:222,1,150.000005722046,2|0,0:0|0:0,0:0:0:0:
403,47,14485,2,0,B|331:31|331:31|249:73,1,150.000005722046,8|0,0:0|0:0,0:0:0:0:
192,97,14778,1,0,0:0:0:0:
122,47,14925,1,0,0:0:0:0:
187,117,15070,1,0,0:0:0:0:
21,245,15217,6,0,B|109:255|109:255|136:281|136:281|259:297,1,225.000008583069,10|0,0:0|2:0,0:0:0:0:
254,273,15509,1,0,0:0:0:0:
430,376,15656,6,0,B|438:339|438:339|426:303,1,75.0000028610231,2|0,0:0|2:0,0:0:0:0:
403,280,15802,2,0,B|391:244|391:244|400:208,1,75.0000028610231,10|0,0:0|2:0,0:0:0:0:
437,138,15948,5,8,0:0:0:0:
386,31,16095,1,0,0:0:0:0:
511,65,16241,2,0,L|355:53,1,150.000005722046,8|0,0:0|2:0,0:0:0:0:
27,33,16534,6,0,P|133:46|152:231,1,300.000011444092,2|8,0:0|0:0,0:0:0:0:
154,200,16973,6,0,L|239:207,1,75.0000028610231
74,180,17265,2,0,B|63:146|63:146|81:81,1,75.0000028610231
308,180,17558,6,0,P|293:266|93:280,1,300.000011444092,10|0,0:0|0:0,0:0:0:0:
133,284,17997,1,8,0:0:0:0:
180,316,18143,1,2,0:0:0:0:
244,256,18290,1,0,0:0:0:0:
307,322,18436,1,0,0:0:0:0:
361,231,18583,1,8,0:0:0:0:
361,231,18729,1,0,2:0:0:0:
447,347,18875,6,0,B|476:282|476:282|431:193,1,150.000005722046,2|0,0:0|0:0,0:0:0:0:
282,210,19168,2,0,B|253:275|253:275|298:364,1,150.000005722046,8|0,0:0|0:0,0:0:0:0:
361,231,19461,1,0,0:0:0:0:
371,314,19607,6,0,L|368:222,1,75.0000028610231
366,330,19900,6,0,L|363:255,1,75.0000028610231,4|0,0:2|2:0,0:0:0:0:
445,30,20485,6,0,B|463:80|463:80|431:170,1,100,4|0,2:2|2:0,0:0:0:0:
435,118,20778,6,0,B|453:168|453:168|421:258,1,100,4|0,2:0|2:0,0:0:0:0:
402,327,20924,6,0,L|406:294,1,25,0|0,0:0|2:0,0:0:0:0:
390,297,21070,2,0,L|392:273,1,25,0|0,0:0|2:0,0:0:0:0:
356,195,21217,6,0,P|273:182|217:384,1,300.000011444092,4|8,0:2|0:0,0:0:0:0:
267,352,21656,1,0,0:0:0:0:
162,208,21802,5,0,0:0:0:0:
224,160,21948,2,0,P|229:86|201:-2,1,150.000005722046,0|8,0:0|0:0,0:0:0:0:
137,0,22241,1,0,0:0:0:0:
55,227,22387,6,0,P|124:352|267:352,1,300.000011444092,0|8,0:0|0:0,0:0:0:0:
294,285,22826,1,0,0:0:0:0:
512,298,22973,6,0,P|443:173|300:173,1,300.000011444092,0|8,0:0|0:0,0:0:0:0:
415,309,23412,1,0,0:0:0:0:
363,247,23558,5,0,0:0:0:0:
388,170,23704,1,0,0:0:0:0:
433,235,23851,5,8,0:0:0:0:
458,152,23997,1,0,0:0:0:0:
416,316,24143,5,0,0:0:0:0:
314,191,24290,1,0,0:0:0:0:
241,338,24436,1,8,0:0:0:0:
195,235,24583,5,0,0:0:0:0:
486,281,24729,5,0,0:0:0:0:
427,207,24875,1,0,0:0:0:0:
427,207,24948,1,0,0:0:0:0:
427,207,25022,1,8,0:0:0:0:
421,339,25168,5,0,0:0:0:0:
334,264,25314,2,0,B|347:301|347:301|341:337,1,75.0000028610231
183,344,25461,2,0,B|171:308|171:308|177:272,1,75.0000028610231
256,284,25607,6,0,P|260:219|116:165,1,225.000008583069,8|0,0:0|2:0,0:0:0:0:
148,170,25900,6,0,B|87:207|87:207|-10:187,1,150.000005722046
9,191,26192,2,0,L|-4:95,1,75.0000028610231,8|0,0:0|0:0,0:0:0:0:
46,50,26485,1,0,0:0:0:0:
115,87,26631,1,0,0:0:0:0:
149,20,26778,2,0,P|225:56|225:205,1,225.000008583069,8|0,0:0|2:0,0:0:0:0:
259,172,27070,6,0,P|250:246|280:350,1,150.000005722046
411,319,27363,1,8,0:0:0:0:
466,205,27509,1,0,0:0:0:0:
363,239,27656,2,0,P|372:165|342:61,1,150.000005722046
259,172,27948,2,0,P|172:166|89:273,1,225.000008583069,8|0,0:0|2:0,0:0:0:0:
87,341,28241,5,0,0:0:0:0:
75,265,28387,1,0,0:0:0:0:
171,323,28534,5,8,0:0:0:0:
53,181,28680,1,0,0:0:0:0:
198,70,28826,5,0,0:0:0:0:
257,160,28973,1,0,0:0:0:0:
182,230,29119,1,8,0:0:0:0:
387,28,29265,5,0,0:0:0:0:
469,137,29412,2,0,P|376:114|264:277,1,300.000011444092,0|8,0:0|0:0,0:0:0:0:
293,321,29851,1,0,0:0:0:0:
230,167,29997,5,0,0:0:0:0:
254,80,30143,1,0,0:0:0:0:
217,11,30290,2,0,P|212:64|241:112,1,75.0000028610231,0|0,0:0|2:0,0:0:0:0:
307,14,30583,6,0,P|408:-2|479:175,1,300.000011444092,4|8,0:2|0:0,0:0:0:0:
417,126,31022,1,0,0:0:0:0:
496,282,31168,5,0,0:0:0:0:
458,348,31314,2,0,P|435:263|447:162,1,150.000005722046,0|8,0:0|0:0,0:0:0:0:
362,290,31607,1,0,0:0:0:0:
150,162,31753,6,0,B|292:210|292:210|425:120,1,300.000011444092,0|8,0:0|0:0,0:0:0:0:
351,80,32192,1,0,0:0:0:0:
479,41,32339,6,0,B|337:-7|337:-7|204:83,1,300.000011444092,0|8,0:0|0:0,0:0:0:0:
301,173,32778,1,0,0:0:0:0:
422,261,32924,5,0,0:0:0:0:
323,335,33070,1,0,0:0:0:0:
437,383,33217,1,8,0:0:0:0:
372,255,33363,5,0,0:0:0:0:
317,384,33509,1,0,0:0:0:0:
457,367,33656,1,0,0:0:0:0:
301,250,33802,6,0,B|230:233|230:233|127:262,1,150.000005722046,8|0,0:0|0:0,0:0:0:0:
50,375,34095,6,0,P|81:311|55:219,1,150.000005722046
41,199,34314,1,0,0:0:0:0:
7,169,34387,2,0,L|28:9,1,150.000005722046,8|0,0:0|0:0,0:0:0:0:
172,135,34680,6,0,B|209:141|209:141|242:125,1,75.0000028610231
232,34,34826,2,0,B|195:28|195:28|161:43,1,75.0000028610231
151,125,34973,2,0,L|409:96,1,225.000008583069,8|0,0:0|2:0,0:0:0:0:
468,27,35265,6,0,P|496:100|362:169,1,225.000008583069,0|0,0:0|2:0,0:0:0:0:
420,194,35558,6,0,P|413:230|422:280,1,75.0000028610231,8|0,0:0|0:0,0:0:0:0:
313,195,35851,2,0,B|316:161|316:161|302:123,1,75.0000028610231,0|0,0:0|2:0,0:0:0:0:
264,293,35997,2,0,B|302:279|302:279|350:283,1,75.0000028610231,0|0,0:0|2:0,0:0:0:0:
226,142,36143,2,0,B|93:187|155:64|18:108,1,225.000008583069,8|0,0:0|2:0,0:0:0:0:
56,187,36436,6,0,B|76:214|76:214|58:347,1,150.000005722046
226,142,36729,2,0,B|206:115|206:115|224:-18,1,150.000005722046,8|8,0:0|0:0,0:0:0:0:
199,372,37022,1,0,0:0:0:0:
174,284,37168,1,0,0:0:0:0:
158,196,37314,2,0,P|242:181|324:294,1,225.000008583069,8|0,0:0|2:0,0:0:0:0:
347,301,37607,5,0,0:0:0:0:
391,178,37753,1,0,0:0:0:0:
216,60,37900,5,8,0:0:0:0:
249,196,38046,1,0,0:0:0:0:
455,52,38192,5,0,0:0:0:0:
455,52,38339,1,0,0:0:0:0:
455,52,38485,2,0,B|419:68|419:68|370:56,1,75.0000028610231,0|0,0:0|2:0,0:0:0:0:
307,30,38778,5,0,0:0:0:0:
303,122,38924,2,0,L|292:6,1,100,0|0,0:0|2:0,0:0:0:0:
356,275,39217,2,0,L|345:391,1,100,0|0,0:0|2:0,0:0:0:0:
417,216,39509,1,0,0:0:0:0:
338,192,39656,2,0,P|282:206|248:303,1,150,0|0,0:0|2:0,0:0:0:0:
259,306,39948,6,0,B|195:281|195:281|93:303,1,150.000005722046,4|0,0:2|0:0,0:0:0:0:
85,377,40387,2,0,L|101:286,1,75.0000028610231,0|2,0:0|0:0,0:0:0:0:
167,57,40680,5,2,0:0:0:0:
189,155,40826,1,0,0:0:0:0:
211,253,40973,1,0,0:0:0:0:
287,177,41119,6,0,L|129:164,1,125
348,111,41412,2,0,L|413:268,1,125,2|0,0:0|0:0,0:0:0:0:
269,81,41704,1,0,0:0:0:0:
488,132,41851,2,0,P|498:226|375:317,1,250,2|0,0:0|0:0,0:0:0:0:
309,371,42290,6,0,B|301:336|301:336|312:284,1,75.0000028610231,2|0,0:0|0:0,0:0:0:0:
154,331,42583,2,0,B|162:296|162:296|151:244,1,75.0000028610231
238,159,42875,1,2,0:0:0:0:
238,265,43022,6,0,L|230:122,1,125,2|0,0:0|0:0,0:0:0:0:
186,67,43314,2,2,P|206:167|211:349,1,250,2|0,0:0|0:0,0:0:0:0:
285,333,43753,1,0,0:0:0:0:
63,209,43900,6,0,B|100:201|100:201|153:221,1,75.0000028610231
213,232,44192,5,8,0:0:0:0:
347,179,44339,5,8,0:0:0:0:
506,248,44485,5,8,0:0:0:0:
505,41,44631,6,2,P|435:38|352:160,1,200,4|8,0:0|0:0,0:0:0:0:
323,198,45070,1,0,0:0:0:0:
401,189,45217,6,2,B|418:218|418:218|404:323,1,100,0|0,0:0|0:0,0:0:0:0:
476,147,45509,1,0,0:0:0:0:
393,360,45656,2,2,P|317:345|274:192,1,250,10|0,0:0|0:0,0:0:0:0:
320,139,46095,1,10,0:0:0:0:
173,278,46241,6,0,P|179:210|170:98,1,125,2|0,0:0|0:0,0:0:0:0:
55,133,46534,1,2,0:0:0:0:
71,233,46680,1,8,0:0:0:0:
68,145,46826,1,0,0:0:0:0:
136,89,46973,6,2,P|188:13|345:7,1,250,0|8,0:0|0:0,0:0:0:0:
385,55,47412,1,0,0:0:0:0:
501,177,47558,5,2,0:0:0:0:
501,177,47704,2,0,B|469:195|469:195|413:186,1,75.0000028610231,2|0,0:0|2:0,0:0:0:0:
218,173,47997,6,0,L|117:152,1,62.5,8|0,0:0|2:0,0:0:0:0:
122,154,48143,2,0,L|21:175,1,62.5,8|0,0:0|2:0,0:0:0:0:
218,173,48436,6,0,B|223:143|223:143|218:111,1,62.5,8|0,0:0|2:0,0:0:0:0:
60,166,48583,2,0,B|55:196|55:196|59:227,1,62.5,8|0,0:0|2:0,0:0:0:0:
233,348,48875,5,0,0:0:0:0:
214,214,49022,1,8,0:0:0:0:
239,83,49168,1,0,2:0:0:0:
191,19,49314,6,0,P|133:15|65:145,1,200,4|8,0:2|0:0,0:0:0:0:
121,166,49753,1,0,0:0:0:0:
304,142,49900,6,0,P|353:135|431:149,1,100
419,292,50192,2,0,P|370:299|292:285,1,100,8|0,0:0|0:0,0:0:0:0:
273,225,50485,1,2,0:2:0:0:
273,225,50631,6,0,L|154:238,1,100,2|8,0:2|0:0,0:0:0:0:
0,257,50924,2,0,L|99:246,1,100,2|0,0:2|0:0,0:0:0:0:
273,225,51217,6,0,P|263:274|263:324,1,100,0|8,0:0|0:0,0:0:0:0:
325,148,51509,2,2,P|406:198|406:294,1,200,2|0,0:2|0:2,0:0:0:0:
290,339,51948,6,2,B|245:359|245:359|180:347,1,100,8|2,0:0|0:2,0:0:0:0:
177,247,52241,1,2,0:2:0:0:
177,247,52387,2,0,B|222:227|222:227|287:239,1,100,0|8,0:0|0:0,0:0:0:0:
120,171,52680,6,2,P|39:221|39:317,1,200,2|0,0:2|0:0,0:1:0:0:
103,363,53119,1,8,0:0:0:0:
223,238,53265,6,0,P|240:289|241:360,1,100
342,361,53558,1,0,0:0:0:0:
380,292,53704,1,8,0:0:0:0:
321,241,53851,1,0,0:0:0:0:
159,311,53997,6,2,P|109:266|119:127,1,200,2|8,0:2|0:0,0:0:0:0:
259,60,54436,1,2,0:2:0:0:
280,146,54583,1,0,0:0:0:0:
278,42,54729,2,0,L|268:143,1,100,2|8,0:2|0:0,0:0:0:0:
477,369,55022,6,2,B|462:261|462:261|471:237|471:237|460:162,1,200,2|2,0:2|0:2,0:0:0:0:
377,83,55461,1,8,0:0:0:0:
489,0,55607,2,0,B|476:51|476:51|492:111,1,100,2|0,0:2|0:0,0:0:0:0:
461,172,55900,2,0,B|474:121|474:121|458:61,1,100,2|8,0:2|0:0,0:0:0:0:
461,172,56192,5,2,0:2:0:0:
432,243,56339,1,2,0:2:0:0:
455,314,56485,1,2,0:2:0:0:
279,325,56631,5,8,0:0:0:0:
310,155,56778,1,2,0:2:0:0:
245,106,56924,5,0,0:0:0:0:
274,230,57070,1,2,0:2:0:0:
329,80,57217,5,8,0:0:0:0:
303,0,57363,2,2,P|309:137|307:234,1,200,2|0,0:2|0:0,0:0:0:0:
341,277,57802,5,8,0:0:0:0:
341,277,57948,2,0,P|357:267|376:231,1,37.5000014305115,6|0,0:2|2:0,0:0:0:0:
341,277,58241,2,0,P|324:285|306:289,1,37.5000014305115,6|0,0:2|2:0,0:0:0:0:
62,88,58534,6,0,P|61:68|69:43,1,37.5000014305115,0|0,2:0|2:0,0:0:0:0:
76,22,58680,2,0,B|117:126|31:106|68:217,2,200,4|2|8,0:2|0:2|0:0,0:0:0:0:
345,113,59558,1,0,0:0:0:0:
345,113,59704,1,0,0:0:0:0:
413,78,59851,6,0,P|425:150|365:201,1,150.000005722046,0|2,0:0|0:2,0:0:0:0:
292,180,60290,1,2,0:2:0:0:
224,226,60436,2,0,B|218:191|218:191|224:147,1,75.0000028610231,8|0,0:0|0:0,0:0:0:0:
156,103,60729,1,0,0:0:0:0:
171,22,60875,1,0,0:0:0:0:
92,48,61022,6,0,P|101:123|95:209,1,150.000005722046,0|2,0:0|0:2,0:0:0:0:
15,210,61461,1,2,0:2:0:0:
164,231,61607,2,0,P|159:280|164:341,1,75.0000028610231,8|0,0:0|0:0,0:0:0:0:
57,359,61900,2,0,P|55:328|39:280,1,75.0000028610231
242,200,62192,5,0,0:0:0:0:
365,152,62339,1,0,0:0:0:0:
319,230,62485,2,0,P|311:282|313:340,1,75.0000028610231,2|2,0:2|0:2,0:0:0:0:
474,266,62778,6,0,P|488:313|492:363,1,75.0000028610231,8|0,0:0|0:0,0:0:0:0:
439,192,63070,1,0,0:0:0:0:
467,117,63216,1,0,0:0:0:0:
396,86,63363,6,0,P|341:96|296:183,2,150.000005722046,0|2|8,0:0|0:2|0:0,0:0:0:0:
381,162,64095,1,0,0:0:0:0:
435,222,64241,2,0,P|401:237|341:231,1,75.0000028610231
290,325,64534,6,0,B|225:294|225:294|149:311,1,150.000005722046,0|2,0:0|0:2,0:0:0:0:
34,345,64973,1,2,0:2:0:0:
44,263,65119,2,0,L|54:163,1,75.0000028610231,8|0,0:0|0:0,0:0:0:0:
221,258,65412,1,0,0:0:0:0:
211,176,65558,1,0,0:0:0:0:
288,203,65704,6,0,P|247:163|266:63,1,150.000005722046,0|2,0:0|0:2,0:0:0:0:
48,170,66143,1,2,0:2:0:0:
77,18,66290,2,0,P|80:55|77:92,1,75.0000028610231,8|0,0:0|0:0,0:0:0:0:
154,134,66583,2,0,P|150:171|153:208,1,75.0000028610231
43,327,66875,5,0,0:0:0:0:
110,369,67022,1,0,0:0:0:0:
184,341,67168,1,2,0:2:0:0:
184,341,67314,1,2,0:2:0:0:
332,274,67461,1,8,0:0:0:0:
429,235,67607,1,0,0:0:0:0:
508,304,67753,1,0,0:0:0:0:
508,304,67900,1,0,0:0:0:0:
505,214,68046,6,0,B|498:145|498:145|510:42,1,150.000005722046,0|2,0:0|0:2,0:2:0:0:
450,15,68485,1,2,0:2:0:0:
375,21,68631,1,8,0:0:0:0:
342,88,68778,1,0,0:0:0:0:
278,127,68924,2,0,B|264:94|264:94|268:44,1,75.0000028610231
384,152,69217,6,0,L|388:303,1,150.000005722046,0|2,0:0|0:2,0:0:0:0:
401,376,69656,1,2,0:2:0:0:
272,350,69802,1,8,0:0:0:0:
263,276,69948,1,0,0:0:0:0:
256,136,70095,1,0,0:0:0:0:
250,59,70241,1,0,0:0:0:0:
318,16,70387,6,0,P|340:89|345:173,1,150.000005722046,0|2,0:0|0:2,0:0:0:0:
272,239,70826,1,2,0:2:0:0:
196,266,70973,2,0,B|187:230|187:230|193:174,1,75.0000028610231,8|0,0:0|0:0,0:0:0:0:
26,64,71265,6,2,B|161:-4|113:149|250:106,1,250,0|2,0:0|0:0,0:0:0:0:
283,45,71704,1,0,0:0:0:0:
403,163,71851,5,2,0:2:0:0:
299,197,71997,1,2,0:2:0:0:
367,237,72143,2,0,B|386:282|386:282|378:342,1,100,8|0,0:0|0:0,0:0:0:0:
232,363,72436,1,0,0:0:0:0:
242,281,72583,1,0,0:0:0:0:
206,206,72729,6,0,L|211:124,1,75,4|0,0:2|2:0,0:0:0:0:
216,112,73022,1,2,0:2:0:0:
199,32,73168,1,2,0:2:0:0:
115,203,73314,6,0,B|125:251|125:251|112:328,1,100,8|0,0:0|0:0,0:0:0:0:
206,317,73607,1,0,0:0:0:0:
353,257,73753,1,0,0:0:0:0:
304,190,73900,6,0,L|206:208,1,100,0|0,0:0|0:2,0:0:0:0:
206,317,74192,2,0,L|322:333,1,100,2|2,0:2|0:2,0:0:0:0:
417,346,74485,2,0,B|441:258|441:258|408:154,1,200,8|0,0:0|0:0,0:0:0:0:
389,11,74924,5,0,0:0:0:0:
364,82,75070,2,0,L|348:190,1,100
245,338,75363,2,0,L|227:200,1,125,2|2,0:2|0:2,0:0:0:0:
113,36,75656,5,8,0:0:0:0:
90,113,75802,1,0,0:0:0:0:
118,200,75948,1,0,0:0:0:0:
48,316,76095,2,0,P|94:257|170:326,1,150.000005722046,0|0,0:0|2:0,0:0:0:0:
306,267,76387,5,0,0:0:0:0:
301,304,76534,1,0,0:0:0:0:
382,257,76680,5,0,0:0:0:0:
376,330,76826,1,0,0:0:0:0:
463,246,76973,5,0,0:0:0:0:
455,358,77119,2,0,L|458:320,1,29.9999990844727,0|0,2:0|2:0,0:0:0:0:
499,103,77412,6,0,B|450:82|404:99|404:99|394:114|394:114|340:132|286:93,1,225.000008583069,4|0,0:2|2:0,0:0:0:0:
273,76,77704,5,8,0:0:0:0:
45,86,77851,1,0,0:0:0:0:
212,164,77997,5,2,0:2:0:0:
43,74,78143,1,2,0:2:0:0:
124,227,78290,5,8,0:0:0:0:
41,62,78436,1,2,0:2:0:0:
174,297,78583,6,0,B|115:331|57:284|57:284|36:226,1,187.5,0|0,0:0|2:0,0:0:0:0:
124,227,78875,6,0,B|179:200|222:230|222:230|255:269|299:257,1,187.5,8|0,0:0|2:0,0:0:0:0:
384,240,79168,6,0,P|439:251|372:266,1,187.5,0|0,0:0|2:0,0:0:0:0:
405,382,79461,6,0,P|322:345|296:258,1,187.5,8|0,0:0|2:0,0:0:0:0:
292,180,79753,6,0,B|314:126|270:61|270:61|303:31|365:49,1,200,0|8,0:0|0:0,0:0:0:0:
470,158,80192,1,0,0:0:0:0:
338,43,80339,6,0,P|275:106|186:88,1,187.5,0|0,0:0|2:0,0:0:0:0:
146,22,80631,2,0,L|21:36,1,125,8|0,0:0|0:0,0:0:0:0:
54,237,80924,6,0,P|111:267|130:165,1,200,0|8,0:0|0:0,0:0:0:0:
21,35,81363,1,0,0:0:0:0:
186,88,81509,6,0,P|275:106|338:43,1,187.5,0|0,0:0|2:0,0:0:0:0:
343,25,81802,1,8,0:0:0:0:
413,208,81948,1,8,0:0:0:0:
485,22,82095,6,0,P|433:54|505:127,1,187.5,0|0,0:0|2:0,0:0:0:0:
497,144,82387,2,0,L|485:281,1,100,8|0,0:0|2:0,0:0:0:0:
365,358,82680,1,0,0:0:0:0:
503,322,82826,1,0,0:0:0:0:
425,304,82973,2,0,P|366:318|275:272,1,150,8|0,0:0|0:0,0:0:0:0:
276,271,83265,6,0,P|272:222|295:179,1,100,0|0,0:0|2:0,0:0:0:0:
349,240,83558,1,8,0:0:0:0:
223,334,83704,5,0,0:0:0:0:
223,334,83778,1,0,0:0:0:0:
223,334,83851,1,0,0:0:0:0:
286,284,83997,1,0,0:0:0:0:
298,364,84143,1,8,0:0:0:0:
106,222,84290,6,0,P|172:285|133:383,1,187.5,0|0,0:0|2:0,0:0:0:0:
134,359,84583,1,0,0:0:0:0:
37,281,84729,2,0,B|15:236|15:236|20:185|50:151,1,125,8|0,0:0|2:0,0:0:0:0:
233,67,85022,5,0,0:0:0:0:
106,222,85168,1,0,0:0:0:0:
3,49,85314,2,0,B|63:32|63:32|103:34|125:77,1,125,8|0,0:0|2:0,0:0:0:0:
115,61,85607,6,0,P|76:72|40:45,1,75.0000028610231,8|0,0:0|2:0,0:0:0:0:
134,77,85900,6,0,P|88:105|26:2,1,200,12|0,0:0|2:0,0:0:0:0:
203,18,86339,5,0,0:0:0:0:
134,180,86485,1,0,0:0:0:0:
109,188,86558,1,0,0:0:0:0:
84,185,86631,1,0,0:0:0:0:
22,8,86778,6,0,B|82:-13|121:44|121:44|145:104|212:98,1,225.000008583069,4|0,0:2|2:0,0:0:0:0:
221,117,87070,5,8,0:0:0:0:
449,127,87217,1,0,0:0:0:0:
282,205,87363,5,2,0:2:0:0:
451,115,87509,1,2,0:2:0:0:
370,268,87656,5,8,0:0:0:0:
453,103,87802,1,2,0:2:0:0:
420,338,87948,6,0,B|361:372|303:325|303:325|282:267,1,187.5,0|0,0:0|2:0,0:0:0:0:
339,95,88241,6,0,B|328:137|367:170|367:170|397:213|370:268,1,187.5,8|0,0:0|2:0,0:0:0:0:
294,299,88533,6,0,P|226:308|283:269,1,187.5,0|0,0:0|2:0,0:0:0:0:
184,384,88826,6,0,P|114:324|114:233,1,187.5,8|0,0:0|2:0,0:0:0:0:
83,158,89119,6,0,B|141:175|173:136|173:136|223:159|272:112,1,200,0|8,0:0|0:0,0:0:0:0:
400,6,89558,1,0,0:0:0:0:
491,157,89704,6,0,B|382:139|382:139|343:173|361:215,1,187.5,0|0,0:0|2:0,0:0:0:0:
486,272,89997,2,0,B|512:221|512:221|481:126,1,125,8|0,0:0|0:0,0:0:0:0:
266,117,90290,6,0,P|252:170|321:290,1,200,0|8,0:0|0:0,0:0:0:0:
392,329,90729,1,0,0:0:0:0:
228,280,90875,5,0,0:0:0:0:
272,364,91022,1,0,0:0:0:0:
98,208,91168,5,8,0:0:0:0:
126,378,91314,1,8,0:0:0:0:
21,92,91461,6,0,P|70:124|176:86,1,150,0|0,0:0|2:0,0:0:0:0:
177,94,91753,2,0,P|195:52|173:-15,1,100,8|0,0:0|0:0,0:0:0:0:
118,40,91973,1,0,0:0:0:0:
118,40,92046,1,0,0:0:0:0:
201,172,92192,5,0,0:0:0:0:
277,61,92339,1,8,0:0:0:0:
408,21,92485,2,0,B|422:148|422:148|392:165|359:129,1,187.5
356,132,92778,5,0,0:0:0:0:
237,299,92924,1,8,0:0:0:0:
278,153,93070,1,0,0:0:0:0:
337,208,93217,2,0,P|343:282|303:344,1,150
303,344,93509,1,8,0:0:0:0:
186,241,93656,1,0,0:0:0:0:
22,349,93802,6,0,P|96:353|161:317,1,150
161,316,94095,1,8,0:0:0:0:
313,83,94241,5,0,0:0:0:0:
284,72,94314,1,0,0:0:0:0:
254,76,94387,1,0,0:0:0:0:
210,145,94534,1,0,0:0:0:0:
381,126,94680,1,8,0:0:0:0:
483,261,94826,1,0,0:0:0:0:
496,184,94973,6,0,P|418:194|366:277,1,150
375,261,95265,5,8,0:0:0:0:
402,338,95412,1,0,0:0:0:0:
251,380,95558,5,0,0:0:0:0:
294,249,95704,1,0,0:0:0:0:
210,145,95851,5,8,0:0:0:0:
318,327,95997,1,8,0:0:0:0:
64,358,96143,6,0,B|175:348|175:348|195:302|162:266,1,187.5,0|0,0:0|2:0,0:0:0:0:
148,202,96436,2,0,P|112:167|19:192,1,125,8|0,0:0|2:0,0:0:0:0:
7,262,96729,5,0,0:0:0:0:
169,275,96875,1,0,0:0:0:0:
174,286,96948,1,0,0:0:0:0:
180,297,97022,2,0,B|158:242|198:204|198:204|227:167|203:95,1,187.5,8|0,0:0|2:0,0:0:0:0:
214,36,97314,6,0,P|277:98|356:60,1,187.5,0|0,0:0|2:0,0:0:0:0:
426,29,97607,1,8,0:0:0:0:
512,163,97753,5,2,0:0:0:0:
356,60,97900,1,2,0:0:0:0:
253,237,98046,5,2,0:0:0:0:
420,105,98192,1,10,0:0:0:0:
512,306,98339,5,2,0:0:0:0:
290,159,98485,2,2,P|363:216|456:217,1,187.5,2|0,0:0|2:0,0:0:0:0:
458,235,98778,2,0,P|425:305|453:379,1,125,8|0,0:0|2:0,0:0:0:0:
298,283,99070,5,0,0:0:0:0:
409,339,99217,1,0,0:0:0:0:
421,344,99290,1,0,0:0:0:0:
433,349,99363,2,0,B|376:329|339:361|339:361|299:374|254:346,1,187.5,8|0,0:0|2:0,0:0:0:0:
182,374,99656,6,2,P|205:304|73:214,1,250,2|8,0:0|0:0,0:0:0:0:
83,20,100095,1,0,0:0:0:0:
82,211,100241,6,2,P|148:152|137:33,1,187.5,2|0,0:0|2:0,0:0:0:0:
83,20,100534,1,8,0:0:0:0:
223,175,100680,1,8,0:0:0:0:
150,58,100826,5,2,0:0:0:0:
297,206,100973,1,0,0:0:0:0:
358,156,101119,1,10,0:0:0:0:
285,126,101266,1,0,0:0:0:0:
370,235,101412,5,2,0:0:0:0:
422,107,101558,1,2,0:0:0:0:
285,126,101704,5,10,0:0:0:0:
171,275,101851,1,2,0:0:0:0:
110,225,101998,1,2,0:0:0:0:
183,195,102144,1,0,0:0:0:0:
98,304,102290,5,10,0:0:0:0:
46,176,102436,1,2,0:0:0:0:
183,195,102583,1,0,0:0:0:0:
260,149,102729,5,2,0:0:0:0:
268,132,102802,1,0,0:0:0:0:
270,113,102875,1,10,0:0:0:0:
220,36,103022,1,2,0:0:0:0:
334,185,103168,5,0,0:0:0:0:
499,161,103314,2,0,P|463:210|404:227,1,125,2|8,0:0|0:0,0:0:0:0:
372,61,103607,5,0,0:0:0:0:
404,227,103753,2,0,B|420:306|420:306|407:325|371:320,1,125,2|0,0:0|0:0,0:0:0:0:
251,209,104046,5,10,0:0:0:0:
413,139,104192,1,0,0:0:0:0:
380,321,104339,6,2,P|346:303|287:307,1,75.0000028610231,8|0,0:0|2:0,0:0:0:0:
303,317,104631,6,2,P|368:324|421:209,1,200,14|0,0:0|2:0,0:0:0:0:
345,195,105070,5,0,0:0:0:0:
416,384,105217,1,0,0:0:0:0:
444,374,105290,1,0,0:0:0:0:
463,351,105363,1,0,0:0:0:0:
424,218,105509,6,0,B|381:175|381:175|365:105|410:44,1,187.5,4|0,0:2|2:0,0:0:0:0:
471,17,105802,1,8,0:0:0:0:
325,18,105948,1,0,0:0:0:0:
229,127,106095,6,0,B|217:161|236:205|236:205|262:194|270:162,1,125
305,102,106314,1,0,0:0:0:0:
305,102,106387,2,0,B|401:93|365:165|479:147,1,187.5,8|0,0:0|2:0,0:0:0:0:
498,227,106680,6,0,P|436:241|409:359,1,187.5,0|0,0:0|2:0,0:0:0:0:
475,374,106973,1,8,0:0:0:0:
367,282,107119,5,2,0:0:0:0:
240,346,107265,1,2,0:0:0:0:
131,238,107412,5,2,0:0:0:0:
319,344,107558,1,10,0:0:0:0:
189,185,107704,5,2,0:0:0:0:
15,360,107851,2,2,B|6:316|6:316|8:271|37:236|37:236|22:152,1,187.5,2|0,0:0|2:0,0:0:0:0:
0,106,108143,2,0,P|53:102|106:172,1,125,8|0,0:0|2:0,0:0:0:0:
95,313,108436,5,0,0:0:0:0:
27,181,108583,1,0,0:0:0:0:
32,192,108656,1,0,0:0:0:0:
37,203,108729,2,0,P|106:203|193:98,1,187.5,8|0,0:0|2:0,0:0:0:0:
262,81,109022,6,2,B|285:241|285:241|245:250|228:209|260:186,1,250,2|8,0:0|0:0,0:0:0:0:
466,155,109461,1,0,0:0:0:0:
257,188,109607,6,2,P|336:179|454:265,1,187.5,2|0,0:0|2:0,0:0:0:0:
465,297,109900,1,8,0:0:0:0:
396,114,110046,1,8,0:0:0:0:
364,276,110192,5,2,0:0:0:0:
216,129,110339,1,0,0:0:0:0:
266,68,110486,1,10,0:0:0:0:
296,141,110632,1,0,0:0:0:0:
187,56,110778,5,2,0:0:0:0:
315,4,110924,1,2,0:0:0:0:
296,141,111070,5,10,0:0:0:0:
147,255,111217,1,2,0:0:0:0:
197,316,111364,1,2,0:0:0:0:
227,243,111510,1,0,0:0:0:0:
118,328,111656,5,10,0:0:0:0:
246,380,111802,1,2,0:0:0:0:
227,243,111949,1,0,0:0:0:0:
273,166,112095,5,2,0:0:0:0:
290,158,112168,1,0,0:0:0:0:
309,156,112241,1,10,0:0:0:0:
386,206,112388,1,2,0:0:0:0:
429,32,112534,5,0,0:0:0:0:
309,156,112680,2,0,P|273:145|247:57,1,125,2|8,0:0|0:0,0:0:0:0:
386,206,112973,5,0,0:0:0:0:
242,69,113119,2,0,B|316:80|316:80|338:69|333:30,1,125,2|0,0:0|0:0,0:0:0:0:
422,121,113412,5,10,0:0:0:0:
163,21,113558,1,0,0:0:0:0:
333,36,113704,6,2,P|345:73|304:105,1,75.0000028610231,8|0,0:0|2:0,0:0:0:0:
310,110,113997,6,2,P|371:83|497:132,1,200,10|0,0:0|0:0,0:0:0:0:
417,171,114436,6,0,P|394:179|378:213,1,50,8|0,0:0|2:0,0:0:0:0:
387,287,114583,2,0,P|405:302|442:299,1,50,8|0,0:0|2:0,0:0:0:0:
502,254,114729,2,0,P|506:230|485:199,1,50,8|0,0:0|2:0,0:0:0:0:
379,199,114875,5,4,0:0:0:0:
212,299,119119,5,0,0:0:0:0:
144,358,119265,5,8,0:0:0:0:
125,177,119412,5,8,0:0:0:0:
345,308,119558,6,0,B|317:276|317:276|195:302,2,150.000005722046,0|8|0,0:0|0:0|0:0,0:0:0:0:
435,361,120290,2,0,B|458:354|481:362|481:362|446:333|420:351,1,112.500004291535,0|0,0:0|2:0,0:0:0:0:
345,308,120583,6,0,P|324:258|405:142,1,200,8|0,0:0|2:0,0:0:0:0:
469,87,121022,1,8,0:0:0:0:
469,87,121168,1,0,0:0:0:0:
395,144,121314,5,2,0:2:0:0:
300,136,121461,1,2,0:2:0:0:
241,61,121607,2,0,P|266:26|353:34,1,100,8|0,0:0|0:0,0:0:0:0:
319,15,121900,6,0,L|118:31,1,200
36,138,122339,5,0,0:0:0:0:
172,164,122485,5,0,0:0:0:0:
308,190,122631,5,0,0:0:0:0:
444,216,122778,5,0,0:0:0:0:
439,292,122924,2,0,P|459:255|444:216,1,87.5,10|0,0:0|2:0,0:0:0:0:
261,250,123509,6,0,P|353:229|277:295,1,225.000008583069,2|0,0:0|2:0,0:0:0:0:
443,215,123802,5,0,0:0:0:0:
188,339,123948,5,8,0:0:0:0:
208,56,124095,5,0,0:0:0:0:
241,162,124241,6,0,P|180:184|30:70,1,225.000008583069,6|0,0:0|2:0,0:0:0:0:
27,42,124534,5,0,0:0:0:0:
27,42,124680,1,0,0:0:0:0:
46,116,124826,5,2,0:2:0:0:
134,179,124973,5,2,0:2:0:0:
241,162,125119,5,2,0:2:0:0:
416,36,125265,6,0,B|413:145|413:145|308:95,1,225.000008583069,10|0,0:0|2:0,0:0:0:0:
339,20,125558,1,0,0:0:0:0:
512,116,125704,1,8,0:0:0:0:
303,240,125851,6,0,P|326:220|402:237,1,75.0000028610231,2|0,0:0|2:0,0:0:0:0:
493,258,125997,1,0,0:0:0:0:
303,240,126143,1,0,0:0:0:0:
465,329,126290,1,8,0:0:0:0:
275,311,126436,1,0,0:0:0:0:
394,217,126583,6,0,B|451:171|433:98|433:98|432:161|381:188,1,225.000008583069,2|0,0:0|2:0,0:0:0:0:
368,47,126875,1,0,0:0:0:0:
368,47,127022,1,0,0:0:0:0:
309,195,127168,5,2,0:2:0:0:
434,100,127314,5,2,0:2:0:0:
289,39,127461,5,2,0:2:0:0:
396,178,127607,6,0,P|405:252|332:304,1,150.000005722046,10|0,0:0|0:0,0:0:0:0:
187,247,127900,1,0,0:0:0:0:
417,364,128046,1,0,0:0:0:0:
230,357,128192,6,0,P|241:321|269:298,1,75.0000028610231,10|0,0:0|2:0,0:0:0:0:
346,289,128339,1,0,0:0:0:0:
179,236,128485,1,0,0:0:0:0:
238,368,128631,2,0,B|273:339|266:282|266:282|254:315|229:328,1,150.000005722046,8|0,0:0|0:0,0:0:0:0:
30,225,128924,6,0,P|106:181|92:282,1,225.000008583069,2|0,0:0|2:0,0:0:0:0:
69,356,129217,5,0,0:0:0:0:
69,356,129363,1,0,0:0:0:0:
104,278,129509,5,2,0:2:0:0:
82,169,129656,5,2,0:2:0:0:
136,64,129802,5,2,0:2:0:0:
29,3,129948,6,0,B|148:-29|108:66|249:30,1,225.000008583069,10|0,0:0|2:0,0:0:0:0:
318,14,130241,1,0,0:0:0:0:
460,105,130387,1,8,0:0:0:0:
224,165,130534,6,0,P|206:156|230:161,1,75.0000028610231,2|0,0:0|2:0,0:0:0:0:
322,24,130680,1,0,0:0:0:0:
464,115,130826,1,0,0:0:0:0:
232,156,130973,1,8,0:0:0:0:
374,247,131119,1,0,0:0:0:0:
235,68,131266,6,0,P|203:139|52:104,1,225.000008583069,2|0,0:0|2:0,0:0:0:0:
35,62,131558,5,2,0:2:0:0:
290,258,131703,5,2,0:2:0:0:
184,1,131851,5,2,0:0:0:0:
143,320,131997,5,2,0:2:0:0:
310,100,132143,5,2,0:2:0:0:
15,221,132290,6,0,P|47:248|19:207,1,150.000005722046,10|0,0:0|2:0,0:0:0:0:
110,137,132509,1,8,0:0:0:0:
110,137,132583,6,0,L|116:95,1,37.5000014305115,8|0,0:0|2:0,0:0:0:0:
294,129,132802,6,0,L|301:74,1,50,8|0,0:0|2:0,0:0:0:0:
478,121,133022,6,0,L|487:55,1,62.5,8|0,0:0|2:0,0:0:0:0:
507,302,133607,6,0,B|511:190|511:190|430:268,1,225.000008583069,4|0,0:0|2:0,0:0:0:0:
356,318,133900,2,0,L|350:207,1,100,8|0,0:0|2:0,0:0:0:0:
139,55,134192,5,0,0:0:0:0:
426,93,134339,1,0,0:0:0:0:
153,45,134485,1,8,0:0:0:0:
440,83,134632,1,0,2:0:0:0:
241,66,134778,6,0,B|256:114|256:114|299:28,1,125
289,47,135070,2,0,B|206:68|206:68|74:42,1,187.5,8|0,0:0|2:0,0:0:0:0:
45,105,135363,6,0,P|92:147|75:213,1,125
363,280,135656,2,0,B|389:236|371:189|371:189|410:160|409:98,1,187.5,8|0,0:0|2:0,0:0:0:0:
428,4,135948,6,0,B|389:45|319:49|273:24|273:24|328:53|347:98,1,250,0|8,0:0|0:0,0:0:0:0:
408,107,136387,5,0,2:0:0:0:
335,77,136534,1,0,0:0:0:0:
249,86,136680,1,0,0:0:0:0:
177,147,136826,1,8,0:0:0:0:
140,253,136973,5,0,2:0:0:0:
214,339,137119,5,0,0:0:0:0:
177,147,137265,1,2,0:0:0:0:
29,275,137412,1,8,0:0:0:0:
285,282,137558,5,0,0:0:0:0:
140,253,137704,2,0,P|181:307|292:272,1,187.5,2|0,0:0|2:0,0:0:0:0:
449,350,137997,5,8,0:0:0:0:
186,143,138143,5,0,0:0:0:0:
499,15,138290,6,0,B|470:82|470:82|490:202,1,187.5,0|0,0:0|2:0,0:0:0:0:
423,250,138583,2,0,P|465:292|449:350,1,125,8|0,0:0|2:0,0:0:0:0:
285,282,138875,5,2,0:0:0:0:
449,349,139022,2,0,P|423:292|415:230,1,125,2|8,0:0|0:0,0:0:0:0:
489,195,139314,1,2,2:1:0:0:
147,49,139461,5,2,0:0:0:0:
364,38,139607,1,2,0:0:0:0:
183,127,139753,5,10,0:1:0:0:
346,205,139900,1,2,2:1:0:0:
149,203,140046,5,2,0:1:0:0:
228,327,140192,1,2,0:2:0:0:
48,327,140339,6,0,P|61:375|79:334,1,125,8|2,0:0|2:2,0:0:0:0:
39,201,140631,5,0,0:0:0:0:
78,333,140778,2,0,B|51:288|51:288|61:195,1,125,2|10,0:0|0:0,0:0:0:0:
189,39,141070,5,0,2:0:0:0:
248,217,141217,2,0,L|259:72,1,125,2|2,0:0|0:0,0:0:0:0:
451,18,141509,5,8,0:0:0:0:
512,239,141656,1,2,2:1:0:0:
451,18,141802,6,0,B|484:65|484:65|463:143,1,125
466,130,142095,2,0,P|416:177|305:151,1,187.5,8|0,0:0|2:0,0:0:0:0:
257,92,142387,2,0,B|240:40|240:40|204:107,1,125
0,215,142680,5,8,0:0:0:0:
308,154,142826,5,8,0:0:0:0:
94,373,142973,6,0,B|65:311|65:311|83:167,1,187.5,0|0,0:0|2:0,0:0:0:0:
79,192,143265,2,0,P|85:258|10:288,1,125,0|0,0:0|2:0,0:0:0:0:
115,109,143558,5,0,0:0:0:0:
217,280,143704,1,0,0:0:0:0:
42,290,143851,2,0,B|124:253|124:253|254:291,1,187.5,8|0,0:0|2:0,0:0:0:0:
294,320,144143,6,0,P|328:366|415:342,1,125
497,74,144436,2,0,L|470:273,1,187.5,8|0,0:0|2:0,0:0:0:0:
391,365,144729,6,0,B|401:312|401:312|375:224,1,125
40,128,145022,2,0,B|58:32|58:32|128:108,1,187.5,8|0,0:0|2:0,0:0:0:0:
135,111,145314,6,0,B|181:101|181:101|192:96|192:96|248:94|248:94|261:85|261:85|313:76|313:76|322:71|322:71|400:53,1,250,0|8,0:0|0:0,0:0:0:0:
376,58,145753,5,0,2:0:0:0:
458,107,145900,1,0,0:0:0:0:
437,209,146046,1,0,0:0:0:0:
322,240,146192,5,8,0:0:0:0:
245,111,146339,1,0,2:0:0:0:
88,118,146485,1,0,0:0:0:0:
245,111,146631,5,2,0:0:0:0:
88,118,146778,1,8,0:0:0:0:
247,285,146924,5,0,0:0:0:0:
151,201,147070,2,0,B|184:247|165:298|165:298|213:274|277:291,1,187.5,2|0,0:0|2:0,0:0:0:0:
306,353,147363,5,8,0:0:0:0:
8,169,147509,5,8,0:0:0:0:
316,2,147656,6,0,P|337:78|248:92,1,187.5,0|0,0:0|2:0,0:0:0:0:
250,94,147948,2,0,L|113:84,1,125,8|0,0:0|2:0,0:0:0:0:
8,169,148241,5,2,0:0:0:0:
163,213,148387,1,2,0:0:0:0:
47,325,148534,1,8,0:0:0:0:
73,237,148680,5,2,2:1:0:0:
73,237,148826,1,2,0:1:0:0:
313,289,148973,1,2,0:1:0:0:
159,137,149119,5,10,0:1:0:0:
313,92,149265,1,2,2:1:0:0:
164,50,149412,5,2,0:1:0:0:
274,169,149558,1,2,0:2:0:0:
73,237,149704,5,8,0:0:0:0:
313,289,149851,1,2,2:2:0:0:
144,290,149997,6,2,B|152:356|152:356|233:260,1,187.5,2|0,0:0|2:0,0:0:0:0:
230,263,150290,1,8,0:0:0:0:
491,228,150436,5,0,2:1:0:0:
370,100,150583,2,0,P|366:51|443:-3,1,125,2|2,0:0|0:0,0:0:0:0:
416,0,150875,5,8,0:0:0:0:
281,26,151022,5,0,2:0:0:0:
146,52,151168,5,0,0:0:0:0:
146,52,151314,2,0,P|129:73|76:75,1,62.5,2|0,0:0|2:0,0:0:0:0:
143,186,151461,5,0,0:0:0:0:
143,186,151607,2,0,P|117:194|71:167,1,62.5,2|0,0:0|2:0,0:0:0:0:
67,296,151753,5,0,0:0:0:0:
67,296,151899,2,0,P|40:289|17:241,1,62.5,2|0,0:0|2:0,0:0:0:0:
19,261,152046,6,0,P|56:260|88:279,1,75.0000028610231,2|0,0:0|2:0,0:0:0:0:
171,264,152192,2,0,P|201:285|215:319,1,75.0000028610231,2|0,0:0|2:0,0:0:0:0:
265,380,152339,5,12,0:0:0:0:
21,365,161704,5,4,0:0:0:0:
60,289,161851,1,0,0:0:0:0:
142,271,161997,2,0,L|142:161,1,100,0|8,0:0|0:0,0:0:0:0:
91,102,162436,1,0,0:0:0:0:
12,135,162729,6,0,L|12:35,1,100
96,22,163168,2,0,L|96:72,2,50,0|0|8,0:0|0:0|0:0,0:0:0:0:
178,42,163754,5,0,0:0:0:0:
242,96,163900,2,0,L|242:196,1,100
322,223,164339,6,0,L|322:173,1,50
402,147,164631,1,8,0:0:0:0:
480,181,164778,1,0,0:0:0:0:
431,250,165070,6,0,L|431:350,1,100
348,373,165509,2,0,L|348:323,1,50
270,287,165802,1,8,0:0:0:0:
312,213,165948,6,0,L|312:163,1,50
167,216,166241,1,0,0:0:0:0:
221,150,166387,5,0,0:0:0:0:
136,137,166534,1,0,0:0:0:0:
60,99,166680,2,0,L|60:-1,1,100,0|8,0:0|0:0,0:0:0:0:
16,172,167119,1,0,0:0:0:0:
74,233,167412,6,0,L|74:333,1,100
154,362,167851,1,0,0:0:0:0:
212,300,167997,2,0,L|212:250,1,50,0|8,0:0|0:0,0:0:0:0:
281,200,168436,5,0,0:0:0:0:
360,230,168583,2,0,L|360:130,1,100
280,98,169022,2,0,L|280:48,1,50
201,16,169314,1,8,0:0:0:0:
146,81,169461,2,0,L|146:181,2,100
201,245,170192,5,0,0:0:0:0:
260,184,170339,1,0,0:0:0:0:
260,184,170412,1,0,0:0:0:0:
260,184,170485,1,8,0:0:0:0:
343,168,170631,2,0,L|343:118,1,50
501,248,170924,1,8,0:0:0:0:
501,248,171070,6,0,L|256:248,1,187.5,4|0,0:2|2:0,0:0:0:0:
260,184,171363,2,0,L|185:184,1,75.0000028610231,2|2,0:2|0:2,0:0:0:0:
2,310,171656,1,8,0:0:0:0:
85,184,171948,6,0,L|185:184,1,100
344,126,172241,2,0,L|244:126,1,100
152,361,172534,5,2,0:2:0:0:
208,291,172680,1,2,0:2:0:0:
119,276,172826,2,0,L|306:276,1,187.5,8|0,0:0|2:0,0:0:0:0:
362,339,173119,2,0,L|462:339,1,75.0000028610231
480,67,173412,5,0,0:0:0:0:
412,124,173704,2,0,L|337:124,1,75.0000028610231,2|2,0:2|0:2,0:0:0:0:
130,57,173997,5,8,0:0:0:0:
130,57,174290,2,0,L|30:57,1,100
202,130,174583,1,0,0:0:0:0:
84,219,174729,2,0,L|184:219,1,100,0|2,0:0|0:2,0:0:0:0:
363,328,175022,1,2,0:2:0:0:
437,284,175168,2,0,L|249:284,1,187.5,8|0,0:0|2:0,0:0:0:0:
249,284,175461,1,0,0:0:0:0:
102,353,175607,1,0,0:0:0:0:
0,203,175753,6,0,L|187:203,1,187.5,0|0,0:0|2:0,0:0:0:0:
282,182,176046,2,0,L|207:182,1,75.0000028610231,2|2,0:2|0:2,0:2:0:0:
67,37,176339,1,8,0:0:0:0:
134,85,176631,6,0,L|334:85,1,200
400,144,177070,1,0,0:0:0:0:
382,11,177217,2,0,L|482:11,1,100,2|2,0:2|0:2,0:0:0:0:
509,197,177509,6,0,L|321:197,1,187.5,8|0,0:0|2:0,0:0:0:0:
321,197,177802,1,0,0:0:0:0:
391,278,177948,1,0,0:0:0:0:
486,327,178095,6,0,L|298:327,1,187.5,0|0,0:0|2:0,0:0:0:0:
229,277,178387,2,0,L|129:277,1,100,2|2,0:2|0:2,0:0:0:0:
11,196,178680,6,0,L|198:196,1,187.5,8|0,0:0|2:0,0:0:0:0:
198,196,178973,1,0,0:0:0:0:
129,277,179119,1,0,0:0:0:0:
34,326,179266,6,0,L|221:326,1,187.5,0|0,0:0|2:0,0:0:0:0:
291,276,179558,2,0,L|391:276,1,100,2|2,0:2|0:2,0:0:0:0:
460,75,179851,6,0,L|272:75,1,187.5,8|0,0:0|2:0,0:0:0:0:
272,75,180143,1,0,0:0:0:0:
136,182,180290,1,0,0:0:0:0:
25,138,180436,6,0,L|212:138,1,187.5,0|0,0:0|2:0,0:0:0:0:
269,193,180729,2,0,L|344:193,1,75.0000028610231,2|2,0:2|0:2,0:0:0:0:
511,40,181022,1,8,0:0:0:0:
485,115,181168,6,0,L|285:115,1,200
147,246,181607,1,0,0:0:0:0:
197,59,181753,1,0,0:0:0:0:
110,84,181900,2,0,L|210:84,1,100,2|2,0:2|0:2,0:0:0:0:
413,272,182192,6,0,L|225:272,1,187.5,8|0,0:0|2:0,0:0:0:0:
147,246,182485,2,0,L|222:246,1,75.0000028610231
477,209,182778,5,0,0:0:0:0:
418,150,183070,1,2,0:2:0:0:
495,32,183363,2,0,L|395:32,1,100,8|0,0:0|0:0,0:0:0:0:
353,242,183656,6,0,L|53:242,1,300.000011444092
9,92,184095,1,0,0:0:0:0:
76,138,184241,2,0,L|176:138,1,100,2|2,0:2|0:2,0:0:0:0:
321,48,184534,1,8,0:0:0:0:
384,100,184826,5,0,0:0:0:0:
461,84,184973,1,0,0:0:0:0:
512,141,185119,2,0,L|288:141,1,200,0|2,0:0|0:2,0:0:0:0:
240,177,185558,1,2,0:2:0:0:
207,250,185704,2,0,L|307:250,1,100,8|0,0:0|0:0,0:0:0:0:
86,54,185997,5,0,0:0:0:0:
21,155,186143,1,0,0:0:0:0:
32,276,186290,2,0,L|132:276,2,100,0|0|2,0:0|0:0|0:2,0:0:0:0:
207,250,186729,1,2,0:2:0:0:
208,171,186875,2,0,L|108:171,1,100,8|0,0:0|0:0,0:0:0:0:
405,65,187168,5,0,0:0:0:0:
405,65,187461,1,0,0:0:0:0:
436,138,187753,1,0,0:0:0:0:
419,234,188046,1,8,0:0:0:0:
343,310,188192,1,0,0:0:0:0:
203,327,188339,1,0,0:0:0:0:
48,246,188485,1,0,0:0:0:0:
48,246,188631,6,0,P|45:196|69:153,1,100,0|0,0:0|2:0,0:0:0:0:
130,267,189070,2,0,P|154:224|151:175,1,100,0|0,0:0|2:0,0:0:0:0:
490,175,189802,6,0,P|394:180|347:318,1,225.000008583069,6|0,0:2|2:0,0:0:0:0:
398,339,190095,1,8,0:0:0:0:
448,50,190241,1,0,0:0:0:0:
338,284,190387,5,2,0:2:0:0:
221,26,190534,1,2,0:2:0:0:
278,333,190680,5,8,0:0:0:0:
25,151,190826,1,2,0:2:0:0:
221,26,190973,6,0,P|176:104|203:191,1,187.5,2|0,0:2|2:0,0:0:0:0:
199,273,191265,2,0,P|246:256|296:255,1,100,8|0,0:0|2:0,0:0:0:0:
466,87,191558,2,0,P|419:104|369:105,1,100,2|0,0:2|2:0,0:0:0:0:
352,328,191851,6,0,P|329:261|337:168,1,150,8|0,0:0|2:0,0:0:0:0:
370,106,192143,2,0,P|321:142|261:133,1,125,2|0,0:2|2:0,0:0:0:0:
144,285,192436,6,0,P|169:195|153:104,1,187.5,8|0,0:0|2:0,0:0:0:0:
80,54,192729,2,0,P|141:15|210:37,1,150.000005722046,2|0,0:2|2:0,0:0:0:0:
439,211,193022,5,8,0:0:0:0:
357,17,193168,1,0,0:0:0:0:
225,153,193314,2,0,P|164:192|95:170,1,150.000005722046,2|0,0:2|2:0,0:0:0:0:
39,373,193607,6,0,P|107:328|276:354,1,225.000008583069,8|0,0:0|2:0,0:0:0:0:
310,384,193900,2,0,P|324:316|273:258,1,150.000005722046,2|0,0:2|0:0,0:0:0:0:
95,170,194192,1,8,0:0:0:0:
274,91,194339,6,0,P|298:121|289:192,1,75.0000028610231,8|0,0:0|2:0,0:0:0:0:
245,335,194485,2,0,P|222:268|233:127,1,187.5,2|0,0:2|2:0,0:0:0:0:
155,111,194778,2,0,P|146:171|182:220,1,125,8|0,0:0|2:0,0:0:0:0:
304,250,195070,5,2,0:2:0:0:
203,42,195217,1,0,0:0:0:0:
406,0,195363,2,0,P|317:13|276:117,1,187.5,8|0,0:0|0:0,0:0:0:0:
323,166,195656,6,0,P|359:150|442:155,1,100,2|0,0:2|2:0,0:0:0:0:
512,300,195948,1,8,0:0:0:0:
479,95,196095,5,0,0:0:0:0:
479,95,196168,1,0,0:0:0:0:
479,95,196241,1,2,0:2:0:0:
367,237,196387,1,0,0:0:0:0:
300,69,196534,1,8,0:0:0:0:
146,174,196680,6,0,P|146:145|172:107,2,50,0|0|2,0:2|2:0|1:2,0:0:0:0:
216,64,196973,1,0,2:2:0:0:
7,38,197119,2,0,P|94:60|157:7,1,150,8|0,0:0|2:0,0:0:0:0:
144,11,197412,5,2,0:2:0:0:
226,163,197558,1,0,0:0:0:0:
322,48,197704,6,0,P|341:45|387:79,1,50,8|0,0:0|2:0,0:0:0:0:
453,95,197997,6,0,P|464:100|472:109,1,25,8|0,0:0|2:0,0:0:0:0:
491,208,198290,6,0,P|521:175|477:207,1,200,12|0,0:0|2:0,0:0:0:0:
431,348,198729,5,0,0:0:0:0:
357,187,198875,1,0,0:0:0:0:
357,187,198948,1,0,0:0:0:0:
357,187,199022,2,0,P|335:207|279:204,1,62.5,0|0,0:0|2:0,0:0:0:0:
80,142,199168,6,0,P|168:117|344:155,1,225.000008583069,6|0,0:2|2:0,0:0:0:0:
298,133,199461,1,8,0:0:0:0:
212,382,199607,1,0,0:0:0:0:
398,115,199753,5,2,0:2:0:0:
353,372,199900,1,2,0:2:0:0:
473,51,200046,5,8,0:0:0:0:
488,346,200192,1,2,0:2:0:0:
386,217,200339,6,0,P|333:242|221:193,1,187.5,2|0,0:2|2:0,0:0:0:0:
279,139,200631,2,0,P|238:116|162:141,1,100,8|0,0:0|2:0,0:0:0:0:
163,249,200924,2,0,P|204:272|280:247,1,100,2|0,0:2|2:0,0:0:0:0:
63,54,201217,6,0,P|105:111|111:202,1,150,8|0,0:0|2:0,0:0:0:0:
163,249,201509,2,0,P|119:270|42:220,1,125,2|0,0:2|2:0,0:0:0:0:
300,102,201802,6,0,P|271:183|278:311,1,187.5,8|0,0:0|2:0,0:0:0:0:
222,347,202095,2,0,P|265:363|349:304,1,150.000005722046,2|0,0:2|2:0,0:0:0:0:
470,86,202387,5,8,0:0:0:0:
432,320,202534,1,0,0:0:0:0:
225,217,202680,2,0,P|194:148|193:74,1,150.000005722046,2|0,0:2|2:0,0:0:0:0:
432,181,202973,2,0,P|430:106|400:38,1,150.000005722046,8|0,0:0|2:0,0:0:0:0:
291,27,203265,5,2,0:2:0:0:
317,274,203412,1,0,0:0:0:0:
470,86,203558,1,8,0:0:0:0:
237,258,203704,6,0,P|239:300|312:349,1,75.0000028610231,8|0,0:0|2:0,0:0:0:0:
494,253,203851,2,0,P|402:238|306:286,1,187.5,2|0,0:2|2:0,0:0:0:0:
256,327,204143,2,0,P|266:285|219:191,1,125,8|0,0:0|2:0,0:0:0:0:
62,303,204436,5,2,0:2:0:0:
71,222,204583,2,0,P|42:221|2:255,2,62.5,2|2|8,0:2|0:2|0:0,0:0:0:0:
139,266,204875,2,0,P|111:210|126:122,1,125,2|2,0:2|2:0,0:0:0:0:
169,1,205168,6,0,P|217:5|257:62,2,75.0000028610231,2|0|8,0:2|2:0|0:0,0:0:0:0:
197,170,205461,1,2,0:2:0:0:
48,101,205607,2,0,P|120:113|184:76,1,150,2|0,0:2|0:0,0:0:0:0:
310,225,205900,5,8,0:0:0:0:
237,19,206046,1,0,0:0:0:0:
239,289,206192,2,0,P|226:221|266:92,2,200,2|8|2,0:2|0:0|0:2,0:0:0:0:
377,340,206924,1,0,0:0:0:0:
422,200,207070,1,8,0:0:0:0:
422,200,207217,1,0,0:0:0:0:
354,146,207363,6,0,P|331:155|311:180,1,50,8|0,0:0|2:0,0:0:0:0:
239,289,207656,2,0,P|268:239|206:62,1,250,8|0,0:0|2:0,0:0:0:0:
214,67,208095,5,8,0:0:0:0:
125,64,208241,1,8,0:0:0:0:
52,116,208387,1,8,0:0:0:0:
125,64,208534,6,0,P|123:74|128:87,1,25,4|0,0:2|2:0,0:0:0:0:
185,159,210143,2,0,P|190:147|188:135,1,25,0|0,0:0|2:0,0:0:0:0:
172,235,210290,6,0,P|208:237|241:220,1,75.0000028610231,8|0,0:0|2:0,0:0:0:0:
351,175,210436,6,0,P|316:149|273:150,1,87.500000834465,8|0,0:0|2:0,0:0:0:0:
277,355,210583,6,0,P|330:356|374:303,1,100,8|0,0:0|2:0,0:0:0:0:
500,293,210729,6,0,P|403:241|302:281,1,225.000008583069,4|0,0:2|2:0,0:0:0:0:
277,355,211022,1,0,0:0:0:0:
64,341,211168,2,0,P|25:279|34:205,1,150.000005722046,8|0,0:0|2:0,0:0:0:0:
207,129,211461,1,2,0:2:0:0:
33,205,211607,1,0,0:0:0:0:
159,321,211753,2,0,P|167:247|128:186,1,150.000005722046,8|0,0:0|2:0,0:0:0:0:
23,35,212046,6,0,P|82:-8|155:0,1,150.000005722046,2|0,0:2|2:0,0:0:0:0:
192,237,212339,2,0,P|245:170|210:10,1,225.000008583069,8|0,0:0|0:0,0:0:0:0:
232,37,212631,2,0,P|204:93|256:175,1,150.000005722046,2|0,0:2|0:0,0:0:0:0:
418,276,212924,1,8,0:0:0:0:
308,75,213070,6,0,P|320:49|383:27,1,75.0000028610231,8|0,0:0|2:0,0:0:0:0:
502,179,213217,2,0,P|439:230|281:210,1,225.000008583069,2|0,0:2|2:0,0:0:0:0:
232,296,213509,2,0,P|268:233|240:167,1,150.000005722046,8|0,0:0|0:0,0:0:0:0:
71,69,213802,5,2,0:2:0:0:
37,305,213948,1,0,0:0:0:0:
185,227,214095,2,0,P|272:196|442:202,1,225.000008583069,8|0,0:0|0:0,0:0:0:0:
469,246,214387,6,0,P|465:288|380:265,1,150.000005722046,2|0,0:2|0:0,0:0:0:0:
481,162,214680,1,8,0:0:0:0:
268,336,214826,5,0,0:0:0:0:
268,336,214900,1,0,0:0:0:0:
268,336,214973,1,2,0:2:0:0:
403,193,215119,1,0,0:0:0:0:
211,147,215265,1,8,0:0:0:0:
289,5,215412,6,0,P|302:33|287:94,2,75.0000028610231,0|0|2,0:0|2:0|0:2,0:0:0:0:
105,104,215704,1,0,0:0:0:0:
212,254,215851,2,0,P|178:150|227:51,1,225.000008583069,8|0,0:0|2:0,0:0:0:0:
297,76,216143,5,2,0:2:0:0:
103,215,216290,1,0,0:0:0:0:
278,195,216436,6,0,P|296:220|298:257,1,50,8|0,0:0|2:0,0:0:0:0:
325,319,216729,6,0,P|339:312|357:315,1,25,8|0,0:0|2:0,0:0:0:0:
458,262,217022,6,0,B|379:289|375:375|420:405|447:375|422:330,1,200,12|0,0:0|0:0,0:0:0:0:
481,175,217461,5,0,0:0:0:0:
388,197,217607,1,0,0:0:0:0:
388,197,217680,1,0,0:0:0:0:
388,197,217753,2,0,L|388:84,1,75.0000028610231,0|0,0:0|2:0,0:0:0:0:
297,14,217900,6,0,L|297:239,1,225.000008583069,6|0,0:2|0:0,0:0:0:0:
297,239,218192,1,8,0:0:0:0:
42,275,218339,1,0,0:0:0:0:
388,197,218485,5,2,0:2:0:0:
86,129,218631,1,2,0:2:0:0:
481,175,218778,5,8,0:0:0:0:
191,22,218924,1,2,0:2:0:0:
465,314,219070,6,0,L|465:89,1,225.000008583069,2|0,0:2|2:0,0:0:0:0:
388,47,219363,2,0,L|388:197,1,150.000005722046,8|0,0:0|2:0,0:0:0:0:
124,337,219656,6,0,L|124:187,1,150.000005722046,2|0,0:2|2:0,0:0:0:0:
47,70,219948,2,0,L|47:295,1,225.000008583069,8|0,0:0|2:0,0:0:0:0:
124,337,220241,5,2,0:2:0:0:
197,191,220387,1,0,0:0:0:0:
309,312,220534,1,8,0:0:0:0:
272,170,220680,1,0,0:0:0:0:
422,178,220826,1,2,0:2:0:0:
314,103,220973,1,0,0:0:0:0:
416,14,221119,1,8,0:0:0:0:
302,26,221265,1,0,0:0:0:0:
471,238,221412,6,0,L|471:64,1,150.000005722046,2|0,0:2|2:0,0:0:0:0:
225,256,221704,2,0,L|225:81,1,150.000005722046,8|0,0:0|2:0,0:0:0:0:
213,18,221997,5,2,0:2:0:0:
142,72,222143,1,0,0:0:0:0:
315,217,222290,2,0,L|315:129,1,75.0000028610231,8|0,0:0|2:0,0:0:0:0:
63,193,222436,6,0,L|138:193,1,75.0000028610231,0|0,0:0|2:0,0:0:0:0:
225,106,222583,2,0,L|0:106,1,225.000008583069,2|0,0:2|2:0,0:0:0:0:
0,106,222875,1,8,0:0:0:0:
295,50,223022,1,0,0:0:0:0:
295,50,223095,1,0,0:0:0:0:
295,50,223168,1,2,0:2:0:0:
63,193,223314,1,0,0:0:0:0:
302,323,223461,1,8,0:0:0:0:
225,106,223607,6,0,L|399:106,1,150.000005722046,0|2,0:0|0:2,0:0:0:0:
153,360,223900,2,0,L|294:360,1,75.0000028610231,0|0,0:0|2:0,0:0:0:0:
302,323,224046,1,8,0:0:0:0:
155,59,224192,1,0,0:0:0:0:
381,278,224339,6,0,L|231:278,1,150.000005722046,2|0,0:2|0:0,0:0:0:0:
121,199,224631,1,8,0:0:0:0:
362,66,224778,1,0,0:0:0:0:
421,199,224924,2,0,L|120:199,2,300.000011444092,2|8|2,0:2|0:0|0:2,0:0:0:0:
512,128,225656,1,0,0:0:0:0:
362,66,225802,1,8,0:0:0:0:
396,288,225948,1,0,0:0:0:0:
396,288,226095,5,2,0:2:0:0:
423,182,227265,6,0,B|441:69|441:69|329:5,1,225.000008583069,4|0,0:2|2:0,0:0:0:0:
331,102,227558,2,0,P|310:141|316:97,1,125,8|0,0:0|2:0,0:0:0:0:
166,124,227851,1,0,0:0:0:0:
344,14,227997,1,0,0:0:0:0:
320,239,228143,2,0,P|370:161|458:137,1,187.5,8|0,0:0|2:0,0:0:0:0:
481,57,228436,6,0,B|455:-7|455:-7|456:65,1,125,0|0,0:0|2:0,0:0:0:0:
418,269,228729,2,0,P|439:229|433:273,1,125,8|0,0:0|2:0,0:0:0:0:
458,137,229022,1,0,0:0:0:0:
320,239,229168,1,0,0:0:0:0:
434,377,229314,2,0,P|367:338|227:341,1,187.5,8|0,0:0|2:0,0:0:0:0:
180,362,229607,6,0,B|121:379|61:349|61:349|97:398|153:384,1,225.000008583069,2|0,0:1|0:0,0:0:0:0:
92,271,229900,1,8,0:0:0:0:
260,331,230046,2,0,B|300:348|335:330|335:330|311:364|248:360,1,150.000005722046,2|0,0:1|0:0,0:0:0:0:
320,239,230339,1,0,0:0:0:0:
488,345,230485,5,8,0:0:0:0:
446,55,230631,1,2,0:0:0:0:
320,239,230778,2,0,P|335:280|420:277,1,125,2|2,0:0|0:0,0:0:0:0:
446,55,231070,2,0,L|183:74,1,250,10|0,0:0|0:0,0:0:0:0:
64,315,231509,5,0,0:0:0:0:
56,42,231656,5,8,0:0:0:0:
297,171,231802,5,8,0:0:0:0:
50,210,231948,6,2,P|116:137|304:179,2,300.000011444092,2|8|0,0:0|0:0|0:0,0:0:0:0:
326,266,232680,1,2,0:0:0:0:
298,170,232826,1,8,0:0:0:0:
347,84,232973,1,2,0:0:0:0:
440,45,233119,6,2,B|503:79|481:167|481:167|475:148|449:134,1,187.5,2|0,0:0|0:0,0:0:0:0:
504,262,233412,2,0,B|466:270|445:236|445:236|473:255|509:241,1,125,8|2,0:0|0:0,0:0:0:0:
449,134,233704,2,0,P|409:90|347:84,1,125,2|0,0:0|0:0,0:0:0:0:
273,203,233997,5,8,0:0:0:0:
182,190,234143,1,2,0:0:0:0:
91,177,234290,1,0,0:0:0:0:
6,310,234436,2,0,B|18:384|18:384|82:343,1,150.000005722046,2|8,0:0|0:0,0:0:0:0:
273,203,234729,5,0,0:0:0:0:
185,52,234875,2,0,B|197:-22|197:-22|261:19,1,150.000005722046,2|0,0:0|0:0,0:0:0:0:
7,86,235168,6,0,P|76:108|91:179,1,150.000005722046,10|0,0:0|0:0,0:0:0:0:
81,344,235461,6,0,P|100:328|110:305,1,50,10|0,0:0|2:0,0:0:0:0:
91,177,235753,6,2,B|41:236|41:236|306:186,1,300.000011444092,14|0,0:0|2:0,0:0:0:0:
426,163,236193,5,0,0:0:0:0:
343,179,236339,1,0,0:0:0:0:
346,164,236412,1,0,0:0:0:0:
349,149,236485,1,0,0:0:0:0:
421,7,236631,6,0,B|376:-26|312:-16|312:-16|270:30|294:106,1,225.000008583069,4|0,0:2|2:0,0:0:0:0:
289,87,236924,2,0,P|344:109|414:71,1,125,8|0,0:0|2:0,0:0:0:0:
445,324,237217,1,0,0:0:0:0:
475,120,237363,1,0,0:0:0:0:
493,128,237436,1,0,0:0:0:0:
512,130,237509,2,0,B|492:168|450:181|450:181|460:249|513:264,1,187.5,8|0,0:0|2:0,0:0:0:0:
445,324,237802,6,0,L|250:339,1,187.5,0|0,0:0|2:0,0:0:0:0:
234,340,238095,1,8,0:0:0:0:
45,209,238241,5,2,0:0:0:0:
123,201,238387,1,2,0:0:0:0:
58,359,238534,5,2,0:0:0:0:
183,277,238680,1,10,0:0:0:0:
77,137,238826,5,2,0:0:0:0:
110,65,238973,2,2,P|168:18|326:67,1,225.000008583069,2|0,0:0|2:0,0:0:0:0:
316,61,239265,1,8,0:0:0:0:
266,204,239412,5,0,0:0:0:0:
250,120,239558,1,0,0:0:0:0:
379,10,239704,1,0,0:0:0:0:
393,15,239778,1,0,0:0:0:0:
408,10,239851,2,0,P|353:60|386:179,1,187.5,8|0,0:0|2:0,0:0:0:0:
368,163,240143,6,2,P|438:175|485:23,1,250,2|8,0:0|0:0,0:0:0:0:
408,10,240583,1,0,0:0:0:0:
311,216,240729,2,2,B|267:243|215:215|215:215|184:148|109:158,1,225.000008583069,2|0,0:0|2:0,0:0:0:0:
90,164,241022,1,8,0:0:0:0:
323,98,241168,1,8,0:0:0:0:
132,241,241314,5,2,0:0:0:0:
114,28,241461,1,0,0:0:0:0:
387,154,241607,5,10,0:0:0:0:
238,89,241753,1,0,0:0:0:0:
478,39,241900,5,2,0:0:0:0:
323,98,242046,1,2,0:0:0:0:
383,285,242192,5,10,0:0:0:0:
401,72,242339,1,2,0:0:0:0:
133,251,242485,5,2,0:0:0:0:
282,186,242631,1,0,0:0:0:0:
42,136,242778,5,10,0:0:0:0:
197,195,242924,1,2,0:0:0:0:
33,338,243070,5,0,0:0:0:0:
119,169,243217,1,2,0:0:0:0:
124,155,243290,1,0,0:0:0:0:
125,140,243363,1,10,0:0:0:0:
50,8,243509,1,2,0:0:0:0:
120,56,243656,5,0,0:0:0:0:
206,70,243802,2,0,P|266:65|348:10,1,150.000005722046,2|8,0:0|0:0,0:0:0:0:
289,149,244095,5,0,0:0:0:0:
155,152,244241,2,0,P|95:147|13:92,1,150.000005722046,2|0,0:0|0:0,0:0:0:0:
43,218,244534,5,10,0:0:0:0:
224,226,244680,1,0,0:0:0:0:
391,157,244826,2,2,P|440:195|385:159,1,225.000008583069,8|0,0:0|2:0,0:0:0:0:
377,82,245119,6,2,P|479:116|512:219,1,225.000008583069,14|0,0:0|2:0,0:0:0:0:
475,287,245412,1,0,0:0:0:0:
475,287,245558,1,0,0:0:0:0:
302,116,245704,5,8,0:0:0:0:
338,322,245851,1,8,0:0:0:0:
48,148,245997,6,0,B|162:92|125:248|240:251,1,225.000008583069,2|0,0:0|2:0,0:0:0:0:
248,248,246290,1,0,0:2:0:0:
306,215,246436,1,0,0:0:0:0:
251,182,246583,1,0,0:2:0:0:
348,154,246729,1,0,0:0:0:0:
232,105,246875,1,0,0:0:0:0:
370,71,247022,6,0,P|311:85|172:67,1,150.000005722046,10|0,0:0|0:0,0:0:0:0:
340,316,247314,1,0,0:0:0:0:
174,270,247461,1,8,0:0:0:0:
328,294,247607,2,0,P|259:264|185:252,1,150.000005722046,2|2,0:0|0:2,0:0:0:0:
103,110,247900,5,0,0:0:0:0:
160,61,248046,1,8,0:0:0:0:
94,37,248192,1,0,0:0:0:0:
247,175,248339,6,0,B|133:132|141:234|33:228,1,225.000008583069,2|0,0:0|2:0,0:0:0:0:
22,214,248631,1,8,0:0:0:0:
103,110,248778,1,0,0:0:0:0:
247,175,248924,1,0,0:0:0:0:
344,95,249070,1,0,0:0:0:0:
415,176,249217,1,0,0:0:0:0:
493,145,249363,6,0,B|507:80|507:80|483:-14,1,150.000005722046,10|0,0:0|0:0,0:0:0:0:
259,67,249656,1,0,0:0:0:0:
344,95,249802,1,0,0:0:0:0:
146,133,249948,2,0,B|132:198|132:198|156:292,1,150.000005722046,10|2,0:0|0:2,0:0:0:0:
374,343,250241,5,0,0:0:0:0:
382,336,250314,1,0,0:0:0:0:
371,331,250387,1,8,0:0:0:0:
391,258,250534,1,0,0:0:0:0:
504,154,250680,6,0,B|395:122|395:122|272:170,1,225.000008583069,2|0,0:0|2:0,0:0:0:0:
276,166,250973,1,8,0:0:0:0:
175,230,251119,1,0,0:0:0:0:
283,295,251265,1,0,0:0:0:0:
254,145,251412,1,0,0:0:0:0:
165,268,251558,1,0,0:0:0:0:
70,152,251704,6,0,P|62:83|68:1,1,150.000005722046,10|0,0:0|0:0,0:0:0:0:
198,42,251997,1,0,0:0:0:0:
185,117,252143,1,8,0:0:0:0:
238,213,252290,2,0,P|246:282|240:364,1,150.000005722046,2|2,0:0|0:2,0:0:0:0:
66,245,252583,5,0,0:0:0:0:
79,320,252729,1,8,0:0:0:0:
326,282,252875,1,0,0:0:0:0:
380,362,253022,6,0,P|352:247|381:89,1,225.000008583069,2|0,0:0|2:0,0:0:0:0:
386,128,253314,1,2,0:2:0:0:
315,86,253461,1,0,0:0:0:0:
185,162,253607,1,2,0:2:0:0:
61,57,253753,1,0,0:0:0:0:
193,42,253900,5,2,0:2:0:0:
0,218,254047,2,2,B|107:189|68:292|197:246,1,200,0|2,0:0|2:0,0:0:0:0:
186,249,254339,5,0,0:0:0:0:
169,296,254412,1,0,0:0:0:0:
184,333,254485,1,0,0:0:0:0:
192,361,254558,1,0,0:0:0:0:
183,383,254631,1,12,0:0:0:0:
