osu file format v14

[General]
AudioFilename: audio.mp3
AudioLeadIn: 0
PreviewTime: 77083
Countdown: 0
SampleSet: Soft
StackLeniency: 0.5
Mode: 0
LetterboxInBreaks: 0
WidescreenStoryboard: 0

[Editor]
Bookmarks: 189802,208534,227265,245997
DistanceSpacing: 1.1
BeatDivisor: 8
GridSize: 32
TimelineZoom: 1.9

[Metadata]
Title:Kairikou
TitleUnicode:乖離光
Artist:Feryquitous feat. Aitsuki Nakuru
ArtistUnicode:Feryquitous feat. 藍月なくる
Creator:Ryuusei Aika
Version:Kibb's Hard
Source:
Tags:フェリキタス soleil de minuit Pino -[Pino]- Hailie Kibbleru den0saur Dynamix DJmax Parad_X wothe Suzuki_1112 1112deng Miura Skystar Amamiya Yuko
BeatmapID:1562892
BeatmapSetID:740862

[Difficulty]
HPDrainRate:5.5
CircleSize:4
OverallDifficulty:6
ApproachRate:8
SliderMultiplier:1.5
SliderTickRate:1

[Events]
//Background and Video events
0,0,"BG.jpg",0,0
//Break Periods
2,96197,114125
//Storyboard Layer 0 (Background)
//Storyboard Layer 1 (Fail)
//Storyboard Layer 2 (Pass)
//Storyboard Layer 3 (Foreground)
//Storyboard Sound Samples

[TimingPoints]
144,292.682926829268,4,2,1,70,1,0
144,-125,4,2,1,70,0,0
2485,-111.111111111111,4,2,1,70,0,0
6875,-111.111111111111,4,2,1,70,0,0
7168,-111.111111111111,4,2,1,60,0,0
21217,-100,4,2,1,70,0,0
38778,-125,4,2,1,70,0,0
39948,-125,4,2,1,50,0,0
41851,-125,4,2,1,40,0,0
44339,-125,4,2,1,70,0,0
44631,-125,4,2,1,50,0,0
49314,-111.111111111111,4,2,1,70,0,0
58680,-142.857142857143,4,2,1,70,0,0
77412,-100,4,2,1,70,0,1
96143,-100,4,2,1,70,0,0
114875,-142.857142857143,4,2,1,70,0,0
114948,-142.857142857143,4,2,0,50,0,0
119558,-142.857142857143,4,2,1,50,0,0
124241,-125,4,2,1,70,0,0
133607,-100,4,2,1,70,0,0
151168,-125,4,2,1,70,0,0
171363,-142.857142857143,4,2,1,70,0,0
188631,-166.666666666667,4,2,1,70,0,0
189802,-100,4,2,1,70,0,1
207363,-100,4,2,1,70,0,0
210729,-100,4,2,1,70,0,1
226095,-100,4,2,1,70,0,0
245997,-125,4,2,1,60,0,0
254339,-100,4,2,1,60,0,0

[Colours]
Combo1 : 71,88,90
Combo2 : 183,193,193
Combo3 : 89,116,133
Combo4 : 122,185,194

[HitObjects]
76,76,144,6,0,L|155:84,1,60,2|0,1:0|0:0,0:0:0:0:
143,91,363,1,0,0:0:0:0:
150,100,436,1,2,1:0:0:0:
260,27,729,2,0,P|271:54|277:84,1,60,2|0,1:0|0:0,0:0:0:0:
350,126,1022,2,0,P|343:155|330:182,1,60,2|0,1:0|0:0,0:0:0:0:
339,277,1314,6,0,L|257:262,1,60,2|8,1:0|0:3,0:0:0:0:
262,272,1534,1,8,0:3:0:0:
245,278,1607,2,0,L|215:280,2,30,4|4|2,0:3|0:3|1:3,0:0:0:0:
416,222,2046,1,2,1:3:0:0:
299,335,2485,6,0,L|287:200,1,134.999995880127,2|2,3:1|1:0,0:0:0:0:
254,126,2924,2,0,L|334:123,1,67.4999979400635,0|2,0:0|1:0,0:0:0:0:
402,120,3217,1,0,0:0:0:0:
203,199,3509,6,0,P|136:198|81:161,1,134.999995880127,0|0,0:0|0:0,0:0:0:0:
13,115,3948,2,0,P|3:148|2:181,1,67.4999979400635,2|0,1:0|0:0,0:0:0:0:
47,249,4241,1,2,1:0:0:0:
47,249,4387,2,0,L|52:323,1,67.4999979400635,0|2,0:0|1:0,0:0:0:0:
119,360,4680,1,0,0:0:0:0:
203,286,4826,6,0,P|247:283|336:341,1,134.999995880127,2|2,1:0|1:0,0:0:0:0:
401,300,5265,2,0,P|433:241|429:173,1,134.999995880127,0|0,0:0|0:0,0:0:0:0:
370,119,5704,1,2,1:0:0:0:
387,39,5851,6,0,L|320:46,1,67.4999979400635,0|2,0:0|1:0,0:0:0:0:
258,97,6143,1,0,0:0:0:0:
186,57,6290,1,2,1:0:0:0:
108,81,6436,6,0,P|97:50|98:17,1,67.4999979400635,0|2,0:0|1:0,0:0:0:0:
179,142,6729,1,0,0:0:0:0:
179,142,6875,2,0,P|179:175|168:206,1,67.4999979400635,10|8,0:1|0:0,0:0:0:0:
128,289,7168,6,0,P|178:245|245:244,1,134.999995880127,2|10,1:0|0:1,0:0:0:0:
314,285,7607,2,0,L|376:292,2,33.7499989700318,0|0|2,0:0|0:0|0:1,0:0:0:0:
292,168,7900,2,0,L|377:164,1,67.4999979400635,0|2,0:0|1:0,0:0:0:0:
436,139,8192,6,0,B|471:172|471:172|462:258,1,134.999995880127,8|0,0:0|1:0,0:0:0:0:
454,339,8631,1,10,0:1:0:0:
385,295,8778,1,0,0:0:0:0:
308,320,8924,2,0,P|306:286|303:252,1,67.4999979400635,2|8,0:1|0:3,0:0:0:0:
341,180,9217,1,10,1:0:0:0:
288,118,9363,1,0,0:0:0:0:
311,40,9509,6,0,P|260:83|192:77,1,134.999995880127,2|10,1:0|0:1,0:0:0:0:
120,110,9948,1,0,0:0:0:0:
40,88,10095,2,0,P|28:119|25:152,1,67.4999979400635,2|0,0:1|0:0,0:0:0:0:
74,216,10387,1,2,1:0:0:0:
20,327,10534,6,0,P|82:293|146:304,1,134.999995880127,8|0,0:0|0:0,0:0:0:0:
207,353,10973,1,2,1:0:0:0:
340,312,11119,2,0,L|273:307,1,67.4999979400635,8|2,0:0|1:0,0:0:0:0:
204,165,11412,1,0,1:0:0:0:
204,165,11558,2,0,L|271:170,1,67.4999979400635,10|8,0:1|0:0,0:0:0:0:
340,215,11851,6,0,P|392:180|397:85,1,134.999995880127,4|8,1:2|0:0,0:0:0:0:
362,44,12290,1,0,0:0:0:0:
209,115,12583,2,0,L|207:34,1,67.4999979400635,0|0,1:0|0:0,0:0:0:0:
124,24,12875,6,0,L|133:178,1,134.999995880127,8|0,0:0|1:0,0:0:0:0:
93,230,13314,2,0,P|107:264|112:298,1,67.4999979400635,8|2,0:0|0:1,0:0:0:0:
184,330,13607,1,2,0:1:0:0:
184,330,13753,1,0,1:0:0:0:
195,247,13900,2,0,L|265:255,1,67.4999979400635,8|0,0:0|0:0,0:0:0:0:
302,160,14192,6,0,L|158:163,1,134.999995880127,0|8,1:2|0:0,0:0:0:0:
92,195,14631,2,0,P|61:127|76:57,1,134.999995880127,0|0,0:0|1:0,0:0:0:0:
280,13,15217,6,0,L|272:86,1,67.4999979400635,8|0,0:0|0:0,0:0:0:0:
260,159,15509,1,0,1:0:0:0:
194,39,15656,1,8,0:0:0:0:
194,39,15802,1,2,0:1:0:0:
133,92,15948,2,0,P|95:91|60:99,1,67.4999979400635,2|0,0:1|1:0,0:0:0:0:
67,229,16241,2,0,P|104:229|141:220,1,67.4999979400635,8|0,0:0|0:0,0:0:0:0:
198,160,16534,6,0,P|263:167|332:228,1,134.999995880127,0|8,1:2|0:0,0:0:0:0:
346,283,16973,1,0,0:0:0:0:
398,129,17265,2,0,L|407:49,1,67.4999979400635,0|0,1:0|0:0,0:0:0:0:
305,31,17558,6,0,L|314:174,1,134.999995880127,8|0,0:0|1:0,0:0:0:0:
264,230,17997,1,8,0:0:0:0:
398,129,18290,2,0,L|488:144,1,67.4999979400635,2|0,0:1|1:0,0:0:0:0:
308,85,18583,2,0,L|219:100,1,67.4999979400635,8|0,0:0|0:0,0:0:0:0:
177,145,18875,6,0,P|104:129|66:54,1,134.999995880127,0|8,1:2|0:0,0:0:0:0:
70,164,19314,2,0,P|78:200|79:236,1,67.4999979400635,0|0,0:0|0:0,0:0:0:0:
32,296,19607,1,0,1:0:0:0:
163,198,19900,6,0,L|326:213,1,134.999995880127,10|0,0:1|0:0,0:0:0:0:
376,230,20339,1,0,0:0:0:0:
327,294,20485,6,0,P|289:295|250:300,1,67.4999979400635,2|0,1:3|0:0,0:0:0:0:
253,134,20778,2,0,P|290:130|327:130,1,67.4999979400635,2|0,1:3|0:0,0:0:0:0:
399,143,21070,1,0,0:0:0:0:
224,218,21217,6,0,P|166:221|85:138,2,150,6|10|2,1:2|0:0|1:0,0:0:0:0:
300,248,21948,2,0,P|333:250|385:262,1,75,0|10,0:0|0:0,0:0:0:0:
445,216,22241,6,0,P|449:178|451:141,1,75,0|2,0:0|1:0,0:0:0:0:
309,42,22534,2,0,P|304:79|302:116,1,75,0|10,0:0|0:0,0:0:0:0:
366,168,22826,1,0,0:0:0:0:
308,227,22973,2,0,P|232:174|153:189,1,150,2|10,1:0|0:0,0:0:0:0:
46,59,23558,6,0,L|150:52,1,75,2|0,1:2|0:0,0:0:0:0:
198,25,23851,2,0,P|221:77|214:193,1,150,10|2,0:0|1:0,0:0:0:0:
139,179,24290,1,0,0:0:0:0:
87,242,24436,2,0,P|77:278|74:315,1,75,10|0,0:0|0:0,0:0:0:0:
148,352,24729,6,0,P|201:314|308:324,1,150,2|10,1:0|0:0,0:0:0:0:
346,366,25168,1,0,0:0:0:0:
410,315,25314,2,0,L|401:236,1,75,2|0,1:0|0:0,0:0:0:0:
412,229,25534,1,0,0:0:0:0:
422,218,25607,1,10,0:0:0:0:
350,177,25753,1,0,0:0:0:0:
376,98,25900,6,0,P|438:58|516:68,2,150,6|10|2,1:0|0:0|1:0,0:0:0:0:
295,114,26631,2,0,L|205:97,1,75,0|10,0:0|0:0,0:0:0:0:
170,34,26924,1,0,0:0:0:0:
103,81,27070,6,0,P|108:119|110:156,1,75,2|0,1:0|0:0,0:0:0:0:
219,193,27363,2,0,P|213:230|211:267,1,75,10|0,0:0|0:0,0:0:0:0:
278,315,27656,1,2,1:0:0:0:
313,240,27802,1,0,0:0:0:0:
313,240,27875,1,0,0:0:0:0:
313,240,27948,2,0,L|394:253,1,75,10|0,0:0|0:0,0:0:0:0:
462,282,28241,6,0,P|503:218|499:144,2,150,2|10|2,1:2|0:0|1:0,0:0:0:0:
412,348,28973,1,0,0:0:0:0:
342,304,29119,2,0,P|307:290|269:287,1,75,10|0,0:0|0:0,0:0:0:0:
246,207,29412,6,0,B|310:187|329:225|394:202,2,150,2|10|8,1:0|0:0|0:3,0:0:0:0:
185,262,30143,1,8,0:3:0:0:
116,216,30290,2,8,P|108:179|113:131,1,75,4|4,0:3|0:3,0:0:0:0:
139,63,30583,6,0,P|78:23|1:31,1,150,6|10,1:2|0:0,0:0:0:0:
42,228,31168,2,0,P|78:218|115:215,1,75,2|0,1:0|0:0,0:0:0:0:
185,259,31461,1,10,0:0:0:0:
246,203,31607,6,0,P|253:167|256:129,1,75,0|2,0:0|1:0,0:0:0:0:
121,54,31900,1,0,0:0:0:0:
121,54,32046,2,0,P|113:90|110:128,1,75,10|0,0:0|0:0,0:0:0:0:
149,201,32339,1,2,1:0:0:0:
90,259,32485,2,0,L|43:264,2,37.5,0|0|10,0:0|0:0|0:0,0:0:0:0:
161,300,32778,1,0,0:0:0:0:
224,247,32924,6,0,L|384:266,1,150,2|10,1:2|0:0,0:0:0:0:
419,106,33509,2,0,P|382:103|345:97,1,75,2|0,1:0|0:0,0:0:0:0:
269,61,33802,2,0,P|260:97|254:134,1,75,10|0,0:0|0:0,0:0:0:0:
288,209,34095,5,2,1:0:0:0:
288,209,34241,1,0,0:0:0:0:
225,263,34387,2,0,L|140:270,1,75,10|0,0:0|0:0,0:0:0:0:
68,283,34680,2,0,L|78:196,1,75,2|0,1:0|0:0,0:0:0:0:
70,194,34900,1,0,0:0:0:0:
63,180,34973,1,10,0:0:0:0:
133,31,35265,6,0,P|170:70|169:171,1,150,6|10,1:0|0:0,0:0:0:0:
305,261,35851,2,0,P|328:231|342:196,1,75,2|0,1:0|0:0,0:0:0:0:
416,162,36143,2,0,P|409:126|391:93,1,75,10|0,0:0|0:0,0:0:0:0:
411,11,36436,6,0,P|359:60|278:63,1,150,2|10,1:0|0:0,0:0:0:0:
79,150,37022,2,0,L|181:161,1,75,2|0,1:0|0:0,0:0:0:0:
160,240,37314,2,0,L|85:231,1,75,10|0,0:0|0:0,0:0:0:0:
58,331,37607,6,0,L|221:321,1,150,2|10,1:2|0:0,0:0:0:0:
380,362,38192,2,0,P|397:330|401:293,1,75,2|0,1:0|0:0,0:0:0:0:
360,220,38485,2,0,L|355:145,1,75,10|0,0:0|0:0,0:0:0:0:
403,77,38778,5,0,0:0:0:0:
332,31,38924,2,0,P|302:28|272:25,1,60,2|0,0:3|0:0,0:0:0:0:
220,91,39217,2,0,P|161:91|102:108,1,120,2|2,0:3|0:3,0:0:0:0:
54,177,39656,1,0,3:0:0:0:
54,177,39948,6,0,P|72:233|73:293,1,120,6|2,0:0|0:0,0:0:0:0:
235,341,40534,2,0,L|242:269,1,60,2|0,0:0|0:0,0:0:0:0:
251,198,40826,1,2,0:0:0:0:
385,96,41119,6,0,P|406:152|402:231,1,120,2|2,0:0|0:0,0:0:0:0:
378,291,41558,2,0,L|386:374,1,60,0|2,0:0|0:0,0:0:0:0:
294,277,41851,2,0,L|300:337,1,60,0|2,0:0|0:0,0:0:0:0:
226,228,42143,1,0,0:0:0:0:
226,228,42290,6,0,P|164:228|99:265,1,120,2|2,0:0|0:0,0:0:0:0:
104,82,42875,2,0,L|186:90,1,60,2|0,0:0|0:0,0:0:0:0:
247,96,43168,1,2,0:0:0:0:
324,127,43314,6,0,L|460:108,1,120,2|0,0:0|0:0,0:0:0:0:
463,276,43900,2,0,P|410:251|350:249,1,120,2|0,0:0|0:0,0:0:0:0:
281,297,44339,1,8,0:0:0:0:
208,254,44485,1,8,0:0:0:0:
128,282,44631,6,0,P|108:226|113:167,1,120,0|8,3:0|0:1,0:0:0:0:
288,26,45217,2,0,P|295:55|296:88,1,60,0|0,0:1|0:0,0:0:0:0:
267,163,45509,1,0,1:0:0:0:
338,207,45656,6,0,L|471:222,1,120,8|0,0:0|1:0,0:0:0:0:
510,285,46095,1,8,0:1:0:0:
450,344,46241,2,0,L|376:349,1,60,2|2,0:0|0:1,0:0:0:0:
304,350,46534,2,0,P|301:321|300:291,1,60,8|10,0:3|1:0,0:0:0:0:
344,219,46826,1,0,0:0:0:0:
293,151,46973,6,0,P|222:159|177:197,1,120,0|8,1:0|0:1,0:0:0:0:
150,264,47412,1,0,0:0:0:0:
160,96,47704,1,2,0:0:0:0:
242,260,47997,1,8,0:0:0:0:
308,198,48143,6,0,L|371:191,1,60,10|0,0:0|0:0,0:0:0:0:
279,339,48436,1,10,0:0:0:0:
230,270,48583,2,0,L|167:263,1,60,10|2,0:0|0:0,0:0:0:0:
87,276,48875,2,0,L|80:196,1,60,8|4,0:3|0:3,0:0:0:0:
72,132,49168,1,4,0:3:0:0:
151,47,49314,6,0,P|175:109|169:175,1,134.999995880127,6|10,1:0|0:0,0:0:0:0:
232,226,49753,2,0,P|286:217|311:203,1,67.4999979400635,0|2,0:0|1:0,0:0:0:0:
338,141,50046,1,0,0:0:0:0:
404,186,50192,2,0,P|405:219|401:253,1,67.4999979400635,10|0,0:0|0:0,0:0:0:0:
396,334,50485,5,2,1:0:0:0:
396,334,50631,2,0,L|315:344,1,67.4999979400635,0|10,0:0|0:0,0:0:0:0:
321,222,50924,2,0,L|240:212,1,67.4999979400635,0|2,0:0|1:0,0:0:0:0:
177,241,51217,2,0,L|169:147,1,67.4999979400635,0|10,0:0|0:0,0:0:0:0:
105,126,51509,1,0,0:0:0:0:
38,172,51656,6,0,L|51:315,2,134.999995880127,2|10|2,1:0|0:0|1:0,0:0:0:0:
74,99,52387,2,0,L|82:22,1,67.4999979400635,0|10,0:0|0:0,0:0:0:0:
147,139,52680,6,0,P|200:146|274:101,1,134.999995880127,0|0,0:0|0:0,0:0:0:0:
337,63,53119,2,0,L|486:79,1,134.999995880127,10|2,0:0|1:0,0:0:0:0:
504,166,53558,1,0,0:0:0:0:
504,166,53631,1,0,0:0:0:0:
504,166,53704,1,10,0:0:0:0:
315,329,53997,6,0,P|301:283|314:186,1,134.999995880127,2|10,1:0|0:0,0:0:0:0:
354,129,54436,1,0,0:0:0:0:
291,76,54583,2,0,L|203:71,1,67.4999979400635,2|0,1:0|0:0,0:0:0:0:
161,124,54875,1,10,0:0:0:0:
87,89,55022,6,0,P|50:157|54:228,1,134.999995880127,0|0,0:0|0:0,0:0:0:0:
98,277,55461,2,0,P|129:263|169:258,1,67.4999979400635,10|0,0:0|0:0,0:0:0:0:
236,291,55753,2,0,L|241:373,2,67.4999979400635,2|0|10,1:0|0:0|0:0,0:0:0:0:
428,110,56339,6,0,L|419:201,1,67.4999979400635,2|0,1:0|0:0,0:0:0:0:
341,189,56631,2,0,L|347:121,1,67.4999979400635,10|0,0:0|0:0,0:0:0:0:
271,91,56924,2,0,L|264:158,2,67.4999979400635,2|0|10,1:0|0:0|0:0,0:0:0:0:
192,112,57363,6,0,P|124:104|59:87,1,134.999995880127,0|0,0:0|0:0,0:0:0:0:
15,155,57802,1,10,0:0:0:0:
82,200,57948,2,0,P|91:232|92:266,1,67.4999979400635,2|0,1:3|0:0,0:0:0:0:
159,310,58241,2,0,P|148:343|127:369,1,67.4999979400635,2|0,1:3|0:0,0:0:0:0:
159,310,58680,6,0,P|229:277|305:293,1,157.499995193482,4|2,1:2|0:0,0:0:0:0:
388,289,59265,2,0,P|409:248|401:176,1,104.999996795654,8|0,0:0|0:0,0:0:0:0:
359,120,59704,1,0,0:0:0:0:
501,248,59997,1,0,0:0:0:0:
497,24,60436,2,0,L|392:34,1,104.999996795654,8|0,0:0|0:0,0:0:0:0:
290,139,61022,6,0,P|243:142|166:57,1,157.499995193482,0|2,1:0|0:0,0:0:0:0:
85,59,61607,2,0,P|60:104|62:156,1,104.999996795654,8|0,0:0|0:0,0:0:0:0:
127,209,62046,1,0,0:0:0:0:
260,54,62339,1,0,0:0:0:0:
248,306,62778,2,0,L|241:190,1,104.999996795654,8|0,0:0|0:0,0:0:0:0:
241,201,63217,1,0,0:0:0:0:
303,145,63363,6,0,L|407:157,1,104.999996795654,0|0,1:0|0:0,0:0:0:0:
227,29,63948,2,0,L|122:41,1,104.999996795654,8|0,0:0|0:0,0:0:0:0:
60,98,64387,2,0,P|50:141|59:215,1,104.999996795654
204,328,65119,2,0,P|214:285|205:211,1,104.999996795654,8|0,0:0|0:0,0:0:0:0:
280,139,65704,6,0,P|318:131|419:183,1,157.499995193482,0|2,1:0|0:0,0:0:0:0:
422,186,66290,2,0,P|411:237|406:290,1,104.999996795654,8|2,0:0|0:0,0:0:0:0:
466,350,66729,1,0,0:0:0:0:
326,235,67022,1,2,0:0:0:0:
491,74,67461,2,0,B|431:77|431:77|406:99|406:99|342:103,1,157.499995193482,10|0,0:0|0:0,0:0:0:0:
264,133,68046,6,0,L|146:109,1,104.999996795654,0|0,1:2|0:0,0:0:0:0:
93,162,68485,1,2,0:0:0:0:
124,239,68631,2,0,L|226:259,1,104.999996795654,8|0,0:0|0:0,0:0:0:0:
309,240,69070,2,0,P|321:292|321:344,1,104.999996795654,0|0,0:0|0:0,0:0:0:0:
465,215,69802,2,0,P|453:163|453:111,1,104.999996795654,8|0,0:0|0:0,0:0:0:0:
363,26,70387,6,0,P|286:28|228:90,1,157.499995193482,0|2,1:0|0:0,0:0:0:0:
236,86,70973,2,0,L|130:68,1,104.999996795654,8|0,0:0|0:0,0:0:0:0:
50,47,71412,1,0,0:0:0:0:
143,204,71704,1,0,0:0:0:0:
310,29,72143,2,0,P|362:31|408:54,1,104.999996795654,8|0,0:0|0:0,0:0:0:0:
448,129,72583,1,0,0:0:0:0:
410,203,72729,6,0,L|401:312,1,104.999996795654,0|0,1:0|0:0,0:0:0:0:
242,362,73314,2,0,L|250:257,1,104.999996795654,8|0,0:0|0:0,0:0:0:0:
293,189,73753,2,0,P|241:200|189:207,1,104.999996795654,0|0,0:0|0:0,0:0:0:0:
51,47,74485,2,0,P|102:35|154:28,1,104.999996795654,8|0,0:0|0:0,0:0:0:0:
231,60,74924,1,0,0:0:0:0:
300,106,75070,6,0,P|367:106|438:35,1,157.499995193482,0|0,1:0|0:0,0:0:0:0:
476,128,75656,2,0,L|486:186,1,52.4999983978272,8|0,0:0|0:0,0:0:0:0:
410,228,75948,2,0,L|403:295,1,52.4999983978272,2|0,0:0|0:0,0:0:0:0:
457,347,77412,6,0,L|452:261,1,75,6|0,3:2|0:0,0:0:0:0:
469,188,77704,2,0,B|412:196|412:196|385:221|385:221|328:230,1,150,10|2,0:0|1:0,0:0:0:0:
247,220,78143,1,0,0:0:0:0:
188,160,78290,2,0,P|188:122|193:85,1,75,10|0,0:0|0:0,0:0:0:0:
345,62,78583,6,0,P|344:99|339:136,1,75,2|0,1:0|0:0,0:0:0:0:
357,216,78875,2,0,P|299:222|253:259,1,112.5,10|0,0:0|0:0,0:0:0:0:
262,268,79168,2,0,L|183:259,1,75,2|0,1:0|0:0,0:0:0:0:
107,282,79461,2,0,P|102:246|103:208,1,75,10|0,0:0|0:0,0:0:0:0:
162,151,79753,5,2,1:0:0:0:
162,151,79900,1,0,0:0:0:0:
225,99,80046,2,0,L|312:104,1,75,10|0,0:0|0:0,0:0:0:0:
408,180,80339,1,2,1:0:0:0:
408,180,80485,1,0,0:0:0:0:
348,238,80631,2,0,P|347:275|352:312,1,75,10|0,0:0|0:0,0:0:0:0:
280,353,80924,6,0,P|226:356|160:291,1,150,2|10,1:0|0:0,0:0:0:0:
210,226,81363,1,0,0:0:0:0:
162,158,81509,2,0,L|84:151,1,75,2|0,1:0|0:0,0:0:0:0:
210,226,81802,2,0,L|288:219,1,75,10|8,0:0|0:0,0:0:0:0:
367,219,82095,5,6,1:0:0:0:
467,74,82387,2,0,L|318:86,1,150,10|2,0:0|1:0,0:0:0:0:
239,114,82826,1,0,0:0:0:0:
163,79,82973,2,0,P|153:116|150:153,1,75,10|0,0:0|0:0,0:0:0:0:
76,222,83265,6,0,B|154:213|146:258|223:250,1,150,2|10,1:0|0:0,0:0:0:0:
297,281,83704,2,0,P|331:251|329:142,1,150,0|0,0:0|0:0,0:0:0:0:
299,77,84143,1,10,0:0:0:0:
381,80,84290,1,0,0:0:0:0:
247,155,84436,6,0,P|210:158|173:163,1,75,2|0,1:0|0:0,0:0:0:0:
128,94,84729,2,0,L|143:269,1,150,10|2,0:0|1:0,0:0:0:0:
151,325,85168,1,0,0:0:0:0:
72,350,85314,2,0,P|64:314|61:277,1,75,10|0,0:0|0:0,0:0:0:0:
228,255,85607,2,0,P|236:291|239:328,1,75,2|0,1:0|0:0,0:0:0:0:
150,218,85900,6,0,B|230:221|230:221|271:263|271:263|386:268,1,225,10|8,0:0|0:3,0:0:0:0:
434,239,86485,1,8,0:3:0:0:
434,239,86558,1,4,0:3:0:0:
434,239,86631,1,4,0:3:0:0:
403,162,86778,6,0,L|397:85,1,75,6|0,3:2|0:0,0:0:0:0:
437,15,87070,2,0,P|387:55|289:47,1,150,10|2,0:0|1:0,0:0:0:0:
221,47,87509,1,0,0:0:0:0:
167,110,87656,2,0,P|160:146|158:184,1,75,10|0,0:0|0:0,0:0:0:0:
321,214,87948,6,0,P|328:177|330:139,1,75,2|0,1:0|0:0,0:0:0:0:
245,163,88241,2,0,L|235:332,1,150,10|2,0:0|1:0,0:0:0:0:
163,353,88680,1,0,0:0:0:0:
91,311,88826,2,0,L|84:221,1,75,10|0,0:0|0:0,0:0:0:0:
52,152,89119,5,2,1:0:0:0:
52,152,89265,1,0,0:0:0:0:
108,81,89412,2,0,L|182:94,1,75,10|0,0:0|0:0,0:0:0:0:
267,169,89704,1,2,1:0:0:0:
267,169,89851,1,0,0:0:0:0:
342,120,89997,2,0,P|354:155|355:192,1,75,10|0,0:0|0:0,0:0:0:0:
436,316,90290,6,0,L|427:231,2,75,2|0|10,1:0|0:0|0:0,0:0:0:0:
351,286,90729,1,0,0:0:0:0:
276,242,90875,2,0,L|268:316,1,75,2|0,1:0|0:0,0:0:0:0:
196,359,91168,1,10,0:0:0:0:
196,359,91314,1,8,0:0:0:0:
137,300,91461,6,0,P|52:300|-11:361,1,150,6|10,1:0|0:0,0:0:0:0:
34,261,91900,2,0,P|24:207|29:167,1,75,0|2,0:0|1:0,0:0:0:0:
89,135,92192,2,0,P|126:135|166:156,1,75,0|10,0:0|0:0,0:0:0:0:
227,199,92485,6,0,B|310:210|295:165|372:175,1,150,0|0,0:0|0:0,0:0:0:0:
453,160,92924,2,0,L|446:244,1,75,10|0,0:0|0:0,0:0:0:0:
354,336,93217,2,0,L|347:261,2,75,2|0|10,1:0|0:0|0:0,0:0:0:0:
451,322,93656,2,0,L|447:368,2,37.5,0|0|2,0:0|0:0|1:0,0:0:0:0:
447,112,94095,6,0,P|390:159|316:163,1,150,10|2,0:0|1:0,0:0:0:0:
245,120,94534,2,0,P|209:109|171:106,1,75,0|10,0:0|0:0,0:0:0:0:
106,156,94826,1,0,0:0:0:0:
171,206,94973,2,0,L|165:289,1,75,2|0,1:0|0:0,0:0:0:0:
135,357,95265,6,0,L|233:351,1,75,10|0,0:0|0:0,0:0:0:0:
255,267,95558,2,0,L|353:261,1,75,10|0,0:0|0:0,0:0:0:0:
375,177,95851,1,4,0:3:0:0:
375,177,95997,1,4,0:3:0:0:
433,208,114875,6,0,P|377:214|307:146,1,157.499995193482,4|2,0:0|0:0,0:0:0:0:
192,63,115607,1,0,0:0:0:0:
192,63,115753,2,0,P|144:81|112:121,1,104.999996795654,2|0,0:0|0:0,0:0:0:0:
112,121,116192,1,2,0:0:0:0:
200,283,116485,1,0,0:0:0:0:
258,219,116631,2,0,L|318:213,1,52.4999983978272,2|0,0:0|0:0,0:0:0:0:
432,310,117217,6,0,P|457:258|436:140,1,157.499995193482,0|0,0:0|0:0,0:0:0:0:
393,104,117802,2,0,L|336:116,1,52.4999983978272,2|0,0:0|0:0,0:0:0:0:
263,123,118095,2,0,L|206:111,1,52.4999983978272,0|2,0:0|0:0,0:0:0:0:
132,104,118387,1,0,0:0:0:0:
76,160,118534,2,0,P|55:188|58:266,1,104.999996795654,2|0,0:0|0:0,0:0:0:0:
102,317,118973,2,0,L|171:315,1,52.4999983978272,2|0,0:0|1:0,0:0:0:0:
232,311,119265,1,8,0:3:0:0:
232,311,119412,1,8,0:3:0:0:
302,346,119558,6,0,P|326:298|321:229,1,104.999996795654,2|10,1:0|0:1,0:0:0:0:
271,190,119997,2,0,L|263:78,1,104.999996795654,0|0,0:0|0:0,0:0:0:0:
322,32,120436,1,2,1:0:0:0:
388,74,120583,2,0,P|390:100|391:126,1,52.4999983978272,8|2,0:0|0:1,0:0:0:0:
423,198,120875,1,0,1:0:0:0:
363,249,121022,2,0,L|304:253,1,52.4999983978272,10|0,0:1|0:0,0:0:0:0:
242,214,121314,1,2,0:1:0:0:
168,243,121461,2,0,L|164:280,2,26.2499991989136,8|0|10,0:3|0:0|1:0,0:0:0:0:
110,189,121753,1,0,0:0:0:0:
144,117,121900,6,0,L|131:10,1,104.999996795654,2|10,1:0|0:1,0:0:0:0:
214,47,122339,1,0,0:0:0:0:
291,59,122485,2,0,P|317:55|342:50,1,52.4999983978272,2|0,0:1|0:0,0:0:0:0:
414,83,122778,1,2,1:0:0:0:
312,205,122924,1,8,0:0:0:0:
344,131,123509,5,8,0:0:0:0:
391,258,123802,2,0,L|385:315,2,52.4999983978272,0|8|8,1:0|0:0|0:0,0:0:0:0:
314,218,124241,6,0,P|255:220|199:241,1,120,6|10,1:2|0:0,0:0:0:0:
131,291,124680,2,0,P|105:238|99:176,1,120,0|0,0:0|0:0,0:0:0:0:
138,103,125119,1,10,0:0:0:0:
75,47,125265,1,0,0:0:0:0:
226,102,125412,5,2,1:0:0:0:
226,102,125558,2,0,L|294:93,1,60,0|10,0:0|0:0,0:0:0:0:
350,147,125851,2,0,L|420:156,1,60,0|2,0:0|1:0,0:0:0:0:
478,106,126143,1,0,0:0:0:0:
478,106,126217,1,0,0:0:0:0:
478,106,126290,1,10,0:0:0:0:
489,187,126436,6,0,P|490:217|489:247,1,60,0|2,0:0|1:0,0:0:0:0:
365,314,126729,2,0,P|363:284|364:254,1,60,0|10,0:0|0:0,0:0:0:0:
320,182,127022,2,0,P|274:180|203:222,1,120,0|0,0:0|0:0,0:0:0:0:
145,268,127461,1,10,0:0:0:0:
79,216,127607,6,0,L|71:134,1,60,0|2,0:0|1:0,0:0:0:0:
49,75,127900,1,0,0:0:0:0:
131,88,128046,2,0,P|160:92|189:99,1,60,10|0,0:0|0:0,0:0:0:0:
261,55,128339,2,0,P|290:50|319:43,1,60,2|0,1:0|0:0,0:0:0:0:
319,43,128558,1,0,0:0:0:0:
319,43,128631,1,10,0:0:0:0:
391,183,128924,6,0,P|335:164|276:169,1,120,2|10,1:0|0:0,0:0:0:0:
214,226,129363,1,0,0:0:0:0:
141,184,129509,2,0,P|137:154|132:124,2,60,2|0|10,1:0|0:0|0:0,0:0:0:0:
106,263,129948,6,0,P|153:229|213:225,1,120,0|0,0:0|0:0,0:0:0:0:
274,284,130387,1,10,0:0:0:0:
355,261,130534,2,0,L|420:269,1,60,0|2,0:0|1:0,0:0:0:0:
476,324,130826,2,0,L|471:366,2,30,0|0|10,0:0|0:0|0:0,0:0:0:0:
495,241,131119,1,0,0:0:0:0:
435,182,131265,6,0,L|428:117,1,60,2|0,1:0|0:0,0:0:0:0:
345,109,131558,2,0,L|351:168,1,60,10|0,0:0|0:0,0:0:0:0:
275,206,131851,1,2,1:0:0:0:
275,206,131997,2,0,L|268:146,1,60,0|10,0:0|0:0,0:0:0:0:
188,171,132290,6,0,L|108:164,1,60,0|0,1:0|1:0,0:0:0:0:
116,165,132509,1,4,0:3:0:0:
103,164,132583,2,0,L|114:262,2,90,8|8|0,0:3|0:0|3:0,0:0:0:0:
192,282,133607,6,0,B|135:288|135:288|104:311|104:311|48:318,2,150,6|10|2,3:2|0:0|1:0,0:0:0:0:
265,319,134339,1,0,0:0:0:0:
342,290,134485,2,0,P|353:241|353:210,1,75,10|0,0:0|0:0,0:0:0:0:
418,165,134778,6,0,P|371:105|295:93,1,150,2|10,1:0|0:0,0:0:0:0:
232,136,135217,1,0,0:0:0:0:
155,105,135363,2,0,L|66:108,1,75,2|0,1:0|0:0,0:0:0:0:
0,80,135656,2,0,P|6:118|8:155,1,75,10|0,0:0|0:0,0:0:0:0:
6,271,135948,6,0,P|59:220|132:216,1,150,2|10,1:0|0:0,0:0:0:0:
207,252,136387,1,0,0:0:0:0:
282,217,136534,2,0,P|289:163|286:131,1,75,2|0,1:0|0:0,0:0:0:0:
242,73,136826,1,10,0:0:0:0:
436,64,137119,6,0,L|429:147,1,75,2|0,1:0|0:0,0:0:0:0:
478,205,137412,1,10,0:0:0:0:
478,205,137558,1,0,0:0:0:0:
413,256,137704,2,0,L|324:263,1,75,2|0,1:0|0:0,0:0:0:0:
257,280,137997,1,10,0:0:0:0:
257,280,138143,1,8,0:0:0:0:
180,248,138290,6,0,P|135:241|33:305,2,150,2|10|2,1:0|0:0|1:0,0:0:0:0:
257,280,139022,1,0,0:0:0:0:
326,235,139168,2,0,P|342:191|342:159,1,75,10|0,0:0|0:0,0:0:0:0:
327,81,139461,6,0,L|410:77,2,75,2|0|10,1:0|0:0|0:0,0:0:0:0:
260,132,139900,2,0,L|110:120,1,150,0|0,0:0|0:0,0:0:0:0:
52,178,140339,2,0,P|60:214|61:251,1,75,10|0,0:0|0:0,0:0:0:0:
38,330,140631,6,0,B|117:345|109:304|188:320,1,150,2|10,1:0|0:0,0:0:0:0:
248,372,141070,1,0,0:0:0:0:
316,325,141217,2,0,L|306:233,1,75,2|0,1:0|0:0,0:0:0:0:
293,169,141509,1,10,0:0:0:0:
293,169,141656,1,0,0:0:0:0:
358,119,141802,6,0,P|394:125|432:129,1,75,2|0,1:0|0:0,0:0:0:0:
281,161,142095,2,0,P|228:159|151:227,1,150,10|2,0:0|1:0,0:0:0:0:
149,299,142534,1,0,0:0:0:0:
76,259,142680,2,0,P|66:220|66:179,1,75,10|8,0:0|0:0,0:0:0:0:
50,103,142973,6,0,B|107:108|107:108|135:133|135:133|189:137,2,150,6|10|2,3:2|0:0|1:0,0:0:0:0:
75,24,143704,1,0,0:0:0:0:
157,35,143851,2,0,L|249:22,1,75,10|0,0:0|0:0,0:0:0:0:
311,44,144143,6,0,P|342:94|311:202,1,150,2|10,1:0|0:0,0:0:0:0:
287,253,144583,1,0,0:0:0:0:
277,334,144729,2,0,P|242:319|205:315,1,75,2|0,1:0|0:0,0:0:0:0:
124,335,145022,1,10,0:0:0:0:
97,148,145314,6,0,B|178:138|169:178|243:170,1,150,2|10,1:0|0:0,0:0:0:0:
315,210,145753,1,0,0:0:0:0:
379,157,145900,2,0,P|390:122|389:82,1,75,2|0,1:0|0:0,0:0:0:0:
338,20,146192,2,0,P|300:19|264:30,1,75,10|0,0:0|0:0,0:0:0:0:
219,98,146485,5,2,1:0:0:0:
219,98,146631,1,0,0:0:0:0:
144,62,146778,2,0,L|60:50,1,75,10|0,0:0|0:0,0:0:0:0:
37,126,147070,2,0,P|71:172|73:277,1,150,2|10,1:0|0:0,0:0:0:0:
142,313,147509,1,8,0:0:0:0:
205,259,147656,6,0,L|365:242,1,150,2|10,1:0|0:0,0:0:0:0:
436,255,148095,1,0,0:0:0:0:
481,186,148241,2,0,L|489:97,1,75,2|0,1:0|0:0,0:0:0:0:
410,80,148534,2,0,L|403:154,1,75,10|0,0:0|0:0,0:0:0:0:
348,227,148826,6,0,P|354:264|356:302,2,75,2|0|10,1:0|0:0|0:0,0:0:0:0:
292,166,149265,2,0,P|262:189|134:195,1,150,0|0,0:0|0:0,0:0:0:0:
83,246,149704,2,0,P|61:186|63:150,1,75,10|0,0:0|0:0,0:0:0:0:
83,95,149997,6,0,L|8:83,1,75,2|0,1:0|0:0,0:0:0:0:
149,45,150290,1,10,0:0:0:0:
205,105,150436,2,0,B|285:117|274:71|350:82,1,150,0|0,0:0|0:0,0:0:0:0:
406,143,150875,1,10,0:0:0:0:
481,108,151022,1,0,0:0:0:0:
475,190,151168,6,0,L|470:261,1,60,0|0,0:0|0:0,0:0:0:0:
392,291,151461,2,0,L|387:231,1,60,0|0,0:0|0:0,0:0:0:0:
323,176,151753,1,0,0:0:0:0:
239,191,151900,1,0,0:0:0:0:
206,268,152046,1,0,0:0:0:0:
242,343,152192,1,0,0:0:0:0:
320,311,152339,6,0,B|418:294|399:359|492:343,2,180,0|2|2,3:0|0:0|0:0,0:0:0:0:
198,352,153509,2,0,P|184:309|186:226,1,120,2|2,0:0|0:0,0:0:0:0:
264,67,154387,1,0,0:0:0:0:
264,67,154680,6,0,P|177:77|125:150,2,180,2|2|2,0:0|0:0|0:0,0:0:0:0:
416,132,155851,1,0,0:0:0:0:
416,132,155997,2,0,P|418:191|410:251,1,120,2|0,0:0|0:0,0:0:0:0:
415,335,156436,2,0,L|340:321,1,60,2|0,0:0|0:0,0:0:0:0:
300,260,156729,2,0,L|225:246,1,60,2|0,0:0|0:0,0:0:0:0:
163,283,157022,6,0,B|150:214|150:214|165:168|165:168|154:107,1,180,2|2,0:0|0:0,0:0:0:0:
129,27,157607,2,0,L|275:44,1,120,0|2,0:0|0:0,0:0:0:0:
313,94,158046,1,0,0:0:0:0:
385,51,158192,2,0,P|404:91|406:174,1,120,2|0,0:0|0:0,0:0:0:0:
303,252,159070,1,0,0:0:0:0:
303,252,159363,6,0,B|403:237|380:297|474:287,2,180,2|2|2,0:0|0:0|0:0,0:0:0:0:
166,299,160534,1,0,0:0:0:0:
166,299,160680,2,0,P|142:252|146:182,1,120,2|0,0:0|0:0,0:0:0:0:
152,102,161119,2,0,L|83:114,2,60,2|0|2,0:0|0:0|0:0,0:0:0:0:
382,193,161704,6,0,L|315:179,1,60,8|4,0:3|0:3,0:0:0:0:
263,120,161997,2,0,L|278:254,1,120,4|8,0:3|0:3,0:0:0:0:
257,321,162436,1,4,0:3:0:0:
191,267,162583,2,0,P|184:233|181:207,1,60,4|4,0:3|0:3,0:0:0:0:
125,145,162875,6,0,P|81:149|22:200,1,120,0|4,0:0|0:3,0:0:0:0:
4,278,163314,1,4,0:3:0:0:
54,345,163461,2,0,L|178:351,1,120,8|4,0:3|0:3,0:0:0:0:
329,286,164046,6,0,L|334:360,2,60,8|4|4,0:3|0:3|0:3,0:0:0:0:
375,215,164485,2,0,L|385:139,1,60,0|8,0:0|0:3,0:0:0:0:
404,74,164778,2,0,P|374:78|344:80,1,60,4|4,0:3|0:3,0:0:0:0:
278,133,165070,6,0,P|219:135|166:107,1,120,4|0,0:3|0:3,0:0:0:0:
115,40,165509,1,4,0:3:0:0:
50,94,165656,1,4,0:3:0:0:
50,93,165802,2,0,P|46:123|44:153,1,60,8|4,0:3|0:3,0:0:0:0:
103,214,166095,1,4,0:3:0:0:
65,289,166241,1,4,0:3:0:0:
146,310,166387,6,0,L|219:319,1,60,8|4,0:3|0:3,0:0:0:0:
282,349,166680,2,0,P|298:292|296:232,1,120,4|8,0:3|0:3,0:0:0:0:
263,155,167119,2,0,L|272:83,1,60,4|4,0:3|0:3,0:0:0:0:
312,22,167412,6,0,P|258:46|199:51,1,120,4|0,0:3|0:3,0:0:0:0:
117,31,167851,2,0,P|108:60|105:90,1,60,4|4,0:3|0:3,0:0:0:0:
130,170,168143,1,8,0:3:0:0:
278,91,168436,1,4,0:3:0:0:
384,221,168729,6,0,L|375:302,1,60,8|4,0:3|0:3,0:0:0:0:
293,289,169022,2,0,L|299:229,1,60,4|0,0:3|0:0,0:0:0:0:
230,181,169314,2,0,L|160:195,2,60,8|4|0,0:3|0:3|0:0,0:0:0:0:
240,97,169753,6,0,L|107:124,1,120,8|0,0:3|0:3,0:0:0:0:
70,186,170192,2,0,P|64:216|63:246,1,60,8|8,0:3|0:3,0:0:0:0:
67,257,170412,1,8,0:3:0:0:
71,268,170485,1,8,0:3:0:0:
150,242,170631,1,8,0:3:0:0:
219,289,170778,1,4,0:3:0:0:
290,245,170924,2,0,L|356:242,1,60,4|4,0:3|1:2,0:0:0:0:
439,67,171363,5,0,0:0:0:0:
439,67,171656,2,0,P|369:80|314:75,1,104.999996795654,8|0,0:0|0:0,0:0:0:0:
261,38,172095,1,0,0:0:0:0:
392,165,172387,1,0,0:0:0:0:
255,323,172826,2,0,L|246:209,1,104.999996795654,8|0,0:0|0:0,0:0:0:0:
203,97,173412,6,0,P|126:103|74:168,1,157.499995193482,0|2,1:0|0:0,0:0:0:0:
95,242,173997,2,0,P|147:246|197:261,1,104.999996795654,8|0,0:0|0:0,0:0:0:0:
255,323,174436,1,0,0:0:0:0:
155,158,174729,1,0,0:0:0:0:
396,201,175168,2,0,L|280:208,1,104.999996795654,8|0,0:0|0:0,0:0:0:0:
291,207,175607,1,0,0:0:0:0:
256,130,175753,6,0,P|264:78|264:25,1,104.999996795654,0|0,1:0|0:0,0:0:0:0:
59,105,176339,2,0,P|50:156|50:209,1,104.999996795654,8|0,0:0|0:0,0:0:0:0:
114,264,176778,2,0,L|231:278,1,104.999996795654,0|0,0:0|0:0,0:0:0:0:
364,121,177509,2,0,L|259:108,1,104.999996795654,8|0,0:0|0:0,0:0:0:0:
163,36,178095,6,0,P|104:43|40:136,1,157.499995193482,0|0,1:0|0:0,0:0:0:0:
47,118,178680,2,0,P|56:170|55:226,1,104.999996795654,8|2,0:0|0:0,0:0:0:0:
121,274,179119,1,0,0:0:0:0:
212,104,179412,1,2,0:0:0:0:
360,238,179851,2,0,B|275:247|293:199|207:210,1,157.499995193482,10|0,0:0|0:0,0:0:0:0:
127,230,180436,6,0,P|115:179|115:113,1,104.999996795654,0|0,1:2|0:0,0:0:0:0:
294,18,181022,2,0,P|306:69|306:135,1,104.999996795654,8|0,0:0|0:0,0:0:0:0:
365,182,181461,2,0,P|419:181|478:152,1,104.999996795654,0|0,0:0|0:0,0:0:0:0:
465,161,181900,1,2,0:3:0:0:
204,76,182192,2,0,L|86:63,1,104.999996795654,8|0,0:0|0:0,0:0:0:0:
28,168,182778,6,0,P|71:232|75:310,1,157.499995193482,0|0,1:0|0:0,0:0:0:0:
79,314,183363,2,0,L|188:305,1,104.999996795654,8|0,0:0|0:0,0:0:0:0:
258,345,183802,1,0,0:0:0:0:
122,221,184095,1,0,0:0:0:0:
311,92,184534,2,0,L|300:203,1,104.999996795654,8|0,0:0|0:0,0:0:0:0:
300,196,184973,1,0,0:0:0:0:
383,266,185119,6,0,P|398:215|399:160,1,104.999996795654,0|0,1:0|0:0,0:0:0:0:
222,29,185704,2,0,P|207:80|206:135,1,104.999996795654,8|0,0:0|0:0,0:0:0:0:
154,198,186143,2,0,P|90:193|37:165,1,104.999996795654,0|0,0:0|0:0,0:0:0:0:
53,176,186583,1,2,0:3:0:0:
139,285,186875,1,8,0:0:0:0:
234,135,187168,1,0,0:0:0:0:
310,311,187461,6,0,P|375:312|439:236,1,157.499995193482,0|2,1:0|0:0,0:0:0:0:
489,184,188046,2,0,L|497:115,1,52.4999983978272,8|0,0:0|0:0,0:0:0:0:
394,93,188339,2,0,L|386:24,1,52.4999983978272,2|0,0:0|0:0,0:0:0:0:
312,145,188631,6,0,L|178:136,1,134.999995880127,2|2,0:3|0:0,0:0:0:0:
37,79,189802,6,0,P|74:83|111:85,1,75,6|0,3:2|0:0,0:0:0:0:
188,114,190095,2,0,P|227:175|210:260,1,150,10|2,0:0|1:0,0:0:0:0:
173,319,190534,1,0,0:0:0:0:
90,323,190680,2,0,P|84:285|82:248,1,75,10|0,0:0|0:0,0:0:0:0:
113,171,190973,6,0,L|22:162,1,75,2|0,1:0|0:0,0:0:0:0:
25,74,191265,2,0,L|161:89,1,112.5,10|0,0:0|0:0,0:0:0:0:
154,95,191558,2,0,L|146:11,1,75,2|0,1:0|0:0,0:0:0:0:
260,32,191851,2,0,L|252:106,1,75,10|0,0:0|0:0,0:0:0:0:
299,174,192143,5,2,1:0:0:0:
299,174,192290,1,0,0:0:0:0:
380,180,192436,2,0,P|418:175|453:162,1,75,10|0,0:0|0:0,0:0:0:0:
482,288,192729,1,2,1:0:0:0:
482,288,192875,1,0,0:0:0:0:
400,273,193022,2,0,B|332:260|333:300|252:288,1,150,10|2,0:0|1:0,0:0:0:0:
176,256,193461,5,0,0:0:0:0:
123,192,193607,2,0,P|115:146|113:97,1,75,10|0,0:0|0:0,0:0:0:0:
237,62,193900,2,0,P|245:108|247:157,1,75,2|0,1:0|0:0,0:0:0:0:
327,93,194192,2,0,L|416:81,1,75,10|8,0:0|0:0,0:0:0:0:
483,74,194485,5,6,1:0:0:0:
467,250,194778,2,0,P|408:204|334:198,1,150,10|2,0:0|1:0,0:0:0:0:
266,245,195217,1,0,0:0:0:0:
186,222,195363,2,0,P|176:180|176:130,1,75,10|0,0:0|0:0,0:0:0:0:
165,65,195656,6,0,B|221:73|221:73|243:100|243:100|305:109,1,150,2|10,1:0|0:0,0:0:0:0:
352,43,196095,2,0,L|344:200,1,150,0|0,0:0|0:0,0:0:0:0:
343,275,196534,1,10,0:0:0:0:
417,239,196680,1,0,0:0:0:0:
264,232,196826,6,0,P|227:229|190:222,1,75,2|0,1:0|0:0,0:0:0:0:
141,289,197119,2,0,P|134:216|77:170,1,150,10|2,0:0|1:0,0:0:0:0:
134,109,197558,1,0,0:0:0:0:
92,37,197704,2,0,L|177:29,1,75,10|0,0:0|0:0,0:0:0:0:
297,109,197997,2,0,L|222:101,1,75,2|0,1:0|0:0,0:0:0:0:
379,98,198290,6,0,B|324:51|324:51|349:232,1,225,10|8,0:0|0:3,0:0:0:0:
409,273,198875,1,8,0:3:0:0:
409,273,198948,1,4,0:3:0:0:
409,273,199022,1,4,0:3:0:0:
325,298,199168,6,0,L|239:303,1,75,6|0,3:2|0:0,0:0:0:0:
210,375,199461,2,0,L|195:220,1,150,10|2,0:0|1:0,0:0:0:0:
186,143,199900,1,0,0:0:0:0:
105,123,200046,2,0,P|104:160|109:197,1,75,10|0,0:0|0:0,0:0:0:0:
274,180,200339,6,0,P|274:142|269:105,1,75,2|0,1:0|0:0,0:0:0:0:
324,44,200631,2,0,P|377:44|455:110,1,150,10|2,0:0|1:0,0:0:0:0:
442,183,201070,1,0,0:0:0:0:
472,260,201217,2,0,P|434:263|397:268,1,75,10|0,0:0|0:0,0:0:0:0:
327,312,201509,5,2,1:0:0:0:
327,312,201656,1,0,0:0:0:0:
262,260,201802,2,0,L|270:167,1,75,10|0,0:0|0:0,0:0:0:0:
284,75,202095,1,2,1:0:0:0:
284,75,202241,1,0,0:0:0:0:
209,39,202387,2,0,L|125:48,1,75,10|0,0:0|0:0,0:0:0:0:
39,111,202680,6,0,P|36:74|28:38,2,75,2|0|10,1:0|0:0|0:0,0:0:0:0:
107,160,203119,1,0,0:0:0:0:
193,139,203265,2,0,P|184:175|181:212,1,75,2|0,1:0|0:0,0:0:0:0:
247,262,203558,1,10,0:0:0:0:
247,262,203704,1,8,0:0:0:0:
296,195,203851,6,0,B|374:187|365:229|440:225,1,150,6|10,1:0|0:0,0:0:0:0:
496,164,204290,2,0,L|490:86,1,75,0|2,0:0|1:0,0:0:0:0:
423,38,204583,2,0,P|385:42|349:53,1,75,0|10,0:0|0:0,0:0:0:0:
278,94,204875,6,0,P|213:90|142:23,1,150,0|0,0:0|0:0,0:0:0:0:
84,90,205314,2,0,P|76:122|76:170,1,75,10|0,0:0|0:0,0:0:0:0:
182,200,205607,2,0,P|190:168|190:120,2,75,2|0|10,1:0|0:0|0:0,0:0:0:0:
112,245,206046,2,0,L|105:286,2,37.5,0|0|2,0:0|0:0|1:0,0:0:0:0:
276,55,206485,6,0,P|324:112|330:186,1,150,10|2,0:0|1:0,0:0:0:0:
280,253,206924,1,0,0:0:0:0:
325,329,207070,2,0,L|400:335,1,75,10|0,0:0|0:0,0:0:0:0:
481,323,207363,6,0,P|486:268|482:233,1,75,2|0,1:0|0:0,0:0:0:0:
283,178,207656,2,0,P|278:233|282:268,1,75,10|0,0:0|0:0,0:0:0:0:
389,56,208095,1,8,0:3:0:0:
317,96,208241,1,4,0:3:0:0:
243,59,208387,1,4,0:3:0:0:
171,99,208533,1,4,0:0:0:0:
108,155,210290,6,0,L|118:230,1,75,8|8,0:0|0:0,0:0:0:0:
66,335,210583,1,8,0:0:0:0:
41,256,210729,6,0,B|116:245|111:289|186:279,1,150,6|0,0:1|0:0,0:0:0:0:
264,307,211168,2,0,P|277:259|273:211,1,75,10|0,0:0|0:0,0:0:0:0:
342,182,211461,2,0,P|378:189|412:205,1,75,2|0,1:0|0:0,0:0:0:0:
459,273,211753,1,10,0:0:0:0:
455,45,212046,6,0,P|397:90|323:88,1,150,2|10,1:0|0:0,0:0:0:0:
259,35,212485,1,0,0:0:0:0:
210,101,212631,2,0,L|204:175,1,75,2|0,1:0|0:0,0:0:0:0:
200,258,212924,1,10,0:0:0:0:
200,258,213070,1,8,0:0:0:0:
159,330,213217,6,0,P|220:287|293:291,1,150,6|10,1:0|0:0,0:0:0:0:
447,165,213802,2,0,L|363:155,1,75,2|0,1:0|0:0,0:0:0:0:
297,120,214095,2,0,P|288:156|286:193,1,75,10|0,0:0|0:0,0:0:0:0:
305,274,214387,6,0,B|232:283|238:240|159:251,1,150,2|10,1:0|0:0,0:0:0:0:
90,296,214826,2,0,P|61:255|67:151,1,150,0|0,0:0|0:0,0:0:0:0:
62,74,215265,2,0,P|99:81|137:84,1,75,10|0,0:0|0:0,0:0:0:0:
200,138,215558,5,2,1:0:0:0:
261,83,215704,1,0,0:0:0:0:
337,113,215851,2,0,P|368:111|472:180,1,150,10|2,0:0|1:0,0:0:0:0:
490,248,216290,1,0,0:0:0:0:
409,230,216436,2,0,P|401:267|397:304,1,75,10|0,0:0|0:0,0:0:0:0:
220,234,216729,6,0,P|216:196|208:160,1,75,2|0,1:0|0:0,0:0:0:0:
304,263,217022,2,0,B|188:234|211:322|88:292,1,225,10|8,0:0|0:3,0:0:0:0:
44,222,217607,1,8,0:3:0:0:
44,222,217680,1,4,0:3:0:0:
44,222,217753,1,4,0:3:0:0:
74,144,217900,6,0,L|150:152,1,75,6|0,3:2|0:0,0:0:0:0:
226,175,218192,2,0,P|274:119|269:46,1,150,10|2,0:0|1:0,0:0:0:0:
352,37,218631,1,0,0:0:0:0:
413,92,218778,2,0,P|408:129|405:166,1,75,10|0,0:0|0:0,0:0:0:0:
431,244,219070,6,0,L|348:246,1,75,2|0,1:0|0:0,0:0:0:0:
292,192,219363,2,0,L|169:180,1,112.5,10|0,0:0|0:0,0:0:0:0:
164,167,219656,2,0,P|161:204|154:241,1,75,2|0,1:0|0:0,0:0:0:0:
43,183,219948,2,0,P|45:145|52:108,1,75,10|0,0:0|0:0,0:0:0:0:
116,56,220241,6,0,P|166:69|261:21,1,150,2|10,1:0|0:0,0:0:0:0:
326,69,220680,1,0,0:0:0:0:
402,41,220826,2,0,P|415:77|417:114,1,75,2|0,1:0|0:0,0:0:0:0:
375,186,221119,1,10,0:0:0:0:
429,341,221412,6,0,P|394:326|357:318,1,75,2|0,1:0|0:0,0:0:0:0:
302,256,221704,2,0,P|265:263|229:275,1,75,10|0,0:0|0:0,0:0:0:0:
159,320,221997,2,0,P|124:284|119:175,1,150,2|10,1:0|0:0,0:0:0:0:
171,128,222436,1,8,0:0:0:0:
121,61,222583,6,0,B|180:72|180:72|204:99|204:99|259:112,1,150,6|10,1:0|0:0,0:0:0:0:
336,90,223022,2,0,P|349:47|349:12,1,75,0|2,0:0|1:0,0:0:0:0:
397,163,223314,2,0,P|384:206|384:241,1,75,0|10,0:0|0:0,0:0:0:0:
438,297,223607,1,0,0:0:0:0:
372,346,223753,6,0,P|310:355|236:282,1,150,2|10,1:0|0:0,0:0:0:0:
272,226,224192,1,0,0:0:0:0:
226,156,224339,2,0,L|131:146,1,75,2|0,1:0|0:0,0:0:0:0:
92,205,224631,2,0,P|84:241|85:283,1,75,10|0,0:0|0:0,0:0:0:0:
148,332,224924,5,2,1:0:0:0:
67,116,225217,1,10,0:0:0:0:
223,257,225509,2,0,L|312:249,1,75,2|0,1:0|0:0,0:0:0:0:
374,282,225802,2,0,P|386:238|387:184,1,75,10|0,0:0|0:0,0:0:0:0:
356,132,226095,1,6,1:0:0:0:
356,132,227265,6,0,P|430:135|493:61,2,150,6|10|2,3:2|0:0|1:0,0:0:0:0:
288,84,227997,1,0,0:0:0:0:
208,107,228143,2,0,P|172:100|134:96,1,75,10|0,0:0|0:0,0:0:0:0:
68,46,228436,6,0,B|27:79|27:79|39:193,1,150,2|10,1:0|0:0,0:0:0:0:
47,258,228875,1,0,0:0:0:0:
118,298,229022,2,0,P|127:261|130:224,1,75,2|0,1:0|0:0,0:0:0:0:
197,177,229314,2,0,P|233:186|269:204,1,75,10|0,0:0|0:0,0:0:0:0:
335,248,229607,6,0,P|370:213|383:108,2,150,2|10|2,1:0|0:0|1:0,0:0:0:0:
261,287,230339,1,0,0:0:0:0:
194,238,230485,2,0,P|188:200|188:163,1,75,10|0,0:0|0:0,0:0:0:0:
215,85,230778,5,2,1:0:0:0:
215,85,230924,1,0,0:0:0:0:
154,28,231070,2,0,L|72:19,1,75,10|0,0:0|0:0,0:0:0:0:
18,75,231363,1,2,1:0:0:0:
36,155,231509,2,0,P|30:192|29:229,1,75,0|10,0:0|0:0,0:0:0:0:
90,286,231802,1,8,0:0:0:0:
160,242,231948,6,0,B|219:238|219:238|254:252|254:252|317:247,1,150,2|10,1:0|0:0,0:0:0:0:
430,98,232534,2,0,P|392:95|355:89,1,75,2|0,1:0|0:0,0:0:0:0:
276,49,232826,2,0,L|270:150,1,75,10|0,0:0|0:0,0:0:0:0:
184,169,233119,6,0,L|177:20,1,150,2|10,1:0|0:0,0:0:0:0:
98,47,233558,2,0,P|61:54|24:59,1,75,0|2,0:0|1:0,0:0:0:0:
0,141,233851,1,0,0:0:0:0:
80,156,233997,2,0,P|82:193|82:230,1,75,10|0,0:0|0:0,0:0:0:0:
144,283,234290,6,0,P|218:278|267:224,1,150,2|10,1:0|0:0,0:0:0:0:
291,145,234729,1,0,0:0:0:0:
372,136,234875,2,0,P|379:172|382:210,1,75,2|0,1:0|0:0,0:0:0:0:
356,288,235168,1,10,0:0:0:0:
216,152,235461,6,0,L|298:144,1,75,2|0,1:0|0:0,0:0:0:0:
330,32,235753,2,0,B|256:19|256:19|203:64|203:64|123:50,1,225,12|8,0:1|0:3,0:0:0:0:
63,107,236339,1,8,0:3:0:0:
63,107,236412,1,4,0:3:0:0:
63,107,236485,1,4,0:3:0:0:
76,188,236631,6,0,P|45:248|56:334,2,150,6|10|2,3:2|0:0|1:0,0:0:0:0:
155,213,237363,2,0,P|203:207|244:190,1,75,0|10,0:0|0:0,0:0:0:0:
285,139,237656,1,0,0:0:0:0:
355,181,237802,6,0,B|432:173|422:220|498:214,1,150,2|10,1:0|0:0,0:0:0:0:
510,296,238241,1,0,0:0:0:0:
441,341,238387,2,0,P|404:333|370:317,1,75,2|0,1:0|0:0,0:0:0:0:
288,301,238680,2,0,P|251:306|215:319,1,75,10|0,0:0|0:0,0:0:0:0:
133,330,238973,6,0,P|105:286|112:185,1,150,2|10,1:0|0:0,0:0:0:0:
240,40,239558,2,0,P|247:77|248:115,1,75,2|0,1:0|0:0,0:0:0:0:
213,190,239851,2,0,L|302:200,1,75,10|0,0:0|0:0,0:0:0:0:
364,169,240143,5,2,1:0:0:0:
426,223,240290,1,0,0:0:0:0:
400,301,240436,1,10,0:0:0:0:
400,301,240583,2,0,P|326:294|257:330,1,150,0|0,0:0|0:0,0:0:0:0:
181,353,241022,2,0,P|169:299|173:255,1,75,10|0,0:0|0:0,0:0:0:0:
197,202,241314,6,0,B|129:188|122:230|48:214,2,150,6|10|2,1:0|0:0|1:0,0:0:0:0:
271,237,242046,1,0,0:0:0:0:
340,192,242192,2,0,P|349:144|349:112,1,75,10|0,0:0|0:0,0:0:0:0:
220,12,242485,6,0,P|211:60|211:92,1,75,2|0,1:0|0:0,0:0:0:0:
261,151,242778,1,10,0:0:0:0:
197,203,242924,2,0,P|137:208|66:137,1,150,0|0,0:0|0:0,0:0:0:0:
16,214,243363,2,0,P|26:249|32:287,1,75,10|0,0:0|0:0,0:0:0:0:
91,344,243656,5,2,1:0:0:0:
162,303,243802,2,0,L|245:309,1,75,0|10,0:0|0:0,0:0:0:0:
305,262,244095,1,0,0:0:0:0:
265,189,244241,2,0,L|260:91,1,75,2|0,1:0|0:0,0:0:0:0:
310,47,244534,1,10,0:0:0:0:
96,47,244826,6,0,L|99:121,1,75,2|0,1:0|0:0,0:0:0:0:
54,191,245119,1,10,0:0:0:0:
116,244,245265,2,0,P|164:246|278:293,1,150,0|8,0:0|0:3,0:0:0:0:
340,263,245704,1,4,0:3:0:0:
340,263,245851,1,4,0:3:0:0:
324,182,245997,6,0,P|334:142|330:59,2,120,4|8|0,1:2|0:0|0:0,0:0:0:0:
340,263,246729,2,0,L|399:270,1,60,0|0,1:0|0:0,0:0:0:0:
257,284,247022,6,0,P|197:285|138:297,1,120,8|0,0:0|1:0,0:0:0:0:
75,241,247461,2,0,L|54:160,1,60,8|2,0:0|0:1,0:0:0:0:
143,188,247753,2,0,L|150:120,1,60,2|0,0:1|1:0,0:0:0:0:
160,123,247973,1,0,1:0:0:0:
170,117,248046,1,8,0:0:0:0:
242,159,248192,1,0,0:0:0:0:
325,145,248339,6,0,P|384:140|445:129,2,120,0|0|0,1:2|0:0|0:0,0:0:0:0:
299,224,249070,2,0,L|303:291,1,60,0|0,1:0|0:0,0:0:0:0:
202,298,249363,6,0,L|211:178,1,120,8|0,0:0|1:0,0:0:0:0:
172,103,249802,1,8,0:0:0:0:
236,49,249948,1,2,0:1:0:0:
305,96,250095,2,0,L|388:89,1,60,2|0,0:1|0:0,0:0:0:0:
359,101,250314,1,0,1:0:0:0:
354,112,250387,1,8,0:0:0:0:
459,216,250680,6,0,L|473:77,2,120,0|8|0,1:2|0:0|0:0,0:0:0:0:
409,284,251412,2,0,L|417:343,1,60,0|0,1:0|0:0,0:0:0:0:
352,219,251704,6,0,P|291:221|238:255,1,120,8|0,0:0|1:0,0:0:0:0:
180,307,252143,1,8,0:0:0:0:
106,266,252290,2,0,P|98:211|101:190,1,60,2|2,0:1|0:1,0:0:0:0:
111,123,252583,1,0,1:0:0:0:
111,123,252656,1,0,1:0:0:0:
111,123,252729,1,8,0:0:0:0:
278,40,253022,6,0,P|300:110|294:176,2,120,0|0|0,1:2|0:0|0:0,0:0:0:0:
379,58,253753,2,0,L|439:64,1,60,0|0,1:0|0:0,0:0:0:0:
497,125,254046,2,0,P|493:155|486:185,1,60,10|8,0:1|0:3,0:0:0:0:
419,250,254339,2,0,L|423:313,3,37.5,8|8|4|4,0:3|0:3|0:3|0:3,0:0:0:0:
424,315,254631,1,4,3:1:0:0:
