osu file format v14

[General]
AudioFilename: audio.mp3
AudioLeadIn: 0
PreviewTime: 77083
Countdown: 0
SampleSet: Soft
StackLeniency: 0.2
Mode: 0
LetterboxInBreaks: 0
WidescreenStoryboard: 0

[Editor]
DistanceSpacing: 1.9
BeatDivisor: 4
GridSize: 4
TimelineZoom: 3.099999

[Metadata]
Title:Kairikou
TitleUnicode:乖離光
Artist:Feryquitous feat. Aitsuki Nakuru
ArtistUnicode:Feryquitous feat. 藍月なくる
Creator:Ryuusei Aika
Version:Extra
Source:
Tags:フェリキタス soleil de minuit Pino -[Pino]- Hailie Kibbleru den0saur Dynamix DJmax Parad_X wothe Suzuki_1112 1112deng Miura Skystar Amamiya Yuko
BeatmapID:1562891
BeatmapSetID:740862

[Difficulty]
HPDrainRate:5.4
CircleSize:4
OverallDifficulty:8.4
ApproachRate:9.4
SliderMultiplier:2.16
SliderTickRate:1

[Events]
//Background and Video events
0,0,"BG.jpg",0,0
//Break Periods
//Storyboard Layer 0 (Background)
//Storyboard Layer 1 (Fail)
//Storyboard Layer 2 (Pass)
//Storyboard Layer 3 (Foreground)
//Storyboard Sound Samples

[TimingPoints]
144,292.682926829268,4,2,1,50,1,0
144,-166.666666666667,4,2,1,50,0,0
2485,-125,4,2,1,50,0,0
6875,-125,4,2,1,50,0,0
7168,-125,4,2,1,60,0,0
21217,-100,4,2,1,70,0,0
38778,-166.666666666667,4,2,1,70,0,0
39656,-55.5555555555556,4,2,1,70,0,0
39948,-125,4,2,1,50,0,0
41851,-83.3333333333333,4,2,1,40,0,0
42290,-125,4,2,1,40,0,0
44339,-125,4,2,1,70,0,0
44631,-125,4,2,1,50,0,0
49314,-100,4,2,1,70,0,0
58534,-166.666666666667,4,2,1,70,0,0
58680,-125,4,2,1,70,0,0
76241,-166.666666666667,4,2,1,70,0,0
77412,-83.3333333333333,4,2,1,70,0,1
77704,-62.5,4,2,1,70,0,1
77997,-60.6060606060606,4,2,1,70,0,1
78290,-58.8235294117647,4,2,1,70,0,1
78583,-83.3333333333333,4,2,1,70,0,1
79753,-71.4285714285714,4,2,1,70,0,1
80339,-66.6666666666667,4,2,1,70,0,1
80924,-64.1025641025641,4,2,1,70,0,1
81509,-62.5,4,2,1,70,0,1
82095,-83.3333333333333,4,2,1,70,0,1
85461,-83.3333333333333,4,2,1,70,0,0
85607,-50,4,2,1,70,0,1
85643,-50,4,2,1,70,0,0
85900,-125,4,2,1,70,0,0
86778,-83.3333333333333,4,2,1,70,0,1
87070,-62.5,4,2,1,70,0,1
87948,-71.4285714285714,4,2,1,70,0,1
88534,-66.6666666666667,4,2,1,70,0,1
89119,-71.4285714285714,4,2,1,70,0,1
89704,-66.6666666666667,4,2,1,70,0,1
90290,-62.111801242236,4,2,1,70,0,1
91461,-83.3333333333333,4,2,1,70,0,1
96143,-100,4,2,1,70,0,0
104339,-50,4,2,1,70,0,1
104375,-50,4,2,1,70,0,0
104631,-125,4,2,1,70,0,0
105509,-100,4,2,1,70,0,0
113997,-100,4,2,1,70,0,1
114034,-100,4,2,1,70,0,0
114436,-100,4,2,1,70,0,1
114473,-100,4,2,1,70,0,0
114583,-100,4,2,1,70,0,1
114619,-100,4,2,1,70,0,0
114729,-100,4,2,1,70,0,1
114765,-100,4,2,1,70,0,0
114875,-125,4,2,1,70,0,1
114912,-125,4,2,1,70,0,0
114948,-125,4,2,0,50,0,0
119558,-125,4,2,1,50,0,0
122924,-62.5,4,2,1,50,0,0
123509,-125,4,2,1,50,0,0
124241,-125,4,2,1,70,0,0
132509,-62.5,4,2,1,70,0,0
133314,-125,4,2,1,70,0,0
133607,-100,4,2,1,70,0,0
152339,-117.647058823529,4,2,1,70,0,0
157022,-125,4,2,1,70,0,0
188631,-57.1428571428571,4,2,1,70,0,0
189070,-125,4,2,1,70,0,0
189509,-166.666666666667,4,2,1,70,0,0
189802,-83.3333333333333,4,2,1,70,0,1
190095,-62.5,4,2,1,70,0,1
190387,-60.6060606060606,4,2,1,70,0,1
190680,-58.8235294117647,4,2,1,70,0,1
190973,-83.3333333333333,4,2,1,70,0,1
192143,-71.4285714285714,4,2,1,70,0,1
192729,-66.6666666666667,4,2,1,70,0,1
193314,-64.5161290322581,4,2,1,70,0,1
193900,-62.5,4,2,1,70,0,1
194485,-83.3333333333333,4,2,1,70,0,1
197851,-83.3333333333333,4,2,1,70,0,0
197997,-50,4,2,1,70,0,1
198034,-50,4,2,1,70,0,0
198290,-125,4,2,1,70,0,0
199168,-83.3333333333333,4,2,1,70,0,1
199461,-62.5,4,2,1,70,0,1
200339,-71.4285714285714,4,2,1,70,0,1
200924,-66.6666666666667,4,2,1,70,0,1
201509,-71.4285714285714,4,2,1,70,0,1
202095,-66.6666666666667,4,2,1,70,0,1
202680,-62.5,4,2,1,70,0,1
203851,-83.3333333333333,4,2,1,70,0,1
207363,-62.5,4,2,1,70,0,0
208095,-50,4,2,1,70,0,1
208131,-50,4,2,1,70,0,0
208241,-50,4,2,1,70,0,1
208278,-50,4,2,1,70,0,0
208387,-50,4,2,1,70,0,1
208424,-50,4,2,1,70,0,0
208534,-50,4,2,1,70,0,1
208570,-125,4,2,1,70,0,0
208826,-125,4,2,1,70,0,1
210180,-125,4,2,1,5,0,1
210290,-125,4,2,1,70,0,0
210729,-83.3333333333333,4,2,1,70,0,1
211461,-71.4285714285714,4,2,1,70,0,1
212046,-66.6666666666667,4,2,1,70,0,1
212631,-62.111801242236,4,2,1,70,0,1
213217,-83.3333333333333,4,2,1,70,0,1
216583,-83.3333333333333,4,2,1,70,0,0
216729,-50,4,2,1,70,0,1
216765,-50,4,2,1,70,0,0
217022,-125,4,2,1,70,0,0
217900,-83.3333333333333,4,2,1,70,0,1
218192,-62.5,4,2,1,70,0,1
219070,-71.4285714285714,4,2,1,70,0,1
219656,-66.6666666666667,4,2,1,70,0,1
220241,-71.4285714285714,4,2,1,70,0,1
220826,-66.6666666666667,4,2,1,70,0,1
221412,-59.5238095238095,4,2,1,70,0,1
222583,-83.3333333333333,4,2,1,70,0,1
226095,-125,4,2,1,70,0,0
226680,-185.185185185185,4,2,1,70,0,0
227265,-80,4,2,1,70,0,1
230192,-83.3333333333333,4,2,1,70,0,0
231948,-76.9230769230769,4,2,1,70,0,1
233704,-83.3333333333333,4,2,1,70,0,0
235461,-50,4,2,1,70,0,1
235497,-50,4,2,1,70,0,0
235753,-125,4,2,1,70,0,0
236631,-100,4,2,1,70,0,0
245704,-100,4,2,1,70,0,1
245741,-100,4,2,1,70,0,0
245851,-100,4,2,1,70,0,1
245887,-100,4,2,1,70,0,0
245997,-125,4,2,1,60,0,1
246034,-125,4,2,1,60,0,0
253314,-250,4,2,1,60,0,0
254046,-125,4,2,1,60,0,0

[Colours]
Combo1 : 71,88,90
Combo2 : 183,193,193
Combo3 : 89,116,133
Combo4 : 122,185,194

[HitObjects]
446,298,144,6,0,L|373:297,1,64.799998022461,2|0,1:0|0:0,0:0:0:0:
330,238,363,1,0,0:0:0:0:
330,237,436,2,0,P|326:173|336:109,1,129.599996044922,2|2,1:0|1:0,0:0:0:0:
388,50,875,1,0,0:0:0:0:
413,124,1022,1,2,1:0:0:0:
124,50,1314,5,2,1:0:0:0:
183,117,1461,1,8,0:3:0:0:
183,117,1534,1,8,0:3:0:0:
183,117,1607,2,0,P|185:133|184:149,1,32.3999990112305,4|4,0:3|0:3,0:0:0:0:
182,237,1753,2,0,L|255:236,1,64.799998022461,2|0,1:3|0:0,0:0:0:0:
130,297,2046,2,0,L|66:298,1,64.799998022461,2|0,1:3|0:0,0:0:0:0:
256,36,2485,6,0,P|312:29|361:86,1,129.6,2|0,3:1|0:0,0:0:0:0:
439,97,2778,1,2,1:0:0:0:
439,97,2924,1,0,0:0:0:0:
439,97,3070,1,2,1:0:0:0:
439,97,3217,1,0,0:0:0:0:
439,97,3363,1,2,1:0:0:0:
383,156,3509,6,0,P|369:219|376:283,1,129.6,0|0,0:0|0:0,0:0:0:0:
434,338,3802,1,0,0:0:0:0:
434,338,3948,1,2,1:0:0:0:
318,227,4095,1,0,0:0:0:0:
453,261,4241,1,2,1:0:0:0:
299,305,4387,1,0,0:0:0:0:
299,305,4534,1,2,1:0:0:0:
299,305,4680,1,0,0:0:0:0:
318,227,4826,5,2,1:0:0:0:
201,335,4973,1,0,0:0:0:0:
166,180,5119,1,2,1:0:0:0:
166,180,5265,1,0,0:0:0:0:
166,180,5412,1,2,1:0:0:0:
166,180,5558,1,0,0:0:0:0:
166,180,5704,1,2,1:0:0:0:
49,286,5851,6,0,P|56:222|42:159,1,129.6
42,84,6143,1,0,0:0:0:0:
107,122,6290,1,2,1:0:0:0:
42,160,6436,1,0,0:0:0:0:
107,47,6583,1,2,1:0:0:0:
107,47,6729,1,0,0:0:0:0:
107,47,6875,2,0,P|139:50|171:43,1,43.2,10|0,0:1|0:0,0:0:0:0:
228,111,7022,2,0,P|195:114|164:107,1,43.2,8|0,0:0|0:0,0:0:0:0:
263,46,7168,5,2,1:0:0:0:
341,172,7314,1,0,0:0:0:0:
412,42,7461,1,10,0:1:0:0:
412,42,7607,1,0,0:0:0:0:
412,42,7753,1,2,0:1:0:0:
412,42,7900,1,0,0:0:0:0:
412,42,8046,1,2,1:0:0:0:
341,172,8192,6,0,P|327:235|334:299,1,129.6,8|0,0:0|0:0,0:0:0:0:
413,351,8485,1,0,1:0:0:0:
334,299,8631,2,0,P|312:297|291:300,1,43.2,10|0,0:1|0:0,0:0:0:0:
413,351,8778,1,0,0:0:0:0:
405,240,8924,1,2,0:1:0:0:
493,294,9070,1,8,0:3:0:0:
491,272,9143,1,8,0:3:0:0:
490,250,9217,2,0,L|486:205,1,43.2,10|0,1:0|0:0,0:0:0:0:
499,118,9363,1,0,0:0:0:0:
448,51,9509,6,0,P|385:37|321:44,1,129.6,2|0,1:0|0:0,0:0:0:0:
247,112,9802,1,10,0:1:0:0:
247,112,9948,1,0,0:0:0:0:
247,112,10095,1,2,0:1:0:0:
247,112,10241,1,0,0:0:0:0:
247,112,10387,1,2,1:0:0:0:
337,176,10534,6,0,P|323:206|301:229,1,43.2,8|0,0:0|0:0,0:0:0:0:
227,277,10680,1,2,0:1:0:0:
227,277,10826,1,0,0:0:0:0:
227,277,10973,1,2,1:0:0:0:
138,340,11119,6,0,P|105:342|74:335,1,43.2,8|0,0:0|0:0,0:0:0:0:
17,276,11265,2,0,P|49:279|81:272,1,43.2,2|0,1:0|0:0,0:0:0:0:
123,241,11412,1,0,1:0:0:0:
125,219,11485,1,0,1:0:0:0:
126,197,11558,2,0,L|130:152,1,43.2,10|0,0:1|0:0,0:0:0:0:
74,82,11704,1,8,0:0:0:0:
205,72,11851,6,0,L|160:68,1,43.2,4|0,1:2|0:0,0:0:0:0:
303,147,11997,2,0,L|258:143,1,43.2,0|0,0:0|0:0,0:0:0:0:
378,65,12143,2,0,L|333:61,1,43.2,8|0,0:0|0:0,0:0:0:0:
291,57,12290,1,0,0:0:0:0:
303,147,12436,1,0,0:0:0:0:
315,237,12583,1,0,1:0:0:0:
327,327,12729,1,0,0:0:0:0:
444,244,12875,6,0,P|422:268|395:285,1,43.2,8|0,0:0|0:0,0:0:0:0:
255,382,13022,1,0,0:0:0:0:
243,292,13168,1,0,1:0:0:0:
231,202,13314,2,0,P|214:188|200:172,1,43.2,8|0,0:0|0:0,0:0:0:0:
187,85,13461,1,2,0:1:0:0:
187,86,13607,1,2,0:1:0:0:
187,86,13753,1,0,1:0:0:0:
165,88,13826,1,0,1:0:0:0:
143,89,13900,2,0,L|99:92,1,43.2,8|0,0:0|0:0,0:0:0:0:
29,37,14046,1,0,0:0:0:0:
93,219,14192,6,0,P|107:156|99:91,1,129.6,0|0,1:2|0:0,0:0:0:0:
17,125,14485,2,0,P|15:146|16:167,1,43.2,8|0,0:0|0:0,0:0:0:0:
93,219,14631,1,0,0:0:0:0:
117,298,14778,1,0,0:0:0:0:
196,274,14924,1,0,1:0:0:0:
220,353,15070,1,0,0:0:0:0:
235,191,15217,6,0,P|213:189|192:190,1,43.2,8|0,0:0|0:0,0:0:0:0:
318,150,15363,1,0,0:0:0:0:
311,242,15509,1,0,1:0:0:0:
311,242,15656,1,8,0:0:0:0:
437,202,15802,2,0,P|415:200|394:201,1,43.2,2|0,0:1|0:0,0:0:0:0:
387,292,15948,1,2,0:1:0:0:
385,314,16022,1,0,0:0:0:0:
384,336,16095,2,0,L|381:380,1,43.2,0|0,1:0|0:0,0:0:0:0:
461,363,16241,2,0,L|464:319,1,43.2,8|0,0:0|0:0,0:0:0:0:
508,247,16387,1,0,0:0:0:0:
443,75,16534,6,0,P|429:138|437:202,1,129.6,0|0,1:2|0:0,0:0:0:0:
512,166,16826,2,0,P|514:144|513:124,1,43.2,8|0,0:0|0:0,0:0:0:0:
443,75,16973,1,0,0:0:0:0:
351,122,17119,1,0,0:0:0:0:
259,75,17265,1,0,1:0:0:0:
167,122,17412,1,0,0:0:0:0:
75,75,17558,6,0,P|76:53|75:31,1,43.2,8|0,0:0|0:0,0:0:0:0:
5,143,17704,1,0,0:0:0:0:
94,213,17851,1,0,1:0:0:0:
75,31,17997,2,0,P|74:53|75:75,1,43.2,8|0,0:0|0:0,0:0:0:0:
178,183,18143,1,2,0:1:0:0:
178,183,18290,1,2,0:1:0:0:
178,183,18436,1,0,1:0:0:0:
176,204,18509,1,0,1:0:0:0:
175,226,18583,2,0,L|172:270,1,43.2,8|0,0:0|0:0,0:0:0:0:
115,346,18729,1,0,0:0:0:0:
202,352,18875,6,0,L|116:347,1,86.4,0|0,1:2|0:0,0:0:0:0:
259,284,19168,1,8,0:0:0:0:
317,195,19314,1,0,0:0:0:0:
374,106,19461,1,0,0:0:0:0:
317,195,19607,1,0,1:0:0:0:
259,284,19753,1,0,0:0:0:0:
433,16,19900,1,10,0:1:0:0:
433,16,20485,6,0,P|443:98|431:187,1,172.8,2|2,1:3|1:3,0:0:0:0:
378,247,20924,1,0,0:0:0:0:
378,247,21070,1,0,0:0:0:0:
317,194,21217,6,0,P|240:203|169:249,1,162,6|0,1:2|0:0,0:0:0:0:
49,148,21509,2,0,P|121:184|170:249,1,162,10|0,0:0|0:0,0:0:0:0:
154,331,21802,1,2,1:0:0:0:
150,352,21948,1,0,0:0:0:0:
190,123,22095,2,0,L|200:70,1,54,10|0,0:0|0:0,0:0:0:0:
154,4,22241,1,0,0:0:0:0:
265,23,22387,5,2,1:0:0:0:
286,27,22534,1,0,0:0:0:0:
121,77,22680,2,0,L|68:67,1,54,10|0,0:0|0:0,0:0:0:0:
21,1,22826,1,0,0:0:0:0:
75,146,22973,1,2,1:0:0:0:
71,167,23119,1,0,0:0:0:0:
254,188,23265,2,0,L|307:198,1,54,10|0,0:0|0:0,0:0:0:0:
354,264,23412,1,0,0:0:0:0:
439,132,23558,6,0,P|391:205|401:331,2,216,2|10|2,1:2|0:0|1:0,0:0:0:0:
505,85,24290,1,0,0:0:0:0:
473,255,24436,2,0,L|420:245,1,54,10|0,0:0|0:0,0:0:0:0:
337,272,24583,1,0,0:0:0:0:
320,357,24729,5,2,1:0:0:0:
420,245,24875,1,0,0:0:0:0:
272,215,25022,2,0,L|219:205,1,54,10|0,0:0|0:0,0:0:0:0:
136,232,25168,1,0,0:0:0:0:
119,317,25314,1,2,1:0:0:0:
219,205,25461,1,0,0:0:0:0:
71,175,25607,2,0,L|18:165,2,54,10|0|0,0:0|0:0|0:0,0:0:0:0:
343,88,25900,6,0,P|352:165|398:236,1,162,6|0,1:0|0:0,0:0:0:0:
297,356,26192,2,0,P|333:284|398:235,1,162,10|0,0:0|0:0,0:0:0:0:
480,251,26485,1,2,1:0:0:0:
501,255,26631,1,0,0:0:0:0:
272,215,26778,2,0,L|219:205,1,54,10|0,0:0|0:0,0:0:0:0:
153,251,26924,1,0,0:0:0:0:
196,337,27070,5,2,1:0:0:0:
200,316,27217,1,0,0:0:0:0:
100,241,27363,2,0,L|153:251,1,54,10|0,0:0|0:0,0:0:0:0:
200,316,27509,1,0,0:0:0:0:
176,119,27656,1,2,1:0:0:0:
172,140,27802,1,0,0:0:0:0:
272,215,27948,2,0,L|219:205,1,54,10|0,0:0|0:0,0:0:0:0:
172,140,28095,1,0,0:0:0:0:
286,86,28241,6,0,P|180:99|88:47,2,216,2|10|2,1:2|0:0|1:0,0:0:0:0:
405,34,28973,1,0,0:0:0:0:
391,163,29119,2,0,L|385:218,1,54,10|0,0:0|0:0,0:0:0:0:
435,280,29265,1,0,0:0:0:0:
455,113,29412,5,2,1:0:0:0:
459,92,29558,1,0,0:0:0:0:
321,266,29704,5,10,0:0:0:0:
305,350,29851,1,0,0:0:0:0:
207,252,29997,5,8,0:3:0:0:
230,132,30143,1,8,0:3:0:0:
253,12,30290,5,4,0:3:0:0:
257,33,30436,1,4,0:3:0:0:
261,54,30583,6,0,L|99:39,1,162,6|0,1:2|0:0,0:0:0:0:
261,210,30875,2,0,L|99:224,1,162,10|0,0:0|0:0,0:0:0:0:
68,132,31168,1,2,1:0:0:0:
45,132,31314,1,0,0:0:0:0:
153,132,31461,2,0,L|207:132,1,54,10|0,0:0|0:0,0:0:0:0:
287,132,31607,1,0,0:0:0:0:
384,32,31753,5,2,1:0:0:0:
384,55,31900,1,0,0:0:0:0:
384,195,32046,2,0,P|389:221|399:246,1,54,10|0,0:0|0:0,0:0:0:0:
439,316,32192,1,0,0:0:0:0:
496,230,32339,1,2,1:0:0:0:
479,246,32485,1,0,0:0:0:0:
359,316,32631,2,0,P|334:326|307:331,1,54,10|0,0:0|0:0,0:0:0:0:
238,292,32778,1,0,0:0:0:0:
199,145,32924,6,0,P|223:249|180:345,2,216,2|10|2,1:2|0:0|1:0,0:0:0:0:
146,54,33656,1,0,0:0:0:0:
117,238,33802,2,0,P|142:249|169:254,1,54,10|0,0:0|0:0,0:0:0:0:
238,214,33948,1,0,0:0:0:0:
146,54,34095,5,2,1:0:0:0:
146,32,34241,1,0,0:0:0:0:
55,107,34387,2,0,P|79:117|106:122,1,54,10|0,0:0|0:0,0:0:0:0:
185,123,34534,1,0,0:0:0:0:
276,70,34680,1,2,1:0:0:0:
276,48,34826,1,0,0:0:0:0:
185,123,34973,2,0,P|209:133|236:138,2,54,10|0|0,0:0|0:0|0:0,0:0:0:0:
276,70,35265,6,0,P|382:57|474:109,2,216,6|10|2,1:0|0:0|1:0,0:0:0:0:
236,138,35997,1,0,0:0:0:0:
371,156,36143,2,0,P|380:131|385:103,1,54,10|0,0:0|0:0,0:0:0:0:
390,16,36290,1,0,0:0:0:0:
236,138,36436,6,0,P|237:244|301:328,2,216,2|10|2,1:0|0:0|1:0,0:0:0:0:
276,70,37168,1,0,0:0:0:0:
454,156,37314,2,0,P|455:129|452:101,1,54,10|0,0:0|0:0,0:0:0:0:
435,27,37461,1,0,0:0:0:0:
197,70,37607,6,0,L|35:55,1,162,2|0,1:2|0:0,0:0:0:0:
196,207,37900,2,0,L|34:222,1,162,10|0,0:0|0:0,0:0:0:0:
55,138,38192,5,2,1:0:0:0:
118,254,38339,1,0,0:0:0:0:
100,384,38485,5,10,0:0:0:0:
89,364,38631,1,0,0:0:0:0:
78,344,38778,5,0,0:0:0:0:
118,254,38924,1,2,0:3:0:0:
208,294,39070,1,0,0:0:0:0:
168,384,39217,1,2,0:3:0:0:
78,344,39363,5,0,0:0:0:0:
198,197,39509,1,2,0:3:0:0:
266,375,39656,2,0,B|286:375|286:375|296:356,6,32.3999990112305,0|0|0|0|0|0|0,3:0|0:0|0:0|0:0|0:0|0:0|0:0,0:0:0:0:
164,108,39948,5,6,0:0:0:0:
198,197,40241,1,0,0:0:0:0:
109,231,40534,1,0,0:0:0:0:
75,142,40826,1,0,0:0:0:0:
198,197,41119,6,0,P|219:204|237:214,1,43.2,0|0,0:0|0:0,0:0:0:0:
75,142,41265,2,0,P|54:135|35:124,1,43.2,0|0,0:0|0:0,0:0:0:0:
109,231,41412,2,0,P|102:252|91:270,1,43.2,0|0,0:0|0:0,0:0:0:0:
164,108,41558,2,0,P|171:87|181:68,2,43.2,0|0|0,0:0|0:0|0:0,0:0:0:0:
198,197,41851,6,0,L|326:183,1,129.599996044922,0|0,0:0|0:0,0:0:0:0:
399,243,42143,1,0,0:0:0:0:
387,110,42290,5,0,0:0:0:0:
327,183,42583,1,0,0:0:0:0:
460,170,42875,1,0,0:0:0:0:
399,243,43168,1,0,0:0:0:0:
387,109,43461,6,0,P|388:87|393:67,2,43.2,0|0|0,0:0|0:0|0:0,0:0:0:0:
460,170,43753,2,0,P|482:171|502:176,1,43.2,0|0,0:0|0:0,0:0:0:0:
327,182,43900,2,0,P|254:159|291:93,1,172.8,0|0,0:0|0:0,0:0:0:0:
399,243,44339,2,0,P|398:265|393:285,1,43.2,8|0,0:0|0:0,0:0:0:0:
331,358,44485,2,0,P|309:357|289:352,1,43.2,8|0,0:0|0:0,0:0:0:0:
216,290,44631,5,0,3:0:0:0:
144,229,44924,1,8,0:1:0:0:
128,322,45217,1,0,0:1:0:0:
216,290,45509,5,0,1:0:0:0:
144,229,45656,2,0,L|128:186,1,43.2,8|0,0:0|0:0,0:0:0:0:
128,322,45802,1,0,0:1:0:0:
200,382,45948,5,0,1:0:0:0:
232,196,46095,2,0,L|272:148,1,43.2,8|0,0:1|0:0,0:0:0:0:
56,261,46241,1,2,0:0:0:0:
216,290,46387,6,0,P|238:291|258:296,1,43.2,2|0,0:1|0:0,0:0:0:0:
128,322,46534,2,0,P|116:340|101:355,1,43.2,8|0,0:3|0:0,0:0:0:0:
144,229,46680,2,0,P|133:209|128:189,1,43.2,10|0,1:0|0:0,0:0:0:0:
144,96,46826,6,0,L|46:106,1,86.4,0|0,0:0|1:0,0:0:0:0:
205,24,47119,2,0,L|290:15,1,86.4,0|8,0:0|0:1,0:0:0:0:
321,103,47412,2,0,L|223:113,1,86.4,0|0,0:0|0:1,0:0:0:0:
382,31,47704,2,0,L|467:22,1,86.4,0|0,0:0|1:0,0:0:0:0:
413,119,47997,1,8,0:0:0:0:
345,233,48143,6,0,P|345:210|351:190,1,43.2,10|0,0:0|0:0,0:0:0:0:
413,119,48290,1,0,0:0:0:0:
351,190,48436,2,0,P|331:201|310:205,1,43.2,10|0,0:0|0:0,0:0:0:0:
219,187,48583,2,0,P|199:175|185:160,1,43.2,10|0,0:0|0:0,0:0:0:0:
176,73,48729,1,2,0:0:0:0:
176,73,48875,1,8,0:3:0:0:
155,71,48948,1,8,0:3:0:0:
133,70,49022,2,0,L|89:67,2,43.2,4|0|4,0:3|0:0|0:3,0:0:0:0:
230,5,49314,6,0,L|362:14,1,108,6|0,1:0|0:0,0:0:0:0:
403,65,49607,2,0,P|408:95|402:125,1,54,10|0,0:0|0:0,0:0:0:0:
309,310,49753,2,0,L|324:75,1,216,0|0,0:0|0:0,0:0:0:0:
385,345,50192,2,0,P|367:369|341:386,1,54,10|0,0:0|0:0,0:0:0:0:
241,359,50339,1,0,0:0:0:0:
429,210,50485,5,2,1:0:0:0:
455,211,50631,1,0,0:0:0:0:
228,196,50778,2,0,L|175:193,1,54,10|0,0:0|0:0,0:0:0:0:
117,131,50924,2,0,P|113:70|122:10,1,108,0|2,0:0|1:0,0:0:0:0:
29,153,51217,1,0,0:0:0:0:
174,192,51363,2,0,P|176:218|172:245,1,54,10|0,0:0|0:0,0:0:0:0:
109,303,51509,1,0,0:0:0:0:
29,246,51656,5,2,1:0:0:0:
51,241,51802,1,0,0:0:0:0:
171,245,51948,2,0,P|196:249|221:260,1,54,10|0,0:0|0:0,0:0:0:0:
261,336,52095,1,0,0:0:0:0:
298,221,52241,1,2,1:0:0:0:
304,199,52387,1,0,0:0:0:0:
388,312,52534,2,0,P|362:307|337:296,1,54,10|0,0:0|0:0,0:0:0:0:
298,221,52680,1,0,0:0:0:0:
261,336,52826,5,2,1:0:0:0:
255,358,52973,1,0,0:0:0:0:
298,221,53119,2,0,L|315:167,1,54,10|0,0:0|0:0,0:0:0:0:
340,92,53265,1,0,0:0:0:0:
414,160,53412,1,2,1:0:0:0:
394,154,53558,1,0,0:0:0:0:
260,107,53704,2,0,L|206:89,2,54,10|0|0,0:0|0:0|0:0,0:0:0:0:
352,283,53997,6,0,P|403:295|454:277,1,108,2|0,1:0|0:0,0:0:0:0:
505,141,54290,2,0,P|499:168|489:193,1,54,10|0,0:0|0:0,0:0:0:0:
454,277,54436,1,0,0:0:0:0:
459,298,54583,1,2,1:0:0:0:
399,205,54729,1,0,0:0:0:0:
393,94,54875,2,0,P|399:67|409:42,1,54,10|0,0:0|0:0,0:0:0:0:
493,7,55022,1,0,0:0:0:0:
499,29,55095,1,0,0:0:0:0:
496,51,55168,5,2,1:0:0:0:
473,145,55314,1,0,0:0:0:0:
318,153,55461,2,0,L|247:156,1,54,10|0,0:0|0:0,0:0:0:0:
203,208,55607,2,0,P|215:157|197:106,1,108,0|2,0:0|1:0,0:0:0:0:
128,55,55900,1,0,0:0:0:0:
106,57,55973,1,0,0:0:0:0:
84,58,56046,2,0,L|26:61,1,54,10|0,0:0|0:0,0:0:0:0:
0,150,56192,1,0,0:0:0:0:
57,229,56339,5,2,1:0:0:0:
139,281,56485,1,0,0:0:0:0:
203,208,56631,2,0,L|256:203,1,54,10|0,0:0|0:0,0:0:0:0:
320,130,56778,1,0,0:0:0:0:
372,48,56924,1,2,1:0:0:0:
320,130,57070,1,0,0:0:0:0:
393,194,57217,2,0,L|397:247,1,54,10|0,0:0|0:0,0:0:0:0:
471,311,57363,1,0,0:0:0:0:
379,344,57509,6,0,P|328:332|277:350,2,108,2|0|10,1:0|0:0|0:0,0:0:0:0:
276,350,57948,2,0,P|172:373|71:337,1,216,2|2,1:3|1:3,0:0:0:0:
72,338,58534,2,0,L|68:370,1,32.3999990112305,0|0,0:0|0:0,0:0:0:0:
145,274,58680,6,0,P|158:188|153:102,1,172.8,4|0,1:2|0:0,0:0:0:0:
16,93,59265,2,0,P|2:178|7:264,1,172.8,8|0,0:0|0:0,0:0:0:0:
191,190,59851,2,0,P|277:203|363:198,1,172.8,0|2,1:0|0:3,0:0:0:0:
372,60,60436,2,0,P|287:46|201:51,1,172.8,8|0,0:0|0:0,0:0:0:0:
427,305,61022,6,0,P|440:219|435:133,1,172.8,0|0,1:0|0:0,0:0:0:0:
298,124,61607,2,0,P|284:209|289:295,1,172.8,8|0,0:0|0:0,0:0:0:0:
289,295,62192,2,0,L|382:300,1,86.4,0|0,1:0|0:0,0:0:0:0:
252,208,62485,2,0,L|165:203,1,86.4,2|0,0:0|0:0,0:0:0:0:
41,294,62778,1,8,0:0:0:0:
41,294,63070,2,0,L|38:337,1,43.2,0|0,0:0|0:0,0:0:0:0:
68,202,63217,2,0,L|65:158,1,43.2,0|0,0:0|0:0,0:0:0:0:
38,66,63363,6,0,P|119:39|202:60,1,172.8,0|0,1:0|0:0,0:0:0:0:
338,146,63948,2,0,P|256:172|173:151,1,172.8,8|0,0:0|0:0,0:0:0:0:
424,11,64534,2,0,P|450:91|430:174,1,172.8,0|2,1:0|0:3,0:0:0:0:
343,310,65119,2,0,P|317:228|337:145,1,172.8,8|0,0:0|0:0,0:0:0:0:
436,340,65704,5,0,1:0:0:0:
458,334,65997,1,0,0:0:0:0:
228,286,66290,2,0,L|171:280,1,43.2,8|0,0:0|0:0,0:0:0:0:
163,279,66583,1,2,0:0:0:0:
160,300,66875,5,0,1:0:0:0:
157,321,67168,1,2,0:3:0:0:
82,97,67461,2,0,L|57:45,1,43.2,10|0,0:0|0:0,0:0:0:0:
55,38,67753,1,0,0:0:0:0:
44,168,68046,6,0,P|85:177|126:164,1,86.4,0|0,1:2|0:0,0:0:0:0:
201,18,68339,2,0,P|172:49|162:91,1,86.4,0|0,0:0|0:0,0:0:0:0:
251,229,68631,2,0,P|238:188|207:158,1,86.4,8|0,0:0|0:0,0:0:0:0:
44,168,68924,2,0,P|85:177|126:164,1,86.4,0|0,0:0|0:0,0:0:0:0:
243,86,69217,5,0,1:0:0:0:
171,231,69509,1,2,0:3:0:0:
333,220,69802,2,0,L|376:218,1,43.2,8|0,0:0|0:0,0:0:0:0:
399,217,70095,1,0,0:0:0:0:
410,236,70387,5,0,1:0:0:0:
422,256,70680,1,0,0:0:0:0:
206,320,70973,2,0,L|163:322,1,43.2,8|0,0:0|0:0,0:0:0:0:
140,323,71265,1,0,0:0:0:0:
127,303,71558,5,0,1:0:0:0:
114,283,71851,1,2,0:0:0:0:
153,78,72143,2,0,L|155:121,1,43.2,8|0,0:0|0:0,0:0:0:0:
158,208,72290,1,0,0:0:0:0:
38,165,72436,2,0,P|59:163|81:167,1,43.2,0|0,0:0|0:0,0:0:0:0:
155,121,72583,2,0,P|176:117|197:119,1,43.2,0|0,0:0|0:0,0:0:0:0:
270,161,72729,6,0,P|328:199|429:191,1,172.8,0|0,1:0|0:0,0:0:0:0:
427,191,73314,2,0,P|424:212|429:234,1,43.2,8|0,0:0|0:0,0:0:0:0:
499,149,73461,1,0,0:0:0:0:
359,319,73607,2,0,L|273:323,1,86.4,0|0,0:0|0:0,0:0:0:0:
115,292,73900,6,0,P|199:280|272:322,1,172.8,0|2,1:0|0:3,0:0:0:0:
115,292,74485,2,0,P|118:271|113:249,1,43.2,8|0,0:0|0:0,0:0:0:0:
43,334,74631,1,0,0:0:0:0:
183,164,74778,2,0,L|312:158,1,129.6,0|0,0:0|0:0,0:0:0:0:
339,155,75070,5,0,1:0:0:0:
177,385,75363,1,0,0:0:0:0:
339,155,75656,2,0,P|342:134|337:112,1,43.2,8|0,0:0|0:0,0:0:0:0:
265,70,75802,1,0,0:0:0:0:
220,267,75948,2,0,P|241:270|263:265,1,43.2,2|0,0:0|0:0,0:0:0:0:
375,305,76095,2,0,P|354:302|333:306,1,43.2,0|0,0:0|0:0,0:0:0:0:
262,352,76241,1,2,0:3:0:0:
146,213,76387,5,0,0:0:0:0:
146,213,76534,1,0,0:0:0:0:
146,213,76680,1,2,0:3:0:0:
146,213,76826,1,0,0:0:0:0:
146,213,76973,1,0,0:0:0:0:
146,213,77119,6,0,L|178:211,1,32.3999990112305,0|0,0:0|0:0,0:0:0:0:
72,159,77265,2,0,L|40:161,1,32.3999990112305,0|0,0:0|0:0,0:0:0:0:
125,84,77412,6,0,P|212:63|300:111,1,194.399994067383,6|0,3:2|0:0,0:0:0:0:
335,280,77704,6,0,L|338:193,1,86.4,10|0,0:0|0:0,0:0:0:0:
394,30,77851,2,0,L|391:117,1,86.4,0|0,0:0|0:0,0:0:0:0:
344,289,77997,6,0,B|334:244|334:244|348:203,1,89.1000008497238,2|0,1:0|0:0,0:0:0:0:
403,39,78143,2,0,B|413:83|413:83|400:124,1,89.1000008497238
353,298,78290,6,0,B|341:267|341:267|342:242|342:242|357:212,1,91.8000017509461,10|0,0:0|0:0,0:0:0:0:
412,48,78436,2,0,B|424:78|424:78|423:103|423:103|409:134,1,91.8000017509461
362,307,78583,6,0,B|297:304|297:304|240:334|240:334|175:331,1,194.399994067383,2|0,1:0|0:0,0:0:0:0:
56,163,78875,1,10,0:0:0:0:
86,253,79022,1,0,0:0:0:0:
26,73,79168,2,0,B|91:70|91:70|148:100|148:100|213:97,1,194.399994067383,2|0,1:0|0:0,0:0:0:0:
355,210,79461,1,10,0:0:0:0:
362,307,79607,1,0,0:0:0:0:
436,157,79753,6,0,B|360:153|360:153|293:188|293:188|218:184,1,226.799993078614,2|0,1:0|0:0,0:0:0:0:
6,297,80046,2,0,B|81:301|81:301|148:266|148:266|224:270,1,226.799993078614,10|0,0:0|0:0,0:0:0:0:
436,157,80339,6,0,B|394:136|394:136|360:153|360:153|293:188|293:188|260:204|260:204|218:184,1,243.000009269715,2|0,1:0|0:0,0:0:0:0:
6,297,80631,2,0,B|48:317|48:317|81:301|81:301|148:266|148:266|182:249|182:249|224:270,1,243.000009269715,10|0,0:0|0:0,0:0:0:0:
436,157,80924,6,0,B|394:136|394:136|360:153|360:153|340:151|340:151|313:188|313:188|293:188|293:188|260:204|260:204|219:184,1,252.720008483643,2|0,1:0|0:0,0:0:0:0:
6,297,81217,2,0,B|48:317|48:317|81:301|81:301|101:301|101:301|128:264|128:264|148:266|148:266|182:249|182:249|224:270,1,252.720008483643,10|0,0:0|0:0,0:0:0:0:
436,157,81509,6,0,P|320:111|219:186,1,259.2,2|0,1:0|0:0,0:0:0:0:
6,297,81802,2,0,P|37:324|85:342,1,86.4,10|0,0:0|0:0,0:0:0:0:
161,328,81948,2,0,P|196:303|222:269,1,86.4,8|0,0:0|0:0,0:0:0:0:
220,184,82095,6,0,P|133:149|58:204,1,194.399994067383,6|0,1:0|0:0,0:0:0:0:
223,269,82387,2,0,P|309:303|384:248,1,194.399994067383,10|0,0:0|0:0,0:0:0:0:
436,157,82680,1,2,1:0:0:0:
474,157,82826,1,0,0:0:0:0:
220,183,82973,2,0,P|270:145|332:154,1,129.599996044922,10|0,0:0|0:0,0:0:0:0:
84,14,83265,6,0,L|78:143,1,129.599996044922,2|0,1:0|0:0,0:0:0:0:
152,316,83558,1,10,0:0:0:0:
7,184,83704,2,0,P|69:176|118:214,1,129.599996044922,0|2,0:0|1:0,0:0:0:0:
152,316,83997,1,0,0:0:0:0:
234,67,84143,1,10,0:0:0:0:
348,83,84290,6,0,P|256:97|220:183,1,194.399994067383
308,176,84583,1,0,0:0:0:0:
405,337,84729,2,0,P|313:352|252:283,1,194.399994067383,10|0,0:0|0:0,0:0:0:0:
357,243,85022,1,2,1:0:0:0:
347,263,85168,1,0,0:0:0:0:
406,41,85314,2,0,L|397:170,1,129.599996044922,10|0,0:0|0:0,0:0:0:0:
146,140,85607,6,0,P|94:127|34:144,1,108,2|0,1:0|0:0,0:0:0:0:
42,139,85900,6,0,P|143:166|228:43,1,259.2,10|8,0:0|0:3,0:0:0:0:
229,139,86485,1,8,0:3:0:0:
244,165,86558,1,4,0:3:0:0:
259,191,86631,1,4,0:3:0:0:
399,211,86778,6,0,P|308:196|259:273,1,194.399994067383,6|0,3:2|0:0,0:0:0:0:
44,343,87070,6,2,B|94:346|94:346|114:336|114:336|139:350|139:350|182:351|182:351|202:365|202:365|229:353|229:353|273:355|273:355|300:344|300:344|323:359|323:359|369:361,2,345.6,10|2|10,0:0|1:0|0:0,0:0:0:0:
4,272,87802,1,0,0:0:0:0:
126,76,87948,6,0,L|114:302,1,226.799993078614,2|0,1:0|0:0,0:0:0:0:
436,320,88241,2,0,L|447:93,1,226.799993078614,10|0,0:0|0:0,0:0:0:0:
126,76,88534,6,0,B|97:118|97:118|121:158|121:158|114:311,1,243.000009269715,2|0,1:0|0:0,0:0:0:0:
436,320,88826,2,0,B|465:278|465:278|440:235|440:235|448:85,1,243.000009269715,10|0,0:0|0:0,0:0:0:0:
126,76,89119,6,0,L|114:302,1,226.799993078614,2|0,1:0|0:0,0:0:0:0:
436,320,89412,2,0,L|447:93,1,226.799993078614,10|0,0:0|0:0,0:0:0:0:
126,76,89704,6,0,B|119:221|119:221|143:261|143:261|114:303,1,243.000009269715,2|0,1:0|0:0,0:0:0:0:
436,320,89997,2,0,B|443:175|443:175|418:136|418:136|448:93,1,243.000009269715,10|0,0:0|0:0,0:0:0:0:
288,47,90290,6,0,B|249:104|249:104|281:157|281:157|277:241|277:241|312:294|312:294|271:350,2,347.76000053064,2|10|2,1:0|0:0|1:0,0:0:0:0:
356,106,91022,1,0,0:0:0:0:
203,290,91168,2,0,L|116:285,1,86.9400001326599,10|0,0:0|0:0,0:0:0:0:
271,349,91314,2,0,L|357:353,1,86.9400001326599,8|0,0:0|0:0,0:0:0:0:
425,294,91461,6,0,L|431:165,1,129.599996044922,6|0,1:0|0:0,0:0:0:0:
288,260,91753,1,10,0:0:0:0:
356,106,91900,1,0,0:0:0:0:
431,164,92046,1,2,1:0:0:0:
463,166,92192,1,0,0:0:0:0:
213,202,92339,1,10,0:0:0:0:
143,20,92485,6,0,P|124:81|138:144,1,129.599996044922,0|2,0:0|1:0,0:0:0:0:
213,202,92778,1,0,0:0:0:0:
289,58,92924,1,10,0:0:0:0:
288,26,93070,1,0,0:0:0:0:
288,143,93217,1,2,1:0:0:0:
288,260,93363,1,0,0:0:0:0:
84,350,93509,1,10,0:0:0:0:
21,257,93656,6,0,P|7:195|27:134,2,129.599996044922,0|2|0,0:0|1:0|0:0,0:0:0:0:
194,342,94095,2,0,L|323:348,1,129.599996044922,10|0,0:0|0:0,0:0:0:0:
382,273,94387,1,2,1:0:0:0:
414,275,94534,1,0,0:0:0:0:
311,102,94680,2,0,L|305:231,1,129.599996044922,10|0,0:0|0:0,0:0:0:0:
194,187,94973,5,2,1:0:0:0:
226,189,95119,1,0,0:0:0:0:
389,144,95265,2,0,L|453:147,1,64.799998022461,10|0,0:0|0:0,0:0:0:0:
512,222,95412,1,0,0:0:0:0:
369,234,95558,2,0,L|304:231,1,64.799998022461,10|0,0:0|0:3,0:0:0:0:
427,309,95704,1,0,0:0:0:0:
136,112,95851,2,0,L|71:109,1,64.799998022461,4|0,0:3|0:0,0:0:0:0:
219,318,95997,2,0,L|284:321,1,64.799998022461,4|0,0:3|0:0,0:0:0:0:
501,58,96143,6,0,L|392:53,1,108,6|0,3:2|0:0,0:0:0:0:
281,94,96436,1,10,0:0:0:0:
313,96,96583,1,0,0:0:0:0:
200,137,96729,1,2,1:0:0:0:
168,135,96875,1,0,0:0:0:0:
275,242,97022,1,10,0:0:0:0:
266,210,97168,1,0,0:0:0:0:
219,324,97314,6,0,P|319:331|363:287,1,162,2|0,1:0|0:0,0:0:0:0:
500,162,97607,2,0,P|400:155|356:199,1,162,10|0,0:0|0:0,0:0:0:0:
444,244,97900,1,2,1:0:0:0:
397,32,98046,1,0,0:0:0:0:
234,24,98192,1,10,0:0:0:0:
196,140,98339,1,0,0:0:0:0:
272,189,98485,6,0,L|263:351,1,162,2|0,1:0|0:0,0:0:0:0:
29,221,98778,2,0,L|191:230,1,162,10|0,0:0|0:0,0:0:0:0:
278,100,99070,2,0,L|331:102,2,54,2|0|0,1:0|0:0|0:0,0:0:0:0:
184,318,99363,1,10,0:0:0:0:
114,180,99509,1,0,0:0:0:0:
272,189,99656,6,0,P|349:207|417:166,1,162,2|0,1:0|0:0,0:0:0:0:
479,82,99948,1,10,0:0:0:0:
497,55,100095,1,0,0:0:0:0:
417,166,100241,2,0,P|399:243|441:311,1,162,2|0,1:0|0:0,0:0:0:0:
344,350,100534,2,0,P|319:340|293:335,1,54,10|0,0:0|0:0,0:0:0:0:
156,285,100680,2,0,P|183:280|209:272,1,54,8|0,0:0|0:0,0:0:0:0:
272,189,100826,5,2,1:0:0:0:
282,158,100973,1,0,0:0:0:0:
198,26,101119,5,10,0:0:0:0:
275,51,101265,1,0,0:0:0:0:
352,76,101412,5,2,1:0:0:0:
160,138,101558,1,0,0:0:0:0:
310,274,101704,5,10,0:0:0:0:
340,283,101851,1,0,0:0:0:0:
422,352,101997,5,2,1:0:0:0:
448,276,102143,1,0,0:0:0:0:
361,161,102290,5,10,0:0:0:0:
473,198,102436,1,0,0:0:0:0:
449,82,102583,6,0,P|446:109|432:135,1,54,2|0,1:0|0:0,0:0:0:0:
289,189,102729,1,0,0:0:0:0:
209,78,102875,2,0,P|261:76|300:112,1,108,10|0,0:0|0:0,0:0:0:0:
162,141,103168,6,0,P|84:144|25:90,1,162,2|0,1:0|0:0,0:0:0:0:
68,183,103461,2,0,P|69:209|80:234,1,54,10|0,0:0|0:0,0:0:0:0:
202,259,103607,2,0,P|280:262|338:208,1,162,0|0,0:0|0:0,0:0:0:0:
380,113,103900,1,0,0:0:0:0:
296,301,104046,2,0,P|297:327|308:352,1,54,10|0,0:0|0:0,0:0:0:0:
430,377,104192,1,0,0:0:0:0:
381,114,104339,6,0,L|387:0,1,108,2|0,1:0|0:0,0:0:0:0:
386,6,104631,6,0,L|399:265,1,259.2,12|8,0:1|0:3,0:0:0:0:
479,312,105217,1,8,0:3:0:0:
479,312,105290,1,4,0:3:0:0:
479,312,105363,1,4,0:3:0:0:
317,216,105509,6,0,L|205:221,1,108,6|0,3:2|0:0,0:0:0:0:
101,33,105802,1,10,0:0:0:0:
117,60,105948,1,0,0:0:0:0:
233,128,106095,1,2,1:0:0:0:
265,128,106241,1,0,0:0:0:0:
117,196,106387,1,10,0:0:0:0:
101,223,106534,2,0,L|103:278,1,54,0|0,0:0|0:0,0:0:0:0:
69,363,106680,6,0,B|122:365|122:365|169:340|169:340|223:343,1,162,2|0,1:0|0:0,0:0:0:0:
413,236,106973,2,0,B|358:233|358:233|311:258|311:258|258:255,1,162,10|0,0:0|0:0,0:0:0:0:
9,205,107265,1,2,1:0:0:0:
87,74,107412,1,0,0:0:0:0:
215,87,107558,1,10,0:0:0:0:
270,177,107704,1,0,0:0:0:0:
257,255,107851,6,0,P|335:220|344:152,1,162,2|0,1:0|0:0,0:0:0:0:
196,205,108143,2,0,P|118:240|109:308,1,162,10|0,0:0|0:0,0:0:0:0:
101,213,108436,2,0,P|89:188|88:161,2,54,2|0|0,1:0|0:0|0:0,0:0:0:0:
242,331,108729,2,0,L|403:338,1,162,10|0,0:0|0:0,0:0:0:0:
460,115,109022,6,0,L|453:277,1,162,2|0,1:0|0:0,0:0:0:0:
254,187,109314,1,10,0:0:0:0:
286,188,109461,1,0,0:0:0:0:
218,105,109607,2,0,L|211:266,1,162,2|0,1:0|0:0,0:0:0:0:
324,88,109900,2,0,P|316:62|301:37,1,54,10|0,0:0|0:0,0:0:0:0:
151,22,110046,2,0,P|132:41|118:67,1,54,8|0,0:0|0:0,0:0:0:0:
134,171,110192,5,6,1:0:0:0:
133,203,110339,1,0,0:0:0:0:
66,340,110485,5,10,0:0:0:0:
146,343,110631,1,0,0:0:0:0:
134,171,110778,5,2,1:0:0:0:
227,347,110924,1,0,0:0:0:0:
332,178,111070,5,10,0:0:0:0:
364,179,111217,1,0,0:0:0:0:
501,246,111363,5,2,1:0:0:0:
504,166,111509,1,0,0:0:0:0:
332,178,111656,5,10,0:0:0:0:
508,85,111802,1,0,0:0:0:0:
442,334,111948,6,0,P|430:309|429:282,1,54,2|0,1:0|0:0,0:0:0:0:
433,203,112095,1,0,0:0:0:0:
302,77,112241,2,0,P|356:76|403:102,1,108,10|0,0:0|0:0,0:0:0:0:
230,154,112534,6,0,L|69:147,1,162,2|0,1:0|0:0,0:0:0:0:
153,47,112826,2,0,L|149:127,1,54,10|0,0:0|0:0,0:0:0:0:
176,234,112973,2,0,L|337:241,1,162,0|0,0:0|0:0,0:0:0:0:
419,195,113265,1,0,0:0:0:0:
255,287,113412,2,0,L|253:341,1,54,10|0,0:0|0:0,0:0:0:0:
335,384,113558,1,0,0:0:0:0:
421,93,113704,5,2,1:0:0:0:
421,93,113997,2,0,L|420:164,1,54,10|0,0:0|0:0,0:0:0:0:
418,290,114143,1,0,0:0:0:0:
417,322,114290,1,10,0:0:0:0:
366,143,114436,2,0,L|436:147,1,54,8|0,0:3|0:0,0:0:0:0:
256,222,114583,2,0,L|326:217,1,54,4|0,0:3|0:0,0:0:0:0:
149,143,114729,2,0,L|219:147,1,54,4|0,0:3|0:0,0:0:0:0:
55,173,114875,5,4,0:0:0:0:
70,132,115607,1,0,0:0:0:0:
75,90,116046,1,0,0:0:0:0:
69,47,116485,1,0,0:0:0:0:
52,8,116778,1,0,0:0:0:0:
52,8,117217,5,0,0:0:0:0:
36,48,117949,1,0,0:0:0:0:
31,90,118534,1,0,0:0:0:0:
37,133,118827,1,0,0:0:0:0:
55,173,119119,1,0,1:0:0:0:
126,219,119265,6,0,L|128:267,1,43.2,8|0,0:3|0:0,0:0:0:0:
189,162,119412,2,0,L|186:113,1,43.2,8|0,0:3|0:0,0:0:0:0:
260,208,119558,6,0,P|319:235|379:214,1,129.6,2|0,1:0|0:0,0:0:0:0:
315,270,119851,2,0,L|311:322,1,43.2,10|0,0:1|0:0,0:0:0:0:
323,151,119997,2,0,P|336:89|388:52,1,129.6,0|0,0:0|0:0,0:0:0:0:
430,130,120290,1,0,0:0:0:0:
405,135,120436,1,2,1:0:0:0:
306,68,120583,2,0,L|262:66,1,43.2,8|0,0:0|0:0,0:0:0:0:
205,2,120729,6,0,B|161:0|161:0|124:19|124:19|81:17,1,129.6,2|0,0:1|0:0,0:0:0:0:
145,102,121022,2,0,L|148:59,1,43.2,10|0,0:1|0:0,0:0:0:0:
205,2,121168,1,0,0:0:0:0:
213,143,121314,2,0,B|169:141|169:141|132:160|132:160|89:159,1,129.6,2|8,0:1|0:3,0:0:0:0:
153,244,121607,2,0,L|156:201,1,43.2,10|0,1:0|0:0,0:0:0:0:
88,159,121753,1,0,0:0:0:0:
107,336,121900,6,0,L|193:344,1,86.4,2|0,1:0|0:0,0:0:0:0:
279,350,122192,1,10,0:1:0:0:
345,266,122339,1,0,0:0:0:0:
429,332,122485,1,2,0:1:0:0:
411,182,122631,1,0,0:0:0:0:
237,107,122778,1,2,1:0:0:0:
9,275,122924,6,0,B|60:365|60:365|165:365|165:365|216:275|216:275|165:185|165:185|63:185,1,518.4,8|0,0:0|0:0,0:0:0:0:
255,275,123509,6,0,P|303:281|339:268,1,86.4,8|0,0:0|0:0,0:0:0:0:
411,182,123802,1,0,1:0:0:0:
448,330,123948,2,0,P|451:308|447:288,1,43.2,8|0,0:0|0:0,0:0:0:0:
411,182,124095,1,8,0:0:0:0:
242,115,124241,6,0,P|282:101|324:108,1,86.4,6|0,1:2|0:0,0:0:0:0:
165,185,124534,1,10,0:0:0:0:
144,84,124680,1,0,0:0:0:0:
122,82,124826,1,2,1:0:0:0:
100,80,124973,1,0,0:0:0:0:
79,79,125119,1,10,0:0:0:0:
57,77,125265,2,0,L|54:120,1,43.2,0|0,0:0|0:0,0:0:0:0:
76,208,125412,5,2,1:0:0:0:
99,296,125558,1,0,0:0:0:0:
188,273,125704,2,0,P|209:268|230:271,1,43.2,10|0,0:0|0:0,0:0:0:0:
300,329,125851,2,0,L|386:323,1,86.4,0|2,0:0|1:0,0:0:0:0:
401,232,126143,2,0,L|315:238,1,86.4,0|10,0:0|0:0,0:0:0:0:
308,155,126436,6,0,P|322:195|315:237,1,86.4,0|2,0:0|1:0,0:0:0:0:
234,121,126729,2,0,P|220:81|227:39,1,86.4,0|10,0:0|0:0,0:0:0:0:
300,74,127022,1,0,0:0:0:0:
242,202,127168,1,2,1:0:0:0:
375,108,127314,1,0,0:0:0:0:
400,105,127461,1,10,0:0:0:0:
168,168,127607,2,0,L|124:172,1,43.2,0|0,0:0|0:0,0:0:0:0:
58,218,127753,5,2,1:0:0:0:
60,243,127900,1,0,0:0:0:0:
51,135,128046,1,10,0:0:0:0:
41,26,128192,2,0,L|85:22,1,43.2,0|0,0:0|0:0,0:0:0:0:
141,72,128339,1,2,1:0:0:0:
151,267,128485,1,0,0:0:0:0:
152,288,128558,1,0,0:0:0:0:
154,310,128631,2,0,L|110:314,1,43.2,10|0,0:0|0:0,0:0:0:0:
44,360,128778,1,0,0:0:0:0:
217,220,128924,6,0,P|257:206|299:213,1,86.4,2|0,1:0|0:0,0:0:0:0:
365,260,129217,1,10,0:0:0:0:
387,262,129363,1,0,0:0:0:0:
409,264,129509,1,2,1:0:0:0:
430,265,129656,1,0,0:0:0:0:
452,267,129802,1,10,0:0:0:0:
473,268,129948,2,0,L|476:225,1,43.2,0|0,0:0|0:0,0:0:0:0:
430,158,130095,5,2,1:0:0:0:
408,370,130241,1,0,0:0:0:0:
287,336,130387,2,0,L|290:293,1,43.2,10|0,0:0|0:0,0:0:0:0:
299,213,130534,2,0,P|306:171|333:138,1,86.4,0|2,0:0|1:0,0:0:0:0:
485,56,130826,1,0,0:0:0:0:
464,57,130900,1,0,0:0:0:0:
442,59,130973,2,0,L|398:63,1,43.2,10|0,0:0|0:0,0:0:0:0:
258,72,131119,1,0,0:0:0:0:
227,245,131265,5,2,1:0:0:0:
93,132,131412,1,0,0:0:0:0:
258,72,131558,2,0,L|302:68,1,43.2,10|0,0:0|0:0,0:0:0:0:
399,63,131704,1,0,0:0:0:0:
354,150,131851,1,2,1:0:0:0:
175,102,131997,1,0,0:0:0:0:
145,339,132143,1,10,0:0:0:0:
25,214,132290,2,0,L|111:222,1,86.4,0|0,1:0|1:0,0:0:0:0:
145,339,132509,5,4,0:3:0:0:
145,339,132583,2,0,L|59:331,1,86.4,8|4,0:3|0:3,0:0:0:0:
241,271,132802,2,0,B|327:278|327:278|404:241|404:241|491:248,1,259.2,8|0,0:0|3:0,0:0:0:0:
491,248,133314,6,0,P|517:205|469:218,1,129.6,0|0,0:0|0:0,0:0:0:0:
422,280,133607,6,0,B|367:275|367:275|319:298|319:298|266:294,1,162,6|0,3:2|0:0,0:0:0:0:
152,149,133900,2,0,P|222:134|228:206,1,162,10|0,0:0|0:0,0:0:0:0:
335,317,134192,2,0,B|280:312|280:312|232:335|232:335|179:331,1,162,2|0,1:0|0:0,0:0:0:0:
65,186,134485,2,0,P|135:171|140:242,1,162,10|0,0:0|0:0,0:0:0:0:
83,320,134778,5,2,1:0:0:0:
64,347,134924,1,0,0:0:0:0:
228,205,135070,5,10,0:0:0:0:
261,208,135217,1,0,0:0:0:0:
261,208,135363,5,2,1:0:0:0:
228,205,135509,1,2,1:0:0:0:
64,347,135656,5,10,0:0:0:0:
83,320,135802,1,0,0:0:0:0:
56,137,135948,6,0,B|111:142|111:142|159:119|159:119|212:123,1,162,2|0,1:0|0:0,0:0:0:0:
326,268,136241,2,0,P|256:283|250:210,1,162,10|0,0:0|0:0,0:0:0:0:
143,100,136534,2,0,B|198:105|198:105|246:82|246:82|299:86,1,162,2|0,1:0|0:0,0:0:0:0:
413,231,136826,2,0,P|343:246|338:175,1,162,10|0,0:0|0:0,0:0:0:0:
395,97,137119,5,2,1:0:0:0:
427,101,137265,1,0,0:0:0:0:
322,300,137412,5,10,0:0:0:0:
326,268,137558,1,0,0:0:0:0:
244,127,137704,5,2,1:0:0:0:
212,123,137851,1,0,0:0:0:0:
67,237,137997,6,0,L|119:241,1,54,10|0,0:0|0:0,0:0:0:0:
226,329,138143,2,0,L|172:324,1,54,8|0,0:0|0:0,0:0:0:0:
67,237,138290,6,0,L|75:129,1,108,2|0,1:0|0:0,0:0:0:0:
233,221,138583,2,0,L|225:329,1,108,10|0,0:0|0:0,0:0:0:0:
244,127,138875,1,2,1:0:0:0:
248,95,139022,1,0,0:0:0:0:
427,191,139168,2,0,L|319:183,1,108,10|0,0:0|0:0,0:0:0:0:
308,277,139461,5,2,1:0:0:0:
340,281,139607,1,0,0:0:0:0:
169,71,139753,1,10,0:0:0:0:
158,165,139900,1,0,0:0:0:0:
66,80,140046,2,0,P|116:62|169:71,1,108,2|0,1:0|0:0,0:0:0:0:
147,259,140339,2,0,P|97:277|44:268,1,108,10|0,0:0|0:0,0:0:0:0:
233,221,140631,5,2,1:0:0:0:
265,225,140778,1,0,0:0:0:0:
382,67,140924,5,10,0:0:0:0:
350,63,141070,1,0,0:0:0:0:
350,63,141217,5,2,1:0:0:0:
382,67,141363,1,0,0:0:0:0:
265,225,141509,5,10,0:0:0:0:
233,221,141656,1,0,0:0:0:0:
226,101,141802,5,2,1:0:0:0:
230,69,141948,1,0,0:0:0:0:
388,186,142095,5,10,0:0:0:0:
384,218,142241,1,0,0:0:0:0:
384,218,142387,5,2,1:0:0:0:
388,186,142534,1,0,0:0:0:0:
280,105,142680,6,0,L|226:101,1,54,10|0,0:0|0:0,0:0:0:0:
99,256,142826,2,0,L|95:310,1,54,10|0,0:0|0:0,0:0:0:0:
4,213,142973,6,0,P|62:159|141:162,1,162,6|0,3:2|0:0,0:0:0:0:
203,244,143265,2,0,P|184:168|226:101,1,162,10|0,0:0|0:0,0:0:0:0:
317,58,143558,1,2,1:0:0:0:
349,54,143704,1,0,0:0:0:0:
341,183,143851,1,10,0:0:0:0:
341,183,143997,2,0,L|281:184,1,54,0|0,0:0|0:0,0:0:0:0:
203,244,144143,5,2,1:0:0:0:
170,244,144290,1,0,0:0:0:0:
325,334,144436,5,10,0:0:0:0:
358,334,144583,1,0,0:0:0:0:
325,334,144729,5,2,1:0:0:0:
358,334,144875,1,0,0:0:0:0:
203,244,145022,5,10,0:0:0:0:
170,244,145168,1,0,0:0:0:0:
193,100,145314,6,0,P|211:177|170:244,1,162,2|0,1:0|0:0,0:0:0:0:
67,256,145607,2,0,P|143:278|180:348,1,162,10|0,0:0|0:0,0:0:0:0:
109,161,145900,1,2,1:0:0:0:
105,129,146046,1,0,0:0:0:0:
284,66,146192,1,10,0:0:0:0:
284,66,146339,2,0,L|337:65,1,54,0|0,0:0|0:0,0:0:0:0:
422,125,146485,5,2,1:0:0:0:
455,125,146631,1,0,0:0:0:0:
350,305,146778,5,10,0:0:0:0:
350,272,146924,1,0,0:0:0:0:
203,200,147070,5,2,1:0:0:0:
170,200,147217,1,0,0:0:0:0:
45,349,147363,6,0,P|71:353|98:348,1,54,10|0,0:0|0:0,0:0:0:0:
249,288,147509,2,0,P|222:283|196:289,1,54,8|0,0:0|0:0,0:0:0:0:
71,256,147656,6,0,P|57:204|71:147,1,108,2|0,1:0|0:0,0:0:0:0:
299,99,147948,2,0,P|312:151|301:204,1,108,10|0,0:0|0:0,0:0:0:0:
196,372,148241,1,2,1:0:0:0:
164,374,148387,1,0,0:0:0:0:
302,204,148534,2,0,P|354:190|411:204,1,108,10|0,0:0|0:0,0:0:0:0:
489,261,148826,5,2,1:0:0:0:
491,293,148973,1,0,0:0:0:0:
481,133,149119,1,10,0:0:0:0:
473,5,149265,1,0,0:0:0:0:
475,37,149412,1,2,1:0:0:0:
367,76,149558,1,0,0:0:0:0:
279,1,149704,2,0,L|171:4,1,108,10|0,0:0|0:0,0:0:0:0:
83,78,149997,5,2,1:0:0:0:
51,80,150143,1,0,0:0:0:0:
212,169,150290,5,10,0:0:0:0:
292,164,150436,1,0,0:0:0:0:
336,230,150583,5,2,1:0:0:0:
368,228,150729,1,0,0:0:0:0:
151,293,150875,5,10,0:0:0:0:
71,298,151022,1,0,0:0:0:0:
54,272,151168,5,0,0:0:0:0:
71,298,151314,1,0,0:0:0:0:
166,266,151461,5,0,0:0:0:0:
151,293,151607,1,0,0:0:0:0:
166,266,151753,5,0,0:0:0:0:
151,293,151900,1,0,0:0:0:0:
71,298,152046,5,0,0:0:0:0:
54,272,152192,1,0,0:0:0:0:
78,378,152339,6,0,B|300:378|300:378|371:257|371:257|326:182|326:182|279:182|279:182|344:63|344:63|298:-15|298:-15|214:-15|214:-15|103:182|103:182|169:303|169:303|258:303|258:303|277:267|277:267|349:378|349:378|437:378|437:378|481:300|481:300|368:104|368:104|232:104|232:104|188:182|188:182|209:222|209:222|80:222|80:222|31:304|31:304|80:383,1,2386.8000455246,0|0,3:0|0:0,0:0:0:0:
59,350,156436,5,2,0:0:0:0:
77,377,156583,1,0,0:0:0:0:
64,249,156729,5,2,0:0:0:0:
46,222,156875,1,0,0:0:0:0:
110,47,157022,6,0,B|200:47|200:47|276:119|276:119|326:119|326:119|326:165|326:165|399:239|399:239|399:336|399:336|304:336|304:336|229:263|229:263|185:263|185:263|185:218|185:218|110:143|110:143|110:57,1,950.4,2|0,0:0|0:0,0:0:0:0:
256,192,159070,1,0,0:0:0:0:
400,47,159363,6,0,B|400:137|400:137|328:213|328:213|328:263|328:263|281:263|281:263|208:336|208:336|111:336|111:336|111:241|111:241|183:167|183:167|183:122|183:122|228:122|228:122|304:47|304:47|390:47,1,950.4,2|0,0:0|0:0,0:0:0:0:
400,47,161119,5,2,0:0:0:0:
377,24,161265,1,0,0:0:0:0:
481,128,161412,5,2,0:0:0:0:
504,151,161558,1,0,0:0:0:0:
412,242,161704,5,8,0:3:0:0:
385,333,161851,1,4,0:3:0:0:
317,264,161997,1,4,0:3:0:0:
95,292,162290,2,0,L|156:289,1,43.2,8|0,0:3|0:3,0:0:0:0:
230,339,162436,1,4,0:3:0:0:
230,339,162583,1,4,0:3:0:0:
230,339,162729,6,0,L|222:167,1,172.8,4|0,0:3|0:3,0:0:0:0:
164,107,163168,1,4,0:3:0:0:
132,105,163314,1,4,0:3:0:0:
222,167,163461,2,0,L|265:164,1,43.2,8|0,0:3|0:3,0:0:0:0:
436,340,163753,1,4,0:3:0:0:
350,51,164046,5,8,0:3:0:0:
417,120,164193,1,4,0:3:0:0:
443,27,164339,1,4,0:3:0:0:
452,276,164631,2,0,L|455:215,1,43.2,8|0,0:3|0:3,0:0:0:0:
503,141,164778,1,4,0:3:0:0:
503,141,164924,1,4,0:3:0:0:
503,141,165070,6,0,L|328:132,1,172.8,4|0,0:3|0:3,0:0:0:0:
270,74,165509,1,4,0:3:0:0:
270,42,165656,1,4,0:3:0:0:
330,132,165802,2,0,L|327:175,1,43.2,8|0,0:3|0:3,0:0:0:0:
268,235,165948,1,4,0:3:0:0:
245,258,166095,1,4,0:3:0:0:
222,281,166241,6,0,L|134:285,1,86.4,4|8,0:3|0:3,0:0:0:0:
43,309,166534,1,8,0:3:0:0:
110,378,166681,1,4,0:3:0:0:
60,161,166973,2,0,L|57:100,1,43.2,8|0,0:3|0:3,0:0:0:0:
126,26,167119,1,4,0:3:0:0:
126,26,167265,1,4,0:3:0:0:
126,26,167412,6,0,L|301:17,1,172.8,4|0,0:3|0:3,0:0:0:0:
356,77,167851,1,4,0:3:0:0:
356,109,167997,1,4,0:3:0:0:
456,165,168143,2,0,L|413:168,1,43.2,8|0,0:3|0:3,0:0:0:0:
212,38,168436,1,4,0:3:0:0:
244,264,168729,5,4,0:3:0:0:
270,171,168875,1,4,0:3:0:0:
338,241,169022,1,8,0:3:0:0:
141,324,169314,2,0,L|202:321,1,43.2,8|0,0:3|0:3,0:0:0:0:
244,264,169461,2,0,B|300:260|300:260|351:287|351:287|409:284,1,172.8,4|8,0:3|0:3,0:0:0:0:
410,284,169900,2,0,L|414:370,1,86.4,4|0,0:3|0:3,0:0:0:0:
470,227,170192,5,8,0:3:0:0:
332,368,170339,1,8,0:3:0:0:
310,369,170412,1,8,0:3:0:0:
288,370,170485,1,8,0:3:0:0:
338,241,170631,1,8,0:3:0:0:
470,227,170778,1,4,0:3:0:0:
401,142,170924,1,4,0:3:0:0:
318,110,171070,6,0,P|277:96|235:105,1,86.4,4|0,1:2|0:0,0:0:0:0:
274,177,171363,2,0,P|302:208|311:250,1,86.4,0|2,0:0|0:0,0:0:0:0:
65,236,171656,2,0,P|146:262|230:245,1,172.8,8|0,0:0|0:0,0:0:0:0:
274,177,172095,1,0,0:0:0:0:
200,32,172241,6,0,P|169:61|156:102,1,86.4,0|0,1:0|0:0,0:0:0:0:
236,103,172534,2,0,P|278:94|319:108,1,86.4,2|0,0:3|0:0,0:0:0:0:
184,315,172826,2,0,P|247:258|274:177,1,172.8,8|0,0:0|0:0,0:0:0:0:
312,249,173265,1,0,0:0:0:0:
312,249,173412,6,0,L|398:253,1,86.4,0|0,1:0|0:0,0:0:0:0:
367,350,173704,2,0,L|281:346,1,86.4,0|2,0:0|0:0,0:0:0:0:
0,279,173997,2,0,L|86:283,1,86.4,8|0,0:0|0:0,0:0:0:0:
117,186,174290,2,0,L|31:182,1,86.4,0|0,0:0|0:0,0:0:0:0:
186,262,174583,5,0,1:0:0:0:
186,262,174729,1,0,0:0:0:0:
155,359,174875,1,2,0:0:0:0:
86,283,175022,1,0,0:0:0:0:
148,89,175168,2,0,P|190:80|231:94,1,86.4,8|0,0:0|0:0,0:0:0:0:
431,109,175461,2,0,P|411:117|390:121,1,43.2,0|0,0:0|0:0,0:0:0:0:
280,160,175607,2,0,P|301:165|321:170,1,43.2,0|0,0:0|0:0,0:0:0:0:
399,206,175753,6,0,L|395:292,1,86.4,0|0,1:0|0:0,0:0:0:0:
326,340,176046,1,0,0:0:0:0:
326,340,176192,1,2,0:0:0:0:
146,249,176339,2,0,L|317:257,1,172.8,8|0,0:0|0:0,0:0:0:0:
395,292,176778,1,0,0:0:0:0:
326,340,176924,6,0,L|154:332,1,172.8,0|2,1:0|0:3,0:0:0:0:
77,297,177363,1,0,0:0:0:0:
154,83,177509,2,0,P|172:167|146:249,1,172.8,8|0,0:0|0:0,0:0:0:0:
69,213,177948,1,0,0:0:0:0:
215,199,178095,6,0,P|257:190|298:204,1,86.4,0|0,1:0|0:0,0:0:0:0:
290,345,178387,2,0,P|261:313|253:272,1,86.4,0|2,0:0|0:0,0:0:0:0:
423,136,178680,2,0,P|396:217|332:274,1,172.8,8|2,0:0|0:0,0:0:0:0:
215,199,179119,1,0,0:0:0:0:
342,134,179265,6,0,P|328:174|296:203,1,86.4,0|2,1:0|0:0,0:0:0:0:
178,125,179558,2,0,P|220:115|259:129,1,86.4,2|0,0:3|0:0,0:0:0:0:
290,346,179851,2,0,P|233:282|215:198,1,172.8,10|0,0:0|0:0,0:0:0:0:
215,199,180436,6,0,L|127:203,1,86.4,0|0,1:2|0:0,0:0:0:0:
83,271,180729,2,0,L|44:348,1,86.4,0|0,0:0|0:0,0:0:0:0:
0,126,181022,2,0,L|47:200,1,86.4,8|0,0:0|0:0,0:0:0:0:
128,202,181314,2,0,L|215:199,1,86.4,0|0,0:0|0:0,0:0:0:0:
260,130,181607,6,0,P|302:120|341:134,1,86.4,0|0,1:0|0:0,0:0:0:0:
378,205,181900,2,0,P|384:247|414:279,1,86.4,2|0,0:3|0:0,0:0:0:0:
468,71,182192,2,0,P|455:112|424:139,1,86.4,8|0,0:0|0:0,0:0:0:0:
341,134,182485,2,0,P|301:119|260:130,1,86.4,0|0,0:0|0:0,0:0:0:0:
133,195,182778,6,0,P|173:209|214:199,1,86.4,0|0,1:0|0:0,0:0:0:0:
260,129,183070,2,0,P|252:87|222:56,1,86.4,0|2,0:0|0:0,0:0:0:0:
133,195,183363,2,0,P|172:209|213:199,1,86.4,8|0,0:0|0:0,0:0:0:0:
140,53,183656,2,0,P|107:80|96:121,1,86.4,0|0,0:0|0:0,0:0:0:0:
130,279,183948,5,0,1:0:0:0:
135,304,184095,1,0,0:0:0:0:
35,324,184241,1,2,0:0:0:0:
9,329,184387,1,0,0:0:0:0:
135,304,184534,1,8,0:0:0:0:
161,299,184680,1,0,0:0:0:0:
187,294,184826,2,0,L|232:303,1,43.2,0|0,0:0|0:0,0:0:0:0:
266,376,184973,2,0,L|311:366,1,43.2,0|0,0:0|0:0,0:0:0:0:
344,292,185119,6,0,P|348:207|309:131,1,172.8,0|0,1:0|0:0,0:0:0:0:
392,199,185558,1,2,0:0:0:0:
230,106,185704,2,0,P|272:108|309:131,1,86.4,8|0,0:0|0:0,0:0:0:0:
392,199,185997,1,0,0:0:0:0:
409,93,186143,1,0,0:0:0:0:
309,131,186290,6,0,P|245:188|162:206,1,172.8,0|2,1:0|0:3,0:0:0:0:
265,229,186729,1,0,0:0:0:0:
312,48,186875,2,0,P|321:89|309:130,1,86.4,8|0,0:0|0:0,0:0:0:0:
265,229,187168,2,0,P|253:270|262:311,1,86.4,0|0,0:0|0:0,0:0:0:0:
421,269,187461,6,0,L|335:274,1,86.4,0|0,1:0|0:0,0:0:0:0:
189,348,187753,2,0,L|102:352,1,86.4,0|2,0:0|0:0,0:0:0:0:
339,193,188046,2,0,L|382:190,1,43.2,8|0,0:0|0:0,0:0:0:0:
265,229,188192,2,0,L|221:231,1,43.2,0|0,0:0|0:0,0:0:0:0:
108,136,188339,2,0,L|158:141,1,43.2,2|0,0:0|0:0,0:0:0:0:
24,266,188485,2,0,L|74:271,1,43.2,0|0,0:0|0:0,0:0:0:0:
151,141,188631,6,0,B|151:285|151:285|62:326|62:326|62:179|62:179|151:141,1,472.500004506111,2|0,0:3|0:0,0:0:0:0:
190,252,189070,6,0,B|132:246|132:246|80:271|80:271|24:266,1,172.8,2|0,0:0|0:0,0:0:0:0:
54,38,189509,6,0,P|70:32|92:30,1,32.3999990112305,0|0,0:0|0:0,0:0:0:0:
186,57,189656,2,0,P|199:67|211:85,1,32.3999990112305,0|0,0:0|0:0,0:0:0:0:
235,180,189802,6,0,L|428:188,1,194.399994067383,6|0,3:2|0:0,0:0:0:0:
232,266,190095,6,0,L|235:179,1,86.4,10|0,0:0|0:0,0:0:0:0:
291,16,190242,2,0,L|288:103,1,86.4,0|0,0:0|0:0,0:0:0:0:
241,275,190388,6,0,B|231:230|231:230|245:189,1,89.1000008497238,2|0,1:0|0:0,0:0:0:0:
300,25,190534,2,0,B|310:69|310:69|297:110,1,89.1000008497238
250,284,190681,6,0,B|238:253|238:253|239:228|239:228|254:198,1,91.8000017509461,10|0,0:0|0:0,0:0:0:0:
309,34,190827,2,0,B|321:64|321:64|320:89|320:89|306:120,1,91.8000017509461
256,293,190973,6,0,P|159:301|73:259,1,194.399994067383,2|0,1:0|0:0,0:0:0:0:
48,124,191265,1,10,0:0:0:0:
23,200,191412,1,0,0:0:0:0:
99,184,191558,2,0,P|194:176|273:121,1,194.399994067383,2|0,1:0|0:0,0:0:0:0:
430,87,191851,1,10,0:0:0:0:
376,29,191997,1,0,0:0:0:0:
352,104,192143,6,0,P|349:217|403:314,1,226.799993078614,2|0,1:0|0:0,0:0:0:0:
196,254,192436,2,0,P|291:313|404:315,1,226.799993078614,10|0,0:0|0:0,0:0:0:0:
196,255,192729,6,0,P|307:213|352:104,1,243.000009269715,2|0,1:0|0:0,0:0:0:0:
404,314,193022,2,0,P|423:197|351:104,1,243.000009269715,10|0,0:0|0:0,0:0:0:0:
405,315,193314,6,0,P|315:233|196:254,1,251.100001915741,2|0,1:0|0:0,0:0:0:0:
352,104,193607,2,0,P|236:140|195:254,1,251.100001915741,10|0,0:0|0:0,0:0:0:0:
75,299,193900,6,0,B|162:304|162:304|239:264|239:264|324:269,1,259.2,2|0,1:0|0:0,0:0:0:0:
117,129,194192,2,0,L|111:239,1,86.4,10|0,0:0|0:0,0:0:0:0:
34,91,194339,2,0,L|28:201,1,86.4,8|0,0:0|0:0,0:0:0:0:
109,39,194485,6,0,B|174:42|174:42|232:12|232:12|295:16,1,194.399994067383,6|0,1:0|0:0,0:0:0:0:
443,76,194778,2,0,B|380:72|380:72|322:102|322:102|257:99,1,194.399994067383,10|0,0:0|0:0,0:0:0:0:
405,159,195070,1,2,1:0:0:0:
443,161,195217,1,0,0:0:0:0:
292,332,195363,2,0,L|299:202,1,129.599996044922,10|0,0:0|0:0,0:0:0:0:
175,330,195656,6,0,P|233:355|292:331,1,129.599996044922,2|0,1:0|0:0,0:0:0:0:
391,253,195948,1,10,0:0:0:0:
169,195,196095,2,0,L|299:202,1,129.599996044922,0|2,0:0|1:0,0:0:0:0:
389,146,196387,1,0,0:0:0:0:
481,296,196534,1,10,0:0:0:0:
299,202,196680,6,0,B|235:199|235:199|178:230|178:230|113:228,1,194.399994067383,0|0,0:0|0:0,0:0:0:0:
22,283,196973,1,0,0:0:0:0:
86,41,197119,2,0,B|83:105|83:105|114:162|114:162|112:227,1,194.399994067383,10|0,0:0|0:0,0:0:0:0:
115,332,197412,1,2,1:0:0:0:
113,370,197558,1,0,0:0:0:0:
192,121,197704,2,0,P|250:97|308:122,1,129.599996044922,10|0,0:0|0:0,0:0:0:0:
248,288,197997,6,0,L|250:181,1,108,2|0,1:0|0:0,0:0:0:0:
250,180,198290,6,0,P|367:178|365:62,1,259.2,10|8,0:0|0:3,0:0:0:0:
458,221,198875,1,8,0:3:0:0:
454,250,198948,1,4,0:3:0:0:
451,280,199022,1,4,0:3:0:0:
502,130,199168,6,0,L|307:121,1,194.399994067383,6|0,3:2|0:0,0:0:0:0:
32,49,199461,6,0,B|146:-28|195:200|244:-28|358:49,2,345.6,10|2|10,0:0|1:0|0:0,0:0:0:0:
84,122,200192,1,0,0:0:0:0:
326,304,200339,6,0,B|266:296|230:249|230:249|195:201|135:194,1,226.799993078614,2|0,1:0|0:0,0:0:0:0:
135,304,200631,2,0,B|195:297|230:249|230:249|266:202|326:195,1,226.799993078614,10|0,0:0|0:0,0:0:0:0:
135,194,200924,6,0,B|195:177|230:249|230:249|268:322|326:304,1,243.000009269715,2|0,1:0|0:0,0:0:0:0:
326,195,201217,2,0,B|268:177|230:249|230:249|195:322|135:304,1,243.000009269715,10|0,0:0|0:0,0:0:0:0:
135,194,201509,6,0,B|194:186|230:139|230:139|265:91|325:84,1,226.799993078614,2|0,1:0|0:0,0:0:0:0:
326,196,201802,2,0,B|266:188|230:141|230:141|195:93|135:86,1,226.799993078614,10|0,0:0|0:0,0:0:0:0:
325,84,202095,6,0,B|266:67|230:139|230:139|193:212|135:194,1,243.000009269715,2|0,1:0|0:0,0:0:0:0:
136,86,202387,2,0,B|194:68|231:141|231:141|267:213|326:196,1,243.000009269715,10|0,0:0|0:0,0:0:0:0:
421,26,202680,6,0,B|439:82|421:138|421:138|402:195|421:252|421:252|439:308|421:364,2,345.6,2|10|2,1:0|0:0|1:0,0:0:0:0:
497,195,203412,1,0,0:0:0:0:
337,281,203558,2,0,P|297:297|255:305,1,86.4,10|0,0:0|0:0,0:0:0:0:
93,231,203704,2,0,P|133:247|176:256,1,86.4,8|0,0:0|0:0,0:0:0:0:
258,212,203851,6,0,P|277:151|263:88,1,129.599996044922,6|0,1:0|0:0,0:0:0:0:
93,231,204143,1,10,0:0:0:0:
192,365,204290,1,0,0:0:0:0:
258,212,204436,1,2,1:0:0:0:
291,205,204583,1,0,0:0:0:0:
74,95,204729,1,10,0:0:0:0:
36,341,204875,6,0,P|78:293|93:231,1,129.599996044922,0|2,0:0|1:0,0:0:0:0:
74,95,205168,1,0,0:0:0:0:
232,142,205314,1,10,0:0:0:0:
200,146,205461,1,0,0:0:0:0:
316,134,205607,1,2,1:0:0:0:
433,122,205753,1,0,0:0:0:0:
336,335,205900,1,10,0:0:0:0:
263,244,206046,6,0,P|321:218|385:229,2,129.599996044922,0|2|0,0:0|1:0|0:0,0:0:0:0:
50,332,206485,2,0,P|112:342|171:316,1,129.599996044922,10|0,0:0|0:0,0:0:0:0:
263,244,206778,1,2,1:0:0:0:
267,212,206924,1,0,0:0:0:0:
242,8,207070,2,0,P|201:57|194:120,1,129.599996044922,10|0,0:0|0:0,0:0:0:0:
336,336,207363,5,2,1:0:0:0:
368,340,207509,1,0,0:0:0:0:
452,255,207656,5,10,0:0:0:0:
484,370,207802,1,0,0:0:0:0:
349,245,208095,6,0,L|235:239,1,108,8|0,0:3|0:0,0:0:0:0:
337,227,208241,2,0,L|229:221,1,108,4|0,0:3|0:0,0:0:0:0:
43,200,208387,2,0,L|48:92,1,108,4|0,0:3|0:0,0:0:0:0:
150,32,208534,2,0,L|145:140,1,108,4|0,0:0|0:0,0:0:0:0:
241,185,210143,6,0,L|245:211,1,21.6,4|0,0:3|0:0,0:0:0:0:
313,108,210290,6,0,L|365:98,1,43.2,8|0,0:0|0:0,0:0:0:0:
146,140,210436,2,0,L|93:150,1,43.2,8|0,0:0|0:0,0:0:0:0:
178,307,210583,2,0,L|188:359,1,43.2,8|0,0:0|0:0,0:0:0:0:
345,275,210729,6,0,P|463:279|494:160,1,259.199992089844,6|0,0:1|0:0,0:0:0:0:
499,31,211168,2,0,L|494:161,1,129.599996044922,10|0,0:0|0:0,0:0:0:0:
250,29,211461,6,0,B|147:72|147:72|250:122,1,226.799993078614,2|0,1:0|0:0,0:0:0:0:
250,29,211753,2,0,B|353:72|353:72|250:122,1,226.799993078614,10|0,0:0|0:0,0:0:0:0:
147,72,212046,6,0,L|147:328,1,243.000009269715,2|0,1:0|0:0,0:0:0:0:
353,72,212339,2,0,L|353:328,1,243.000009269715,10|0,0:0|0:0,0:0:0:0:
147,315,212631,6,0,B|250:272|250:272|250:121,1,260.82000039798,2|0,1:0|0:0,0:0:0:0:
375,230,212924,2,0,L|455:263,1,86.9400001326599,10|0,0:0|0:0,0:0:0:0:
353,315,213070,2,0,L|272:281,1,86.9400001326599,8|0,0:0|0:0,0:0:0:0:
170,218,213217,6,0,P|83:183|8:238,1,194.399994067383,6|0,1:0|0:0,0:0:0:0:
61,0,213509,2,0,P|26:87|81:162,1,194.399994067383,10|0,0:0|0:0,0:0:0:0:
120,75,213802,1,2,1:0:0:0:
159,71,213948,1,0,0:0:0:0:
362,93,214095,2,0,P|312:131|250:122,1,129.599996044922,10|0,0:0|0:0,0:0:0:0:
243,251,214387,6,0,L|249:122,1,129.599996044922,2|0,1:0|0:0,0:0:0:0:
80,341,214680,1,10,0:0:0:0:
171,291,214826,2,0,P|233:283|282:321,1,129.599996044922,0|2,0:0|1:0,0:0:0:0:
311,189,215119,1,0,0:0:0:0:
373,257,215265,1,10,0:0:0:0:
249,121,215412,6,0,P|153:108|78:167,1,194.399994067383,0|0,0:0|0:0,0:0:0:0:
5,112,215704,1,0,0:0:0:0:
143,100,215851,2,0,P|238:112|313:53,1,194.399994067383,10|0,0:0|0:0,0:0:0:0:
386,108,216143,1,2,1:0:0:0:
384,146,216290,1,0,0:0:0:0:
414,350,216436,2,0,L|420:221,1,129.599996044922,10|0,0:0|0:0,0:0:0:0:
139,284,216729,6,0,B|175:285|175:285|207:269|207:269|243:271,1,108,2|0,1:0|0:0,0:0:0:0:
70,328,217022,6,0,B|156:330|156:330|233:292|233:292|319:296,1,259.2,10|8,0:0|0:3,0:0:0:0:
410,348,217607,1,8,0:3:0:0:
444,349,217680,1,4,0:3:0:0:
479,351,217753,1,4,0:3:0:0:
416,218,217900,6,0,P|332:173|239:199,1,194.399994067383,6|0,3:2|0:0,0:0:0:0:
151,215,218192,6,0,B|153:160|153:160|127:108|127:108|129:50|129:50|170:15|220:38|239:110|181:129,2,345.6,10|2|10,0:0|1:0|0:0,0:0:0:0:
211,285,218924,1,0,0:0:0:0:
287,241,219070,6,0,P|296:247|280:229,1,151.199995385742,2|0,1:0|0:0,0:0:0:0:
136,330,219290,1,0,0:0:0:0:
136,330,219363,2,0,P|126:323|142:341,1,151.199995385742,10|0,0:0|0:0,0:0:0:0:
292,328,219583,1,0,0:0:0:0:
292,328,219656,6,0,P|412:260|406:169,1,243.000009269715,2|0,1:0|0:0,0:0:0:0:
229,41,219948,2,0,P|214:155|311:220,1,243.000009269715,10|0,0:0|0:0,0:0:0:0:
56,136,220241,6,0,B|56:250|56:250|135:330,1,226.799993078614,2|0,1:0|0:0,0:0:0:0:
56,136,220534,2,0,B|135:215|135:215|135:330,1,226.799993078614,10|0,0:0|0:0,0:0:0:0:
257,167,220826,6,0,B|178:88|178:88|56:136,1,243.000009269715,2|0,1:0|0:0,0:0:0:0:
257,167,221119,2,0,B|134:214|134:214|55:135,1,243.000009269715,10|0,0:0|0:0,0:0:0:0:
257,167,221412,6,0,B|257:283|257:283|136:330|136:330|136:212,2,362.879988925782,2|10|2,1:0|0:0|1:0,0:0:0:0:
157,84,222143,1,0,0:0:0:0:
257,167,222290,2,0,P|299:175|352:166,1,90.7199972314454,10|0,0:0|0:0,0:0:0:0:
413,113,222436,2,0,P|431:71|437:27,1,90.7199972314454,8|0,0:0|0:0,0:0:0:0:
428,199,222583,6,0,L|425:366,1,129.599996044922,6|0,1:0|0:0,0:0:0:0:
346,168,222875,1,10,0:0:0:0:
315,250,223022,2,0,P|255:269|191:244,1,129.599996044922,0|2,0:0|1:0,0:0:0:0:
140,180,223314,1,0,0:0:0:0:
46,364,223461,1,10,0:0:0:0:
74,243,223607,6,0,P|134:224|194:246,1,129.599996044922,0|2,0:0|1:0,0:0:0:0:
132,326,223900,1,0,0:0:0:0:
142,144,224046,1,10,0:0:0:0:
140,180,224192,1,0,0:0:0:0:
84,61,224339,2,0,P|144:42|204:64,1,129.599996044922,2|0,1:0|0:0,0:0:0:0:
306,155,224631,2,0,L|240:157,1,64.799998022461,10|0,0:0|0:0,0:0:0:0:
343,62,224778,2,0,L|408:64,1,64.799998022461,0|0,0:0|0:0,0:0:0:0:
445,156,224924,6,0,B|443:221|443:221|474:278|474:278|471:342,1,194.399994067383,2|0,1:0|0:0,0:0:0:0:
262,371,225217,2,0,B|319:340|319:340|353:284|353:284|410:255,1,194.399994067383,10|0,0:0|0:0,0:0:0:0:
504,242,225509,1,2,1:0:0:0:
445,156,225656,1,0,0:0:0:0:
345,253,225802,2,0,P|377:258|410:255,1,64.799998022461,10|0,0:0|0:0,0:0:0:0:
178,271,225948,2,0,P|210:265|243:269,1,64.799998022461,0|0,0:0|0:0,0:0:0:0:
78,288,226095,6,0,B|68:115|68:115|29:191,1,259.2,6|0,1:0|0:0,0:0:0:0:
182,202,226680,6,0,P|256:240|331:202,1,174.960004271484,0|0,0:0|0:0,0:0:0:0:
200,5,227265,6,0,B|140:111|140:111|166:169|166:169|102:169|102:169|45:274|45:274|102:377|102:377|220:377|220:377|256:323|256:323|294:376|294:376|410:377|410:377|474:277|474:277|413:169|413:169|346:169|346:169|379:110|379:110|318:5,2,1350,6|10|2,3:2|0:0|1:0,0:0:0:0:
256,91,230339,1,0,0:0:0:0:
187,165,230485,5,10,0:0:0:0:
190,206,230631,1,0,0:0:0:0:
127,295,230778,5,2,1:0:0:0:
130,336,230924,1,0,0:0:0:0:
190,206,231070,5,10,0:0:0:0:
187,165,231217,1,0,0:0:0:0:
187,165,231363,5,2,1:0:0:0:
190,206,231509,1,0,0:0:0:0:
127,295,231656,6,0,L|54:299,1,64.799998022461,10|0,0:0|0:0,0:0:0:0:
190,206,231802,2,0,L|254:202,1,64.799998022461,8|0,0:0|0:0,0:0:0:0:
399,148,231948,6,0,B|507:86|507:86|400:23|400:23|291:86|291:86|291:211|291:211|399:274|399:274|507:211|507:211|399:148,2,842.39996143799,2|10|2,1:0|0:0|1:0,0:0:0:0:
200,242,233851,2,0,P|228:226|260:223,1,64.799998022461,0|0,0:0|0:0,0:0:0:0:
398,302,233997,1,10,0:0:0:0:
413,330,234143,1,0,0:0:0:0:
276,318,234290,6,0,P|181:331|99:284,1,194.399994067383,2|0,1:0|0:0,0:0:0:0:
276,318,234583,2,0,P|271:349|279:382,1,64.799998022461,10|0,0:0|0:0,0:0:0:0:
260,223,234729,2,0,P|295:134|377:86,1,194.399994067383,0|0,0:0|0:0,0:0:0:0:
487,60,235022,1,0,0:0:0:0:
267,110,235168,2,0,P|236:100|211:80,1,64.799998022461,10|0,0:0|0:0,0:0:0:0:
98,41,235314,1,0,0:0:0:0:
85,222,235461,6,0,B|86:186|86:186|70:154|70:154|72:118,1,108,2|0,1:0|0:0,0:0:0:0:
129,291,235753,6,0,B|131:205|131:205|93:128|93:128|98:41,1,259.2,12|8,0:1|0:3,0:0:0:0:
178,7,236339,1,8,0:3:0:0:
178,7,236412,1,4,0:3:0:0:
178,7,236485,1,4,0:3:0:0:
318,83,236631,6,0,L|211:80,1,108,6|0,3:2|0:0,0:0:0:0:
278,227,236924,1,10,0:0:0:0:
279,195,237070,1,0,0:0:0:0:
318,83,237217,1,2,1:0:0:0:
317,50,237363,1,0,0:0:0:0:
396,173,237509,1,10,0:0:0:0:
429,172,237656,2,0,L|482:173,1,54,0|0,0:0|0:0,0:0:0:0:
473,61,237802,6,0,B|417:58|417:58|371:84|371:84|318:82,1,162,2|0,1:0|0:0,0:0:0:0:
123,217,238095,2,0,B|176:218|176:218|223:192|223:192|279:195,1,162,10|0,0:0|0:0,0:0:0:0:
475,264,238387,1,2,1:0:0:0:
317,308,238534,1,0,0:0:0:0:
209,246,238680,1,10,0:0:0:0:
184,155,238826,1,0,0:0:0:0:
257,125,238973,6,0,P|186:76|123:103,1,162,2|0,1:0|0:0,0:0:0:0:
98,260,239265,2,0,P|170:231|184:155,1,162,10|0,0:0|0:0,0:0:0:0:
61,52,239558,2,0,P|49:27|48:0,2,54,2|0|0,1:0|0:0|0:0,0:0:0:0:
184,155,239851,2,0,P|253:205|316:178,1,162,10|0,0:0|0:0,0:0:0:0:
510,251,240143,6,0,P|450:202|378:229,1,162,2|0,1:0|0:0,0:0:0:0:
301,321,240436,1,10,0:0:0:0:
300,353,240583,1,0,0:0:0:0:
378,228,240729,2,0,P|390:151|330:102,1,162,2|0,1:0|0:0,0:0:0:0:
215,48,241022,2,0,L|267:50,1,54,10|0,0:0|0:0,0:0:0:0:
397,21,241168,2,0,L|344:23,1,54,8|0,0:0|0:0,0:0:0:0:
138,74,241314,5,6,1:0:0:0:
105,75,241461,1,0,0:0:0:0:
31,201,241607,5,10,0:0:0:0:
28,101,241753,1,0,0:0:0:0:
31,201,241900,5,2,1:0:0:0:
138,74,242046,1,0,0:0:0:0:
264,180,242192,5,10,0:0:0:0:
265,213,242339,1,0,0:0:0:0:
391,287,242485,5,2,1:0:0:0:
291,290,242631,1,0,0:0:0:0:
391,287,242778,5,10,0:0:0:0:
264,180,242924,1,0,0:0:0:0:
157,307,243070,6,0,L|104:306,1,54,2|0,1:0|0:0,0:0:0:0:
42,256,243217,1,0,0:0:0:0:
218,356,243363,2,0,L|325:358,1,108,10|0,0:0|0:0,0:0:0:0:
394,125,243656,6,0,L|390:286,1,162,2|0,1:0|0:0,0:0:0:0:
484,194,243948,2,0,P|459:205|433:207,1,54,10|0,0:0|0:0,0:0:0:0:
351,204,244095,2,0,P|275:176|215:121,1,162,0|0,0:0|0:0,0:0:0:0:
173,51,244387,1,0,0:0:0:0:
91,164,244534,2,0,L|144:162,1,54,10|0,0:0|0:0,0:0:0:0:
216,122,244680,1,0,0:0:0:0:
20,205,244826,5,2,1:0:0:0:
20,205,245119,2,0,P|22:231|32:256,1,54,10|0,0:0|0:0,0:0:0:0:
73,327,245265,1,0,0:0:0:0:
73,327,245412,2,0,P|152:313|230:330,1,162,10|0,0:0|0:0,0:0:0:0:
270,259,245704,2,0,P|280:234|283:208,1,54,4|0,0:3|0:0,0:0:0:0:
228,70,245851,2,0,P|218:95|216:122,1,54,4|0,0:3|0:0,0:0:0:0:
301,370,245997,5,4,1:2:0:0:
301,370,246290,5,8,0:0:0:0:
301,370,246436,1,0,0:0:0:0:
301,370,246583,1,0,0:0:0:0:
301,370,246729,1,0,1:0:0:0:
301,370,246875,1,0,0:0:0:0:
340,298,247022,6,0,P|361:299|381:308,1,43.2,8|0,0:0|0:0,0:0:0:0:
449,249,247168,1,0,0:0:0:0:
449,249,247314,1,0,1:0:0:0:
449,249,247461,2,0,P|446:227|437:208,1,43.2,8|0,0:0|0:0,0:0:0:0:
465,122,247607,1,2,0:1:0:0:
465,122,247753,5,2,0:1:0:0:
465,122,247900,2,0,P|482:109|494:91,2,43.2,0|0|8,1:0|0:0|0:0,0:0:0:0:
465,122,248192,1,0,0:0:0:0:
379,93,248339,5,0,1:2:0:0:
379,93,248631,5,8,0:0:0:0:
379,93,248778,1,0,0:0:0:0:
379,93,248924,1,0,0:0:0:0:
379,93,249070,1,0,1:0:0:0:
379,93,249217,1,0,0:0:0:0:
308,134,249363,6,0,P|286:133|266:124,1,43.2,8|0,0:0|0:0,0:0:0:0:
181,136,249509,1,0,0:0:0:0:
181,136,249656,1,0,1:0:0:0:
181,136,249802,1,8,0:0:0:0:
128,67,249948,1,2,0:1:0:0:
147,216,250095,5,2,0:1:0:0:
147,216,250241,2,0,P|127:207|105:206,2,43.2,0|0|8,1:0|0:0|0:0,0:0:0:0:
147,216,250534,1,0,0:0:0:0:
200,285,250680,5,0,1:2:0:0:
200,285,250973,5,8,0:0:0:0:
200,285,251119,1,0,0:0:0:0:
200,285,251265,1,0,0:0:0:0:
200,285,251412,1,0,1:0:0:0:
200,285,251558,1,0,0:0:0:0:
269,233,251704,6,0,P|290:234|310:242,1,43.2,8|0,0:0|0:0,0:0:0:0:
379,190,251851,1,0,0:0:0:0:
379,190,251997,1,0,1:0:0:0:
379,190,252143,2,0,P|400:189|420:181,1,43.2,8|0,0:0|0:0,0:0:0:0:
489,233,252290,1,2,0:1:0:0:
489,233,252436,5,2,0:1:0:0:
489,233,252583,2,0,P|497:252|498:274,2,43.2,0|0|8,1:0|0:0|0:0,0:0:0:0:
489,233,252875,1,0,0:0:0:0:
501,147,253022,5,0,1:2:0:0:
501,147,253314,6,0,L|504:89,1,43.2,8|0,0:0|0:0,0:0:0:0:
422,70,253607,2,0,L|425:27,2,43.2,0|0|0,0:0|1:0|0:0,0:0:0:0:
353,124,254046,2,0,L|266:117,1,86.4,10|8,0:1|0:3,0:0:0:0:
163,199,254339,5,8,0:3:0:0:
131,196,254412,1,8,0:3:0:0:
99,194,254485,1,4,0:3:0:0:
67,192,254558,1,4,0:3:0:0:
24,173,254631,5,4,3:1:0:0:
