osu file format v14

[General]
AudioFilename: audio.mp3
AudioLeadIn: 0
PreviewTime: 77079
Countdown: 0
SampleSet: None
StackLeniency: 0.3
Mode: 0
LetterboxInBreaks: 0
WidescreenStoryboard: 1

[Editor]
DistanceSpacing: 0.7
BeatDivisor: 4
GridSize: 32
TimelineZoom: 2.15

[Metadata]
Title:Kairikou
TitleUnicode:乖離光
Artist:Feryquitous feat. Aitsuki Nakuru
ArtistUnicode:フェリキタス feat.藍月なくる
Creator:Mewe
Version:Easy
Source:
Tags:soleil de minuit endorfin. 藍月なくる cut
BeatmapID:1620388
BeatmapSetID:754942

[Difficulty]
HPDrainRate:3
CircleSize:3
OverallDifficulty:3
ApproachRate:3
SliderMultiplier:0.7
SliderTickRate:1

[Events]
//Background and Video events
0,0,"35f2f1a655e7901819d10a829855e099.jpg",0,0
//Break Periods
2,21523,38614
//Storyboard Layer 0 (Background)
//Storyboard Layer 1 (Fail)
//Storyboard Layer 2 (Pass)
//Storyboard Layer 3 (Foreground)
//Storyboard Sound Samples

[TimingPoints]
250,292.682926829268,4,3,0,100,1,0
2591,-100,4,3,0,100,0,0
77518,-100,4,3,0,100,0,1
85713,-100,4,3,0,100,0,0
86884,-100,4,3,0,100,0,1
95957,-100,4,3,0,100,0,0
96249,-100,4,3,0,100,0,1
104445,-100,4,3,0,100,0,0
105615,-100,4,3,0,100,0,1
114981,-100,4,3,0,100,0,0

[Colours]
Combo1 : 49,49,49
Combo2 : 95,95,95
Combo3 : 184,194,201
Combo4 : 2,50,98

[HitObjects]
63,118,2591,6,0,P|159:86|223:118,1,175
255,150,3615,2,0,P|334:181|395:167,1,140
447,65,4932,6,0,L|430:254,1,175
397,274,5957,2,0,L|257:261,1,140
127,246,7274,6,0,P|127:150|191:102,1,175
222,133,8298,2,0,L|373:146,1,140
401,29,9615,6,0,P|305:29|257:93,1,175
247,133,10639,2,0,L|260:284,1,140
143,231,11957,6,0,B|111:138|191:162|148:65,1,175,4|0,2:0|0:0,0:0:0:0:
123,22,12981,2,0,L|266:34,1,140
359,47,14152,6,0,L|141:66,1,210
124,107,15323,2,0,P|99:199|148:262,1,175
239,248,16640,6,0,P|263:155|214:92,1,175
177,73,17664,2,0,B|270:41|246:121|343:78,1,175
433,38,18981,6,0,L|410:295,1,245
411,282,21323,1,4,0:2:0:0:
411,282,40054,6,0,P|295:320|217:282,1,210
198,241,41225,2,0,P|102:204|8:244,1,210
44,296,42396,6,0,L|61:84,1,210
98,54,43567,6,0,B|230:-2|174:109|307:54,1,210
350,70,44737,6,0,P|388:185|350:263,1,210
307,290,45908,2,0,L|83:270,1,210
53,293,47079,6,0,L|71:83,1,210
101,45,48249,1,0,0:0:0:0:
101,45,49420,6,0,B|227:2|179:98|307:50,1,210,4|0,0:2|0:0,0:0:0:0:
348,38,50591,2,0,L|335:181,1,140
318,274,51762,6,0,B|192:317|240:221|112:269,1,210,0|0,0:2|0:0,0:0:0:0:
71,281,52933,2,0,L|83:137,1,140
178,160,54103,6,0,P|282:162|364:91,1,210
386,55,55274,2,0,L|397:194,1,140
318,252,56445,6,0,P|214:254|132:183,1,210
110,147,57615,2,0,L|98:286,1,140
77,306,58786,6,0,L|65:166,1,140
55,68,59957,2,0,L|194:79,1,140
267,13,61128,6,0,P|283:93|259:157,1,140
176,188,62298,2,0,P|160:268|184:332,1,140
217,292,63176,1,0,0:0:0:0:
259,267,63469,6,0,B|339:299|307:235|403:267,1,140
458,337,64640,2,0,L|445:193,1,140
376,128,65810,6,0,P|296:112|232:136,1,140
177,203,66981,2,0,L|164:63,1,140
71,31,68152,6,0,L|83:170,1,140
154,237,69323,2,0,P|234:253|298:229,1,140
347,157,70493,6,0,P|267:141|203:165,1,140
154,237,71664,2,0,L|141:97,1,140
184,73,72542,1,0,0:0:0:0:
226,48,72835,6,0,B|306:80|274:16|370:48,1,140
418,123,74006,2,0,P|436:189|419:256,1,140
333,303,75176,6,0,L|182:290,1,140
142,238,76201,1,0,0:0:0:0:
142,238,77518,6,0,L|287:225,1,140
326,246,78396,1,0,0:0:0:0:
368,271,78689,6,0,B|336:191|400:223|368:127,1,140
335,103,79567,1,0,0:0:0:0:
294,75,79859,6,0,P|228:57|161:74,1,140
122,106,80737,1,0,0:0:0:0:
87,141,81030,6,0,L|99:286,1,140
79,325,81908,1,0,0:0:0:0:
49,364,82201,6,0,P|115:382|182:365,1,140
215,328,83079,1,0,0:0:0:0:
249,293,83371,6,0,P|315:275|382:293,1,140
423,321,84249,1,0,0:0:0:0:
459,353,84542,6,0,L|446:205,1,140
460,166,85420,2,0,L|311:152,1,140
175,128,86884,6,0,L|188:273,1,140
167,312,87762,1,0,0:0:0:0:
142,354,88055,6,0,B|222:322|190:386|286:354,1,140
315,327,88932,1,0,0:0:0:0:
348,291,89225,6,0,P|366:225|349:158,1,140
315,121,90103,1,0,0:0:0:0:
277,89,90396,6,0,L|137:76,1,140
102,111,91274,1,0,0:0:0:0:
69,147,91567,6,0,L|81:286,1,140
118,318,92445,1,0,0:0:0:0:
157,346,92737,6,0,P|223:364|290:347,1,140
327,314,93615,1,0,0:0:0:0:
359,277,93908,6,0,B|391:197|327:229|359:133,1,140
386,104,94786,1,0,0:0:0:0:
422,70,95079,2,0,L|274:57,1,140
206,119,96249,6,0,B|211:182|211:182|205:199|205:199|211:271,1,140
244,292,97128,1,0,0:0:0:0:
282,322,97420,6,0,L|421:309,1,140
450,270,98298,1,0,0:0:0:0:
476,228,98591,6,0,L|463:88,1,140
420,65,99469,1,0,0:0:0:0:
377,41,99762,6,0,B|297:9|329:73|233:41,1,140
195,30,100640,1,0,0:0:0:0:
146,21,100932,6,0,L|158:160,2,140
146,21,102689,1,0,0:0:0:0:
70,83,103274,6,0,L|82:222,1,140
120,253,104152,2,0,B|200:285|168:221|264:253,1,140
361,351,105615,6,0,B|366:287|366:287|360:270|360:270|366:198,1,140
353,164,106494,1,0,0:0:0:0:
336,118,106786,6,0,L|196:130,1,140
153,153,107664,1,0,0:0:0:0:
113,181,107957,6,0,B|81:261|145:229|113:325,1,140
154,345,108835,1,0,0:0:0:0:
198,365,109128,6,0,L|337:352,1,140
373,319,110006,1,0,0:0:0:0:
404,281,110298,6,0,L|391:141,2,140
404,281,112054,1,0,0:0:0:0:
485,225,112640,6,0,L|472:85,1,140
432,57,113518,1,0,0:0:0:0:
390,31,113810,6,0,B|310:-1|342:63|246:31,1,140
169,80,114981,1,0,0:0:0:0:
169,80,116152,6,0,L|182:220,1,140
109,285,117323,1,0,0:0:0:0:
109,285,118493,6,0,B|189:253|157:317|253:285,1,140
336,320,119664,1,0,0:0:0:0:
336,320,120835,6,0,L|349:180,1,140
284,106,122006,1,0,0:0:0:0:
284,106,123176,6,0,L|388:96,1,105
