osu file format v14

[General]
AudioFilename: audio.mp3
AudioLeadIn: 0
PreviewTime: 167404
Countdown: 0
SampleSet: Soft
StackLeniency: 0.4
Mode: 0
LetterboxInBreaks: 0
WidescreenStoryboard: 1

[Editor]
Bookmarks: 19118,28118,46547,55690,64833,87690,103690,121975,131118,149404,158547,167690,185975,189404,205404,214547,221404,230547
DistanceSpacing: 0.3
BeatDivisor: 4
GridSize: 8
TimelineZoom: 2.6

[Metadata]
Title:Fake
TitleUnicode:フェイク
Artist:Feryquitous feat. Aitsuki Nakuru
ArtistUnicode:Feryquitous feat. 藍月なくる
Creator:KlaksoncakFish
Version:Hard
Source:
Tags:featured artist fa nacollection -3- pop rock japanese jrock j-rock Nacollection-3- jpop j-pop
BeatmapID:3192672
BeatmapSetID:1559330

[Difficulty]
HPDrainRate:4.4
CircleSize:3.6
OverallDifficulty:7
ApproachRate:8
SliderMultiplier:1.22
SliderTickRate:1

[Events]
//Background and Video events
0,0,"doppelganger.jpeg",0,0
//Break Periods
2,131318,139511
//Storyboard Layer 0 (Background)
//Storyboard Layer 1 (Fail)
//Storyboard Layer 2 (Pass)
//Storyboard Layer 3 (Foreground)
//Storyboard Layer 4 (Overlay)
//Storyboard Sound Samples

[TimingPoints]
833,285.714285714286,4,1,1,35,1,0
833,-166.666666666667,4,2,1,35,0,0
9975,-142.857142857143,4,2,1,35,0,0
16833,-133.333333333333,4,1,3,55,0,0
16904,-100,4,1,1,55,0,0
17975,-100,4,1,1,65,0,0
18833,-100,4,1,1,75,0,0
19118,-100,4,1,1,85,0,0
20118,-100,4,1,1,75,0,0
21404,-100,4,1,1,85,0,0
24690,-100,4,1,1,75,0,0
26975,-83.3333333333333,4,1,1,85,0,0
27261,-83.3333333333333,4,1,1,75,0,0
27547,-100,4,1,1,75,0,0
28118,-90.9090909090909,4,1,3,85,0,0
28261,-90.9090909090909,4,1,1,85,0,0
28547,-100,4,1,1,70,0,0
45690,-100,4,1,1,75,0,0
46547,-111.111111111111,4,2,1,70,0,0
55690,-125,4,2,1,65,0,0
57404,-100,4,2,1,70,0,0
64833,-111.111111111111,4,2,1,60,0,0
73975,-111.111111111111,4,2,1,60,0,0
79690,-111.111111111111,4,2,1,60,0,0
80833,-111.111111111111,4,1,1,60,0,0
83118,-90.9090909090909,4,1,1,60,0,0
85261,-133.333333333333,4,1,1,60,0,0
86690,-133.333333333333,4,1,2,60,0,0
87690,-74.0740740740741,4,1,3,90,0,1
87761,-74.0740740740741,4,1,1,90,0,1
96118,-74.0740740740741,4,1,1,90,0,0
96833,-74.0740740740741,4,1,1,90,0,1
102690,-74.0740740740741,4,1,1,90,0,0
103690,285.714285714286,4,1,3,80,1,1
103690,-83.3333333333333,4,1,3,80,0,1
103761,-83.3333333333333,4,1,1,80,0,1
112832,-90.9090909090909,4,1,1,70,0,0
121975,-100,4,2,2,70,0,0
124261,-100,4,2,1,70,0,0
126547,-100,4,2,2,70,0,0
128833,-100,4,2,1,70,0,0
131118,-100,4,2,3,50,0,0
139261,-100,4,2,1,50,0,0
140261,-111.111111111111,4,2,1,60,0,0
147118,-100,4,2,3,60,0,0
149404,-125,4,2,1,60,0,0
158547,-100,4,2,1,65,0,0
166261,-100,4,2,3,65,0,0
167404,-100,4,2,1,65,0,0
167690,-100,4,2,1,65,0,0
185833,-133.333333333333,4,2,1,65,0,0
185975,-133.333333333333,4,1,1,65,0,0
187261,-133.333333333333,4,2,2,65,0,0
188261,-100,4,2,1,65,0,0
189404,285.714285714286,4,1,3,90,1,1
189404,-74.0740740740741,4,1,3,90,0,1
189475,-74.0740740740741,4,1,3,90,0,1
189975,-74.0740740740741,4,1,1,90,0,1
197832,-74.0740740740741,4,1,1,90,0,0
198546,-74.0740740740741,4,1,1,90,0,1
204404,-74.0740740740741,4,1,1,90,0,0
205404,285.714285714286,4,1,3,90,1,1
205404,-83.3333333333333,4,1,3,90,0,1
205475,-83.3333333333333,4,1,3,90,0,1
206118,-83.3333333333333,4,1,1,90,0,1
214547,-66.6666666666667,4,1,1,90,0,1
219118,-83.3333333333333,4,1,1,60,0,1
219833,-83.3333333333333,4,1,1,70,0,1
220118,-83.3333333333333,4,1,1,80,0,1
220261,-83.3333333333333,4,1,1,90,0,1
221404,285.714285714286,4,2,2,60,1,0
221404,-100,4,2,2,60,0,0

[Colours]
Combo1 : 190,0,200
Combo2 : 158,204,0
Combo3 : 211,235,116

[HitObjects]
30,50,833,6,0,P|75:45|116:43,1,73.1999977661134,2|0,3:2|0:0,0:0:0:0:
181,60,1404,2,0,B|243:77|237:33|298:53,1,109.79999664917,2|0,0:0|3:0,0:0:0:0:
322,69,1975,2,0,P|316:101|310:143,1,73.1999977661134,2|0,0:0|3:0,0:0:0:0:
389,155,2547,1,2,0:0:0:0:
501,44,3118,5,2,3:2:0:0:
501,44,3261,2,0,P|506:80|512:116,1,73.1999977661134,0|0,0:0|3:0,0:0:0:0:
494,152,3690,2,0,P|452:144|413:203,1,109.79999664917,2|0,0:0|3:0,0:0:0:0:
423,229,4261,1,2,0:0:0:0:
376,295,4547,1,0,3:0:0:0:
357,373,4833,1,2,0:0:0:0:
205,341,5404,5,2,3:2:0:0:
261,284,5690,2,0,B|297:189|210:198|254:108,1,182.999994415283,0|0,3:0|3:0,0:0:0:0:
266,71,6547,2,0,P|306:76|340:79,1,73.1999977661134,2|0,0:0|3:0,0:0:0:0:
418,90,7118,1,2,0:0:0:0:
126,29,7690,5,2,3:2:0:0:
126,29,7833,2,0,P|87:34|46:38,1,73.1999977661134,0|0,3:0|3:0,0:0:0:0:
13,44,8261,2,0,P|26:105|35:167,1,109.79999664917,2|0,0:0|3:0,0:0:0:0:
30,192,8833,1,0,0:0:0:0:
107,170,9118,1,0,3:0:0:0:
182,197,9404,1,2,0:0:0:0:
28,350,9975,5,2,3:2:0:0:
121,342,10261,1,0,3:0:0:0:
121,342,10547,2,0,P|163:309|239:317,1,128.099996090698,2|0,0:0|3:0,0:0:0:0:
276,335,11118,2,0,P|282:289|289:250,1,85.3999973937989,2|0,0:0|3:0,0:0:0:0:
304,166,11690,1,2,0:0:0:0:
465,252,12261,5,2,3:2:0:0:
465,252,12404,2,0,P|455:195|451:156,1,85.3999973937989,0|0,3:0|3:0,0:0:0:0:
451,120,12833,2,0,B|455:86|462:56|462:56|432:56|394:54,1,128.099996090698,2|0,0:0|3:0,0:0:0:0:
352,47,13404,1,2,0:0:0:0:
292,119,13690,1,0,3:0:0:0:
369,171,13975,1,2,0:0:0:0:
128,39,14547,5,2,3:2:0:0:
128,39,14833,2,0,B|108:89|50:94|50:94|40:161|102:195,1,213.499993484497,0|0,3:0|3:0,0:0:0:0:
135,169,15690,2,0,P|163:158|223:172,1,85.3999973937989,2|0,0:0|3:0,0:0:0:0:
173,255,16261,1,2,0:0:0:0:
338,152,16833,6,0,B|374:114|470:127|482:230|411:253|411:253|290:276|257:401|398:452|477:336|414:257|374:212|308:234,1,640.500024433137,4|10,3:2|0:2,0:0:0:0:
179,240,19118,6,0,P|176:189|170:93,1,122,6|8,0:1|0:2,0:0:0:0:
116,52,19547,1,8,0:3:0:0:
185,2,19690,2,0,P|233:10|262:9,2,61,4|2|10,2:3|2:0|2:0,0:0:0:0:
247,93,20118,6,0,P|300:96|333:101,1,61,6|0,0:0|2:0,0:0:0:0:
382,139,20404,2,0,P|435:142|468:147,1,61,2|8,0:0|0:0,0:0:0:0:
489,215,20690,2,0,P|508:253|498:293,2,61,0|2|2,2:3|0:2|0:2,0:0:0:0:
409,245,21118,2,0,P|410:275|427:300,1,61,8|0,0:0|2:0,0:0:0:0:
362,351,21404,6,0,B|298:328|308:390|231:353,1,122,6|8,0:0|0:0,0:0:0:0:
182,299,21833,1,8,0:3:0:0:
267,281,21975,2,0,P|261:244|257:210,2,61,4|2|10,2:3|2:0|2:0,0:0:0:0:
350,259,22404,6,0,P|341:197|332:125,1,122,6|2,0:0|0:0,0:0:0:0:
334,52,22833,2,0,P|301:56|267:85,1,61,10|2,0:2|2:1,0:0:0:0:
203,112,23118,2,0,P|220:136|247:151,1,61,2|2,0:2|2:0,0:0:0:0:
322,196,23404,2,0,P|334:169|333:139,1,61,10|0,0:0|2:0,0:0:0:0:
278,70,23690,6,0,B|236:23|236:23|170:32,1,122,6|8,0:0|0:2,0:0:0:0:
93,44,24118,1,8,0:3:0:0:
146,110,24261,2,0,L|140:173,2,61,4|2|10,2:3|2:0|2:0,0:0:0:0:
222,158,24690,6,0,B|230:188|230:188|215:222,1,61,6|0,0:0|2:0,0:0:0:0:
140,252,24975,2,0,B|132:282|132:282|147:316,1,61,2|8,0:0|0:0,0:0:0:0:
205,369,25261,1,0,2:0:0:0:
205,369,25404,2,0,P|255:364|276:362,1,61,2|2,0:2|0:2,0:0:0:0:
281,278,25690,2,0,P|250:280|220:284,1,61,8|0,0:0|2:0,0:0:0:0:
140,252,25975,6,0,P|109:218|126:145,2,122,6|10|2,0:0|0:0|3:1,0:0:0:0:
220,284,26690,1,2,0:0:0:0:
220,284,26833,1,8,0:0:0:0:
276,220,26975,6,0,P|278:172|282:139,1,73.1999977661134,14|0,0:0|2:0,0:0:0:0:
350,98,27261,2,0,P|352:50|356:17,1,73.1999977661134,14|0,0:0|2:0,0:0:0:0:
434,14,27547,5,14,0:2:0:0:
489,149,27833,1,14,0:2:0:0:
350,98,28118,6,0,P|300:80|228:128,1,134.200004095459,14|0,0:0|0:0,0:0:0:0:
173,179,28547,2,0,P|119:169|44:162,1,122,10|0,0:2|0:0,0:0:0:0:
10,87,28975,1,4,0:3:0:0:
95,82,29118,1,10,0:2:0:0:
95,82,29261,6,0,P|155:87|215:98,1,122,4|0,2:3|3:0,0:0:0:0:
258,173,29690,2,0,B|235:232|235:232|275:284,1,122,10|0,0:2|0:0,0:0:0:0:
330,340,30118,1,0,3:0:0:0:
330,340,30261,2,0,P|371:333|410:332,1,61,10|0,0:2|0:0,0:0:0:0:
476,334,30547,5,6,0:1:0:0:
436,257,30690,1,0,2:0:0:0:
436,257,30833,2,0,P|442:210|453:124,2,122,14|2|10,0:2|0:2|0:2,0:0:0:0:
390,331,31547,1,4,0:3:0:0:
390,331,31690,2,0,P|356:340|315:329,1,61,0|4,0:0|3:0,0:0:0:0:
254,298,31975,6,0,P|213:279|135:310,1,122,10|0,0:2|3:0,0:0:0:0:
79,359,32404,1,0,2:0:0:0:
24,292,32547,2,0,P|30:247|36:213,1,61,10|2,0:2|0:2,0:0:0:0:
22,146,32833,6,0,B|96:133|76:189|149:169,2,122,6|10|0,0:0|0:0|0:0,0:0:0:0:
47,64,33547,2,0,P|88:69|112:82,1,61,4|10,0:3|0:2,0:0:0:0:
178,123,33833,2,0,P|185:55|192:-7,1,122,0|2,0:0|2:0,0:0:0:0:
268,38,34261,2,0,P|261:106|254:168,1,122,10|0,0:2|0:0,0:0:0:0:
302,231,34690,1,0,3:0:0:0:
302,231,34833,2,0,P|342:222|366:189,1,61,10|0,0:2|0:0,0:0:0:0:
372,125,35118,5,6,0:1:0:0:
315,68,35261,1,2,0:2:0:0:
315,68,35404,2,0,P|272:63|230:58,1,61,14|0,0:2|2:0,0:0:0:0:
389,30,35690,2,0,P|445:39|520:48,1,122,12|10,0:2|0:2,0:0:0:0:
469,122,36118,6,0,P|436:160|444:229,1,122,0|0,3:1|3:0,0:0:0:0:
495,295,36547,2,0,P|457:328|388:320,1,122,10|8,0:2|0:3,0:0:0:0:
330,258,36975,2,0,P|332:223|334:188,2,61,8|10|8,0:3|0:3|0:3,0:0:0:0:
269,319,37404,6,0,P|236:334|148:286,2,122,4|10|0,0:2|0:2|0:0,0:0:0:0:
330,258,38118,2,0,P|362:273|402:261,1,61,4|10,0:3|0:2,0:0:0:0:
435,199,38404,6,0,P|383:185|305:174,1,122,0|0,3:0|3:0,0:0:0:0:
254,114,38833,2,0,P|306:100|384:89,1,122,10|2,0:2|0:2,0:0:0:0:
429,25,39261,1,0,3:0:0:0:
429,25,39404,2,0,P|381:10|354:5,1,61,10|2,0:2|0:2,0:0:0:0:
285,19,39690,6,0,P|237:34|210:39,1,61,6|0,0:0|3:0,0:0:0:0:
122,23,39975,2,0,B|144:50|144:50|126:144,2,122,12|10|10,0:1|0:2|0:2,0:0:0:0:
54,75,40690,1,0,3:0:0:0:
54,75,40833,6,0,P|45:116|40:140,1,61,0|0,0:0|3:0,0:0:0:0:
80,210,41118,2,0,P|136:221|202:238,1,122,10|8,0:2|0:3,0:0:0:0:
277,202,41547,1,8,2:3:0:0:
277,202,41690,2,0,P|285:243|290:267,1,61,0|8,0:3|2:3,0:0:0:0:
316,342,41975,6,0,P|358:350|421:298,2,122,6|10|0,0:0|0:2|0:0,0:0:0:0:
289,261,42690,1,0,3:0:0:0:
273,177,42833,1,10,0:2:0:0:
273,177,42975,6,0,P|341:178|400:190,1,122,2|2,0:2|0:2,0:0:0:0:
402,102,43404,2,0,P|334:101|275:89,1,122,10|0,0:2|0:0,0:0:0:0:
220,29,43833,1,0,3:0:0:0:
220,29,43975,2,0,P|178:22|148:42,1,61,10|2,0:2|0:2,0:0:0:0:
92,78,44261,5,6,0:0:0:0:
142,147,44404,1,0,0:0:0:0:
142,147,44547,2,0,B|121:207|186:200|154:280,2,122,14|12|8,0:2|0:2|0:2,0:0:0:0:
192,77,45261,1,4,0:2:0:0:
192,77,45690,6,2,B|245:57|279:87|279:87|319:82|319:82|352:124|428:101,1,244,14|0,1:0|0:0,0:0:0:0:
421,102,46547,6,0,P|424:163|429:234,1,109.79999664917,6|8,1:0|0:0,0:0:0:0:
352,241,46975,1,2,0:2:0:0:
352,241,47118,2,0,P|348:186|345:131,1,109.79999664917,8|8,0:3|0:0,0:0:0:0:
338,48,47547,1,6,1:0:0:0:
270,94,47690,2,0,P|225:93|192:89,1,54.899998324585,2|2,0:2|1:0,0:0:0:0:
132,67,47975,6,0,B|146:126|101:116|122:194,1,109.79999664917,10|8,0:2|0:3,0:0:0:0:
78,248,48404,1,8,0:3:0:0:
78,248,48547,2,0,P|35:253|9:251,1,54.899998324585,8|0,0:0|0:0,0:0:0:0:
129,316,48833,6,0,P|156:320|183:320,1,54.899998324585,6|0,1:2|0:0,0:0:0:0:
242,254,49118,2,0,P|269:249|296:249,1,54.899998324585,10|0,0:2|0:0,0:0:0:0:
356,307,49404,1,2,1:2:0:0:
419,254,49547,2,0,P|446:258|473:258,1,54.899998324585,2|8,1:2|0:0,0:0:0:0:
417,172,49833,6,0,P|377:149|366:72,1,109.79999664917,2|0,1:2|0:0,0:0:0:0:
301,33,50261,1,10,0:2:0:0:
226,67,50404,2,0,P|203:107|126:118,1,109.79999664917,2|0,1:2|0:0,0:0:0:0:
63,105,50833,2,0,P|66:151|68:173,1,54.899998324585,8|8,1:0|1:0,0:0:0:0:
18,248,51118,6,0,B|67:246|67:246|82:252|82:252|143:246,1,109.79999664917,6|8,1:0|0:0,0:0:0:0:
194,332,51547,1,2,0:2:0:0:
194,332,51690,2,0,B|149:327|149:327|134:333|134:333|85:331,1,109.79999664917,8|8,0:3|0:0,0:0:0:0:
24,276,52118,1,6,1:0:0:0:
89,226,52261,6,0,P|102:198|97:159,1,54.899998324585,2|2,0:2|1:0,0:0:0:0:
77,94,52547,2,0,P|141:88|208:82,1,109.79999664917,10|8,0:2|0:3,0:0:0:0:
261,50,52975,2,0,P|265:91|265:122,2,54.899998324585,8|8|0,0:3|0:0|0:0,0:0:0:0:
343,41,53404,6,0,P|348:94|352:167,1,109.79999664917,4|8,1:0|0:0,0:0:0:0:
327,224,53833,2,0,P|323:265|323:296,1,54.899998324585,2|0,1:0|0:0,0:0:0:0:
378,339,54118,1,2,0:2:0:0:
378,339,54261,6,0,P|417:337|437:318,1,54.899998324585,8|2,1:0|1:2,0:0:0:0:
409,247,54547,2,0,P|370:249|350:268,1,54.899998324585,0|2,1:0|0:2,0:0:0:0:
299,315,54833,2,0,B|233:336|262:279|177:310,1,109.79999664917,10|0,1:0|1:0,0:0:0:0:
122,343,55261,1,0,3:0:0:0:
122,343,55404,1,4,3:0:0:0:
29,228,55690,6,0,P|13:181|103:141,1,146.4,4|2,0:1|2:0,0:0:0:0:
158,168,56261,2,0,P|173:205|236:207,1,97.6,0|0,2:0|2:0,0:0:0:0:
291,165,56690,6,0,P|330:159|362:159,1,48.8,2|0,1:0|2:1,0:0:0:0:
405,107,56975,2,0,P|444:101|476:101,1,48.8,2|0,1:0|2:1,0:0:0:0:
417,188,57261,6,0,P|411:225|411:242,2,48.8,0|2|2,3:0|3:2|3:2,0:0:0:0:
453,100,57690,2,0,P|459:63|457:38,1,61,8|0,0:0|0:0,0:0:0:0:
375,13,57975,6,0,P|334:16|302:17,1,61,4|0,1:2|0:0,0:0:0:0:
233,37,58261,1,8,0:0:0:0:
233,37,58404,2,0,P|249:76|243:110,1,61,0|0,0:0|0:0,0:0:0:0:
188,156,58690,2,0,P|138:150|46:146,1,122,2|2,0:2|0:2,0:0:0:0:
38,226,59118,6,0,P|81:232|104:233,1,61,4|0,1:0|0:0,0:0:0:0:
174,299,59404,2,0,P|179:268|181:238,1,61,10|0,1:2|0:0,0:0:0:0:
248,162,59690,2,0,P|217:157|187:155,1,61,8|8,1:3|1:3,0:0:0:0:
111,88,59976,2,0,P|106:119|104:149,1,61,10|2,0:2|0:2,0:0:0:0:
98,232,60261,6,0,P|123:285|204:284,1,122,6|8,1:0|0:0,0:0:0:0:
270,302,60690,1,0,0:0:0:0:
270,302,60833,2,0,P|328:306|404:316,1,122,8|8,0:3|0:0,0:0:0:0:
452,373,61261,1,6,1:0:0:0:
471,289,61404,6,0,P|466:250|463:219,1,61,2|2,0:2|1:0,0:0:0:0:
503,152,61690,2,0,P|469:142|387:192,1,122,10|8,0:2|0:3,0:0:0:0:
386,262,62118,1,8,0:3:0:0:
386,262,62261,2,0,P|341:256|317:254,1,61,8|0,0:0|0:0,0:0:0:0:
239,251,62547,6,0,P|245:206|247:182,1,61,4|0,1:0|0:0,0:0:0:0:
297,121,62833,2,0,B|262:101|262:101|179:117,2,122,10|8|10,1:2|1:3|1:2,0:0:0:0:
352,56,63547,2,0,L|293:24,1,61,4|0,0:2|0:0,0:0:0:0:
212,26,63833,2,0,L|140:40,1,61,4|0,0:2|0:0,0:0:0:0:
66,31,64118,5,8,1:0:0:0:
66,31,64261,2,0,P|73:69|75:106,1,61,8|4,1:0|0:3,0:0:0:0:
37,166,64547,2,0,P|44:204|46:241,1,61,4|0,0:3|3:0,0:0:0:0:
28,320,64833,6,0,P|81:302|165:362,1,164.699994973755,4|0,3:2|0:0,0:0:0:0:
237,322,65404,2,0,P|219:269|279:185,1,164.699994973755,10|0,0:2|3:0,0:0:0:0:
359,181,65975,6,0,P|365:226|367:248,1,54.899998324585,0|0,0:0|3:0,0:0:0:0:
433,283,66261,2,0,P|478:289|500:291,1,54.899998324585,0|0,3:0|0:0,0:0:0:0:
446,204,66547,2,0,P|438:158|428:78,1,109.79999664917,10|0,0:2|0:0,0:0:0:0:
275,36,67118,5,4,3:1:0:0:
275,36,67261,2,0,P|220:47|151:64,1,109.79999664917,0|0,3:0|0:0,0:0:0:0:
187,140,67690,2,0,P|242:129|311:112,1,109.79999664917,10|0,0:2|0:0,0:0:0:0:
371,88,68118,6,0,B|397:138|397:138|372:191,2,109.79999664917,0|0|0,3:0|3:0|3:0,0:0:0:0:
448,57,68833,2,0,P|464:85|478:111,1,54.899998324585,10|0,0:2|0:0,0:0:0:0:
465,186,69118,2,0,P|453:210|441:235,1,54.899998324585,2|0,0:2|0:0,0:0:0:0:
366,270,69404,6,0,P|322:260|261:356,1,164.699994973755,4|0,3:2|3:0,0:0:0:0:
179,368,69975,1,10,0:2:0:0:
27,303,70261,1,0,0:0:0:0:
101,267,70404,2,0,P|121:230|107:166,1,109.79999664917,0|0,3:0|0:0,0:0:0:0:
130,86,70833,2,0,P|177:92|197:92,1,54.899998324585,0|0,3:0|3:0,0:0:0:0:
141,8,71118,2,0,P|192:13|259:15,1,109.79999664917,10|4,0:2|0:2,0:0:0:0:
448,7,71690,5,4,3:2:0:0:
448,7,71833,2,0,P|450:53|453:119,1,109.79999664917,0|0,3:0|3:0,0:0:0:0:
374,143,72261,2,0,P|372:99|371:72,1,54.899998324585,10|0,0:2|0:0,0:0:0:0:
302,42,72547,1,0,0:0:0:0:
302,42,72690,2,0,B|235:29|266:82|182:63,1,109.79999664917,0|10,3:0|0:2,0:0:0:0:
121,40,73118,6,0,P|90:49|67:82,1,54.899998324585,10|10,0:2|0:2,0:0:0:0:
139,123,73404,2,0,P|134:162|133:194,1,54.899998324585,4|4,0:3|0:3,0:0:0:0:
159,256,73690,2,0,P|154:295|153:327,1,54.899998324585,0|0,3:0|3:0,0:0:0:0:
215,364,73975,5,0,3:0:0:0:
318,328,74261,1,0,3:0:0:0:
421,364,74547,1,0,3:0:0:0:
320,318,74833,1,0,3:0:0:0:
438,260,75118,5,0,3:0:0:0:
414,152,75404,1,0,3:0:0:0:
305,169,75690,1,0,3:0:0:0:
329,277,75976,1,0,3:0:0:0:
220,260,76261,6,0,P|178:251|96:235,1,109.79999664917,0|0,3:0|3:0,0:0:0:0:
18,296,76833,2,0,P|23:259|27:230,1,54.899998324585,0|0,3:0|0:0,0:0:0:0:
29,158,77118,1,0,3:0:0:0:
129,112,77404,5,0,3:0:0:0:
225,163,77690,1,0,3:0:0:0:
308,91,77975,1,0,3:0:0:0:
404,142,78261,6,0,P|436:124|447:96,1,54.899998324585,0|0,3:0|0:0,0:0:0:0:
449,31,78547,5,0,3:0:0:0:
339,28,78833,1,0,3:0:0:0:
229,25,79118,1,0,3:0:0:0:
119,22,79404,6,0,L|124:83,1,54.899998324585,0|4,3:0|0:3,0:0:0:0:
131,158,79690,5,0,3:0:0:0:
88,258,79975,1,0,3:0:0:0:
197,245,80261,1,0,3:0:0:0:
154,345,80547,6,0,P|181:341|215:348,1,54.899998324585,0|0,3:0|0:0,0:0:0:0:
284,374,80833,5,0,3:0:0:0:
372,309,81118,1,0,3:0:0:0:
307,221,81404,1,0,3:0:0:0:
219,286,81690,1,0,3:0:0:0:
142,207,81975,5,0,3:0:0:0:
142,207,82118,2,0,P|136:167|132:138,1,54.899998324585,0|0,0:0|3:0,0:0:0:0:
117,76,82404,2,0,P|157:70|186:66,1,54.899998324585,0|0,0:0|3:0,0:0:0:0:
248,51,82690,2,0,P|254:91|258:120,1,54.899998324585,0|0,0:0|3:0,0:0:0:0:
273,182,82975,1,0,0:0:0:0:
273,182,83118,6,0,P|348:174|397:231,1,134.200004095459,4|0,0:0|2:0,0:0:0:0:
310,273,83547,2,0,P|235:281|186:224,1,134.200004095459,4|0,0:2|2:0,0:0:0:0:
270,174,83975,6,0,P|276:107|284:34,1,134.200004095459,2|0,0:2|2:0,0:0:0:0:
187,10,84404,2,0,P|180:76|172:149,1,134.200004095459,2|0,0:2|2:0,0:0:0:0:
189,243,84833,6,0,B|141:290|141:290|70:270,1,134.200004095459,4|0,0:2|2:0,0:0:0:0:
23,204,85261,6,2,B|41:154|20:96|20:96|213:55|213:55|230:124|279:155,1,411.750015707017,6|6,0:0|0:1,0:0:0:0:
345,119,86690,2,0,L|448:97,2,91.5000034904481,8|8|8,2:0|2:0|2:0,0:0:0:0:
328,204,87404,1,0,0:0:0:0:
328,204,87690,6,0,B|355:325|355:325|308:299,1,164.700000628281,4|8,0:0|0:0,0:0:0:0:
235,273,88118,1,2,0:2:0:0:
182,346,88261,2,0,P|134:360|92:341,1,82.3500003141403,4|2,0:3|0:2,0:0:0:0:
33,292,88547,1,8,0:0:0:0:
33,292,88690,1,2,0:2:0:0:
101,232,88833,6,0,P|93:182|86:140,2,82.3500003141403,2|0|8,0:0|0:0|2:0,0:0:0:0:
189,249,89261,2,0,B|285:214|257:286|356:252,1,164.700000628281,2|2,0:0|0:2,0:0:0:0:
431,218,89690,2,0,P|435:172|438:116,1,82.3500003141403,10|0,0:2|0:0,0:0:0:0:
471,51,89975,6,0,P|417:47|378:73,1,82.3500003141403,4|0,0:2|2:0,0:0:0:0:
341,134,90261,2,0,P|291:131|240:131,1,82.3500003141403,10|0,0:2|2:0,0:0:0:0:
138,60,90547,2,0,B|176:95|176:95|158:226,1,164.700000628281,2|8,0:2|0:0,0:0:0:0:
92,266,90975,1,4,0:3:0:0:
160,325,91118,6,0,P|212:322|254:317,1,82.3500003141403,8|0,0:0|2:0,0:0:0:0:
322,361,91404,2,0,P|363:358|404:354,1,82.3500003141403,8|0,0:0|2:0,0:0:0:0:
495,360,91690,2,0,B|510:248|510:248|472:213,1,164.700000628281,10|10,0:0|0:0,0:0:0:0:
403,153,92118,1,0,0:2:0:0:
469,84,92261,6,0,B|413:77|413:77|384:94|384:94|298:84,1,164.700000628281,4|8,0:2|0:2,0:0:0:0:
204,34,92690,2,0,P|224:77|201:124,2,82.3500003141403,0|8|2,0:0|0:0|3:2,0:0:0:0:
118,3,93118,1,10,0:2:0:0:
57,70,93261,6,0,L|71:242,1,164.700000628281,0|0,0:0|3:0,0:0:0:0:
34,318,93690,2,0,B|135:291|103:365|202:335,1,164.700000628281,10|0,0:2|0:0,0:0:0:0:
167,250,94118,1,0,3:0:0:0:
167,250,94261,2,0,L|160:167,1,82.3500003141403,12|0,0:0|2:0,0:0:0:0:
153,76,94547,6,0,B|206:50|206:50|317:82,1,164.700000628281,6|8,0:2|0:0,0:0:0:0:
396,98,94975,1,0,0:0:0:0:
335,165,95118,1,10,0:0:0:0:
423,183,95261,2,0,L|434:275,1,82.3500003141403,0|8,2:0|0:0,0:0:0:0:
454,353,95547,5,10,0:0:0:0:
367,325,95690,1,2,0:1:0:0:
281,356,95833,2,0,P|230:351|172:344,1,82.3500003141403,10|0,0:0|2:0,0:0:0:0:
243,267,96118,6,2,B|260:212|260:212|230:168|230:168|253:87,1,164.700000628281,14|2,0:0|2:0,0:0:0:0:
240,25,96547,2,0,P|293:35|323:67,1,82.3500003141403,8|0,0:3|2:0,0:0:0:0:
327,142,96833,6,0,L|419:152,1,82.3500003141403,4|0,0:0|2:0,0:0:0:0:
444,243,97118,2,0,L|258:223,1,164.700000628281,8|0,0:0|0:0,0:0:0:0:
181,208,97547,1,4,0:3:0:0:
181,208,97690,2,0,P|194:249|174:286,1,82.3500003141403,8|4,0:0|2:3,0:0:0:0:
97,340,97975,5,2,0:0:0:0:
19,265,98118,2,0,P|60:251|104:241,1,82.3500003141403,2|8,0:0|2:0,0:0:0:0:
178,301,98404,2,0,B|272:341|250:261|344:299,1,164.700000628281,2|2,0:0|0:2,0:0:0:0:
425,337,98833,2,0,P|420:290|413:247,1,82.3500003141403,8|0,0:2|2:0,0:0:0:0:
365,169,99118,5,4,0:2:0:0:
463,160,99261,2,0,P|442:104|341:78,1,164.700000628281,0|2,3:0|0:2,0:0:0:0:
259,30,99690,2,0,P|254:86|150:88,1,164.700000628281,2|10,2:2|0:2,0:0:0:0:
84,38,100118,1,0,2:0:0:0:
26,118,100261,5,2,0:2:0:0:
26,118,100404,2,0,P|33:176|39:217,1,82.3500003141403,4|8,0:3|2:0,0:0:0:0:
131,230,100690,2,0,P|136:189|141:148,1,82.3500003141403,0|0,3:0|2:0,0:0:0:0:
153,50,100975,2,0,B|192:35|192:35|238:52,2,82.3500003141403,0|8|0,3:0|0:0|3:0,0:0:0:0:
141,148,101404,6,0,P|191:162|230:136,1,82.3500003141403,4|0,0:2|0:0,0:0:0:0:
296,209,101690,2,0,P|333:172|330:125,1,82.3500003141403,0|0,3:0|3:0,0:0:0:0:
426,105,101975,2,0,P|413:54|371:33,1,82.3500003141403,8|8,3:0|3:0,0:0:0:0:
293,61,102261,2,0,L|200:72,1,82.3500003141403,8|8,0:0|0:0,0:0:0:0:
112,83,102547,5,12,0:0:0:0:
186,184,102690,1,8,0:0:0:0:
126,301,103690,6,0,B|197:294|197:294|224:305|224:305|289:299,2,146.399995532227,4|10|0,0:0|0:2|0:3,0:0:0:0:
38,312,104404,1,4,0:3:0:0:
71,230,104547,1,10,0:2:0:0:
71,230,104690,2,0,P|133:205|150:109,1,146.399995532227,4|0,0:3|3:0,0:0:0:0:
152,46,105118,6,0,P|90:71|73:167,1,146.399995532227,10|0,0:2|0:0,0:0:0:0:
157,133,105547,1,0,3:0:0:0:
157,133,105690,2,0,P|214:129|242:127,1,73.1999977661134,10|0,0:2|2:0,0:0:0:0:
297,71,105975,5,0,0:0:0:0:
367,123,106118,1,0,3:0:0:0:
386,37,106261,2,0,B|432:45|432:45|458:151,2,146.399995532227,10|4|10,0:2|3:0|0:2,0:0:0:0:
367,123,106975,1,0,3:0:0:0:
367,123,107118,6,0,L|285:115,1,73.1999977661134,0|0,0:0|3:0,0:0:0:0:
251,193,107404,2,0,L|400:209,1,146.399995532227,10|0,0:2|3:0,0:0:0:0:
484,220,107833,1,0,2:3:0:0:
434,291,107975,2,0,L|444:367,1,73.1999977661134,10|2,0:2|0:2,0:0:0:0:
355,355,108261,6,0,P|324:319|326:280,1,73.1999977661134,0|2,2:0|0:2,0:0:0:0:
249,244,108547,2,0,P|213:250|188:276,1,73.1999977661134,10|2,2:0|0:2,0:0:0:0:
135,347,108833,2,0,L|51:340,1,73.1999977661134,0|0,2:0|3:0,0:0:0:0:
101,262,109118,1,10,0:2:0:0:
60,184,109261,6,0,L|205:164,1,146.399995532227,4|0,0:3|2:0,0:0:0:0:
292,153,109690,1,10,0:2:0:0:
239,82,109833,1,0,2:0:0:0:
306,26,109975,1,2,0:2:0:0:
306,26,110118,2,0,P|347:18|389:37,1,73.1999977661134,2|8,0:2|2:0,0:0:0:0:
457,63,110404,6,0,P|451:136|462:208,1,146.399995532227,0|0,0:0|3:0,0:0:0:0:
433,290,110833,2,0,B|349:277|376:344|289:321,2,146.399995532227,10|0|10,0:2|2:0|0:2,0:0:0:0:
463,209,111547,1,0,0:0:0:0:
463,209,111690,2,0,P|411:197|368:214,1,73.1999977661134,0|0,0:0|3:0,0:0:0:0:
311,237,111975,2,0,L|299:89,1,146.399995532227,10|8,0:2|0:3,0:0:0:0:
238,26,112404,2,0,P|201:18|160:31,2,73.1999977661134,8|8|8,0:3|0:3|0:3,0:0:0:0:
205,100,112833,6,0,P|198:148|194:172,1,67.1000020477296,0|0,0:0|0:0,0:0:0:0:
177,245,113118,2,0,B|115:219|115:219|52:262,1,134.200004095459,10|0,0:2|0:0,0:0:0:0:
0,312,113547,1,4,0:3:0:0:
65,367,113690,1,10,0:2:0:0:
65,367,113833,6,0,P|121:345|204:359,1,134.200004095459,4|0,0:3|3:0,0:0:0:0:
273,362,114261,2,0,P|282:296|260:233,1,134.200004095459,10|0,0:2|0:0,0:0:0:0:
203,175,114690,1,0,3:0:0:0:
261,119,114833,2,0,L|339:129,1,67.1000020477296,10|0,0:2|0:0,0:0:0:0:
407,136,115118,5,4,0:2:0:0:
407,136,115261,1,4,0:3:0:0:
425,57,115404,2,0,L|279:41,2,134.200004095459,14|0|10,0:2|3:0|0:2,0:0:0:0:
504,68,116118,1,0,3:0:0:0:
484,146,116261,2,0,P|473:189|482:222,1,67.1000020477296,0|0,0:0|3:0,0:0:0:0:
495,289,116547,6,0,L|349:305,1,134.200004095459,8|8,0:0|0:3,0:0:0:0:
282,318,116975,2,0,B|274:353|274:353|292:384,2,67.1000020477296,8|8|8,2:3|0:3|2:3,0:0:0:0:
361,303,117404,6,0,P|343:259|299:243,1,67.1000020477296,4|0,0:0|2:0,0:0:0:0:
247,239,117690,2,0,B|178:260|218:316|128:321,2,134.200004095459,10|0|10,0:2|0:0|0:2,0:0:0:0:
288,169,118404,1,4,0:3:0:0:
288,169,118547,2,0,L|305:88,1,67.1000020477296,0|0,0:0|2:0,0:0:0:0:
244,46,118833,6,0,P|180:60|96:29,1,134.200004095459,10|0,0:2|0:0,0:0:0:0:
43,5,119261,1,0,3:0:0:0:
4,76,119404,2,0,L|13:156,1,67.1000020477296,10|0,0:2|0:0,0:0:0:0:
80,185,119690,6,0,P|121:165|152:165,1,67.1000020477296,6|0,0:2|0:0,0:0:0:0:
215,197,119975,2,0,L|199:342,2,134.200004095459,10|6|14,0:2|0:2|0:2,0:0:0:0:
223,116,120690,1,6,0:2:0:0:
223,116,121118,6,2,B|283:110|320:31|320:31|302:117|360:160,1,268.400008190918,6|0,0:0|0:0,0:0:0:0:
351,153,121975,6,0,P|399:148|437:147,1,61,6|0,1:0|0:0,0:0:0:0:
491,210,122261,1,8,0:2:0:0:
491,210,122547,1,8,0:2:0:0:
491,210,122833,1,8,0:2:0:0:
416,250,122975,6,0,P|408:281|421:313,1,61,6|8,1:0|0:2,0:0:0:0:
321,365,123261,2,0,P|329:334|316:302,1,61,2|8,1:0|0:2,0:0:0:0:
252,248,123547,6,0,P|216:244|183:242,2,61,2|10|0,2:0|2:0|2:0,0:0:0:0:
213,327,123975,2,0,P|177:323|144:321,1,61,10|0,0:2|0:0,0:0:0:0:
72,354,124261,6,0,P|62:284|65:216,1,122,4|0,1:0|0:0,0:0:0:0:
127,29,124833,1,8,1:0:0:0:
141,112,124975,6,0,P|179:141|257:124,2,122,2|2|0,1:2|1:2|0:0,0:0:0:0:
205,35,125690,1,10,1:2:0:0:
265,117,125833,2,0,P|271:182|282:244,1,122,2|0,1:2|1:0,0:0:0:0:
338,301,126261,2,0,P|357:275|362:228,1,61,10|10,0:2|0:2,0:0:0:0:
250,336,126547,5,6,1:0:0:0:
250,336,126833,1,8,0:2:0:0:
250,336,127118,1,8,0:2:0:0:
250,336,127404,1,8,0:2:0:0:
166,318,127547,6,0,P|160:276|154:242,1,61,6|8,1:0|0:2,0:0:0:0:
82,300,127833,2,0,P|76:258|70:224,1,61,2|8,1:0|0:2,0:0:0:0:
100,152,128118,6,0,P|128:170|164:172,2,61,2|10|2,0:2|0:2|0:2,0:0:0:0:
183,90,128547,2,0,P|155:72|119:70,1,61,10|0,0:2|0:0,0:0:0:0:
240,153,128833,6,2,B|304:170|300:100|366:126,1,122,6|0,1:0|0:0,0:1:0:0:
508,258,129404,1,10,1:2:0:0:
423,223,129547,2,0,P|427:274|434:350,2,122,0|0|0,1:0|1:0|0:0,0:0:0:0:
338,212,130261,2,0,P|343:268|343:290,1,61,10|0,1:2|0:0,0:0:0:0:
274,324,130547,6,0,P|218:319|196:319,1,61,10|4,0:2|0:3,0:0:0:0:
143,268,130833,2,0,P|87:273|65:273,1,61,0|0,3:0|3:0,0:0:0:0:
234,214,131118,5,4,0:1:0:0:
58,62,140261,6,0,B|140:50|108:143|214:123,1,164.699994973755,4|0,0:2|3:0,0:0:0:0:
266,86,140833,2,0,P|312:71|359:126,1,109.79999664917,8|2,0:0|0:0,0:0:0:0:
338,182,141261,6,0,P|342:247|347:312,1,109.79999664917,0|0,3:0|3:0,0:0:0:0:
401,345,141690,2,0,P|437:358|472:345,1,54.899998324585,0|0,1:0|3:0,0:0:0:0:
497,292,141975,2,0,P|501:237|504:182,1,109.79999664917,8|0,0:0|0:0,0:0:0:0:
328,77,142547,5,4,3:2:0:0:
401,42,142690,2,0,P|432:73|428:149,1,109.79999664917,0|0,3:0|3:0,0:0:0:0:
361,171,143118,2,0,P|330:140|334:64,1,109.79999664917,8|0,0:0|0:0,0:0:0:0:
401,42,143547,1,0,3:0:0:0:
222,74,143975,6,0,P|186:69|151:66,1,54.899998324585,8|8,0:0|0:0,0:0:0:0:
153,149,144261,2,0,P|180:152|208:156,1,54.899998324585,8|0,0:3|3:0,0:0:0:0:
193,237,144547,2,0,P|166:233|139:231,1,54.899998324585,4|0,0:3|0:0,0:0:0:0:
227,326,144833,6,0,B|323:301|295:380|405:348,1,164.699994973755,2|0,3:2|3:0,0:0:0:0:
455,315,145404,1,8,0:0:0:0:
384,226,145833,6,0,P|375:182|368:101,1,109.79999664917,0|0,3:0|3:0,0:0:0:0:
397,46,146261,2,0,P|358:40|333:49,1,54.899998324585,0|0,1:0|3:0,0:0:0:0:
291,101,146547,2,0,P|247:92|166:85,1,109.79999664917,8|2,0:0|0:0,0:0:0:0:
73,245,147118,6,0,B|68:287|24:286|24:286|-6:233|38:161|132:171|132:171|133:248|205:253,1,366,4|0,0:1|0:0,0:0:0:0:
212,175,148261,5,4,3:2:0:0:
465,39,149404,6,0,P|430:42|395:43,2,48.8,2|0|0,3:2|0:0|0:0,0:0:0:0:
470,122,149833,2,0,P|401:128|356:131,1,97.6,8|0,0:0|0:0,0:0:0:0:
378,207,150261,2,0,P|447:201|492:198,1,97.6,8|0,0:3|3:0,0:0:0:0:
461,276,150690,1,0,3:0:0:0:
461,276,150833,6,0,P|426:279|391:280,1,48.8,2|0,0:0|0:0,0:0:0:0:
332,300,151118,2,0,P|330:275|328:251,1,48.8,8|0,0:3|3:0,0:0:0:0:
304,172,151404,2,0,P|269:175|234:176,1,48.8,8|0,0:0|0:0,0:0:0:0:
176,200,151690,6,0,P|179:235|180:270,2,48.8,2|0|0,0:0|0:0|0:0,0:0:0:0:
102,172,152118,2,0,P|104:125|108:59,1,97.6,8|0,0:0|0:0,0:0:0:0:
185,70,152547,2,0,P|182:94|181:118,1,48.8,8|0,0:3|0:0,0:0:0:0:
239,171,152833,6,0,P|282:172|305:171,1,48.8,10|0,0:0|0:0,0:0:0:0:
337,242,153118,2,0,P|359:205|370:184,1,48.8,0|0,0:0|0:0,0:0:0:0:
447,192,153404,2,0,P|426:154|414:134,1,48.8,0|10,0:0|0:0,0:0:0:0:
458,71,153690,2,0,P|415:70|392:71,1,48.8,4|0,0:3|0:0,0:0:0:0:
351,16,153975,6,0,P|332:45|332:66,1,48.8,2|0,0:0|0:0,0:0:0:0:
360,135,154261,1,2,0:0:0:0:
360,135,154404,2,0,P|386:168|383:231,1,97.6,10|0,0:0|0:0,0:0:0:0:
338,284,154833,2,0,P|311:251|306:227,2,48.8,2|0|0,0:0|0:0|0:0,0:0:0:0:
233,239,155261,6,0,P|247:199|266:183,1,48.8,2|8,0:0|0:0,0:0:0:0:
267,119,155547,1,0,0:0:0:0:
267,119,155690,2,0,P|243:117|220:125,1,48.8,2|2,0:0|0:0,0:0:0:0:
149,158,155975,2,0,P|125:165|101:163,1,48.8,10|0,0:2|0:0,0:0:0:0:
91,85,156261,6,0,P|114:77|138:79,2,48.8,2|0|0,0:0|0:0|0:0,0:0:0:0:
30,134,156690,2,0,P|31:197|61:230,1,97.6,10|0,0:0|0:0,0:0:0:0:
119,258,157118,2,0,P|146:264|167:287,1,48.8,2|0,0:0|0:0,0:0:0:0:
213,333,157404,6,0,P|250:348|268:344,1,48.8,10|0,0:0|0:0,0:0:0:0:
279,271,157690,2,0,P|242:256|224:260,1,48.8,0|0,0:0|0:0,0:0:0:0:
210,342,157975,6,0,P|247:357|265:353,1,48.8,0|10,0:0|0:0,0:0:0:0:
276,280,158261,2,0,P|239:265|221:269,1,48.8,2|0,0:0|0:0,0:0:0:0:
349,326,158547,6,0,B|366:278|366:278|355:243|355:243|371:188,1,122,2|8,0:0|0:0,0:0:0:0:
441,244,158975,1,0,0:0:0:0:
441,244,159118,2,0,P|477:239|510:232,2,61,8|4|8,0:0|0:3|0:0,0:0:0:0:
364,209,159547,6,0,P|335:192|292:201,1,61,2|0,0:0|0:0,0:0:0:0:
235,238,159833,2,0,P|206:255|163:246,1,61,2|8,0:0|0:0,0:0:0:0:
112,200,160118,2,0,P|76:195|43:188,2,61,0|8|4,0:0|0:0|0:3,0:0:0:0:
21,112,160547,1,8,0:0:0:0:
146,97,160833,6,0,P|195:88|259:126,1,122,2|8,0:0|0:0,0:0:0:0:
299,195,161261,1,0,0:0:0:0:
299,195,161404,2,0,P|340:188|370:180,2,61,8|4|8,0:0|0:3|0:0,0:0:0:0:
261,116,161833,6,0,P|210:83|151:91,1,122,2|0,0:0|0:0,0:0:0:0:
98,161,162261,2,0,P|104:208|126:235,1,61,10|4,0:0|0:3,0:0:0:0:
185,172,162547,2,0,P|223:142|235:110,1,61,8|2,0:0|0:2,0:0:0:0:
151,91,162833,2,0,P|106:72|72:78,1,61,10|0,0:0|0:0,0:0:0:0:
27,124,163118,6,0,B|8:158|8:158|30:265,1,122,2|8,0:0|0:0,0:0:0:0:
44,323,163547,1,0,0:0:0:0:
44,323,163690,2,0,L|108:330,2,61,8|4|8,0:0|0:3|0:0,0:0:0:0:
176,276,164118,6,0,P|213:272|245:268,1,61,2|0,0:0|0:0,0:0:0:0:
296,330,164404,2,0,P|333:334|365:338,1,61,0|8,0:0|0:0,0:0:0:0:
395,257,164690,2,0,L|334:250,2,61,0|8|4,0:0|0:0|0:3,0:0:0:0:
336,169,165118,1,8,0:0:0:0:
479,252,165404,6,0,P|465:210|450:123,1,122,2|8,0:0|0:0,0:0:0:0:
413,54,165833,1,8,0:3:0:0:
413,54,165975,2,0,P|443:48|474:45,2,61,8|4|4,0:0|0:3|0:3,0:0:0:0:
332,209,166547,5,4,0:3:0:0:
329,151,167404,6,0,P|324:189|337:216,1,61,0|0,0:0|0:0,0:0:0:0:
332,209,167690,6,0,B|265:197|281:243|204:222,1,122,2|10,1:0|1:2,0:0:0:0:
143,176,168118,1,0,0:0:0:0:
143,176,168261,2,0,P|139:145|134:115,1,61,8|2,1:3|0:2,0:0:0:0:
58,155,168547,1,10,1:2:0:0:
85,235,168690,6,0,P|118:254|150:253,1,61,2|0,1:0|0:0,0:0:0:0:
214,224,168975,2,0,P|238:206|268:203,1,61,2|8,1:0|0:0,0:0:0:0:
340,251,169261,1,8,0:3:0:0:
416,211,169404,1,2,1:2:0:0:
416,211,169547,1,2,0:2:0:0:
483,264,169690,2,0,P|477:309|474:337,1,61,8|0,1:0|0:0,0:0:0:0:
494,184,169975,6,0,P|488:139|485:111,1,61,2|0,1:0|0:0,0:0:0:0:
469,39,170261,2,0,P|419:22|352:57,1,122,10|8,1:2|1:3,0:0:0:0:
325,128,170690,1,2,1:2:0:0:
263,68,170833,1,10,1:2:0:0:
229,147,170975,6,0,P|170:136|93:122,1,122,2|0,1:0|0:0,0:0:0:0:
95,216,171404,2,0,P|74:239|56:262,1,61,10|4,1:0|0:3,0:0:0:0:
108,124,171690,2,0,P|98:96|86:67,1,61,2|0,1:0|3:0,0:0:0:0:
180,182,171975,2,0,P|209:187|240:192,1,61,10|2,1:0|1:0,0:0:0:0:
317,269,172261,6,0,P|300:304|305:345,2,61,6|0|8,1:1|0:0|1:0,0:0:0:0:
382,320,172690,2,0,P|424:311|510:297,1,122,8|2,0:3|0:2,0:0:0:0:
497,212,173118,1,8,1:0:0:0:
497,212,173261,2,0,P|442:223|417:226,1,61,6|0,1:0|0:0,0:0:0:0:
366,129,173547,2,0,P|395:135|425:140,1,61,2|8,1:0|0:0,0:0:0:0:
489,82,173833,5,8,0:3:0:0:
408,54,173975,2,0,P|374:44|332:56,1,61,2|2,1:2|0:2,0:0:0:0:
307,122,174261,2,0,P|341:132|383:120,1,61,8|0,1:0|0:0,0:0:0:0:
228,100,174547,6,0,P|219:155|216:184,1,61,6|0,1:0|0:0,0:0:0:0:
151,59,174833,2,0,P|141:119|134:180,1,122,8|8,1:2|1:3,0:0:0:0:
98,257,175261,2,0,P|56:271|19:254,1,61,10|10,1:2|1:2,0:0:0:0:
74,164,175547,6,0,P|120:175|148:184,1,61,6|0,1:0|0:0,0:0:0:0:
193,245,175833,2,0,P|239:233|267:224,1,61,2|8,1:0|1:0,0:0:0:0:
340,178,176118,6,0,P|341:146|320:118,1,61,10|0,1:2|0:0,0:0:0:0:
246,146,176404,2,0,P|244:177|265:205,1,61,10|8,1:2|0:0,0:0:0:0:
437,272,176833,6,0,B|451:232|451:232|443:196|443:196|462:134,1,122,6|8,1:1|1:0,0:0:0:0:
487,75,177261,1,8,0:3:0:0:
404,51,177404,2,0,L|386:110,1,61,2|2,1:2|0:2,0:0:0:0:
359,191,177690,1,8,1:0:0:0:
359,191,177833,6,0,P|320:213|287:205,1,61,2|0,1:0|0:0,0:0:0:0:
232,167,178118,2,0,P|202:165|178:146,1,61,2|8,1:0|0:0,0:0:0:0:
115,87,178404,1,8,0:3:0:0:
72,161,178547,1,2,1:2:0:0:
72,161,178690,1,2,0:2:0:0:
124,228,178833,2,0,L|131:310,1,61,8|0,1:0|0:0,0:0:0:0:
101,369,179118,6,0,B|140:336|140:336|236:351,1,122,6|8,1:0|1:0,0:0:0:0:
293,366,179547,1,8,0:3:0:0:
293,366,179690,2,0,P|312:326|306:288,1,61,2|2,1:2|1:2,0:0:0:0:
273,234,179975,1,8,1:0:0:0:
358,237,180118,6,0,P|385:206|375:123,1,122,6|0,1:0|0:0,0:0:0:0:
304,83,180547,2,0,P|293:54|301:25,1,61,10|0,1:0|0:0,0:0:0:0:
379,129,180833,2,0,P|408:134|429:155,1,61,2|0,1:0|0:0,0:0:0:0:
301,169,181118,2,0,P|281:192|252:199,1,61,10|2,1:0|1:0,0:0:0:0:
171,171,181404,6,0,P|157:96|146:34,1,122,4|10,1:0|1:2,0:0:0:0:
67,22,181833,1,8,0:3:0:0:
67,22,181975,2,0,P|60:62|75:92,1,61,2|2,1:2|0:2,0:0:0:0:
82,165,182261,1,8,1:0:0:0:
171,171,182404,6,0,P|220:155|245:151,1,61,2|0,1:0|0:0,0:0:0:0:
304,196,182690,2,0,P|332:205|362:212,1,61,2|8,1:0|0:0,0:0:0:0:
441,180,182975,1,8,0:0:0:0:
441,180,183118,2,0,P|444:149|420:112,1,61,2|2,1:2|0:2,0:0:0:0:
347,142,183404,2,0,P|344:173|368:210,1,61,8|0,1:0|0:0,0:0:0:0:
405,270,183690,6,0,B|354:285|354:285|338:303|338:303|268:320,2,122,6|10|2,1:0|1:2|1:2,0:0:0:0:
442,193,184404,1,2,1:2:0:0:
375,139,184547,1,10,1:2:0:0:
375,139,184690,2,0,P|326:133|300:132,1,61,2|0,1:0|0:0,0:0:0:0:
239,90,184975,6,0,B|211:106|211:106|194:139,1,61,12|0,1:2|0:0,0:0:0:0:
76,175,185261,2,0,B|103:191|103:191|140:189,1,61,12|0,1:2|0:0,0:0:0:0:
232,274,185547,2,0,B|232:241|232:241|212:210,1,61,12|0,1:2|0:0,0:0:0:0:
120,104,185833,6,2,B|59:84|59:84|90:279|90:279|38:318|38:318|25:231,1,411.750015707017,14|8,1:0|0:0,0:0:0:0:
98,186,187261,6,0,P|124:210|120:279,3,91.5000034904481,8|8|8|8,0:2|0:2|0:2|0:2,0:0:0:0:
102,348,188261,6,0,P|166:336|232:324,1,122,10|4,1:2|3:0,0:0:0:0:
221,325,188690,1,2,1:2:0:0:
375,351,189118,5,0,0:0:0:0:
375,351,189404,6,0,B|426:323|424:248|424:248|374:228,1,164.700000628281,4|8,0:0|0:0,0:0:0:0:
310,175,189833,1,0,0:0:0:0:
394,143,189975,2,0,P|435:162|474:175,1,82.3500003141403,4|0,0:3|0:0,0:0:0:0:
429,64,190261,2,0,P|384:55|340:81,1,82.3500003141403,10|0,0:2|3:0,0:0:0:0:
282,128,190547,6,0,B|187:144|227:69|122:88,1,164.700000628281,2|10,0:0|0:0,0:0:0:0:
61,145,190975,1,0,0:0:0:0:
147,172,191118,1,2,0:0:0:0:
147,172,191261,1,2,3:2:0:0:
81,234,191404,2,0,P|88:278|96:320,1,82.3500003141403,8|2,0:0|2:0,0:0:0:0:
183,336,191690,6,0,B|247:322|247:322|275:335|275:335|352:322,1,164.700000628281,4|8,0:2|0:0,0:0:0:0:
429,347,192118,1,4,0:3:0:0:
406,260,192261,1,2,0:2:0:0:
319,236,192404,1,4,2:3:0:0:
319,236,192547,6,0,B|284:203|284:203|309:81,1,164.700000628281,10|2,0:2|0:2,0:0:0:0:
379,33,192975,1,2,3:2:0:0:
462,113,193118,2,0,B|368:138|407:61|301:90,1,164.700000628281,8|0,0:0|0:0,0:0:0:0:
228,42,193547,1,0,3:0:0:0:
159,101,193690,2,0,P|173:144|183:180,1,82.3500003141403,10|2,0:0|0:2,0:0:0:0:
55,75,193975,6,0,P|84:151|104:231,1,164.700000628281,4|10,0:0|0:2,0:0:0:0:
76,318,194404,2,0,P|122:346|126:383,2,82.3500003141403,0|8|4,0:0|2:0|0:3,0:0:0:0:
18,246,194833,1,10,0:2:0:0:
104,231,194975,6,0,B|153:214|153:214|274:250,1,164.700000628281,4|0,0:3|0:0,0:0:0:0:
346,277,195404,2,0,P|375:343|468:325,1,164.700000628281,10|2,0:2|0:2,0:0:0:0:
433,253,195833,1,0,3:0:0:0:
433,253,195975,2,0,P|427:212|424:168,1,82.3500003141403,10|0,0:2|2:0,0:0:0:0:
454,85,196261,6,0,B|413:76|413:76|368:102,1,82.3500003141403,6|0,0:0|0:0,0:0:0:0:
248,68,196547,2,0,B|295:93|295:93|284:158|279:224,1,164.700000628281,10|2,0:2|0:2,0:0:0:0:
225,275,196975,1,2,3:2:0:0:
225,275,197118,1,8,0:0:0:0:
291,360,197261,6,0,P|314:325|300:274,1,82.3500003141403,4|2,0:3|0:0,0:0:0:0:
200,235,197547,2,0,P|195:275|217:308,1,82.3500003141403,0|8,3:0|0:0,0:0:0:0:
280,203,197833,2,2,B|299:113|235:139|249:48,1,164.700000628281,6|0,0:0|0:0,0:0:0:0:
333,13,198261,6,0,P|341:62|353:100,1,82.3500003141403,8|0,0:3|2:0,0:0:0:0:
304,172,198547,6,0,P|252:157|133:142,1,164.700000628281,6|10,0:2|0:2,0:0:0:0:
132,56,198975,1,0,2:0:0:0:
132,56,199118,2,0,P|179:56|227:65,1,82.3500003141403,0|0,0:0|3:0,0:0:0:0:
225,152,199404,1,10,0:2:0:0:
142,142,199547,6,0,P|90:147|64:247,1,164.700000628281,2|2,0:2|0:2,0:0:0:0:
135,297,199975,2,0,P|171:254|190:219,1,82.3500003141403,8|2,0:0|0:2,0:0:0:0:
238,157,200261,2,0,B|331:150|298:224|396:206,1,164.700000628281,2|8,0:2|0:0,0:0:0:0:
472,174,200690,1,0,2:0:0:0:
453,262,200833,6,0,P|447:314|444:349,1,82.3500003141403,4|4,0:1|0:3,0:0:0:0:
345,332,201118,2,0,P|351:280|354:245,1,82.3500003141403,10|4,0:2|0:3,0:0:0:0:
249,242,201404,2,0,P|252:283|257:323,1,82.3500003141403,2|2,0:2|3:2,0:0:0:0:
179,370,201690,1,10,0:2:0:0:
161,281,201833,1,0,0:0:0:0:
91,338,201975,5,0,0:0:0:0:
91,338,202118,2,0,P|43:338|17:308,1,82.3500003141403,2|10,3:2|2:0,0:0:0:0:
14,224,202404,2,0,B|39:180|39:180|164:200,1,164.700000628281,2|0,0:2|3:0,0:0:0:0:
215,258,202833,2,0,P|208:299|203:342,1,82.3500003141403,8|0,0:3|2:0,0:0:0:0:
295,341,203118,6,0,P|318:297|297:249,1,82.3500003141403,4|0,0:0|0:0,0:0:0:0:
233,185,203404,2,0,P|209:228|230:276,1,82.3500003141403,0|0,3:0|3:0,0:0:0:0:
328,260,203690,6,0,B|349:222|349:222|342:177,1,82.3500003141403,8|8,3:0|3:0,0:0:0:0:
246,92,203975,2,0,B|224:129|224:129|231:174,1,82.3500003141403,8|8,0:0|0:0,0:0:0:0:
310,261,204261,5,12,0:0:0:0:
433,185,204404,1,8,0:0:0:0:
469,65,205404,6,0,B|432:33|432:33|302:51,2,146.399995532227,4|8|0,0:0|0:0|0:0,0:0:0:0:
434,146,206118,1,4,0:3:0:0:
491,219,206261,1,10,0:2:0:0:
491,219,206404,2,0,P|429:249|416:335,1,146.399995532227,4|0,0:3|0:0,0:0:0:0:
325,342,206833,6,0,P|295:280|209:267,1,146.399995532227,10|2,0:2|0:2,0:0:0:0:
166,328,207261,1,0,3:0:0:0:
166,328,207404,2,0,L|86:323,1,73.1999977661134,10|2,0:2|2:2,0:0:0:0:
34,256,207690,5,0,0:0:0:0:
120,240,207833,1,0,3:0:0:0:
63,173,207975,2,0,B|116:143|116:143|221:175,2,146.399995532227,10|0|10,0:2|0:0|0:2,0:0:0:0:
18,96,208690,1,4,0:3:0:0:
18,96,208833,2,0,L|91:59,1,73.1999977661134,0|4,2:0|2:3,0:0:0:0:
170,27,209118,6,0,L|161:177,2,146.399995532227,10|2|10,0:2|0:2|0:2,0:0:0:0:
250,64,209833,1,2,0:2:0:0:
250,64,209975,2,0,P|294:54|317:29,1,73.1999977661134,2|0,0:2|2:0,0:0:0:0:
401,46,210261,2,0,P|431:79|464:86,1,73.1999977661134,10|0,0:2|2:0,0:0:0:0:
505,160,210547,6,0,L|500:242,1,73.1999977661134,0|0,0:0|2:0,0:0:0:0:
498,321,210833,1,10,0:2:0:0:
423,275,210975,2,0,P|383:264|308:337,1,146.399995532227,4|4,0:3|2:3,0:0:0:0:
230,366,211404,6,0,L|212:198,1,146.399995532227,10|10,0:2|0:2,0:0:0:0:
203,132,211833,1,0,0:0:0:0:
131,182,211975,1,10,0:2:0:0:
131,182,212118,2,0,P|92:184|58:156,1,73.1999977661134,2|0,2:2|0:0,0:0:0:0:
5,107,212404,1,0,2:0:0:0:
5,107,212547,6,0,B|45:69|45:69|144:92,2,146.399995532227,10|0|10,0:2|0:0|0:2,0:0:0:0:
74,169,213261,1,4,0:3:0:0:
74,169,213404,2,0,L|146:186,1,73.1999977661134,0|4,2:0|0:3,0:0:0:0:
213,129,213690,6,0,P|224:86|209:52,1,73.1999977661134,10|0,2:0|2:0,0:0:0:0:
288,11,213975,1,10,2:0:0:0:
367,48,214118,1,2,2:2:0:0:
367,48,214261,2,0,L|373:130,1,73.1999977661134,10|0,2:0|2:0,0:0:0:0:
432,202,214547,6,0,P|365:209|302:212,1,91.5000034904481,14|0,0:0|0:0,0:0:0:0:
251,258,214833,1,10,0:2:0:0:
339,304,214975,1,0,3:0:0:0:
251,353,215118,2,0,P|206:364|165:321,1,91.5000034904481,10|0,0:2|3:0,0:0:0:0:
179,230,215404,2,0,P|224:219|265:262,1,91.5000034904481,10|0,0:2|3:0,0:0:0:0:
361,299,215690,6,0,B|390:262|390:262|378:212,1,91.5000034904481,10|0,0:2|3:0,0:0:0:0:
466,184,215975,2,0,B|448:140|448:140|399:125,1,91.5000034904481,10|0,0:2|3:0,0:0:0:0:
418,35,216261,2,0,B|371:28|371:28|334:63,1,91.5000034904481,10|0,0:2|3:0,0:0:0:0:
264,3,216547,2,0,B|235:40|235:40|247:90,1,91.5000034904481,10|0,0:2|3:0,0:0:0:0:
314,152,216833,6,0,L|206:183,1,91.5000034904481,14|0,0:2|3:0,0:0:0:0:
77,126,217118,2,0,L|164:100,1,91.5000034904481,10|0,0:2|3:0,0:0:0:0:
310,168,217404,6,0,L|201:198,1,91.5000034904481,10|0,0:2|3:0,0:0:0:0:
72,141,217690,2,0,L|159:115,1,91.5000034904481,10|0,0:2|3:0,0:0:0:0:
217,208,217975,6,0,P|240:261|224:300,1,91.5000034904481,14|0,0:2|3:0,0:0:0:0:
130,316,218261,2,0,P|107:263|123:224,1,91.5000034904481,10|0,0:2|3:0,0:0:0:0:
188,124,218547,1,10,0:2:0:0:
90,146,218690,1,0,3:0:0:0:
116,46,218833,2,0,P|168:35|215:25,1,91.5000034904481,10|0,0:2|3:0,0:0:0:0:
298,12,219118,6,0,B|341:86|263:85|321:173,1,146.399995532227,4|10,0:0|0:2,0:0:0:0:
415,207,219547,1,10,0:2:0:0:
415,207,219690,2,0,P|411:169|382:136,1,73.1999977661134,10|8,0:2|0:0,0:0:0:0:
307,171,219975,2,0,P|310:208|339:241,1,73.1999977661134,8|10,0:0|0:2,0:0:0:0:
394,306,220261,5,12,0:2:0:0:
245,287,220404,1,10,0:2:0:0:
67,311,221404,6,0,P|97:305|128:303,1,61,6|0,1:0|0:0,0:0:0:0:
214,316,221690,1,8,1:2:0:0:
214,316,221975,2,0,P|211:285|205:255,2,61,8|2|8,0:2|0:2|1:2,0:0:0:0:
298,306,222404,6,0,P|295:275|289:245,1,61,2|8,0:1|0:2,0:0:0:0:
239,183,222690,2,0,P|241:152|247:122,1,61,2|8,0:1|1:2,0:0:0:0:
265,45,222975,2,0,P|309:54|335:56,2,61,0|8|0,0:0|0:2|0:0,0:0:0:0:
188,23,223404,1,8,1:2:0:0:
188,23,223690,6,2,P|129:19|75:66,2,122,8|8|8,0:2|1:2|0:0,0:1:0:0:
152,103,224404,2,0,P|149:144|145:175,1,61,2|8,0:1|1:2,0:0:0:0:
110,243,224690,2,0,P|169:247|223:200,1,122,2|0,0:1|0:0,0:0:0:0:
232,132,225118,1,8,1:2:0:0:
293,182,225261,2,0,P|356:194|423:205,1,122,2|2,0:1|0:1,0:0:0:0:
483,165,225690,2,0,P|494:137|482:88,1,61,8|0,1:2|0:0,0:0:0:0:
489,258,225975,5,2,0:1:0:0:
489,258,226261,1,8,1:2:0:0:
489,258,226547,2,0,P|478:286|490:335,2,61,8|2|8,0:2|0:2|1:2,0:0:0:0:
413,203,226975,6,0,P|385:192|336:204,1,61,2|8,0:1|0:2,0:0:0:0:
288,245,227261,2,0,P|260:256|211:244,1,61,2|8,0:1|1:2,0:0:0:0:
160,213,227547,2,0,P|159:178|154:139,2,61,0|8|0,0:0|0:2|0:0,0:0:0:0:
77,233,227975,1,8,1:2:0:0:
77,233,228261,6,2,P|74:168|62:101,2,122,8|8|8,0:2|1:2|0:0,0:1:0:0:
77,312,228975,2,0,P|119:336|150:331,1,61,2|8,0:1|1:2,0:0:0:0:
209,325,229261,2,0,P|212:260|224:193,2,122,2|2|2,0:1|0:0|0:1,0:0:0:0:
288,322,229975,6,0,P|290:279|295:244,1,61,10|2,0:2|0:1,0:0:0:0:
372,263,230261,2,0,P|370:306|365:341,1,61,8|0,1:2|1:0,0:0:0:0:
256,192,230547,5,2,1:0:0:0:
