osu file format v14

[General]
AudioFilename: audio.mp3
AudioLeadIn: 0
PreviewTime: 205453
Countdown: 0
SampleSet: Soft
StackLeniency: 0.7
Mode: 0
LetterboxInBreaks: 0
WidescreenStoryboard: 0

[Editor]
DistanceSpacing: 0.3
BeatDivisor: 8
GridSize: 32
TimelineZoom: 1.3

[Metadata]
Title:Evil Bubble
TitleUnicode:Evil Bubble
Artist:Feryquitous feat. Aitsuki Nakuru
ArtistUnicode:Feryquitous feat. 藍月なくる
Creator:SMOKELIND
Version:X
Source:
Tags:sky_delta Japanese Electronic みや。Pepekcz Hard Nymphe Kiyoshi Guarden Kang Sae-byeok and alevi Insane
BeatmapID:3513315
BeatmapSetID:1719165

[Difficulty]
HPDrainRate:5
CircleSize:4.2
OverallDifficulty:9
ApproachRate:9.2
SliderMultiplier:3.57
SliderTickRate:1

[Events]
//Background and Video events
0,0,"BG.jpg",0,0
Video,-80,"vid.mp4"
//Break Periods
//Storyboard Layer 0 (Background)
//Storyboard Layer 1 (Fail)
//Storyboard Layer 2 (Pass)
//Storyboard Layer 3 (Foreground)
//Storyboard Layer 4 (Overlay)
//Storyboard Sound Samples

[TimingPoints]
198,437.956204379562,4,2,77,47,1,0
29103,437.956204379562,4,2,77,77,1,0
29321,-103.092783505155,4,2,77,77,0,0
29923,-103.092783505155,4,2,77,5,0,0
29978,-103.092783505155,4,2,77,77,0,0
31018,-103.092783505155,4,2,77,5,0,0
31073,-103.092783505155,4,2,77,77,0,0
31675,-103.092783505155,4,2,77,5,0,0
31730,-103.092783505155,4,2,77,77,0,0
32113,-103.092783505155,4,2,77,5,0,0
32168,-103.092783505155,4,2,77,77,0,0
33208,-103.092783505155,4,2,77,5,0,0
33263,-103.092783505155,4,2,77,77,0,0
35836,-103.092783505155,4,2,77,5,0,0
35891,-103.092783505155,4,2,77,77,0,0
36110,-270.27027027027,4,2,77,77,0,0
36493,-270.27027027027,4,2,77,5,0,0
36548,-103.092783505155,4,2,77,77,0,0
37588,-103.092783505155,4,2,77,5,0,0
37643,-103.092783505155,4,2,77,77,0,0
37862,-270.27027027027,4,2,77,77,0,0
38245,-270.27027027027,4,2,77,5,0,0
38300,-103.092783505155,4,2,77,77,0,0
38738,-270.27027027027,4,2,77,77,0,0
39121,-270.27027027027,4,2,77,5,0,0
39175,-270.27027027027,4,2,77,77,0,0
39613,-103.092783505155,4,2,77,77,0,0
40215,-103.092783505155,4,2,77,5,0,0
40270,-103.092783505155,4,2,77,77,0,0
41967,-103.092783505155,4,2,77,5,0,0
42022,-103.092783505155,4,2,77,77,0,0
42843,-103.092783505155,4,2,77,5,0,0
42898,-103.092783505155,4,2,77,77,0,0
43117,-212.76595744681,4,2,77,77,0,0
43500,-212.76595744681,4,2,77,5,0,0
43555,-103.092783505155,4,2,77,77,0,0
43993,-212.76595744681,4,2,77,77,0,0
44376,-212.76595744681,4,2,77,5,0,0
44431,-103.092783505155,4,2,77,77,0,0
44869,-212.76595744681,4,2,77,77,0,0
46621,-103.092783505155,4,2,77,77,0,0
47661,-103.092783505155,4,2,77,5,0,0
47716,-103.092783505155,4,2,77,77,0,0
48099,-103.092783505155,4,2,77,5,0,0
48154,-103.092783505155,4,2,77,77,0,0
48537,-103.092783505155,4,2,77,5,0,0
48592,-103.092783505155,4,2,77,77,0,0
48811,-114.942528735633,4,2,77,77,0,0
49248,-129.87012987013,4,2,77,77,0,0
49686,-149.253731343284,4,2,77,77,0,0
49850,-149.253731343284,4,2,77,5,0,0
49905,-149.253731343284,4,2,77,77,0,0
50069,-149.253731343284,4,2,77,5,0,0
50124,-212.76595744681,4,2,77,77,0,0
50562,-103.092783505155,4,2,77,77,0,0
51000,-212.76595744681,4,2,77,77,0,0
51438,-103.092783505155,4,2,77,77,0,0
51876,-212.76595744681,4,2,77,77,0,0
53847,-103.092783505155,4,2,77,77,0,0
55106,-103.092783505155,4,2,77,5,0,0
55161,-103.092783505155,4,2,77,77,0,0
55818,-114.942528735633,4,2,77,77,0,0
55982,-114.942528735633,4,2,77,5,0,0
56037,-114.942528735633,4,2,77,77,0,0
56256,-129.87012987013,4,2,77,77,0,0
56420,-129.87012987013,4,2,77,5,0,0
56475,-129.87012987013,4,2,77,77,0,0
56694,-149.253731343284,4,2,77,77,0,0
56858,-149.253731343284,4,2,77,5,0,0
56913,-149.253731343284,4,2,77,77,0,0
57132,-175.438596491229,4,2,77,57,0,0
58172,-175.438596491229,4,2,77,5,0,0
58227,-175.438596491229,4,2,77,57,0,0
58446,-370.370370370374,4,2,77,57,0,0
58829,-370.370370370374,4,2,77,5,0,0
58884,-78.7401574803149,4,2,77,87,0,0
59267,-78.7401574803149,4,2,77,5,0,0
59321,-85.4700854700855,4,2,77,87,0,0
59485,-85.4700854700855,4,2,77,5,0,0
59540,-85.4700854700855,4,2,77,87,0,0
59923,-85.4700854700855,4,2,77,5,0,0
59978,-85.4700854700855,4,2,77,87,0,0
60361,-85.4700854700855,4,2,77,5,0,0
60416,-85.4700854700855,4,2,77,87,0,0
60635,-78.7401574803149,4,2,77,87,0,0
61073,-85.4700854700855,4,2,77,87,0,0
61237,-85.4700854700855,4,2,77,5,0,0
61292,-175.438596491228,4,2,77,87,0,0
61511,-85.4700854700855,4,2,77,87,0,0
61675,-85.4700854700855,4,2,77,5,0,0
61730,-175.438596491228,4,2,77,87,0,0
61949,-85.4700854700855,4,2,77,87,0,0
62113,-85.4700854700855,4,2,77,5,0,0
62168,-175.438596491228,4,2,77,87,0,0
62387,-78.7401574803149,4,2,77,87,0,0
62825,-72.992700729927,4,2,77,87,0,0
63098,-72.992700729927,4,2,77,5,0,0
63154,-72.992700729927,4,2,77,87,0,0
63263,-103.092783505155,4,2,77,87,0,0
63536,-103.092783505155,4,2,77,5,0,0
63592,-103.092783505155,4,2,77,87,0,0
63701,-68.0272108843537,4,2,77,87,0,0
63974,-68.0272108843537,4,2,77,5,0,0
64030,-68.0272108843537,4,2,77,87,0,0
64139,-85.4700854700855,4,2,77,87,0,0
64412,-85.4700854700855,4,2,77,5,0,0
64467,-85.4700854700855,4,2,77,87,0,0
64521,-85.4700854700855,4,2,77,5,0,0
64577,-85.4700854700855,4,2,77,87,0,0
64796,-175.438596491228,4,2,77,87,0,0
64960,-175.438596491228,4,2,77,5,0,0
65015,-85.4700854700855,4,2,77,87,0,0
65179,-85.4700854700855,4,2,77,5,0,0
65234,-85.4700854700855,4,2,77,87,0,0
65453,-175.438596491228,4,2,77,87,0,0
65726,-175.438596491228,4,2,77,5,0,0
65781,-175.438596491228,4,2,77,87,0,0
65891,-78.7401574803149,4,2,77,87,0,0
66274,-78.7401574803149,4,2,77,5,0,0
66329,-85.4700854700855,4,2,77,87,0,0
66493,-85.4700854700855,4,2,77,5,0,0
66548,-85.4700854700855,4,2,77,87,0,0
66931,-85.4700854700855,4,2,77,5,0,0
66986,-85.4700854700855,4,2,77,87,0,0
67369,-85.4700854700855,4,2,77,5,0,0
67424,-85.4700854700855,4,2,77,87,0,0
67643,-78.7401574803149,4,2,77,87,0,0
68081,-85.4700854700855,4,2,77,87,0,0
68245,-85.4700854700855,4,2,77,5,0,0
68300,-175.438596491228,4,2,77,87,0,0
68519,-85.4700854700855,4,2,77,87,0,0
68683,-85.4700854700855,4,2,77,5,0,0
68738,-103.092783505155,4,2,77,87,0,0
68957,-129.87012987013,4,2,77,87,0,0
69121,-129.87012987013,4,2,77,5,0,0
69176,-175.438596491228,4,2,77,87,0,0
69340,-175.438596491228,4,2,77,5,0,0
69394,-175.438596491228,4,2,77,87,0,0
69613,-129.87012987013,4,2,77,87,0,0
69777,-129.87012987013,4,2,77,5,0,0
69832,-72.992700729927,4,2,77,87,0,0
70270,-175.438596491228,4,2,77,87,0,0
70653,-175.438596491228,4,2,77,5,0,0
70708,-85.4700854700855,4,2,77,87,0,0
71419,-85.4700854700855,4,2,77,5,0,0
71475,-85.4700854700855,4,2,77,87,0,0
71529,-85.4700854700855,4,2,77,5,0,0
71584,-85.4700854700855,4,2,77,87,0,0
71803,-175.438596491228,4,2,77,87,0,0
71967,-175.438596491228,4,2,77,5,0,0
72022,-85.4700854700855,4,2,77,87,0,0
72186,-85.4700854700855,4,2,77,5,0,0
72241,-85.4700854700855,4,2,77,87,0,0
72460,-175.438596491228,4,2,77,87,0,0
72733,-175.438596491228,4,2,77,5,0,0
72789,-175.438596491228,4,2,77,87,0,0
72898,-78.7401574803149,4,2,77,87,0,0
73281,-78.7401574803149,4,2,77,5,0,0
73336,-85.4700854700855,4,2,77,87,0,0
73938,-85.4700854700855,4,2,77,5,0,0
73993,-85.4700854700855,4,2,77,87,0,0
74376,-85.4700854700855,4,2,77,5,0,0
74431,-85.4700854700855,4,2,77,87,0,0
74650,-78.7401574803149,4,2,77,87,0,0
75088,-85.4700854700855,4,2,77,87,0,0
75252,-85.4700854700855,4,2,77,5,0,0
75307,-175.438596491228,4,2,77,87,0,0
75526,-85.4700854700855,4,2,77,87,0,0
75690,-85.4700854700855,4,2,77,5,0,0
75745,-175.438596491228,4,2,77,87,0,0
75964,-85.4700854700855,4,2,77,87,0,0
76128,-85.4700854700855,4,2,77,5,0,0
76183,-175.438596491228,4,2,77,87,0,0
76402,-78.7401574803149,4,2,77,87,0,0
76840,-72.992700729927,4,2,77,87,0,0
77113,-72.992700729927,4,2,77,5,0,0
77168,-72.992700729927,4,2,77,87,0,0
77277,-103.092783505155,4,2,77,87,0,0
77550,-103.092783505155,4,2,77,5,0,0
77607,-103.092783505155,4,2,77,87,0,0
77716,-68.0272108843537,4,2,77,87,0,0
77989,-68.0272108843537,4,2,77,5,0,0
78045,-68.0272108843537,4,2,77,87,0,0
78154,-85.4700854700855,4,2,77,87,0,0
78318,-85.4700854700855,4,2,77,5,0,0
78373,-85.4700854700855,4,2,77,87,0,0
78536,-85.4700854700855,4,2,77,5,0,0
78592,-85.4700854700855,4,2,77,87,0,0
78811,-175.438596491228,4,2,77,87,0,0
78975,-175.438596491228,4,2,77,5,0,0
79030,-85.4700854700855,4,2,77,87,0,0
79194,-85.4700854700855,4,2,77,5,0,0
79248,-85.4700854700855,4,2,77,87,0,0
79467,-175.438596491228,4,2,77,87,0,0
79740,-175.438596491228,4,2,77,5,0,0
79796,-175.438596491228,4,2,77,87,0,0
79905,-78.7401574803149,4,2,77,87,0,0
80288,-78.7401574803149,4,2,77,5,0,0
80343,-85.4700854700855,4,2,77,87,0,0
80507,-85.4700854700855,4,2,77,5,0,0
80562,-85.4700854700855,4,2,77,87,0,0
80945,-85.4700854700855,4,2,77,5,0,0
81000,-85.4700854700855,4,2,77,87,0,0
81383,-85.4700854700855,4,2,77,5,0,0
81438,-85.4700854700855,4,2,77,87,0,0
81657,-78.7401574803149,4,2,77,87,0,0
82095,-85.4700854700855,4,2,77,87,0,0
82259,-85.4700854700855,4,2,77,5,0,0
82314,-175.438596491228,4,2,77,87,0,0
82533,-85.4700854700855,4,2,77,87,0,0
82697,-85.4700854700855,4,2,77,5,0,0
82752,-103.092783505155,4,2,77,87,0,0
82971,-129.87012987013,4,2,77,87,0,0
83135,-129.87012987013,4,2,77,5,0,0
83190,-175.438596491228,4,2,77,87,0,0
83354,-175.438596491228,4,2,77,5,0,0
83409,-175.438596491228,4,2,77,87,0,0
83628,-129.87012987013,4,2,77,87,0,0
83792,-129.87012987013,4,2,77,5,0,0
83847,-72.992700729927,4,2,77,87,0,0
84120,-72.992700729927,4,2,77,5,0,0
84175,-72.992700729927,4,2,77,87,0,0
84285,-175.438596491228,4,2,77,87,0,0
84668,-175.438596491228,4,2,77,5,0,0
84723,-85.4700854700855,4,2,77,87,0,0
85051,-175.438596491228,4,2,77,87,0,0
85105,-175.438596491228,4,2,77,5,0,0
85161,-85.4700854700855,4,2,77,87,0,0
85543,-85.4700854700855,4,2,77,5,0,0
85599,-85.4700854700855,4,2,77,87,0,0
85818,-175.438596491228,4,2,77,87,0,0
85982,-175.438596491228,4,2,77,5,0,0
86037,-85.4700854700855,4,2,77,87,0,0
86201,-85.4700854700855,4,2,77,5,0,0
86256,-85.4700854700855,4,2,77,87,0,0
86420,-85.4700854700855,4,2,77,5,0,0
86475,-212.765957446809,4,2,77,87,0,0
86912,-212.765957446809,4,2,77,47,0,0
87570,-270.270270270271,4,2,77,47,0,0
88008,-588.23529411765,4,2,77,47,0,0
88665,-93.4579439252339,4,2,77,77,0,0
89103,-103.092783505155,4,2,77,77,0,0
91730,-129.87012987013,4,2,77,77,0,0
92168,-103.092783505155,4,2,77,77,0,0
98738,-129.87012987013,4,2,77,77,0,0
99175,-103.092783505155,4,2,77,77,0,0
102679,-72.992700729927,4,2,77,77,0,0
103336,-103.092783505155,4,2,77,77,0,0
103500,-103.092783505155,4,2,77,5,0,0
103555,-175.438596491229,4,2,77,77,0,0
103993,-103.092783505155,4,2,77,77,0,0
104157,-103.092783505155,4,2,77,5,0,0
104212,-103.092783505155,4,2,77,77,0,0
104266,-103.092783505155,4,2,77,5,0,0
104321,-103.092783505155,4,2,77,77,0,0
104375,-103.092783505155,4,2,77,5,0,0
104431,-103.092783505155,4,2,77,77,0,0
105032,-103.092783505155,4,2,77,5,0,0
105088,-103.092783505155,4,2,77,77,0,0
105252,-103.092783505155,4,2,77,5,0,0
105307,-103.092783505155,4,2,77,77,0,0
105471,-103.092783505155,4,2,77,5,0,0
105526,-175.438596491229,4,2,77,77,0,0
106402,-72.992700729927,4,2,77,77,0,0
106566,-72.992700729927,4,2,77,5,0,0
106621,-175.438596491229,4,2,77,77,0,0
106840,-103.092783505155,4,2,77,77,0,0
106894,-103.092783505155,4,2,77,5,0,0
106949,-103.092783505155,4,2,77,77,0,0
107003,-103.092783505155,4,2,77,5,0,0
107278,-72.992700729927,4,2,77,77,0,0
107442,-72.992700729927,4,2,77,5,0,0
107497,-103.092783505155,4,2,77,77,0,0
107661,-103.092783505155,4,2,77,5,0,0
107716,-175.438596491229,4,2,77,77,0,0
107880,-175.438596491229,4,2,77,5,0,0
107935,-175.438596491229,4,2,77,77,0,0
108044,-103.092783505155,4,2,77,77,0,0
108098,-103.092783505155,4,2,77,5,0,0
108154,-103.092783505155,4,2,77,77,0,0
108208,-103.092783505155,4,2,77,5,0,0
108263,-103.092783505155,4,2,77,77,0,0
108317,-103.092783505155,4,2,77,5,0,0
108373,-103.092783505155,4,2,77,77,0,0
109686,-72.992700729927,4,2,77,77,0,0
110124,-103.092783505155,4,2,77,77,0,0
110288,-103.092783505155,4,2,77,5,0,0
110343,-103.092783505155,4,2,77,77,0,0
110945,-103.092783505155,4,2,77,5,0,0
111000,-103.092783505155,4,2,77,77,0,0
111273,-103.092783505155,4,2,77,5,0,0
111329,-103.092783505155,4,2,77,77,0,0
111383,-103.092783505155,4,2,77,5,0,0
111438,-103.092783505155,4,2,77,77,0,0
112478,-103.092783505155,4,2,77,5,0,0
112533,-103.092783505155,4,2,77,77,0,0
112697,-103.092783505155,4,2,77,5,0,0
112752,-103.092783505155,4,2,77,77,0,0
113135,-103.092783505155,4,2,77,5,0,0
113190,-103.092783505155,4,2,77,77,0,0
113792,-103.092783505155,4,2,77,5,0,0
113847,-103.092783505155,4,2,77,77,0,0
113901,-103.092783505155,4,2,77,5,0,0
113957,-103.092783505155,4,2,77,77,0,0
114011,-103.092783505155,4,2,77,5,0,0
114066,-103.092783505155,4,2,77,77,0,0
114449,-103.092783505155,4,2,77,5,0,0
114504,-103.092783505155,4,2,77,77,0,0
115599,-212.76595744681,4,2,77,77,0,0
116694,-72.992700729927,4,2,77,77,0,0
117132,-103.092783505155,4,2,77,77,0,0
117296,-103.092783505155,4,2,77,5,0,0
117351,-103.092783505155,4,2,77,77,0,0
118172,-103.092783505155,4,2,77,5,0,0
118227,-103.092783505155,4,2,77,77,0,0
120470,-103.092783505155,4,2,77,5,0,0
120526,-103.092783505155,4,2,77,77,0,0
120580,-103.092783505155,4,2,77,5,0,0
120635,-103.092783505155,4,2,77,77,0,0
120908,-103.092783505155,4,2,77,5,0,0
120964,-103.092783505155,4,2,77,77,0,0
121018,-103.092783505155,4,2,77,5,0,0
121073,-103.092783505155,4,2,77,77,0,0
122989,-103.092783505155,4,2,77,5,0,0
123044,-103.092783505155,4,2,77,77,0,0
123263,-175.438596491229,4,2,77,77,0,0
123646,-175.438596491229,4,2,77,5,0,0
123701,-103.092783505155,4,2,77,77,0,0
124303,-103.092783505155,4,2,77,5,0,0
124358,-103.092783505155,4,2,77,77,0,0
124741,-103.092783505155,4,2,77,5,0,0
124796,-103.092783505155,4,2,77,77,0,0
125069,-103.092783505155,4,2,77,5,0,0
125124,-103.092783505155,4,2,77,77,0,0
125178,-103.092783505155,4,2,77,5,0,0
125234,-103.092783505155,4,2,77,77,0,0
126493,-103.092783505155,4,2,77,5,0,0
126548,-103.092783505155,4,2,77,77,0,0
126602,-103.092783505155,4,2,77,5,0,0
126657,-103.092783505155,4,2,77,77,0,0
126711,-103.092783505155,4,2,77,5,0,0
126767,-103.092783505155,4,2,77,77,0,0
127150,-103.092783505155,4,2,77,5,0,0
127205,-103.092783505155,4,2,77,77,0,0
129011,-103.092783505155,4,2,77,5,0,0
129066,-103.092783505155,4,2,77,77,0,0
129120,-103.092783505155,4,2,77,5,0,0
129175,-103.092783505155,4,2,77,77,0,0
130270,-175.438596491229,4,2,77,77,0,0
130708,-129.87012987013,4,2,7,67,0,0
131748,-129.87012987013,4,2,7,5,0,0
131803,-129.87012987013,4,2,7,67,0,0
133062,-129.87012987013,4,2,7,5,0,0
133117,-129.87012987013,4,2,7,67,0,0
135252,-129.87012987013,4,2,7,5,0,0
135307,-129.87012987013,4,2,7,67,0,0
135909,-129.87012987013,4,2,7,5,0,0
135964,-129.87012987013,4,2,7,67,0,0
137278,-212.76595744681,4,2,7,67,0,0
137661,-212.76595744681,4,2,7,5,0,0
137716,-129.87012987013,4,2,7,67,0,0
138756,-129.87012987013,4,2,7,5,0,0
138811,-129.87012987013,4,2,7,67,0,0
140069,-129.87012987013,4,2,7,5,0,0
140124,-129.87012987013,4,2,7,67,0,0
142259,-129.87012987013,4,2,7,5,0,0
142315,-129.87012987013,4,2,7,67,0,0
143354,-129.87012987013,4,2,7,5,0,0
143409,-212.76595744681,4,2,7,67,0,0
143847,-129.87012987013,4,2,7,67,0,0
144504,-212.76595744681,4,2,7,67,0,0
144668,-212.76595744681,4,2,7,5,0,0
144723,-129.87012987013,4,2,7,67,0,0
145763,-129.87012987013,4,2,7,5,0,0
145818,-129.87012987013,4,2,7,67,0,0
146858,-129.87012987013,4,2,7,5,0,0
146913,-129.87012987013,4,2,7,67,0,0
147077,-129.87012987013,4,2,7,5,0,0
147132,-129.87012987013,4,2,7,67,0,0
149267,-129.87012987013,4,2,7,5,0,0
149322,-129.87012987013,4,2,7,67,0,0
151073,-212.76595744681,4,2,7,67,0,0
151675,-212.76595744681,4,2,7,5,0,0
151730,-129.87012987013,4,2,7,67,0,0
151894,-129.87012987013,4,2,7,5,0,0
151949,-129.87012987013,4,2,7,67,0,0
153427,-129.87012987013,4,2,7,5,0,0
153482,-129.87012987013,4,2,7,67,0,0
153865,-129.87012987013,4,2,7,5,0,0
153920,-129.87012987013,4,2,7,67,0,0
154084,-129.87012987013,4,2,7,5,0,0
154139,-129.87012987013,4,2,7,67,0,0
155398,-129.87012987013,4,2,7,5,0,0
155453,-129.87012987013,4,2,7,67,0,0
158300,-212.76595744681,4,2,7,67,0,0
160489,-93.4579439252336,4,2,77,77,0,0
161091,-93.4579439252336,4,2,77,5,0,0
161146,-93.4579439252336,4,2,77,77,0,0
161200,-93.4579439252336,4,2,77,5,0,0
161256,-93.4579439252336,4,2,77,77,0,0
161748,-93.4579439252336,4,2,77,5,0,0
161803,-175.438596491228,4,2,77,77,0,0
161967,-175.438596491228,4,2,77,5,0,0
162022,-93.4579439252336,4,2,77,77,0,0
162186,-93.4579439252336,4,2,77,5,0,0
162241,-175.438596491228,4,2,77,77,0,0
162460,-93.4579439252336,4,2,77,77,0,0
162624,-93.4579439252336,4,2,77,5,0,0
162679,-175.438596491228,4,2,77,77,0,0
163117,-68.0272108843537,4,2,77,77,0,0
163281,-68.0272108843537,4,2,77,5,0,0
163336,-175.438596491228,4,2,77,77,0,0
163993,-93.4579439252336,4,2,77,77,0,0
164431,-175.438596491228,4,2,77,77,0,0
164869,-93.4579439252336,4,2,77,77,0,0
165690,-93.4579439252336,4,2,77,5,0,0
165745,-93.4579439252336,4,2,77,77,0,0
166785,-93.4579439252336,4,2,77,5,0,0
166840,-93.4579439252336,4,2,77,77,0,0
167004,-93.4579439252336,4,2,77,5,0,0
167059,-175.438596491228,4,2,77,77,0,0
167223,-175.438596491228,4,2,77,5,0,0
167278,-175.438596491228,4,2,77,77,0,0
167442,-175.438596491228,4,2,77,5,0,0
167497,-175.438596491228,4,2,77,77,0,0
167716,-93.4579439252336,4,2,77,77,0,0
168208,-93.4579439252336,4,2,77,5,0,0
168263,-93.4579439252336,4,2,77,77,0,0
168756,-93.4579439252336,4,2,77,5,0,0
168811,-175.438596491228,4,2,77,77,0,0
168975,-175.438596491228,4,2,77,5,0,0
169030,-93.4579439252336,4,2,77,77,0,0
169194,-93.4579439252336,4,2,77,5,0,0
169248,-175.438596491228,4,2,77,77,0,0
169467,-93.4579439252336,4,2,77,77,0,0
169631,-93.4579439252336,4,2,77,5,0,0
169686,-175.438596491228,4,2,77,77,0,0
170124,-68.0272108843537,4,2,77,77,0,0
170288,-68.0272108843537,4,2,77,5,0,0
170343,-175.438596491228,4,2,77,77,0,0
171000,-93.4579439252336,4,2,77,77,0,0
171164,-93.4579439252336,4,2,77,5,0,0
171219,-93.4579439252336,4,2,77,77,0,0
171438,-175.438596491228,4,2,77,77,0,0
171876,-93.4579439252336,4,2,77,77,0,0
172697,-93.4579439252336,4,2,77,5,0,0
172753,-93.4579439252336,4,2,77,77,0,0
173792,-93.4579439252336,4,2,77,5,0,0
173847,-93.4579439252336,4,2,77,77,0,0
174011,-93.4579439252336,4,2,77,5,0,0
174066,-370.37037037037,4,2,77,77,0,0
174120,-370.37037037037,4,2,77,5,0,0
174504,-93.4579439252336,4,2,77,77,0,0
174942,-175.438596491228,4,2,77,77,0,0
175106,-175.438596491228,4,2,77,5,0,0
175161,-85.4700854700855,4,2,77,77,0,0
175215,-85.4700854700855,4,2,77,5,0,0
175270,-85.4700854700855,4,2,77,77,0,0
176201,-85.4700854700855,4,2,77,5,0,0
176256,-85.4700854700855,4,2,77,77,0,0
176639,-85.4700854700855,4,2,77,5,0,0
176694,-85.4700854700855,4,2,77,77,0,0
177296,-85.4700854700855,4,2,77,5,0,0
177351,-85.4700854700855,4,2,77,77,0,0
177515,-85.4700854700855,4,2,77,5,0,0
177570,-85.4700854700855,4,2,77,77,0,0
177789,-175.438596491228,4,2,77,77,0,0
178008,-85.4700854700855,4,2,77,77,0,0
178446,-175.438596491228,4,2,77,77,0,0
178884,-85.4700854700855,4,2,77,77,0,0
179048,-85.4700854700855,4,2,77,5,0,0
179102,-85.4700854700855,4,2,77,77,0,0
180799,-85.4700854700855,4,2,77,5,0,0
180854,-85.4700854700855,4,2,77,77,0,0
181018,-85.4700854700855,4,2,77,5,0,0
181073,-175.438596491228,4,2,77,77,0,0
181237,-175.438596491228,4,2,77,5,0,0
181292,-175.438596491228,4,2,77,77,0,0
181511,-85.4700854700855,4,2,77,77,0,0
181949,-175.438596491228,4,2,77,77,0,0
182113,-175.438596491228,4,2,77,5,0,0
182168,-175.438596491228,4,2,77,77,0,0
182606,-85.4700854700855,4,2,77,77,0,0
182770,-85.4700854700855,4,2,77,5,0,0
182825,-175.438596491228,4,2,77,77,0,0
183044,-85.4700854700855,4,2,77,77,0,0
183208,-85.4700854700855,4,2,77,5,0,0
183263,-175.438596491228,4,2,77,77,0,0
183482,-85.4700854700855,4,2,77,77,0,0
183646,-85.4700854700855,4,2,77,5,0,0
183701,-175.438596491228,4,2,77,77,0,0
185015,-85.4700854700855,4,2,77,77,0,0
185453,-175.438596491228,4,2,77,77,0,0
185891,-85.4700854700855,4,2,77,77,0,0
186712,-85.4700854700855,4,2,77,5,0,0
186768,-85.4700854700855,4,2,77,77,0,0
187807,-85.4700854700855,4,2,77,5,0,0
187862,-114.942528735632,4,2,77,77,0,0
188026,-114.942528735632,4,2,77,5,0,0
188081,-212.765957446809,4,2,77,77,0,0
188519,-370.370370370372,4,2,77,47,0,0
188902,-370.370370370372,4,2,77,5,0,0
188957,-370.370370370372,4,2,77,47,0,0
189340,-370.370370370372,4,2,77,5,0,0
189394,-370.370370370372,4,2,77,47,0,0
189686,-212.765957446809,4,2,77,47,0,0
190270,-78.740157480315,4,2,77,77,0,0
190708,-175.438596491228,4,2,77,57,0,0
202916,-175.438596491228,4,2,77,5,0,0
202971,-212.765957446809,4,2,77,57,0,0
203354,-212.765957446809,4,2,77,5,0,0
203409,-270.270270270271,4,2,77,57,0,0
203792,-270.270270270271,4,2,77,5,0,0
203847,-370.370370370372,4,2,77,57,0,0
204285,-588.23529411765,4,2,7,57,0,0
205325,-588.23529411765,4,2,7,5,0,0
205380,-370.370370370374,4,2,7,57,0,0
205982,-370.370370370374,4,2,7,5,0,0
206037,-78.7401574803149,4,2,77,87,0,0
206475,-85.4700854700855,4,2,77,87,0,0
206639,-85.4700854700855,4,2,77,5,0,0
206693,-85.4700854700855,4,2,77,87,0,0
207077,-85.4700854700855,4,2,77,5,0,0
207132,-85.4700854700855,4,2,77,87,0,0
207515,-85.4700854700855,4,2,77,5,0,0
207570,-85.4700854700855,4,2,77,87,0,0
207789,-78.7401574803149,4,2,77,87,0,0
208172,-78.7401574803149,4,2,77,5,0,0
208227,-85.4700854700855,4,2,77,87,0,0
208391,-85.4700854700855,4,2,77,5,0,0
208446,-175.438596491228,4,2,77,87,0,0
208665,-85.4700854700855,4,2,77,87,0,0
208829,-85.4700854700855,4,2,77,5,0,0
208884,-175.438596491228,4,2,77,87,0,0
209102,-85.4700854700855,4,2,77,87,0,0
209266,-85.4700854700855,4,2,77,5,0,0
209321,-175.438596491228,4,2,77,87,0,0
209540,-78.7401574803149,4,2,77,87,0,0
209813,-78.7401574803149,4,2,77,5,0,0
209869,-78.7401574803149,4,2,77,87,0,0
209978,-72.992700729927,4,2,77,87,0,0
210416,-103.092783505155,4,2,77,87,0,0
210689,-103.092783505155,4,2,77,5,0,0
210745,-103.092783505155,4,2,77,87,0,0
210854,-68.0272108843537,4,2,77,87,0,0
211127,-68.0272108843537,4,2,77,5,0,0
211183,-68.0272108843537,4,2,77,87,0,0
211292,-85.4700854700855,4,2,77,87,0,0
211565,-85.4700854700855,4,2,77,5,0,0
211621,-85.4700854700855,4,2,77,87,0,0
211675,-85.4700854700855,4,2,77,5,0,0
211730,-85.4700854700855,4,2,77,87,0,0
211949,-175.438596491228,4,2,77,87,0,0
212113,-175.438596491228,4,2,77,5,0,0
212168,-85.4700854700855,4,2,77,87,0,0
212332,-85.4700854700855,4,2,77,5,0,0
212387,-85.4700854700855,4,2,77,87,0,0
212606,-175.438596491228,4,2,77,87,0,0
212879,-175.438596491228,4,2,77,5,0,0
212934,-175.438596491228,4,2,77,87,0,0
213044,-78.7401574803149,4,2,77,87,0,0
213482,-85.4700854700855,4,2,77,87,0,0
214084,-85.4700854700855,4,2,77,5,0,0
214139,-85.4700854700855,4,2,77,87,0,0
214522,-85.4700854700855,4,2,77,5,0,0
214577,-85.4700854700855,4,2,77,87,0,0
214796,-78.7401574803149,4,2,77,87,0,0
215179,-78.7401574803149,4,2,77,5,0,0
215234,-78.7401574803149,4,2,77,87,0,0
215453,-175.438596491228,4,2,77,87,0,0
215617,-175.438596491228,4,2,77,5,0,0
215672,-85.4700854700855,4,2,77,87,0,0
215836,-85.4700854700855,4,2,77,5,0,0
215891,-103.092783505155,4,2,77,87,0,0
216110,-129.87012987013,4,2,77,87,0,0
216274,-129.87012987013,4,2,77,5,0,0
216329,-175.438596491228,4,2,77,87,0,0
216767,-129.87012987013,4,2,77,87,0,0
216931,-129.87012987013,4,2,77,5,0,0
216986,-85.4700854700855,4,2,77,87,0,0
217424,-175.438596491228,4,2,77,87,0,0
217697,-175.438596491228,4,2,77,5,0,0
217752,-175.438596491228,4,2,77,87,0,0
217806,-175.438596491228,4,2,77,5,0,0
217862,-85.4700854700855,4,2,77,87,0,0
218572,-85.4700854700855,4,2,77,5,0,0
218628,-85.4700854700855,4,2,77,87,0,0
218682,-85.4700854700855,4,2,77,5,0,0
218737,-85.4700854700855,4,2,77,87,0,0
218957,-175.438596491228,4,2,77,87,0,0
219121,-175.438596491228,4,2,77,5,0,0
219175,-85.4700854700855,4,2,77,87,0,0
219339,-85.4700854700855,4,2,77,5,0,0
219394,-85.4700854700855,4,2,77,87,0,0
219558,-85.4700854700855,4,2,77,5,0,0
219613,-85.4700854700855,4,2,77,87,0,0
220051,-78.7401574803149,4,2,77,87,0,0
220489,-85.4700854700855,4,2,77,87,0,0
221091,-85.4700854700855,4,2,77,5,0,0
221146,-85.4700854700855,4,2,77,87,0,0
221529,-85.4700854700855,4,2,77,5,0,0
221584,-85.4700854700855,4,2,77,87,0,0
221803,-78.7401574803149,4,2,77,87,0,0
222186,-78.7401574803149,4,2,77,5,0,0
222241,-85.4700854700855,4,2,77,87,0,0
222405,-85.4700854700855,4,2,77,5,0,0
222460,-175.438596491228,4,2,77,87,0,0
222679,-85.4700854700855,4,2,77,87,0,0
222843,-85.4700854700855,4,2,77,5,0,0
222898,-175.438596491228,4,2,77,87,0,0
223117,-85.4700854700855,4,2,77,87,0,0
223281,-85.4700854700855,4,2,77,5,0,0
223336,-175.438596491228,4,2,77,87,0,0
223555,-78.7401574803149,4,2,77,87,0,0
223993,-72.992700729927,4,2,77,87,0,0
224430,-103.092783505155,4,2,77,87,0,0
224869,-68.0272108843537,4,2,77,87,0,0
225307,-85.4700854700855,4,2,77,87,0,0
225471,-85.4700854700855,4,2,77,5,0,0
225526,-85.4700854700855,4,2,77,87,0,0
225689,-85.4700854700855,4,2,77,5,0,0
225745,-85.4700854700855,4,2,77,87,0,0
225964,-175.438596491228,4,2,77,87,0,0
226128,-175.438596491228,4,2,77,5,0,0
226183,-85.4700854700855,4,2,77,87,0,0
226347,-85.4700854700855,4,2,77,5,0,0
226402,-85.4700854700855,4,2,77,87,0,0
226621,-175.438596491228,4,2,77,87,0,0
227004,-175.438596491228,4,2,77,5,0,0
227059,-78.7401574803149,4,2,77,87,0,0
227442,-78.7401574803149,4,2,77,5,0,0
227497,-85.4700854700855,4,2,77,87,0,0
227661,-85.4700854700855,4,2,77,5,0,0
227715,-85.4700854700855,4,2,77,87,0,0
228099,-85.4700854700855,4,2,77,5,0,0
228154,-85.4700854700855,4,2,77,87,0,0
228537,-85.4700854700855,4,2,77,5,0,0
228592,-85.4700854700855,4,2,77,87,0,0
228811,-78.7401574803149,4,2,77,87,0,0
229248,-85.4700854700855,4,2,77,87,0,0
229412,-85.4700854700855,4,2,77,5,0,0
229467,-175.438596491228,4,2,77,87,0,0
229686,-85.4700854700855,4,2,77,87,0,0
229850,-85.4700854700855,4,2,77,5,0,0
229905,-103.092783505155,4,2,77,87,0,0
230124,-129.87012987013,4,2,77,87,0,0
230288,-129.87012987013,4,2,77,5,0,0
230343,-175.438596491228,4,2,77,87,0,0
230507,-175.438596491228,4,2,77,5,0,0
230562,-175.438596491228,4,2,77,87,0,0
230781,-129.87012987013,4,2,77,87,0,0
230945,-129.87012987013,4,2,77,5,0,0
231000,-72.992700729927,4,2,77,87,0,0
231438,-175.438596491228,4,2,77,87,0,0
231821,-175.438596491228,4,2,77,5,0,0
231876,-85.4700854700855,4,2,77,87,0,0
232205,-175.438596491228,4,2,77,87,0,0
232259,-175.438596491228,4,2,77,5,0,0
232314,-85.4700854700855,4,2,77,87,0,0
232696,-85.4700854700855,4,2,77,5,0,0
232752,-85.4700854700855,4,2,77,87,0,0
232971,-175.438596491228,4,2,77,87,0,0
233135,-175.438596491228,4,2,77,5,0,0
233190,-85.4700854700855,4,2,77,87,0,0
233354,-85.4700854700855,4,2,77,5,0,0
233409,-85.4700854700855,4,2,77,87,0,0
233628,-212.765957446809,4,2,77,87,0,0
234065,-212.765957446809,4,2,77,47,0,0
234723,-270.270270270271,4,2,77,47,0,0
235161,-588.23529411765,4,2,77,47,0,0
235818,-93.4579439252339,4,2,77,77,0,0
236256,-103.092783505155,4,2,77,77,0,0
238884,-129.87012987013,4,2,77,77,0,0
239321,-103.092783505155,4,2,77,77,0,0
245891,-129.87012987013,4,2,77,77,0,0
246329,-103.092783505155,4,2,77,77,0,0
249175,-212.76595744681,4,2,77,47,0,0
249832,-93.4579439252339,4,2,77,77,0,0
250270,-103.092783505155,4,2,77,77,0,0
252898,-129.87012987013,4,2,77,77,0,0
253336,-103.092783505155,4,2,77,77,0,0
259905,-129.87012987013,4,2,77,77,0,0
260343,-103.092783505155,4,2,77,77,0,0
262971,-270.270270270272,4,2,77,77,0,0

[Colours]
Combo1 : 223,213,255
Combo2 : 233,233,233

[HitObjects]
424,59,29103,5,6,1:0:0:0:
329,27,29212,1,2,2:0:0:0:
424,59,29321,2,0,P|367:47|328:147,1,173.145004095074,2|0,2:0|1:0,2:0:0:0:
322,135,29650,1,0,2:0:0:0:
460,259,29759,2,0,P|411:206|354:228,1,129.858753071305,2|0,2:0|0:0,2:0:0:0:
362,221,29978,2,0,P|293:251|193:275,1,173.145004095074,0|0,1:0|2:0,2:0:0:0:
270,341,30307,1,0,2:0:0:0:
112,296,30416,2,0,P|123:260|133:203,1,86.5725020475369,2|0,1:0|2:0,2:0:0:0:
38,137,30635,2,0,P|30:100|13:45,1,86.5725020475369,2|0,2:0|2:0,2:0:0:0:
146,97,30854,6,0,P|179:51|255:48,1,129.858753071305,2|0,1:0|0:0,2:0:0:0:
247,44,31073,1,2,2:0:0:0:
309,98,31183,1,0,2:0:0:0:
397,38,31292,2,0,P|355:15|310:29,1,86.5725020475369,0|0,1:0|2:0,2:0:0:0:
339,238,31511,2,0,P|350:195|401:109,1,129.858753071305,2|0,2:0|0:0,2:0:0:0:
400,126,31730,2,0,P|367:174|355:203,1,86.5725020475369,2|0,1:0|2:0,2:0:0:0:
446,345,31949,2,0,P|400:308|328:332,1,129.858753071305,2|0,2:0|0:0,2:0:0:0:
336,325,32168,2,0,P|306:357|264:355,1,86.5725020475369,2|0,1:0|2:0,2:0:0:0:
177,235,32387,1,2,2:0:0:0:
182,249,32497,1,0,2:0:0:0:
65,355,32606,6,0,P|82:321|101:270,1,86.5725020475369,2|0,1:0|2:0,2:0:0:0:
53,123,32825,2,0,P|72:155|106:198,1,86.5725020475369,2|0,2:0|2:0,2:0:0:0:
281,174,33044,2,0,P|324:141|413:113,1,129.858753071305,2|0,1:0|0:0,2:0:0:0:
395,115,33263,2,0,B|299:147|331:51|235:83,1,173.145004095074,2|0,2:0|1:0,2:0:0:0:
166,367,33701,6,0,P|181:330|199:277,1,86.5725020475369,2|0,2:0|2:0,2:0:0:0:
308,384,33920,2,0,P|300:344|296:287,1,86.5725020475369,2|0,1:0|2:0,2:0:0:0:
75,254,34139,2,0,P|110:238|160:212,1,86.5725020475369,2|0,2:0|2:0,2:0:0:0:
423,297,34358,2,0,P|390:273|348:236,1,86.5725020475369,2|0,1:0|2:0,2:0:0:0:
259,167,34577,1,0,2:0:0:0:
258,181,34686,1,0,2:0:0:0:
106,25,34796,2,0,P|106:114|187:135,1,173.145004095074,2|0,1:0|2:0,2:0:0:0:
175,139,35124,1,0,2:0:0:0:
387,104,35234,2,0,P|344:88|304:63,1,86.5725020475369,2|0,1:0|2:0,2:0:0:0:
241,96,35453,1,2,2:0:0:0:
335,1,35562,1,0,2:0:0:0:
383,113,35672,6,0,B|386:163|412:185|416:237,1,129.858753071305,2|0,1:0|0:0,2:0:0:0:
405,241,35891,2,0,B|405:209|424:207|429:156,1,86.5725020475369,2|0,2:0|2:0,2:0:0:0:
294,326,36110,6,0,L|173:347,1,115.578752821747,2|0,1:0|0:0,2:0:0:0:
174,353,36548,6,0,P|144:308|156:239,1,86.5725020475369,2|0,1:0|2:0,2:0:0:0:
135,267,36767,2,0,P|169:225|199:219,1,86.5725020475369,2|0,2:0|2:0,2:0:0:0:
434,172,36986,6,0,P|412:222|346:249,1,86.5725020475369,2|0,1:0|2:0,2:0:0:0:
380,248,37205,2,0,P|327:240|306:218,1,86.5725020475369,2|0,2:0|2:0,2:0:0:0:
286,15,37424,6,0,L|263:146,1,129.858753071305,2|0,1:0|0:0,2:0:0:0:
255,140,37643,2,0,L|268:54,1,86.5725020475369,2|0,2:0|2:0,2:0:0:0:
105,20,37862,6,0,B|29:34|29:34|56:31|77:45,1,115.578752821747,2|0,1:0|0:0,2:0:0:0:
67,39,38300,6,0,B|99:135|3:103|35:199,1,173.145004095074,2|0,1:0|2:0,2:0:0:0:
34,196,38628,1,0,2:0:0:0:
107,291,38738,6,0,B|31:276|31:276|58:280|79:266,1,115.578752821747,2|0,1:0|0:0,2:0:0:0:
69,271,39175,1,2,1:0:0:0:
319,292,39394,5,0,2:0:0:0:
314,305,39504,1,0,2:0:0:0:
239,276,39613,6,0,P|230:192|217:101,1,173.145004095074,2|0,1:0|2:0,2:0:0:0:
217,104,39942,1,0,2:0:0:0:
441,69,40051,2,0,B|391:102|400:131|351:170,1,129.858753071305,2|0,1:0|0:0,2:0:0:0:
347,161,40270,2,0,P|396:167|443:180,1,86.5725020475369,2|0,2:0|2:0,2:0:0:0:
320,77,40489,1,0,1:0:0:0:
167,219,40708,6,0,P|143:249|119:292,1,86.5725020475369,2|0,2:0|2:0,2:0:0:0:
310,252,40927,2,0,P|348:256|397:254,1,86.5725020475369,2|0,1:0|2:0,2:0:0:0:
262,113,41146,2,0,P|246:78|218:37,1,86.5725020475369,2|0,2:0|2:0,2:0:0:0:
246,196,41365,5,2,1:0:0:0:
259,192,41475,1,0,2:0:0:0:
184,139,41584,2,0,P|148:125|93:113,1,86.5725020475369,0|0,2:0|2:0,2:0:0:0:
25,289,41803,2,0,P|61:233|132:224,1,129.858753071305,0|0,1:0|0:0,2:0:0:0:
120,221,42022,2,0,P|91:260|53:258,1,86.5725020475369,0|0,2:0|2:0,2:0:0:0:
30,92,42241,5,0,1:0:0:0:
33,78,42351,1,0,2:0:0:0:
122,45,42460,2,0,P|159:53|208:69,1,86.5725020475369,0|0,2:0|2:0,2:0:0:0:
443,284,42679,6,0,L|459:153,1,129.858753071305,2|0,1:0|0:0,2:0:0:0:
443,147,42898,2,0,L|432:233,1,86.5725020475369,2|0,2:0|2:0,2:0:0:0:
145,330,43117,6,0,B|140:346|140:346|160:350|163:334|168:318|148:312|148:312|128:307|125:324|120:340|140:346|140:346|145:330,1,146.816247759762,6|0,1:0|0:0,2:0:0:0:
145,330,43555,6,0,P|178:291|183:241,1,86.5725020475369,2|0,1:0|2:0,2:0:0:0:
285,269,43774,2,0,P|281:218|250:178,1,86.5725020475369,2|0,2:0|2:0,2:0:0:0:
39,45,43993,6,0,B|34:28|34:28|54:24|57:40|62:56|42:62|42:62|22:67|19:50|14:34|34:28|34:28|39:45,1,146.816247759762,2|0,1:0|0:0,2:0:0:0:
39,45,44431,6,0,P|78:78|128:83,1,86.5725020475369,2|0,1:0|2:0,2:0:0:0:
100,185,44650,2,0,P|150:181|190:150,1,86.5725020475369,2|0,2:0|2:0,2:0:0:0:
411,74,44869,6,0,B|409:36|421:4|421:4|424:39|397:56,1,125.842498079796,2|0,1:0|2:0,2:0:0:0:
227,218,45307,6,0,B|195:239|162:246|162:246|190:225|219:239,1,125.842498079796,2|0,1:0|2:0,2:0:0:0:
434,310,45745,6,0,B|469:324|492:349|492:349|459:337|456:305,1,125.842498079796,2|0,1:0|2:0,2:0:0:0:
328,217,46183,1,2,1:0:0:0:
326,196,46292,1,2,2:0:0:0:
378,141,46402,5,2,2:0:0:0:
399,237,46511,1,2,2:0:0:0:
293,118,46621,6,0,P|242:108|181:92,1,86.5725020475369,2|2,1:0|2:0,2:0:0:0:
37,256,46840,2,0,P|126:224|214:213,1,173.145004095074,2|0,2:0|1:0,2:0:0:0:
203,213,47168,1,0,2:0:0:0:
242,358,47278,1,2,2:0:0:0:
160,310,47387,1,2,2:0:0:0:
242,358,47497,2,0,P|256:304|340:294,1,129.858753071305,0|0,1:0|0:0,2:0:0:0:
321,285,47716,2,0,P|304:326|267:324,1,86.5725020475369,0|0,2:0|2:0,2:0:0:0:
82,103,47935,2,0,B|145:98|175:64|239:59,1,129.858753071305,2|0,1:0|0:0,2:0:0:0:
205,65,48154,2,0,P|161:54|114:40,1,86.5725020475369,0|0,2:0|2:0,2:0:0:0:
201,160,48373,6,0,P|255:170|299:97,1,129.858753071305,2|0,1:0|0:0,2:0:0:0:
309,113,48592,2,0,P|294:157|254:180,1,86.5725020475369,0|0,2:0|2:0,2:0:0:0:
364,9,48811,6,0,P|400:50|404:160,1,155.295001303288,2|0,1:0|2:0,2:0:0:0:
408,147,49139,1,0,2:0:0:0:
505,139,49248,6,0,P|493:187|412:248,1,137.444997273583,2|0,1:0|2:0,2:0:0:0:
428,243,49577,1,0,2:0:0:0:
445,342,49686,6,0,P|402:342|357:296,1,89.6962457571661,2|0,1:0|0:0,2:0:0:0:
363,305,49905,2,0,P|328:278|283:277,1,89.6962457571661,2|0,2:0|0:0,2:0:0:0:
279,291,50124,6,0,P|223:301|155:319,1,125.842498079796,2|0,1:0|2:0,2:0:0:0:
24,99,50562,6,0,B|13:77|34:55|34:55|24:77|34:99,1,86.5725020475369,2|0,1:0|2:0,2:0:0:0:
285,155,50781,2,0,B|295:176|274:198|274:198|285:176|274:155,1,86.5725020475369,2|0,2:0|2:0,2:0:0:0:
107,80,51000,6,0,P|162:90|231:108,1,125.842498079796,2|0,1:0|2:0,2:0:0:0:
466,20,51438,6,0,P|423:32|404:84,1,86.5725020475369,2|0,1:0|2:0,2:0:0:0:
460,219,51657,2,0,P|472:176|437:132,1,86.5725020475369,2|0,2:0|2:0,2:0:0:0:
278,276,51876,6,0,B|245:253|204:250|204:250|227:250|248:233,1,125.842498079796,2|0,1:0|2:0,2:0:0:0:
156,22,52314,6,0,B|154:61|173:98|173:98|160:79|135:70,1,125.842498079796,2|0,1:0|2:0,2:0:0:0:
0,269,52752,6,0,B|34:249|55:213|55:213|45:234|51:260,1,125.842498079796,2|0,1:0|2:0,2:0:0:0:
211,338,53190,5,2,1:0:0:0:
212,259,53300,1,2,2:0:0:0:
137,244,53409,1,2,2:0:0:0:
137,244,53628,5,2,1:0:0:0:
238,160,53738,1,2,2:0:0:0:
122,0,53847,6,0,B|90:96|186:64|154:160,1,173.145004095074,2|0,2:0|1:0,2:0:0:0:
430,282,54285,5,2,2:0:0:0:
411,209,54394,1,2,2:0:0:0:
220,289,54504,6,0,P|303:307|390:348,1,173.145004095074,2|0,1:0|2:0,2:0:0:0:
382,343,54832,1,0,2:0:0:0:
218,284,54942,6,0,P|202:226|247:171,1,129.858753071305,2|0,1:0|0:0,2:0:0:0:
241,173,55161,2,0,P|251:217|218:245,1,86.5725020475369,0|0,2:0|2:0,2:0:0:0:
38,130,55380,6,0,B|24:120|24:120|46:91|42:54|42:54|46:91|75:113|75:113|64:128,1,173.145004095074,10|0,1:2|2:0,2:0:0:0:
61,200,55708,1,0,2:0:0:0:
245,87,55818,6,0,P|187:69|126:44,1,116.471250977466,10|0,1:2|0:0,2:0:0:0:
126,54,56037,2,0,P|162:68|203:84,1,77.6475006516438,0|0,2:0|2:0,2:0:0:0:
234,183,56256,6,0,P|176:165|115:140,1,103.083747955187,10|0,1:2|0:0,2:0:0:0:
127,153,56475,2,0,P|163:167|204:183,1,68.7224986367913,0|0,2:0|2:0,2:0:0:0:
213,278,56694,6,0,P|163:262|111:241,1,89.6962457571661,10|0,1:2|0:0,2:0:0:0:
121,252,56913,2,0,P|152:264|186:277,1,59.7974971714441,0|0,2:0|2:0,2:0:0:0:
413,276,57132,6,0,B|422:355|361:379|295:371|287:304|287:304|280:243|339:204|339:204|399:164|391:101|340:75,1,483.288744100479,2|0,1:0|0:0,2:0:0:0:
350,81,58227,6,0,L|298:91,1,33.9149995859985,0|0,2:0|2:0,2:0:0:0:
92,252,58446,6,0,P|59:222|11:215,1,84.3412520591126,2|0,2:0|0:0,2:0:0:0:
24,300,58884,6,0,B|-4:295|-21:246|-21:246|7:206|75:214|101:286|101:286|125:357|193:365|230:335,1,396.716246973295,6|0,1:0|0:0,2:0:0:0:
297,300,59321,2,0,B|309:255|263:219|263:219|289:257|274:302,1,156.63375059751,2|0,1:0|0:0,2:0:0:0:
179,262,59540,1,2,2:0:0:0:
179,262,59759,6,0,P|188:195|194:102,1,156.63375059751,2|0,1:0|0:0,2:0:0:0:
144,47,59978,2,0,P|179:21|241:36,1,104.42250039834,2|0,2:0|2:0,2:0:0:0:
270,233,60197,6,0,B|327:263|369:220|369:220|343:230|316:219,1,156.63375059751,2|0,1:0|0:0,2:0:0:0:
305,50,60416,2,0,P|332:95|338:155,1,104.42250039834,2|0,2:0|2:0,2:0:0:0:
448,233,60635,6,0,B|437:268|437:268|448:305|556:305|593:195|483:104|410:158,1,340.042497405682,2|0,1:0|2:0,2:0:0:0:
295,284,61073,6,0,P|236:299|142:339,1,156.63375059751,2|0,1:0|0:0,2:0:0:0:
92,384,61292,2,0,P|77:359|78:320,1,50.8724993789978,2|0,2:0|2:0,2:0:0:0:
237,167,61511,6,0,B|190:184|186:239|186:239|175:204|128:188,1,156.63375059751,2|0,1:0|0:0,2:0:0:0:
68,254,61730,2,0,P|97:254|129:276,1,50.8724993789978,2|0,2:0|2:0,2:0:0:0:
380,181,61949,6,0,P|348:240|263:237,1,156.63375059751,2|0,1:0|0:0,2:0:0:0:
329,326,62168,2,0,P|344:306|344:268,1,50.8724993789978,2|0,2:0|2:0,2:0:0:0:
488,72,62387,6,0,P|433:155|445:280,1,226.694998270454,2|0,1:0|2:0,2:0:0:0:
234,162,62716,5,0,2:0:0:0:
303,98,62825,2,0,B|299:126|323:157|323:157|242:118|153:137|153:137|185:112|189:83,1,305.681258629003,2|0,1:0|0:0,2:0:0:0:
151,4,63154,5,0,2:0:0:0:
111,69,63263,2,0,B|135:87|141:133|99:160|99:160|57:188|62:233|87:252,1,216.431255118842,2|0,1:0|0:0,2:0:0:0:
183,315,63592,5,0,2:0:0:0:
365,250,63701,2,0,P|212:289|39:358,1,327.993734735399,2|0,1:0|0:0,2:0:0:0:
95,361,64030,5,0,2:0:0:0:
165,219,64139,2,0,B|198:194|258:205|276:269|276:269|295:334|353:346,1,261.056250995851,2|0,1:0|0:0,2:0:0:0:
424,371,64467,6,0,P|430:344|445:311,1,52.2112501991701,0|0,2:0|0:0,2:0:0:0:
439,321,64577,1,0,1:0:0:0:
390,223,64686,1,0,2:0:0:0:
447,113,64796,6,0,P|462:146|455:186,1,76.3087490684967,0|0,2:0|0:0,2:0:0:0:
390,223,65015,2,0,P|319:196|219:184,1,156.63375059751,0|0,1:0|0:0,2:0:0:0:
196,120,65234,2,0,P|151:129|98:155,1,104.42250039834,0|0,2:0|2:0,2:0:0:0:
30,352,65453,6,0,P|76:316|69:242,1,127.181248447495,2|0,1:0|0:0,2:0:0:0:
24,186,65781,1,0,2:0:0:0:
162,335,65891,6,0,B|218:296|289:319|289:319|353:311|377:243|337:184|273:191|273:191|249:244|299:257,1,396.716246973295,2|0,1:0|0:0,2:0:0:0:
402,339,66329,2,0,B|447:312|498:314|498:314|464:312|441:292,1,156.63375059751,2|0,1:0|0:0,2:0:0:0:
382,264,66548,1,2,2:0:0:0:
466,61,66767,6,0,B|498:157|402:125|434:221,1,156.63375059751,2|0,1:0|0:0,2:0:0:0:
497,236,66986,2,0,P|505:185|474:145,1,104.42250039834,2|0,2:0|2:0,2:0:0:0:
359,76,67205,6,0,P|283:97|192:131,1,156.63375059751,2|0,1:0|0:0,2:0:0:0:
166,57,67424,2,0,P|220:64|279:79,1,104.42250039834,2|0,2:0|2:0,2:0:0:0:
116,191,67643,6,0,B|65:151|54:62|94:12|94:12|70:62|111:92|42:143,1,340.042497405682,2|0,1:0|2:0,2:0:0:0:
58,243,68081,6,0,B|79:255|92:283|92:283|140:258|206:254,1,156.63375059751,2|0,1:0|0:0,2:0:0:0:
246,198,68300,2,0,P|219:189|193:174,1,50.8724993789978,2|0,2:0|2:0,2:0:0:0:
281,340,68519,6,0,P|325:280|411:274,1,156.63375059751,2|0,1:0|0:0,2:0:0:0:
395,191,68738,2,0,P|436:197|469:230,1,86.5725020475369,2|0,2:0|2:0,2:0:0:0:
299,253,68957,6,0,P|290:193|323:144,1,103.083747955187,2|0,1:0|0:0,2:0:0:0:
261,94,69176,2,0,P|291:77|339:81,1,76.3087490684967,2|0,2:0|0:0,2:0:0:0:
405,108,69394,1,2,1:0:0:0:
185,286,69613,6,0,P|132:297|95:270,1,103.083747955187,0|0,2:0|0:0,2:0:0:0:
94,193,69832,2,0,B|101:144|150:129|150:129|57:131|34:288|146:351|236:270|176:212,1,366.817510354803,2|0,1:0|2:0,2:0:0:0:
140,119,70270,6,0,P|99:141|74:191,1,101.744998757996,2|0,1:0|2:0,2:0:0:0:
277,302,70599,2,0,L|313:294,1,25.4362496894989,0|0,2:0|0:0,2:0:0:0:
301,296,70708,6,0,P|320:242|300:196,1,104.42250039834,2|0,1:0|2:0,2:0:0:0:
229,62,70927,2,0,P|212:110|231:157,1,104.42250039834,2|0,2:0|2:0,2:0:0:0:
511,204,71146,6,0,B|481:227|427:220|407:164|407:164|387:107|333:100|303:124,1,261.056250995851,2|0,1:0|0:0,2:0:0:0:
303,123,71475,2,0,P|308:148|302:173,1,52.2112501991701,0|0,2:0|0:0,2:0:0:0:
302,173,71584,1,0,1:0:0:0:
321,272,71693,1,0,2:0:0:0:
229,242,71803,6,0,P|192:233|154:227,1,76.3087490684967,0|0,2:0|0:0,2:0:0:0:
81,254,72022,2,0,P|61:325|131:370,1,156.63375059751,2|0,1:0|0:0,2:0:0:0:
201,384,72241,2,0,P|203:330|158:301,1,104.42250039834,0|0,2:0|2:0,2:0:0:0:
71,241,72460,6,0,P|82:174|88:103,1,127.181248447495,2|0,1:0|0:0,2:0:0:0:
39,54,72789,1,0,2:0:0:0:
172,195,72898,6,0,B|209:171|257:184|257:184|265:189|265:189|314:157|397:173|397:173|361:126|376:88|376:88|340:108|302:88,1,396.716246973295,2|0,1:0|0:0,2:0:0:0:
249,29,73336,2,0,P|298:3|345:23,1,104.42250039834,2|0,1:0|2:0,2:0:0:0:
234,106,73555,1,0,2:0:0:0:
505,241,73774,6,0,B|530:278|494:324|494:324|509:281|484:243,1,156.63375059751,2|0,1:0|0:0,2:0:0:0:
425,236,73993,2,0,B|398:245|373:242|373:242|398:245|421:260,1,104.42250039834,2|0,2:0|2:0,2:0:0:0:
219,384,74212,6,0,P|299:350|383:324,1,156.63375059751,2|0,1:0|0:0,2:0:0:0:
280,224,74431,2,0,B|299:244|306:268|306:268|299:244|304:216,1,104.42250039834,2|0,2:0|2:0,2:0:0:0:
0,148,74650,6,0,B|31:123|86:130|110:161|117:218|117:218|124:275|149:306|204:313|235:289,1,340.042497405682,2|0,1:0|2:0,2:0:0:0:
373,241,75088,6,0,P|384:158|398:83,1,156.63375059751,2|0,1:0|0:0,2:0:0:0:
332,54,75307,2,0,P|325:83|320:121,1,50.8724993789978,2|0,2:0|2:0,2:0:0:0:
189,201,75526,6,0,P|129:215|75:141,1,156.63375059751,2|0,1:0|0:0,2:0:0:0:
45,60,75745,2,0,P|24:80|13:107,1,50.8724993789978,2|0,2:0|2:0,2:0:0:0:
197,214,75964,6,0,P|257:228|311:154,1,156.63375059751,2|0,1:0|0:0,2:0:0:0:
341,73,76183,2,0,P|361:93|372:120,1,50.8724993789978,2|0,2:0|2:0,2:0:0:0:
185,226,76402,6,0,P|175:113|153:1,1,226.694998270454,2|0,1:0|2:0,2:0:0:0:
311,160,76731,5,0,2:0:0:0:
355,223,76840,2,0,B|428:267|535:183|497:75|388:77|390:149,1,305.681258629003,2|0,1:0|0:0,2:0:0:0:
342,234,77168,5,0,2:0:0:0:
265,233,77277,2,0,B|204:253|200:356|281:386|332:323|290:288,1,216.431255118842,2|0,1:0|0:0,2:0:0:0:
305,153,77607,5,0,2:0:0:0:
201,282,77716,2,0,B|171:305|117:298|97:242|97:242|77:185|23:178|-11:202|-11:202|30:190|60:223,1,327.993734735399,2|0,1:0|0:0,2:0:0:0:
4,277,78045,5,0,2:0:0:0:
175,202,78154,2,0,B|182:140|217:113|224:52,1,156.63375059751,2|0,1:0|0:0,2:0:0:0:
162,10,78373,1,0,2:0:0:0:
255,188,78482,6,0,P|280:192|309:201,1,52.2112501991701,0|0,2:0|0:0,2:0:0:0:
305,199,78592,1,0,1:0:0:0:
369,142,78701,1,0,2:0:0:0:
445,257,78811,6,0,P|410:256|391:221,1,76.3087490684967,0|0,2:0|0:0,2:0:0:0:
369,142,79030,6,0,P|349:211|333:312,1,156.63375059751,0|0,1:0|0:0,2:0:0:0:
355,367,79248,2,0,B|388:378|416:343|416:343|386:363|353:351,1,104.42250039834,0|0,2:0|2:0,2:0:0:0:
309,240,79467,6,0,P|247:262|168:283,1,127.181248447495,2|0,1:0|0:0,2:0:0:0:
146,343,79796,1,0,2:0:0:0:
37,246,79905,6,0,B|9:210|17:148|83:124|83:124|149:101|157:38|129:2|70:-16|24:12|24:86,1,396.716246973295,2|0,1:0|0:0,2:0:0:0:
93,129,80343,2,0,P|135:98|112:6,1,156.63375059751,2|0,1:0|0:0,2:0:0:0:
42,8,80562,1,2,2:0:0:0:
254,107,80781,6,0,B|350:75|318:171|414:139,1,156.63375059751,2|0,1:0|0:0,2:0:0:0:
465,125,81000,2,0,B|479:65|479:65|473:92|455:107,1,104.42250039834,2|0,2:0|2:0,2:0:0:0:
318,255,81219,6,0,B|276:237|276:188|276:188|264:236|220:243,1,156.63375059751,2|0,1:0|0:0,2:0:0:0:
160,229,81438,2,0,B|146:169|146:169|152:196|170:211,1,104.42250039834,2|0,2:0|2:0,2:0:0:0:
388,291,81657,6,0,B|393:323|430:349|430:349|330:331|241:378|241:378|267:343|261:312,1,340.042497405682,2|0,1:0|2:0,2:0:0:0:
469,277,82095,6,0,P|480:202|429:135,1,156.63375059751,2|0,1:0|0:0,2:0:0:0:
443,65,82314,2,0,P|407:56|374:61,1,50.8724993789978,2|0,2:0|2:0,2:0:0:0:
287,194,82533,6,0,P|216:209|117:237,1,156.63375059751,2|0,1:0|0:0,2:0:0:0:
50,244,82752,2,0,P|63:208|76:161,1,86.5725020475369,2|0,2:0|2:0,2:0:0:0:
317,95,82971,6,0,P|270:85|204:66,1,103.083747955187,2|0,1:0|0:0,2:0:0:0:
126,61,83190,2,0,P|139:96|152:144,1,76.3087490684967,2|0,2:0|0:0,2:0:0:0:
134,231,83409,1,2,1:0:0:0:
389,358,83628,6,0,B|446:329|446:329|426:339|390:330,1,103.083747955187,0|0,2:0|0:0,2:0:0:0:
340,299,83847,6,0,B|308:267|308:203|372:171|372:171|436:139|436:139|393:160|339:129,1,305.681258629003,2|0,1:0|0:0,2:0:0:0:
399,67,84175,1,0,2:0:0:0:
279,144,84285,6,0,P|269:86|220:59,1,101.744998757996,2|0,1:0|2:0,2:0:0:0:
56,171,84614,6,0,P|68:173|81:177,1,25.4362496894989,0|0,2:0|0:0,2:0:0:0:
46,177,84723,2,0,P|113:198|244:253,1,208.84500079668,2|0,1:0|2:0,2:0:0:0:
442,348,85051,6,0,P|438:333|437:314,1,25.4362496894989,0|0,2:0|0:0,2:0:0:0:
434,352,85161,2,0,B|398:246|539:281|504:176,1,208.84500079668,2|0,1:0|2:0,2:0:0:0:
338,68,85489,6,0,P|335:93|329:119,1,52.2112501991701,0|0,2:0|0:0,2:0:0:0:
329,119,85599,1,0,1:0:0:0:
239,155,85708,1,0,2:0:0:0:
311,230,85818,6,0,P|348:218|390:209,1,76.3087490684967,0|0,2:0|0:0,2:0:0:0:
395,215,86037,6,0,P|327:233|238:265,1,156.63375059751,2|0,1:0|0:0,2:0:0:0:
174,231,86256,2,0,B|153:189|194:148|194:148|174:189|194:231,1,156.63375059751,0|0,2:0|0:0,2:0:0:0:
249,270,86475,6,0,P|327:241|408:219,1,167.789997439728,0|2,1:0|2:0,2:0:0:0:
463,108,87132,6,0,L|475:14,1,83.8949987198639,0|0,2:0|2:0,2:0:0:0:
463,108,87570,6,0,L|475:14,1,66.0450016124268,0|0,2:0|2:0,2:0:0:0:
463,108,88008,6,0,L|471:44,1,60.6900003704224,0|0,2:0|2:0,2:0:0:0:
214,286,88665,6,0,B|129:275|129:275|87:270|94:207|137:212|137:212|158:214,1,190.994994171295,6|0,1:0|2:0,2:0:0:0:
283,217,89030,1,0,2:0:0:0:
283,217,89103,2,0,B|251:121|347:153|315:57,1,173.145004095074,0|0,1:0|2:0,2:0:0:0:
253,23,89431,5,0,2:0:0:0:
425,113,89540,2,0,P|382:121|314:153,1,115.430002730049,2|0,1:0|2:0,2:0:0:0:
475,236,89759,1,0,2:0:0:0:
492,161,89869,1,0,2:0:0:0:
426,298,89978,2,0,P|371:303|334:363,1,115.430002730049,0|0,1:0|2:0,2:0:0:0:
336,348,90197,1,0,2:0:0:0:
136,257,90343,5,0,2:0:0:0:
136,257,90416,2,0,P|218:248|268:314,1,173.145004095074,2|0,1:0|2:0,2:0:0:0:
80,351,90745,1,0,2:0:0:0:
23,300,90854,2,0,B|76:301|97:357|97:357|90:298|137:271,1,173.145004095074,0|0,1:0|2:0,2:0:0:0:
110,67,91219,5,0,2:0:0:0:
110,67,91292,2,0,B|105:119|78:143|73:195,1,115.430002730049,2|0,1:0|2:0,2:0:0:0:
82,192,91511,2,0,B|85:143|112:119|116:67,1,115.430002730049,0|0,2:0|2:0,2:0:0:0:
123,72,91730,2,0,B|118:125|91:150|87:203,1,137.444997273583,0|0,1:0|2:0,2:0:0:0:
209,307,92095,5,0,2:0:0:0:
209,307,92168,2,0,B|289:312|285:366|365:371,1,173.145004095074,2|0,1:0|2:0,2:0:0:0:
269,366,92497,1,0,2:0:0:0:
358,291,92606,2,0,P|377:229|381:164,1,115.430002730049,0|0,1:0|2:0,2:0:0:0:
381,178,92825,1,0,2:0:0:0:
242,46,92971,5,0,2:0:0:0:
242,46,93044,2,0,P|294:60|306:121,1,115.430002730049,2|0,1:0|2:0,2:0:0:0:
251,174,93263,2,0,P|224:181|193:192,1,57.7150013650246,0|0,2:0|2:0,2:0:0:0:
129,160,93409,1,0,2:0:0:0:
129,160,93482,2,0,P|160:177|166:254,1,115.430002730049,2|0,1:0|2:0,2:0:0:0:
39,346,93701,5,2,2:0:0:0:
101,299,93811,1,2,2:0:0:0:
171,331,93920,1,2,1:0:0:0:
390,250,94139,1,0,2:0:0:0:
390,250,94212,2,0,P|392:221|396:187,1,57.7150013650246,0|0,2:0|2:0,2:0:0:0:
343,145,94358,2,0,P|354:223|367:338,1,173.145004095074,0|0,1:0|2:0,2:0:0:0:
197,186,94723,5,0,2:0:0:0:
197,186,94796,2,0,B|181:154|213:121|213:121|197:154|213:186,1,115.430002730049,2|0,1:0|2:0,2:0:0:0:
251,237,95015,2,0,B|267:269|235:301|235:301|251:269|235:237,1,115.430002730049,0|0,2:0|2:0,2:0:0:0:
166,266,95234,2,0,P|110:278|49:298,1,115.430002730049,2|0,1:0|2:0,2:0:0:0:
15,361,95453,1,0,2:0:0:0:
96,203,95599,5,0,2:0:0:0:
96,203,95672,2,0,P|80:144|80:81,1,115.430002730049,2|0,1:0|2:0,2:0:0:0:
16,38,95891,2,0,P|6:65|0:93,2,57.7150013650246,0|0|0,2:0|2:0|2:0,2:0:0:0:
89,16,96110,2,0,B|188:-4|144:87|243:67,1,173.145004095074,0|0,1:0|2:0,2:0:0:0:
374,9,96475,5,0,2:0:0:0:
374,9,96548,2,0,B|343:23|338:70|338:70|341:35|312:10,1,115.430002730049,2|0,1:0|2:0,2:0:0:0:
413,71,96767,1,0,2:0:0:0:
382,249,96913,1,0,2:0:0:0:
382,249,96986,2,0,P|364:193|385:123,1,115.430002730049,0|0,1:0|2:0,2:0:0:0:
413,71,97205,2,0,P|441:80|482:92,2,57.7150013650246,0|0|0,2:0|2:0|2:0,2:0:0:0:
290,134,97424,6,0,P|217:152|121:195,1,173.145004095074,2|0,1:0|2:0,2:0:0:0:
65,354,97789,1,0,2:0:0:0:
65,354,97862,2,0,P|117:320|120:256,1,115.430002730049,0|0,1:0|2:0,2:0:0:0:
59,227,98081,2,0,P|7:261|4:325,1,115.430002730049,0|0,2:0|2:0,2:0:0:0:
127,191,98300,6,0,B|219:207|219:207|242:186,1,115.430002730049,2|0,1:0|2:0,2:0:0:0:
243,179,98519,2,0,B|150:162|150:162|128:184,1,115.430002730049,0|0,2:0|2:0,2:0:0:0:
120,205,98738,2,0,B|222:223|222:223|247:199,1,137.444997273583,0|0,1:0|2:0,2:0:0:0:
388,84,99102,5,0,2:0:0:0:
388,84,99175,2,0,B|437:77|446:151|375:185|317:117,1,173.145004095074,2|0,1:0|2:0,2:0:0:0:
316,136,99504,1,0,2:0:0:0:
379,270,99613,2,0,P|424:235|490:240,1,115.430002730049,0|0,1:0|2:0,2:0:0:0:
314,218,99832,1,0,2:0:0:0:
252,384,99978,5,0,2:0:0:0:
252,384,100051,2,0,P|299:357|295:295,1,115.430002730049,2|0,1:0|2:0,2:0:0:0:
243,248,100270,2,0,P|211:252|174:277,1,57.7150013650246,0|0,2:0|2:0,2:0:0:0:
142,328,100416,1,0,2:0:0:0:
142,328,100489,2,0,P|83:296|72:238,1,115.430002730049,2|0,1:0|2:0,2:0:0:0:
129,190,100708,5,2,2:0:0:0:
105,115,100818,1,2,2:0:0:0:
27,106,100927,1,2,1:0:0:0:
193,67,101073,5,0,2:0:0:0:
193,67,101146,2,0,P|192:96|184:126,1,57.7150013650246,0|0,2:0|2:0,2:0:0:0:
256,159,101292,1,0,2:0:0:0:
256,159,101365,2,0,P|242:89|240:33,1,115.430002730049,0|0,1:0|2:0,2:0:0:0:
239,45,101584,1,0,2:0:0:0:
402,98,101730,1,0,2:0:0:0:
402,98,101803,1,0,1:0:0:0:
121,143,102679,6,0,B|64:136|64:136|8:129|19:45|75:52|75:52|131:58|131:58|187:65|208:125|208:125|229:184|285:191|320:171,1,489.090013806405,12|0,1:2|2:0,2:0:0:0:
315,173,103227,1,0,2:0:0:0:
53,39,103336,6,0,P|15:87|42:143,1,129.858753071305,2|0,1:0|0:0,2:0:0:0:
74,210,103555,6,0,L|133:217,1,50.8724993789978,2|0,2:0|2:0,2:0:0:0:
138,294,103774,2,0,L|87:287,1,50.8724993789978,2|0,2:0|2:0,2:0:0:0:
258,82,103993,6,0,P|281:149|242:209,1,129.858753071305,2|0,1:0|0:0,2:0:0:0:
202,248,104212,2,0,P|219:263|251:270,1,43.2862510237685,0|0,2:0|0:0,2:0:0:0:
197,253,104321,2,0,P|214:268|246:275,1,43.2862510237685,0|0,2:0|0:0,2:0:0:0:
313,249,104431,5,0,1:0:0:0:
424,56,104650,1,2,2:0:0:0:
498,114,104759,6,0,B|491:164|440:158|440:158|389:152|389:152|338:146|345:95|345:95,1,216.431255118842,0|0,1:0|0:0,2:0:0:0:
347,85,105088,2,0,B|348:75|348:75|353:35|303:29|303:29|253:23,1,129.858753071305,2|0,1:0|0:0,2:0:0:0:
249,27,105307,2,0,L|233:160,1,129.858753071305,2|0,1:0|0:0,2:0:0:0:
224,162,105526,6,0,L|168:155,2,50.8724993789978,0|0|0,2:0|2:0|2:0,2:0:0:0:
296,222,105854,1,0,2:0:0:0:
298,241,105964,1,0,2:0:0:0:
300,261,106073,1,0,2:0:0:0:
233,317,106183,5,2,1:0:0:0:
442,22,106402,2,0,L|466:203,1,183.408755177402,2|0,2:0|0:0,2:0:0:0:
462,211,106621,2,0,L|453:156,1,50.8724993789978,2|0,2:0|2:0,2:0:0:0:
251,44,106840,6,0,P|228:48|203:58,1,43.2862510237685,0|0,1:0|0:0,2:0:0:0:
249,36,106949,2,0,P|226:40|201:50,1,43.2862510237685,0|0,2:0|0:0,2:0:0:0:
108,45,107278,6,0,P|191:72|219:156,1,183.408755177402,0|0,2:0|0:0,2:0:0:0:
250,233,107497,6,0,P|200:275|137:261,1,129.858753071305,0|0,1:0|0:0,2:0:0:0:
62,260,107716,6,0,P|48:223|70:190,1,76.3087490684967,0|0,2:0|0:0,2:0:0:0:
140,181,107935,5,0,1:0:0:0:
329,282,108044,6,0,P|350:271|387:263,1,43.2862510237685,0|0,2:0|0:0,2:0:0:0:
324,275,108154,2,0,P|345:264|382:256,1,43.2862510237685,2|0,2:0|0:0,2:0:0:0:
319,267,108263,2,0,P|340:256|377:248,1,43.2862510237685,0|0,1:0|0:0,2:0:0:0:
440,291,108373,5,2,2:0:0:0:
251,57,108592,1,2,1:0:0:0:
114,344,108811,1,2,1:0:0:0:
260,205,109030,5,2,2:0:0:0:
200,155,109248,1,2,2:0:0:0:
187,231,109467,1,2,2:0:0:0:
411,360,109686,6,0,B|386:332|390:280|444:258|444:258|497:236|501:184|477:157,1,244.545006903202,6|0,1:0|2:0,2:0:0:0:
487,273,110015,1,0,2:0:0:0:
406,184,110124,2,0,P|349:199|278:212,1,129.858753071305,0|0,1:0|0:0,2:0:0:0:
224,162,110343,1,0,2:0:0:0:
254,87,110453,1,0,2:0:0:0:
157,9,110562,2,0,P|167:49|180:115,1,86.5725020475369,0|0,1:0|2:0,2:0:0:0:
1,269,110781,6,0,P|49:225|131:232,1,129.858753071305,2|0,2:0|0:0,2:0:0:0:
120,217,111000,2,0,P|159:249|169:290,1,86.5725020475369,2|0,1:0|2:0,2:0:0:0:
309,360,111219,2,0,P|314:337|323:313,1,43.2862510237685,2|0,2:0|0:0,2:0:0:0:
317,365,111329,2,0,P|322:342|331:318,1,43.2862510237685,0|0,2:0|0:0,2:0:0:0:
391,282,111438,6,0,P|323:298|220:338,1,173.145004095074,2|0,1:0|2:0,2:0:0:0:
226,334,111767,1,0,2:0:0:0:
361,147,111876,2,0,P|423:211|497:173,1,173.145004095074,2|0,1:0|2:0,2:0:0:0:
490,182,112205,1,0,2:0:0:0:
332,49,112314,2,0,P|264:65|189:97,1,129.858753071305,2|0,1:0|0:0,2:0:0:0:
141,121,112533,2,0,B|118:152|149:189|149:189|135:154|157:122,1,129.858753071305,0|0,2:0|0:0,2:0:0:0:
208,87,112752,1,0,1:0:0:0:
464,309,112971,6,0,B|473:230|473:230|468:258|450:276,1,129.858753071305,2|0,2:0|0:0,2:0:0:0:
391,324,113190,6,0,P|347:317|303:313,1,86.5725020475369,2|0,1:0|2:0,2:0:0:0:
325,134,113409,2,0,P|342:173|363:213,1,86.5725020475369,2|0,2:0|2:0,2:0:0:0:
171,324,113628,2,0,P|223:282|225:199,1,129.858753071305,2|0,1:0|0:0,2:0:0:0:
170,189,113847,2,0,P|147:184|123:175,1,43.2862510237685,0|0,2:0|0:0,2:0:0:0:
175,181,113957,2,0,P|152:176|128:167,1,43.2862510237685,0|0,2:0|0:0,2:0:0:0:
68,127,114066,2,0,P|54:79|69:33,1,86.5725020475369,0|0,1:0|2:0,2:0:0:0:
238,0,114285,2,0,P|305:15|390:40,1,129.858753071305,2|0,2:0|0:0,2:0:0:0:
374,25,114504,2,0,P|338:32|287:60,1,86.5725020475369,2|0,1:0|2:0,2:0:0:0:
245,146,114723,1,2,2:0:0:0:
242,129,114832,1,0,2:0:0:0:
369,113,114942,6,0,P|353:196|341:312,1,173.145004095074,2|0,1:0|2:0,2:0:0:0:
342,283,115270,1,0,2:0:0:0:
241,337,115380,1,2,1:0:0:0:
41,125,115599,6,0,L|55:30,1,83.8949987198639,2|0,2:0|1:0,2:0:0:0:
194,98,116694,6,0,B|256:113|279:21|193:-33|93:40|124:113,1,244.545006903202,6|0,1:0|2:0,2:0:0:0:
119,87,117022,1,0,2:0:0:0:
267,166,117132,2,0,B|321:172|345:203|400:210,1,129.858753071305,0|0,1:0|0:0,2:0:0:0:
451,166,117351,2,0,P|456:124|466:77,1,86.5725020475369,2|0,2:0|2:0,2:0:0:0:
455,244,117570,2,0,P|407:253|263:314,1,173.145004095074,2|0,1:0|2:0,2:0:0:0:
291,298,117898,1,0,2:0:0:0:
135,384,118008,2,0,P|150:328|163:248,1,129.858753071305,2|0,1:0|0:0,2:0:0:0:
154,247,118227,1,2,2:0:0:0:
43,113,118336,5,0,2:0:0:0:
43,113,118446,2,0,P|82:128|132:144,1,86.5725020475369,2|0,1:0|2:0,2:0:0:0:
302,107,118665,2,0,P|267:132|228:166,1,86.5725020475369,2|0,2:0|2:0,2:0:0:0:
332,291,118884,1,0,1:0:0:0:
348,286,118993,1,0,2:0:0:0:
259,339,119102,2,0,P|247:288|260:235,1,86.5725020475369,2|0,2:0|2:0,2:0:0:0:
338,377,119321,1,2,1:0:0:0:
421,128,119540,6,0,P|463:118|505:111,1,86.5725020475369,2|0,2:0|2:0,2:0:0:0:
332,147,119759,2,0,P|289:153|247:163,1,86.5725020475369,2|0,1:0|2:0,2:0:0:0:
390,219,119978,1,2,2:0:0:0:
392,201,120088,1,0,2:0:0:0:
291,71,120197,2,0,P|248:77|206:87,1,86.5725020475369,2|0,1:0|2:0,2:0:0:0:
82,192,120416,6,0,P|88:168|93:142,1,43.2862510237685,2|0,2:0|0:0,2:0:0:0:
90,189,120526,2,0,P|96:165|101:139,1,43.2862510237685,0|0,2:0|0:0,2:0:0:0:
98,184,120635,2,0,P|109:139|118:90,1,86.5725020475369,2|0,1:0|2:0,2:0:0:0:
186,274,120854,6,0,P|190:249|196:223,1,43.2862510237685,2|0,2:0|0:0,2:0:0:0:
179,268,120964,2,0,P|183:243|189:217,1,43.2862510237685,0|0,2:0|0:0,2:0:0:0:
174,260,121073,2,0,P|181:214|193:166,1,86.5725020475369,0|0,1:0|2:0,2:0:0:0:
70,291,121292,1,2,2:0:0:0:
403,209,121511,5,2,1:0:0:0:
387,213,121621,1,0,2:0:0:0:
317,150,121730,1,2,2:0:0:0:
333,154,121840,1,0,2:0:0:0:
298,244,121949,6,0,P|281:155|249:69,2,173.145004095074,2|0|2,1:0|2:0|1:0,2:0:0:0:
298,244,122497,1,0,2:0:0:0:
413,115,122606,2,0,P|463:104|512:87,1,86.5725020475369,0|0,2:0|2:0,2:0:0:0:
331,306,122825,6,0,P|253:279|177:268,1,129.858753071305,2|0,1:0|0:0,2:0:0:0:
139,298,123044,2,0,B|124:319|144:346|144:346|136:321|150:299,1,86.5725020475369,2|0,2:0|2:0,2:0:0:0:
207,271,123263,6,0,B|225:252|225:216|188:197|188:197|152:179|152:142|170:124,1,178.053747826492,2|0,1:0|0:0,2:0:0:0:
226,70,123701,6,0,B|311:55|404:112|404:112|366:89|360:48,1,259.717506142611,2|0,1:0|2:0,2:0:0:0:
289,166,124139,6,0,P|294:206|324:298,1,129.858753071305,2|0,1:0|0:0,2:0:0:0:
320,291,124358,2,0,P|376:299|398:269,1,86.5725020475369,2|0,2:0|2:0,2:0:0:0:
271,159,124577,6,0,P|222:190|120:220,1,129.858753071305,2|0,1:0|0:0,2:0:0:0:
154,214,124796,2,0,P|113:182|112:133,1,86.5725020475369,2|0,2:0|2:0,2:0:0:0:
240,295,125015,6,0,P|234:318|230:350,1,43.2862510237685,2|0,1:0|0:0,2:0:0:0:
231,285,125124,2,0,P|225:308|221:340,1,43.2862510237685,0|0,2:0|0:0,2:0:0:0:
223,275,125234,2,0,P|213:312|206:364,1,86.5725020475369,2|0,2:0|2:0,2:0:0:0:
457,372,125453,6,0,P|413:252|406:108,1,259.717506142611,2|0,1:0|2:0,2:0:0:0:
114,111,125891,2,0,P|184:134|266:200,1,173.145004095074,2|0,1:0|2:0,2:0:0:0:
261,194,126219,1,0,2:0:0:0:
424,0,126329,2,0,P|357:54|287:80,1,129.858753071305,2|0,1:0|0:0,2:0:0:0:
249,54,126548,6,0,P|257:32|277:11,1,43.2862510237685,0|0,2:0|0:0,2:0:0:0:
237,49,126657,2,0,P|245:27|265:6,1,43.2862510237685,0|0,2:0|0:0,2:0:0:0:
223,47,126767,1,2,1:0:0:0:
33,254,126986,2,0,B|46:289|53:332|53:332|53:298|70:270,1,129.858753071305,0|0,2:0|0:0,2:0:0:0:
106,221,127205,6,0,B|133:196|186:200|212:254|212:254|208:257|208:257|231:308|283:312|311:287,1,259.717506142611,2|0,1:0|2:0,2:0:0:0:
440,201,127643,1,2,1:0:0:0:
443,184,127752,1,0,2:0:0:0:
354,154,127862,2,0,P|363:195|374:260,1,86.5725020475369,2|0,2:0|2:0,2:0:0:0:
231,124,128081,1,0,1:0:0:0:
228,141,128190,1,0,2:0:0:0:
302,93,128300,6,0,P|293:52|282:-13,1,86.5725020475369,2|0,2:0|2:0,2:0:0:0:
170,195,128519,2,0,P|139:224|90:268,1,86.5725020475369,2|0,1:0|2:0,2:0:0:0:
318,249,128738,2,0,P|358:258|422:277,1,86.5725020475369,2|0,2:0|2:0,2:0:0:0:
482,123,128957,6,0,P|474:97|470:67,1,43.2862510237685,2|0,1:0|0:0,2:0:0:0:
472,135,129066,2,0,P|464:109|460:79,1,43.2862510237685,0|0,2:0|0:0,2:0:0:0:
465,148,129175,2,0,P|447:82|446:40,1,86.5725020475369,0|0,2:0|2:0,2:0:0:0:
352,181,129394,5,0,1:0:0:0:
335,177,129504,1,0,2:0:0:0:
289,107,129613,1,0,2:0:0:0:
306,103,129723,1,0,2:0:0:0:
254,184,129832,1,0,1:0:0:0:
96,142,129978,5,0,2:0:0:0:
96,142,130051,2,0,L|107:63,2,57.7150013650246,0|0|0,2:0|2:0|2:0,2:0:0:0:
54,27,130270,2,0,L|19:23,3,33.9149995859985,0|0|0|0,1:0|2:0|2:0|2:0,2:0:0:0:
374,115,130635,5,0,2:0:0:0:
374,115,130708,2,0,P|267:189|135:298,1,274.889994547165,4|2,1:0|3:2,2:0:0:0:
154,280,131256,1,0,2:0:0:0:
12,333,131365,5,2,3:2:0:0:
134,363,131475,1,0,1:0:0:0:
83,310,131584,2,0,P|76:260|72:200,1,103.083747955187,10|0,2:0|0:0,2:0:0:0:
48,162,131803,2,0,P|47:196|43:231,2,68.7224986367913,2|0|0,1:0|2:0|2:0,2:0:0:0:
364,78,132241,6,0,P|397:82|447:87,1,68.7224986367913,0|0,1:0|2:0,2:0:0:0:
312,16,132460,5,2,2:0:0:0:
296,118,132570,1,0,2:0:0:0:
243,57,132679,2,0,P|209:52|159:47,1,68.7224986367913,0|0,1:0|2:0,2:0:0:0:
296,118,132898,2,0,P|299:165|310:228,1,103.083747955187,2|0,3:2|0:0,2:0:0:0:
378,251,133117,2,0,L|426:262,2,45.8149990911942,2|0|0,2:0|2:0|2:0,2:0:0:0:
316,295,133336,5,8,2:0:0:0:
463,72,133555,1,0,1:0:0:0:
391,18,133774,5,2,2:0:0:0:
413,139,133993,1,2,3:2:0:0:
161,23,134212,6,0,P|125:36|69:50,1,68.7224986367913,2|0,1:2|2:0,2:0:0:0:
192,92,134431,2,0,P|156:105|100:119,1,68.7224986367913,2|0,3:2|2:0,2:0:0:0:
29,208,134650,1,0,3:0:0:0:
25,220,134759,1,0,2:0:0:0:
79,275,134869,1,2,3:2:0:0:
197,228,134978,1,0,1:0:0:0:
136,193,135088,2,0,P|143:231|163:311,1,103.083747955187,10|0,2:0|0:0,2:0:0:0:
167,301,135307,1,2,1:2:0:0:
386,142,135745,2,0,P|394:106|417:42,1,103.083747955187,2|0,1:0|0:0,2:0:0:0:
328,68,135964,6,0,P|363:146|374:212,2,137.444997273583,2|0|2,2:0|1:0|3:2,2:0:0:0:
328,68,136511,1,0,2:0:0:0:
232,115,136621,2,0,P|255:120|280:134,2,45.8149990911942,0|0|0,3:0|2:0|2:0,2:0:0:0:
166,183,136840,5,10,2:0:0:0:
365,365,137059,1,0,1:0:0:0:
405,301,137278,6,0,P|367:282|272:334,1,146.816247759762,2|0,2:0|0:0,2:0:0:0:
278,321,137716,6,0,B|247:347|190:343|166:284|166:284|141:225|84:221|54:248,1,274.889994547165,4|2,1:0|3:2,2:0:0:0:
55,246,138264,1,0,2:0:0:0:
118,189,138373,5,2,3:2:0:0:
41,98,138483,1,0,1:0:0:0:
114,115,138592,2,0,P|152:94|211:84,1,103.083747955187,10|0,2:0|0:0,2:0:0:0:
176,48,138811,2,0,P|214:56|259:79,2,68.7224986367913,2|0|0,1:0|2:0|2:0,2:0:0:0:
440,202,139248,6,0,P|446:169|463:121,1,68.7224986367913,0|0,1:0|2:0,2:0:0:0:
359,214,139468,5,2,2:0:0:0:
433,280,139578,1,0,2:0:0:0:
359,214,139686,2,0,P|326:208|278:191,1,68.7224986367913,2|0,1:0|2:0,2:0:0:0:
187,350,139905,2,0,P|234:331|285:320,1,103.083747955187,2|0,3:2|0:0,2:0:0:0:
352,370,140124,2,0,P|374:375|395:384,2,45.8149990911942,2|0|0,2:0|2:0|2:0,2:0:0:0:
353,296,140343,5,8,2:0:0:0:
106,201,140563,1,0,1:0:0:0:
140,132,140782,5,2,2:0:0:0:
179,232,141001,1,2,3:2:0:0:
0,104,141219,6,0,P|10:70|23:13,1,68.7224986367913,2|0,1:0|2:0,2:0:0:0:
65,134,141438,2,0,P|75:100|88:43,1,68.7224986367913,2|0,3:2|2:0,2:0:0:0:
216,15,141658,1,0,3:0:0:0:
232,19,141767,1,0,2:0:0:0:
281,78,141877,1,2,3:2:0:0:
339,11,141986,1,0,1:0:0:0:
281,78,142095,2,0,P|239:99|231:161,1,103.083747955187,10|0,2:0|0:0,2:0:0:0:
242,162,142315,1,2,1:0:0:0:
390,304,142533,1,2,2:0:0:0:
46,263,142752,2,0,P|121:286|152:344,1,137.444997273583,0|0,1:0|2:0,2:0:0:0:
149,333,143081,1,0,2:0:0:0:
249,241,143190,6,0,P|241:200|232:130,1,103.083747955187,2|0,1:0|0:0,2:0:0:0:
192,80,143409,6,0,P|169:74|142:71,1,41.947499359932,2|0,3:2|2:0,2:0:0:0:
216,8,143628,2,0,P|193:2|166:-1,1,41.947499359932,2|0,3:2|2:0,2:0:0:0:
267,64,143847,6,0,P|335:48|408:43,2,137.444997273583,10|0|0,2:0|1:0|2:0,2:0:0:0:
499,248,144504,2,0,P|494:284|485:325,1,62.9212490398979,2|0,3:0|0:0,2:0:0:0:
488,310,144723,6,0,P|384:321|202:363,1,274.889994547165,4|2,1:0|3:0,2:0:0:0:
218,359,145271,1,0,2:0:0:0:
149,299,145380,5,2,3:0:0:0:
36,350,145490,1,0,1:0:0:0:
101,384,145599,2,0,P|110:326|102:261,1,103.083747955187,10|0,2:0|0:0,2:0:0:0:
97,233,145818,2,0,P|131:260|138:290,2,68.7224986367913,2|0|0,1:0|2:0|2:0,2:0:0:0:
24,106,146256,6,0,P|56:101|106:94,1,68.7224986367913,0|0,1:0|2:0,2:0:0:0:
143,37,146475,5,2,2:0:0:0:
213,117,146585,1,0,2:0:0:0:
143,37,146694,2,0,P|132:89|122:159,1,103.083747955187,2|0,1:0|0:0,2:0:0:0:
124,138,146913,2,0,P|177:158|203:211,1,103.083747955187,2|0,3:0|0:0,2:0:0:0:
200,196,147132,2,0,P|225:209|258:207,2,45.8149990911942,2|0|0,2:0|2:0|2:0,2:0:0:0:
125,220,147351,5,8,2:0:0:0:
425,342,147570,1,0,1:0:0:0:
490,295,147789,5,2,2:0:0:0:
384,271,148008,1,2,3:0:0:0:
473,67,148227,6,0,P|480:28|486:-19,1,68.7224986367913,2|0,1:0|2:0,2:0:0:0:
459,146,148446,2,0,P|454:180|447:213,1,68.7224986367913,2|0,3:0|2:0,2:0:0:0:
396,95,148665,1,0,3:0:0:0:
384,91,148774,1,0,2:0:0:0:
324,140,148884,1,0,3:0:0:0:
356,210,148993,1,0,1:0:0:0:
270,286,149103,2,0,P|220:265|146:253,1,103.083747955187,10|0,2:0|0:0,2:0:0:0:
167,243,149322,1,2,1:0:0:0:
50,41,149540,1,2,2:0:0:0:
50,41,149759,2,0,B|62:74|50:125|50:125|58:99|79:83,1,137.444997273583,2|0,1:0|2:0,2:0:0:0:
78,83,150088,1,0,2:0:0:0:
190,184,150197,6,0,P|151:170|120:147,1,68.7224986367913,2|0,1:0|2:0,2:0:0:0:
8,246,150416,2,0,P|39:220|76:206,1,68.7224986367913,2|0,3:0|2:0,2:0:0:0:
173,286,150635,2,0,P|134:272|114:258,2,45.8149990911942,2|0|0,3:0|2:0|2:0,2:0:0:0:
245,248,150855,5,10,2:0:0:0:
334,29,151073,2,0,B|377:64|412:12|461:29|467:76|467:76|441:37|392:47,1,230.711246479626,0|0,1:0|0:0,2:0:0:0:
404,121,151730,6,0,P|405:169|419:225,1,103.083747955187,4|0,1:0|0:0,2:0:0:0:
418,222,151949,2,0,L|470:231,2,45.8149990911942,0|0|0,2:0|2:0|2:0,2:0:0:0:
341,255,152168,2,0,P|305:260|251:273,1,68.7224986367913,2|0,3:0|2:0,2:0:0:0:
273,266,152387,1,2,3:0:0:0:
202,378,152497,1,0,1:0:0:0:
128,345,152606,2,0,P|121:270|111:205,2,137.444997273583,10|2|0,2:0|1:0|2:0,2:0:0:0:
24,36,153263,2,0,P|40:83|115:97,1,103.083747955187,0|0,1:0|0:0,2:0:0:0:
86,103,153482,2,0,P|121:96|184:88,1,68.7224986367913,2|0,2:0|2:0,2:0:0:0:
369,178,153701,6,0,P|310:156|315:106,1,103.083747955187,2|0,1:0|0:0,2:0:0:0:
366,71,153920,2,0,P|425:93|420:143,1,103.083747955187,2|0,3:0|0:0,2:0:0:0:
428,126,154139,2,0,P|435:144|462:163,2,45.8149990911942,2|0|0,2:0|2:0|2:0,2:0:0:0:
445,49,154358,5,8,2:0:0:0:
264,230,154577,1,0,1:0:0:0:
327,302,154796,5,2,2:0:0:0:
353,205,155015,1,2,3:0:0:0:
198,339,155234,6,0,P|155:315|91:302,1,103.083747955187,2|0,1:0|0:0,2:0:0:0:
102,302,155453,2,0,P|52:305|45:229,1,137.444997273583,2|0,3:0|3:0,2:0:0:0:
41,232,155781,1,0,2:0:0:0:
125,153,155891,2,0,P|132:179|143:203,2,45.8149990911942,2|0|0,3:0|2:0|2:0,2:0:0:0:
49,136,156110,5,10,2:0:0:0:
191,0,156329,2,0,P|174:52|91:60,1,137.444997273583,2|2,1:0|2:0,2:0:0:0:
99,65,156657,1,0,2:0:0:0:
313,115,156767,2,0,P|362:136|452:167,1,137.444997273583,2|2,1:0|2:0,2:0:0:0:
441,163,157095,1,0,2:0:0:0:
345,314,157205,2,0,P|341:272|331:222,1,68.7224986367913,0|0,1:0|2:0,2:0:0:0:
180,167,157424,2,0,P|217:185|265:203,1,68.7224986367913,2|0,3:0|2:0,2:0:0:0:
363,115,157643,2,0,P|346:130|332:148,2,45.8149990911942,0|0|0,3:0|2:0|2:0,2:0:0:0:
439,133,157862,5,10,2:0:0:0:
241,22,158081,1,0,1:0:0:0:
64,236,158300,6,0,B|50:344|50:344|61:341|61:341|69:278,1,167.789997439728,2|2,2:0|1:0,2:0:0:0:
204,76,160489,6,0,B|206:57|206:57|208:38|227:40|227:40|321:52,1,127.329996114197,4|0,1:0|2:0,2:0:0:0:
382,66,160708,1,0,2:0:0:0:
383,77,160781,1,0,2:0:0:0:
384,89,160854,1,0,2:0:0:0:
385,101,160927,2,0,L|366:246,1,143.246245628472,2|0,2:0|0:0,2:0:0:0:
421,295,161146,2,0,P|444:287|481:280,1,47.7487485428238,8|0,2:3|0:0,2:0:0:0:
450,203,161256,5,0,1:0:0:0:
344,326,161365,1,8,2:1:0:0:
66,153,161584,6,0,P|94:85|158:117,1,143.246245628472,0|0,1:0|0:0,2:0:0:0:
154,107,161803,2,0,L|148:194,1,76.3087490684967,2|0,2:0|0:0,2:0:0:0:
88,224,162022,6,0,L|103:371,1,143.246245628472,0|0,1:0|0:0,2:0:0:0:
111,367,162241,2,0,L|104:295,1,50.8724993789978,0|0,2:0|2:0,2:0:0:0:
232,144,162460,6,0,B|295:151|323:187|386:195,1,143.246245628472,0|0,1:0|0:0,2:0:0:0:
431,132,162679,2,0,P|396:125|361:110,1,67.8299991719971,0|0,2:0|2:0,2:0:0:0:
298,69,162898,1,0,2:0:0:0:
296,56,162971,1,0,2:0:0:0:
294,43,163044,1,0,2:0:0:0:
292,28,163117,2,0,L|258:266,1,196.796240841239,8|0,2:0|0:0,2:0:0:0:
318,277,163336,2,0,L|300:113,1,152.617498136993,0|0,1:0|2:0,2:0:0:0:
192,270,163774,1,8,2:3:0:0:
392,308,163993,6,0,B|360:372|360:372|232:340,1,190.994994171295,0|0,1:0|2:0,2:0:0:0:
398,293,164321,1,0,2:0:0:0:
303,367,164431,2,0,L|231:350,1,67.8299991719971,0|0,2:0|2:0,2:0:0:0:
160,316,164650,5,0,2:0:0:0:
149,319,164723,1,0,2:0:0:0:
139,322,164796,1,0,2:0:0:0:
126,324,164869,2,0,B|81:280|111:242|68:198,1,127.329996114197,8|0,2:1|2:0,2:0:0:0:
18,165,165088,2,0,P|26:209|7:273,1,95.4974970856477,0|0,1:0|2:0,2:0:0:0:
311,81,165416,5,0,2:0:0:0:
281,192,165526,2,0,B|296:173|331:164|331:164|274:170|235:132,1,143.246245628472,0|0,1:0|0:0,2:0:0:0:
208,83,165745,5,0,2:0:0:0:
209,72,165854,1,0,2:0:0:0:
106,198,165964,2,0,B|135:199|168:227|168:227|123:174|132:108,1,190.994994171295,0|0,1:0|2:0,2:0:0:0:
314,296,166329,1,0,2:0:0:0:
314,296,166402,2,0,P|344:301|380:312,2,63.6649980570985,0|0|0,2:0|2:0|2:0,2:0:0:0:
231,273,166621,6,0,P|303:250|390:210,1,143.246245628472,8|0,2:0|0:0,2:0:0:0:
421,175,166840,2,0,B|434:136|393:104|393:104|416:138|402:177,1,143.246245628472,0|0,1:0|0:0,2:0:0:0:
362,223,167059,6,0,P|331:193|332:153,1,76.3087490684967,2|0,2:0|0:0,2:0:0:0:
321,165,167278,2,0,P|325:202|354:227,1,76.3087490684967,8|0,2:3|0:0,2:0:0:0:
434,258,167497,5,0,1:0:0:0:
225,191,167643,1,0,2:0:0:0:
225,191,167716,2,0,P|194:201|155:216,1,63.6649980570985,0|0,2:0|2:0,2:0:0:0:
97,174,167862,1,0,2:0:0:0:
97,174,167935,2,0,B|61:107|115:93|127:48,1,127.329996114197,2|0,2:0|2:0,2:0:0:0:
164,0,168154,2,0,P|182:14|195:35,1,47.7487485428238,8|0,2:3|0:0,2:0:0:0:
175,112,168263,5,0,1:0:0:0:
14,19,168373,1,8,2:1:0:0:
260,294,168592,2,0,P|309:252|399:268,1,143.246245628472,0|0,1:0|0:0,2:0:0:0:
383,257,168811,2,0,P|350:279|315:268,1,76.3087490684967,2|0,2:0|0:0,2:0:0:0:
270,184,169030,6,0,L|287:17,1,143.246245628472,0|0,1:0|0:0,2:0:0:0:
276,33,169248,2,0,L|269:95,1,50.8724993789978,0|0,2:0|2:0,2:0:0:0:
196,236,169467,6,0,P|137:256|41:308,1,143.246245628472,0|0,1:0|0:0,2:0:0:0:
52,286,169686,2,0,P|91:295|150:317,1,67.8299991719971,2|0,2:0|2:0,2:0:0:0:
228,384,169906,1,0,2:0:0:0:
226,371,169979,1,0,2:0:0:0:
224,358,170052,1,0,2:0:0:0:
221,340,170124,2,0,B|237:255|308:273|293:153,1,196.796240841239,8|0,2:0|0:0,2:0:0:0:
254,101,170343,2,0,P|211:121|234:174,1,101.744998757996,0|0,1:0|2:0,2:0:0:0:
467,265,170782,1,8,2:3:0:0:
435,198,170891,1,0,2:0:0:0:
495,345,171000,6,0,P|500:255|514:159,1,143.246245628472,0|0,1:0|0:0,2:0:0:0:
472,133,171219,2,0,P|431:154|378:166,1,95.4974970856477,0|0,2:0|2:0,2:0:0:0:
286,51,171438,2,0,P|316:74|325:112,1,67.8299991719971,2|0,2:0|2:0,2:0:0:0:
302,170,171658,5,0,2:0:0:0:
291,173,171731,1,0,2:0:0:0:
281,176,171804,1,0,2:0:0:0:
269,180,171876,2,0,P|329:233|319:287,1,127.329996114197,8|0,2:1|2:0,2:0:0:0:
249,345,172095,2,0,P|209:307|159:287,1,95.4974970856477,0|0,1:0|2:0,2:0:0:0:
22,57,172424,5,0,2:0:0:0:
43,244,172533,2,0,P|57:163|81:94,1,143.246245628472,0|0,1:0|0:0,2:0:0:0:
167,124,172753,5,0,2:0:0:0:
166,113,172862,1,0,2:0:0:0:
54,250,172971,2,0,P|76:143|111:52,1,190.994994171295,0|0,1:0|2:0,2:0:0:0:
335,28,173337,5,0,2:0:0:0:
335,28,173410,2,0,P|306:14|275:20,2,63.6649980570985,0|0|0,2:0|2:0|2:0,2:0:0:0:
383,91,173628,2,0,P|399:163|432:246,1,143.246245628472,8|0,2:0|0:0,2:0:0:0:
493,278,173847,2,0,B|433:305|424:347|424:347|431:302|425:279,1,143.246245628472,0|0,1:0|0:0,2:0:0:0:
355,272,174066,6,0,L|333:277,1,12.0487502941589,0|0,2:0|0:0,2:0:0:0:
80,92,174504,6,0,B|65:35|150:14|150:14|210:99|129:169,1,286.492491256943,0|0,1:0|2:0,2:0:0:0:
11,338,174942,2,0,L|-3:246,1,76.3087490684967,2|0,2:0|0:0,2:0:0:0:
6,256,175161,6,0,L|68:266,1,52.2112501991701,0|0,3:0|0:0,2:0:0:0:
104,322,175270,1,0,1:0:0:0:
287,158,175380,6,0,B|258:135|209:141|190:194|190:194|172:246|122:253,2,208.84500079668,8|0|2,2:1|1:0|2:0,2:0:0:0:
287,158,175927,1,0,2:0:0:0:
427,292,176037,2,0,B|447:333|405:375|405:375|427:333|405:292,1,156.63375059751,2|0,1:0|0:0,2:0:0:0:
358,257,176256,1,0,2:0:0:0:
134,349,176475,6,0,P|208:359|297:389,1,156.63375059751,0|0,1:0|0:0,2:0:0:0:
339,332,176694,1,2,2:0:0:0:
142,155,176913,5,0,2:0:0:0:
141,142,176986,1,0,2:0:0:0:
139,129,177059,1,0,2:0:0:0:
136,116,177132,2,0,P|178:61|243:102,1,156.63375059751,8|0,2:0|0:0,2:0:0:0:
254,99,177351,2,0,P|182:51|125:102,1,156.63375059751,0|0,1:0|0:0,2:0:0:0:
131,84,177570,1,0,2:0:0:0:
452,71,177789,6,0,P|458:39|467:5,1,50.8724993789978,8|0,2:3|2:0,2:0:0:0:
376,152,178008,6,0,P|284:177|163:223,1,208.84500079668,0|0,1:0|2:0,2:0:0:0:
103,141,178336,1,0,2:0:0:0:
292,183,178446,2,0,P|260:192|216:210,1,67.8299991719971,2|0,2:0|2:0,2:0:0:0:
225,301,178665,5,0,2:0:0:0:
223,311,178738,1,0,2:0:0:0:
221,321,178811,1,0,2:0:0:0:
237,339,178884,2,0,P|287:276|376:323,1,156.63375059751,8|0,2:1|0:0,2:0:0:0:
388,354,179102,6,0,P|389:297|330:254,1,104.42250039834,2|0,1:0|2:0,2:0:0:0:
131,180,179321,2,0,P|177:210|246:183,1,104.42250039834,2|0,2:0|2:0,2:0:0:0:
412,27,179540,2,0,P|360:50|347:122,1,104.42250039834,2|0,1:0|2:0,2:0:0:0:
313,186,179759,5,0,2:0:0:0:
45,40,179978,2,0,P|150:67|251:110,1,208.84500079668,0|0,1:0|2:0,2:0:0:0:
71,238,180343,1,0,2:0:0:0:
76,233,180416,2,0,P|102:207|104:159,1,69.6150002655601,0|0,2:0|2:0,2:0:0:0:
47,124,180562,1,0,2:0:0:0:
46,117,180635,2,0,P|132:141|215:179,1,156.63375059751,10|0,2:0|0:0,2:0:0:0:
268,205,180854,2,0,B|240:200|223:167|223:167|224:220|177:245,1,156.63375059751,2|0,1:0|0:0,2:0:0:0:
297,134,181073,6,0,P|305:91|323:46,1,76.3087490684967,2|0,2:0|0:0,2:0:0:0:
374,14,181292,5,10,2:3:0:0:
242,35,181402,1,0,2:0:0:0:
374,14,181511,6,0,P|431:41|417:132,1,139.23000053112,2|0,1:0|2:0,2:0:0:0:
463,181,181730,2,0,P|433:198|385:190,1,69.6150002655601,0|0,2:0|2:0,2:0:0:0:
341,253,181876,1,0,2:0:0:0:
336,258,181949,2,0,P|312:232|309:179,1,76.3087490684967,0|0,2:0|0:0,2:0:0:0:
352,130,182168,5,10,2:3:0:0:
220,224,182278,1,2,1:0:0:0:
220,59,182387,1,10,2:1:0:0:
220,59,182606,6,0,P|195:125|89:168,1,156.63375059751,2|0,1:0|0:0,2:0:0:0:
51,120,182825,2,0,P|76:130|106:163,1,50.8724993789978,2|0,2:0|2:0,2:0:0:0:
96,361,183044,6,0,P|47:303|32:208,1,156.63375059751,2|0,1:0|0:0,2:0:0:0:
43,220,183263,2,0,P|41:254|46:271,1,50.8724993789978,0|0,2:0|2:0,2:0:0:0:
230,358,183482,6,0,B|309:384|282:278|361:305,1,156.63375059751,0|0,1:0|0:0,2:0:0:0:
410,358,183701,2,0,P|429:330|440:294,1,67.8299991719971,2|0,2:0|2:0,2:0:0:0:
382,150,183921,1,0,2:0:0:0:
384,163,183994,1,0,2:0:0:0:
386,176,184067,1,0,2:0:0:0:
388,188,184139,1,8,2:0:0:0:
128,49,184358,2,0,P|78:38|11:21,1,101.744998757996,2|0,1:0|2:0,2:0:0:0:
28,25,184797,5,8,2:3:0:0:
101,1,184906,1,0,2:0:0:0:
124,139,185015,6,0,P|149:78|215:68,1,139.23000053112,0|0,1:0|2:0,2:0:0:0:
291,51,185234,2,0,P|324:92|308:161,1,104.42250039834,8|0,2:3|2:0,2:0:0:0:
277,227,185453,2,0,L|187:240,1,67.8299991719971,2|0,2:0|2:0,2:0:0:0:
98,204,185673,5,0,2:0:0:0:
109,207,185746,1,0,2:0:0:0:
119,210,185819,1,0,2:0:0:0:
131,214,185891,2,0,B|117:294|170:276|148:366,1,139.23000053112,8|0,2:1|2:0,2:0:0:0:
7,310,186110,2,0,B|30:308|71:330|71:330|54:321|43:301,1,104.42250039834,2|0,1:0|2:0,2:0:0:0:
9,230,186329,1,2,2:0:0:0:
395,333,186548,6,0,B|299:365|331:269|235:301,1,156.63375059751,2|0,1:0|0:0,2:0:0:0:
197,227,186768,5,0,2:0:0:0:
198,216,186877,1,0,2:0:0:0:
401,320,186986,2,0,P|405:254|449:104,1,208.84500079668,0|0,1:0|2:0,2:0:0:0:
324,202,187352,1,0,2:0:0:0:
324,202,187424,2,0,P|290:207|259:192,2,69.6150002655601,0|0|0,2:0|2:0|2:0,2:0:0:0:
346,125,187643,6,0,P|312:64|224:75,1,156.63375059751,8|0,2:0|0:0,2:0:0:0:
166,28,187862,6,0,P|139:74|155:141,1,116.471250977466,0|0,1:0|0:0,2:0:0:0:
111,207,188081,6,0,P|146:225|195:208,1,83.8949987198639,0|8,2:0|2:3,2:0:0:0:
14,350,188519,6,0,L|24:265,1,84.3412520591126,0|0,2:0|0:0,2:0:0:0:
32,262,188957,2,0,L|21:345,1,84.3412520591126,0|0,2:0|0:0,2:0:0:0:
91,376,189394,6,0,L|141:368,1,32.1300007844238,0|0,2:0|2:0,2:0:0:0:
195,357,189613,1,0,2:0:0:0:
195,357,189686,2,0,L|262:346,1,55.9299991465759,0|2,2:0|2:0,2:0:0:0:
407,326,189978,6,0,L|413:288,1,27.964999573288,0|2,2:0|2:0,2:0:0:0:
401,286,190124,2,0,L|407:248,1,27.964999573288,0|0,2:0|2:0,2:0:0:0:
453,162,190270,6,0,B|488:144|488:144|524:162|524:269|417:304|328:197|381:126,1,340.042497405682,6|0,1:0|2:0,2:0:0:0:
432,61,190708,6,0,P|409:47|371:43,1,50.8724993789978,2|0,2:0|2:0,2:0:0:0:
320,0,190927,2,0,P|295:10|270:39,1,50.8724993789978,2|0,2:0|2:0,2:0:0:0:
290,104,191146,1,2,2:0:0:0:
252,248,191584,6,0,P|276:235|299:205,1,50.8724993789978,2|0,2:0|2:0,2:0:0:0:
363,185,191803,2,0,P|366:158|355:121,1,50.8724993789978,2|0,2:0|2:0,2:0:0:0:
290,104,192022,6,0,P|196:76|86:55,2,203.489997515991,2|2|2,2:0|2:0|2:0,2:0:0:0:
89,311,193336,5,2,2:0:0:0:
87,300,193446,1,2,2:0:0:0:
153,259,193555,1,2,2:0:0:0:
155,270,193665,1,2,2:0:0:0:
83,215,193774,2,0,P|93:165|101:115,1,101.744998757996,2|2,2:0|2:0,2:0:0:0:
427,245,194431,5,2,2:0:0:0:
425,255,194540,1,2,2:0:0:0:
368,309,194650,2,0,P|322:322|246:358,1,101.744998757996,2|0,2:0|2:0,2:0:0:0:
200,170,195088,2,0,P|235:202|306:247,1,101.744998757996,2|0,2:0|2:0,2:0:0:0:
68,359,195526,6,0,P|127:314|116:235,1,152.617498136993,2|0,2:0|2:0,2:0:0:0:
46,205,195964,2,0,P|19:154|37:110,1,101.744998757996,2|0,2:0|2:0,2:0:0:0:
165,90,196402,2,0,P|192:141|174:185,1,101.744998757996,2|0,2:0|2:0,2:0:0:0:
85,34,196840,5,2,2:0:0:0:
85,34,197059,1,2,2:0:0:0:
105,146,197278,1,2,2:0:0:0:
427,34,197716,5,2,2:0:0:0:
427,34,197935,1,2,2:0:0:0:
407,146,198154,1,2,2:0:0:0:
258,295,198592,5,2,2:0:0:0:
258,295,198811,1,2,2:0:0:0:
257,182,199030,1,2,2:0:0:0:
109,285,199467,6,0,P|58:294|8:307,1,101.744998757996,2|0,2:0|2:0,2:0:0:0:
403,285,199905,2,0,P|454:294|504:307,1,101.744998757996,2|0,2:0|2:0,2:0:0:0:
322,193,200343,5,2,2:0:0:0:
324,183,200453,1,2,2:0:0:0:
326,173,200562,1,2,2:0:0:0:
237,45,200781,5,2,2:0:0:0:
239,54,200891,1,2,2:0:0:0:
303,100,201000,2,0,P|367:78|374:41,1,101.744998757996,2|0,2:0|2:0,2:0:0:0:
226,149,201438,5,2,2:0:0:0:
228,140,201548,1,2,2:0:0:0:
151,118,201657,2,0,P|142:167|164:213,1,101.744998757996,2|0,2:0|2:0,2:0:0:0:
163,212,201986,1,0,2:0:0:0:
246,278,202095,2,0,P|255:327|233:372,1,101.744998757996,2|0,2:0|2:0,2:0:0:0:
232,372,202424,1,0,2:0:0:0:
332,315,202533,6,0,P|421:336|474:269,1,178.053747826492,2|0,3:0|0:0,2:0:0:0:
479,281,202971,2,0,P|468:308|352:340,1,146.816247759762,2|0,3:0|0:0,2:0:0:0:
364,355,203409,2,0,P|434:347|475:312,1,115.578752821747,2|0,3:0|0:0,2:0:0:0:
472,328,203847,2,0,P|432:357|406:364,1,72.2925017649537,2|0,3:0|2:0,2:0:0:0:
322,216,204285,6,0,L|339:68,1,144.138750879753,2|0,1:0|0:0,2:0:0:0:
330,72,205380,2,0,L|303:79,1,16.0650003922119,0|0,2:0|2:0,2:0:0:0:
144,0,205599,6,0,P|164:30|167:80,1,84.3412520591126,2|0,2:0|0:0,2:0:0:0:
138,5,206037,6,0,B|172:39|172:109|103:144|103:144|33:179|33:249|68:284,1,340.042497405682,6|0,1:0|2:0,2:0:0:0:
291,169,206475,2,0,B|295:184|309:200|309:200|255:164|183:180,1,156.63375059751,2|0,1:0|0:0,2:0:0:0:
130,226,206693,1,2,2:0:0:0:
412,364,206913,6,0,P|370:297|386:218,1,156.63375059751,2|0,1:0|0:0,2:0:0:0:
366,147,207132,2,0,P|428:123|469:137,1,104.42250039834,2|0,2:0|2:0,2:0:0:0:
310,201,207351,6,0,P|240:169|145:159,1,156.63375059751,2|0,1:0|0:0,2:0:0:0:
98,117,207570,2,0,P|45:131|3:170,1,104.42250039834,2|0,2:0|2:0,2:0:0:0:
98,242,207789,6,0,B|133:269|123:319|123:319|151:283|143:220|76:196|76:196|8:172|1:108|28:73,1,396.716246973295,2|0,1:0|0:0,2:0:0:0:
81,26,208227,6,0,B|129:32|148:83|221:93,1,156.63375059751,2|0,1:0|0:0,2:0:0:0:
288,69,208446,2,0,P|292:45|303:17,1,50.8724993789978,2|0,2:0|2:0,2:0:0:0:
478,199,208665,6,0,B|429:192|410:141|337:131,1,156.63375059751,2|0,1:0|0:0,2:0:0:0:
271,156,208884,2,0,P|267:180|256:208,1,50.8724993789978,2|0,2:0|2:0,2:0:0:0:
371,371,209102,6,0,P|345:309|340:213,1,156.63375059751,2|0,1:0|0:0,2:0:0:0:
348,215,209321,2,0,P|344:241|347:276,1,50.8724993789978,2|0,2:0|2:0,2:0:0:0:
117,329,209540,6,0,B|110:348|89:364|89:364|180:321|279:341|279:341|252:329|243:313,1,283.368747838068,2|0,1:0|0:0,2:0:0:0:
180,306,209869,5,0,2:0:0:0:
44,297,209978,2,0,P|29:163|7:47,1,244.545006903202,2|0,1:0|2:0,2:0:0:0:
264,193,210307,5,0,2:0:0:0:
301,262,210416,2,0,P|315:128|337:24,1,216.431255118842,2|0,1:0|0:0,2:0:0:0:
273,2,210745,5,0,2:0:0:0:
453,185,210854,2,0,P|389:153|101:89,1,327.993734735399,2|0,1:0|0:0,2:0:0:0:
106,20,211183,5,0,2:0:0:0:
135,168,211292,2,0,P|263:188|384:239,1,261.056250995851,2|0,1:0|0:0,2:0:0:0:
428,304,211621,6,0,P|446:285|457:262,1,52.2112501991701,0|0,2:0|0:0,2:0:0:0:
457,262,211730,1,0,1:0:0:0:
384,239,211839,1,0,2:0:0:0:
351,315,211949,6,0,P|311:322|268:339,1,76.3087490684967,0|0,2:0|0:0,2:0:0:0:
216,370,212168,2,0,P|138:348|56:304,1,156.63375059751,0|0,1:0|0:0,2:0:0:0:
1,291,212387,2,0,P|-7:237|9:181,1,104.42250039834,0|0,2:0|2:0,2:0:0:0:
140,116,212606,6,0,P|142:177|84:192,1,127.181248447495,2|0,1:0|0:0,2:0:0:0:
62,118,212934,1,0,2:0:0:0:
196,230,213044,6,0,B|279:269|391:161|334:43|211:58|225:140,1,340.042497405682,2|0,1:0|2:0,2:0:0:0:
311,223,213482,2,0,P|350:225|418:251,1,104.42250039834,2|0,1:0|2:0,2:0:0:0:
465,66,213701,2,0,P|442:98|384:141,1,104.42250039834,2|0,2:0|2:0,2:0:0:0:
488,322,213920,6,0,P|489:276|515:161,1,156.63375059751,2|0,1:0|0:0,2:0:0:0:
505,163,214139,2,0,P|488:227|482:273,1,104.42250039834,2|0,2:0|2:0,2:0:0:0:
322,352,214358,6,0,P|280:295|198:305,1,156.63375059751,2|0,1:0|0:0,2:0:0:0:
148,370,214577,2,0,P|200:355|202:306,1,104.42250039834,2|0,2:0|2:0,2:0:0:0:
25,61,214796,6,0,B|-6:92|-6:155|56:186|56:186|119:217|119:280|87:312|87:312|111:261|79:225,1,396.716246973295,2|0,1:0|0:0,2:0:0:0:
9,250,215234,1,2,1:0:0:0:
95,110,215453,2,0,P|131:116|187:129,1,76.3087490684967,2|0,2:0|0:0,2:0:0:0:
221,189,215672,6,0,P|212:115|285:77,1,156.63375059751,2|0,1:0|0:0,2:0:0:0:
326,25,215891,2,0,P|365:48|380:86,1,86.5725020475369,2|0,2:0|2:0,2:0:0:0:
462,229,216110,6,0,P|416:265|361:232,1,103.083747955187,2|0,1:0|0:0,2:0:0:0:
317,208,216329,2,0,P|316:172|335:146,1,50.8724993789978,2|0,2:0|2:0,2:0:0:0:
379,84,216547,1,2,1:0:0:0:
199,320,216767,6,0,P|252:307|310:294,1,103.083747955187,0|0,2:0|0:0,2:0:0:0:
306,286,216986,6,0,P|191:314|-15:387,1,313.267501195021,2|0,1:0|2:0,2:0:0:0:
166,194,217424,2,0,B|182:162|150:130|150:130|166:162|150:194,1,127.181248447495,2|0,1:0|0:0,2:0:0:0:
103,261,217752,6,0,L|67:253,1,25.4362496894989,0|0,2:0|0:0,2:0:0:0:
78,255,217862,2,0,P|54:201|74:161,1,104.42250039834,2|0,1:0|2:0,2:0:0:0:
270,118,218081,2,0,P|299:159|286:208,1,104.42250039834,2|0,2:0|2:0,2:0:0:0:
184,293,218299,6,0,B|214:270|268:277|288:333|288:333|308:390|362:397|392:373,1,261.056250995851,2|0,1:0|0:0,2:0:0:0:
441,324,218628,2,0,L|448:266,1,52.2112501991701,0|0,2:0|0:0,2:0:0:0:
447,272,218737,1,0,1:0:0:0:
364,301,218846,1,0,2:0:0:0:
315,232,218957,2,0,L|324:147,1,76.3087490684967,0|0,2:0|0:0,2:0:0:0:
329,89,219175,6,0,P|282:44|237:111,1,156.63375059751,2|0,1:0|0:0,2:0:0:0:
234,100,219394,2,0,P|241:152|154:152,1,156.63375059751,0|0,2:0|0:0,2:0:0:0:
157,157,219613,1,2,1:0:0:0:
68,289,220051,6,0,B|47:288|33:278|33:278|-4:289|-4:397|106:434|197:324|143:251,1,340.042497405682,2|0,1:0|2:0,2:0:0:0:
57,48,220489,2,0,P|24:89|44:151,1,104.42250039834,2|0,1:0|2:0,2:0:0:0:
79,210,220708,1,0,2:0:0:0:
471,62,220927,6,0,P|405:81|311:126,1,156.63375059751,2|0,1:0|0:0,2:0:0:0:
251,109,221146,2,0,B|235:77|267:45|267:45|251:77|267:109,1,104.42250039834,2|0,2:0|2:0,2:0:0:0:
288,196,221365,6,0,P|353:215|448:260,1,156.63375059751,2|0,1:0|0:0,2:0:0:0:
508,243,221584,2,0,B|524:211|492:179|492:179|508:211|492:243,1,104.42250039834,2|0,2:0|2:0,2:0:0:0:
332,301,221803,6,0,B|306:334|246:341|210:285|210:285|173:230|114:237|88:270|88:270|110:208|175:215,1,396.716246973295,2|0,1:0|0:0,2:0:0:0:
145,349,222241,6,0,P|105:307|10:245,1,156.63375059751,2|0,1:0|0:0,2:0:0:0:
5,175,222460,2,0,P|15:150|22:125,1,50.8724993789978,2|0,2:0|2:0,2:0:0:0:
143,27,222679,6,0,P|215:52|298:85,1,156.63375059751,2|0,1:0|0:0,2:0:0:0:
292,74,222898,2,0,L|228:49,1,50.8724993789978,2|0,2:0|2:0,2:0:0:0:
351,269,223117,6,0,P|387:219|358:126,1,156.63375059751,2|0,1:0|0:0,2:0:0:0:
350,131,223336,2,0,P|366:150|376:185,1,50.8724993789978,2|0,2:0|2:0,2:0:0:0:
219,341,223555,6,0,P|154:302|-12:247,1,226.694998270454,2|0,1:0|2:0,2:0:0:0:
160,91,223884,5,0,2:0:0:0:
108,24,223993,2,0,P|126:147|135:274,1,244.545006903202,2|0,1:0|2:0,2:0:0:0:
381,255,224321,5,0,2:0:0:0:
430,200,224430,2,0,P|416:288|410:379,1,173.145004095074,2|0,1:0|2:0,2:0:0:0:
446,190,224760,5,0,2:0:0:0:
369,114,224869,2,0,B|317:65|209:127|223:227|318:244|329:181,1,262.394987788319,2|0,1:0|2:0,2:0:0:0:
221,66,225198,5,0,2:0:0:0:
162,119,225307,2,0,P|152:190|132:288,1,156.63375059751,2|0,1:0|0:0,2:0:0:0:
74,314,225526,1,0,2:0:0:0:
190,366,225635,6,0,P|165:358|139:354,1,52.2112501991701,0|0,2:0|0:0,2:0:0:0:
139,354,225745,1,0,1:0:0:0:
250,301,225854,1,0,2:0:0:0:
336,349,225964,6,0,P|291:378|271:369,1,76.3087490684967,0|0,2:0|0:0,2:0:0:0:
250,301,226183,6,0,P|262:209|283:134,1,156.63375059751,0|0,1:0|0:0,2:0:0:0:
301,76,226402,2,0,B|335:68|359:107|359:107|332:83|297:91,1,104.42250039834,0|0,2:0|2:0,2:0:0:0:
278,147,226621,6,0,B|179:114|212:212|114:179,1,178.053747826492,2|0,1:0|0:0,2:0:0:0:
48,144,227059,6,0,B|88:76|88:76|53:71|21:36|21:36|115:157|74:265,1,396.716246973295,2|0,1:0|0:0,2:0:0:0:
119,326,227497,2,0,B|160:346|202:305|202:305|160:326|118:305,1,156.63375059751,2|0,1:0|0:0,2:0:0:0:
76,257,227715,1,2,2:0:0:0:
283,167,227935,6,0,B|256:206|269:271|269:271|256:245|230:232,1,156.63375059751,2|0,1:0|0:0,2:0:0:0:
160,234,228154,1,2,2:0:0:0:
480,265,228373,6,0,P|414:281|319:324,1,156.63375059751,2|0,1:0|0:0,2:0:0:0:
266,353,228592,1,2,2:0:0:0:
472,72,228811,6,0,B|495:101|488:155|432:175|432:175|375:195|368:249|392:279|392:279|383:237|414:207,1,340.042497405682,2|0,1:0|2:0,2:0:0:0:
405,101,229248,6,0,P|349:69|267:118,1,156.63375059751,2|0,1:0|0:0,2:0:0:0:
206,71,229467,2,0,P|195:99|197:130,1,50.8724993789978,2|0,2:0|2:0,2:0:0:0:
185,380,229686,6,0,P|241:349|243:253,1,156.63375059751,2|0,1:0|0:0,2:0:0:0:
315,227,229905,2,0,P|297:202|237:184,1,86.5725020475369,2|0,2:0|2:0,2:0:0:0:
35,258,230124,6,0,P|87:273|131:240,1,103.083747955187,2|0,1:0|0:0,2:0:0:0:
106,170,230343,2,0,P|68:158|32:174,1,76.3087490684967,2|0,2:0|0:0,2:0:0:0:
35,258,230562,1,2,1:0:0:0:
259,56,230781,6,0,P|315:66|387:88,1,103.083747955187,0|0,2:0|0:0,2:0:0:0:
433,65,231000,6,0,B|448:2|355:-20|301:65|378:150,1,244.545006903202,2|0,1:0|2:0,2:0:0:0:
512,243,231328,1,0,2:0:0:0:
449,286,231438,2,0,P|429:256|450:193,1,101.744998757996,2|0,1:0|2:0,2:0:0:0:
286,326,231767,6,0,L|310:320,1,25.4362496894989,0|0,2:0|0:0,2:0:0:0:
336,342,231876,2,0,B|255:327|216:396|130:383,1,208.84500079668,2|0,1:0|2:0,2:0:0:0:
56,203,232205,6,0,L|31:197,1,25.4362496894989,0|0,2:0|0:0,2:0:0:0:
6,219,232314,2,0,B|87:204|126:273|211:260,1,208.84500079668,2|0,1:0|2:0,2:0:0:0:
269,130,232642,6,0,L|260:79,1,52.2112501991701,0|0,2:0|0:0,2:0:0:0:
259,78,232752,1,0,1:0:0:0:
341,96,232861,1,0,2:0:0:0:
380,30,232971,2,0,P|347:11|301:25,1,76.3087490684967,0|0,2:0|0:0,2:0:0:0:
341,96,233190,6,0,L|374:280,1,156.63375059751,2|0,1:0|0:0,2:0:0:0:
424,304,233409,2,0,B|486:325|486:325|484:316|484:316|450:304,1,104.42250039834,0|0,2:0|2:0,2:0:0:0:
275,250,233628,6,0,B|189:221|217:335|132:307,1,167.789997439728,0|2,1:0|2:0,2:0:0:0:
38,141,234285,6,0,L|26:47,1,83.8949987198639,0|0,2:0|2:0,2:0:0:0:
38,141,234723,6,0,L|26:47,1,66.0450016124268,0|0,2:0|2:0,2:0:0:0:
38,141,235161,6,0,L|30:77,1,60.6900003704224,0|0,2:0|2:0,2:0:0:0:
343,278,235818,6,0,B|411:273|411:273|444:272|442:221|442:221|435:246|405:257,1,190.994994171295,4|0,1:0|2:0,2:0:0:0:
346,30,236183,1,0,2:0:0:0:
346,30,236256,2,0,B|314:126|410:94|378:190,1,173.145004095074,0|0,1:0|2:0,2:0:0:0:
170,145,236621,5,0,2:0:0:0:
170,145,236694,2,0,P|199:178|187:245,1,115.430002730049,0|0,1:0|2:0,2:0:0:0:
119,375,236912,1,0,2:0:0:0:
259,275,237059,1,0,2:0:0:0:
259,275,237132,2,0,P|197:284|130:315,1,115.430002730049,0|0,1:0|2:0,2:0:0:0:
148,303,237350,1,0,2:0:0:0:
71,89,237497,5,0,2:0:0:0:
71,89,237570,2,0,P|96:132|72:262,1,173.145004095074,0|0,1:0|2:0,2:0:0:0:
236,125,237935,1,0,2:0:0:0:
236,125,238008,2,0,B|332:93|300:189|396:157,1,173.145004095074,0|0,1:0|2:0,2:0:0:0:
476,296,238373,5,0,2:0:0:0:
476,296,238446,2,0,L|490:157,1,115.430002730049,2|0,1:0|2:0,2:0:0:0:
481,165,238665,2,0,L|467:294,1,115.430002730049,2|0,2:0|2:0,2:0:0:0:
459,297,238884,2,0,L|473:158,1,137.444997273583,2|0,1:0|2:0,2:0:0:0:
256,268,239248,5,0,2:0:0:0:
256,268,239321,2,0,P|231:219|317:163,1,173.145004095074,0|0,1:0|2:0,2:0:0:0:
193,318,239686,1,0,2:0:0:0:
193,318,239759,2,0,P|129:292|85:312,1,115.430002730049,0|0,1:0|2:0,2:0:0:0:
60,377,239978,1,0,2:0:0:0:
39,244,240124,5,0,2:0:0:0:
39,244,240197,2,0,P|26:188|54:139,1,115.430002730049,0|0,1:0|2:0,2:0:0:0:
118,202,240416,2,0,P|149:191|184:185,1,57.7150013650246,0|0,2:0|2:0,2:0:0:0:
255,123,240562,1,0,2:0:0:0:
255,123,240635,2,0,P|196:112|132:97,1,115.430002730049,0|0,1:0|2:0,2:0:0:0:
189,22,240854,2,0,P|229:31|302:46,1,115.430002730049,0|0,2:0|2:0,2:0:0:0:
346,118,241073,5,0,1:0:0:0:
502,19,241292,1,0,2:0:0:0:
502,19,241365,2,0,P|473:14|439:8,1,57.7150013650246,0|0,2:0|2:0,2:0:0:0:
379,50,241511,2,0,B|347:146|443:114|411:210,1,173.145004095074,0|0,1:0|2:0,2:0:0:0:
296,330,241876,5,0,2:0:0:0:
296,330,241949,2,0,P|340:292|397:307,1,115.430002730049,0|0,1:0|2:0,2:0:0:0:
392,294,242168,2,0,P|335:283|292:321,1,115.430002730049,0|0,2:0|2:0,2:0:0:0:
228,367,242387,2,0,P|173:378|129:343,1,115.430002730049,0|0,1:0|2:0,2:0:0:0:
104,273,242606,1,0,2:0:0:0:
198,97,242752,5,0,2:0:0:0:
198,97,242825,2,0,P|154:146|160:210,1,115.430002730049,0|0,1:0|2:0,2:0:0:0:
189,266,243044,2,0,P|216:256|250:251,2,57.7150013650246,0|0|0,2:0|2:0|2:0,2:0:0:0:
104,273,243263,1,0,1:0:0:0:
285,137,243409,5,0,2:0:0:0:
285,137,243482,2,0,B|308:208|308:208|297:187|272:178,1,115.430002730049,0|0,2:0|2:0,2:0:0:0:
244,251,243701,1,0,1:0:0:0:
488,355,243920,6,0,P|460:357|431:343,1,57.7150013650246,0|0,2:0|2:0,2:0:0:0:
452,269,244066,1,0,2:0:0:0:
452,269,244139,2,0,P|475:198|465:142,1,115.430002730049,0|0,1:0|2:0,2:0:0:0:
413,98,244358,2,0,P|394:67|402:21,2,57.7150013650246,0|0|0,2:0|2:0|2:0,2:0:0:0:
388,172,244577,6,0,P|324:147|207:130,1,173.145004095074,0|0,1:0|2:0,2:0:0:0:
25,57,244942,1,0,2:0:0:0:
25,57,245015,2,0,P|9:120|57:164,1,115.430002730049,0|0,1:0|2:0,2:0:0:0:
125,141,245234,2,0,P|141:78|93:34,1,115.430002730049,0|0,2:0|2:0,2:0:0:0:
96,231,245453,6,0,L|235:241,1,115.430002730049,2|0,1:0|2:0,2:0:0:0:
225,248,245672,2,0,L|95:239,1,115.430002730049,2|0,2:0|2:0,2:0:0:0:
92,247,245891,2,0,L|231:257,1,137.444997273583,2|0,1:0|2:0,2:0:0:0:
424,326,246255,5,0,2:0:0:0:
424,326,246329,2,0,B|456:230|360:262|392:166,1,173.145004095074,0|0,1:0|2:0,2:0:0:0:
387,0,246694,1,0,2:0:0:0:
387,0,246767,2,0,P|361:68|400:102,1,115.430002730049,0|0,1:0|2:0,2:0:0:0:
458,114,246985,1,0,2:0:0:0:
301,151,247131,5,0,2:0:0:0:
301,151,247205,2,0,P|251:132|172:123,1,115.430002730049,0|0,1:0|2:0,2:0:0:0:
123,143,247424,2,0,P|106:114|100:86,1,57.7150013650246,0|0,2:0|2:0,2:0:0:0:
52,27,247570,1,0,2:0:0:0:
52,27,247643,2,0,P|48:79|31:156,1,115.430002730049,0|0,1:0|2:0,2:0:0:0:
22,244,247862,2,0,P|59:275|120:248,1,115.430002730049,0|0,2:0|2:0,2:0:0:0:
35,140,248081,1,0,1:0:0:0:
206,281,248226,5,0,2:0:0:0:
206,281,248299,2,0,P|195:254|191:225,1,57.7150013650246,0|0,2:0|2:0,2:0:0:0:
256,172,248445,1,0,2:0:0:0:
256,172,248519,2,0,P|315:189|304:245,1,115.430002730049,0|0,1:0|2:0,2:0:0:0:
313,234,248737,1,0,2:0:0:0:
175,133,248883,1,0,2:0:0:0:
176,121,248957,1,0,1:0:0:0:
319,24,249175,6,0,B|354:31|370:27|409:43,2,83.8949987198639,0|0|0,2:0|2:0|2:0,2:0:0:0:
66,107,249832,6,0,B|76:188|76:188|142:222|142:222|135:160,1,190.994994171295,0|0,1:0|2:0,2:0:0:0:
147,47,250197,1,0,2:0:0:0:
147,47,250270,2,0,L|336:72,1,173.145004095074,0|0,1:0|2:0,2:0:0:0:
402,44,250635,5,0,2:0:0:0:
402,44,250708,2,0,B|417:76|386:108|386:108|402:76|386:44,1,115.430002730049,0|0,1:0|2:0,2:0:0:0:
338,0,250927,1,0,2:0:0:0:
229,141,251073,1,0,2:0:0:0:
229,141,251146,2,0,L|103:124,1,115.430002730049,0|0,1:0|2:0,2:0:0:0:
71,62,251364,1,0,2:0:0:0:
11,295,251511,5,0,2:0:0:0:
11,295,251584,2,0,B|-21:199|75:231|43:135,1,173.145004095074,0|0,1:0|2:0,2:0:0:0:
268,230,251949,1,0,2:0:0:0:
268,230,252022,2,0,P|193:240|93:279,1,173.145004095074,0|0,1:0|2:0,2:0:0:0:
397,335,252387,5,0,2:0:0:0:
397,335,252460,2,0,L|389:204,1,115.430002730049,2|0,1:0|2:0,2:0:0:0:
383,212,252679,2,0,L|375:81,1,115.430002730049,2|0,2:0|2:0,2:0:0:0:
367,91,252898,2,0,B|364:65|364:65|362:40|337:42|337:42|261:49,1,137.444997273583,2|0,1:0|2:0,2:0:0:0:
129,138,253262,5,0,2:0:0:0:
129,138,253336,2,0,L|318:121,1,173.145004095074,0|0,1:0|2:0,2:0:0:0:
31,31,253700,1,0,2:0:0:0:
31,31,253774,2,0,P|64:78|34:126,1,115.430002730049,0|0,1:0|2:0,2:0:0:0:
38,123,253993,1,0,2:0:0:0:
77,298,254139,5,0,2:0:0:0:
77,298,254213,2,0,P|44:251|74:203,1,115.430002730049,0|0,1:0|2:0,2:0:0:0:
70,206,254432,1,0,2:0:0:0:
271,302,254576,1,0,2:0:0:0:
271,302,254650,2,0,P|221:322|163:356,1,115.430002730049,0|0,1:0|2:0,2:0:0:0:
154,266,254869,2,0,P|205:240|260:222,1,115.430002730049,0|0,2:0|2:0,2:0:0:0:
340,248,255087,5,0,1:0:0:0:
170,17,255306,1,0,2:0:0:0:
170,17,255380,2,0,P|165:45|159:74,1,57.7150013650246,0|0,2:0|2:0,2:0:0:0:
123,134,255526,2,0,P|178:96|279:114,1,173.145004095074,0|0,1:0|2:0,2:0:0:0:
489,71,255890,5,0,2:0:0:0:
489,71,255963,2,0,P|477:139|432:157,1,115.430002730049,0|0,1:0|2:0,2:0:0:0:
277,113,256183,2,0,P|341:87|380:115,1,115.430002730049,0|0,2:0|2:0,2:0:0:0:
349,300,256402,2,0,P|356:242|367:186,1,115.430002730049,0|0,1:0|2:0,2:0:0:0:
439,157,256620,1,0,2:0:0:0:
266,313,256766,5,0,2:0:0:0:
266,313,256840,2,0,P|204:278|146:275,1,115.430002730049,0|0,1:0|2:0,2:0:0:0:
103,324,257059,2,0,P|85:344|48:360,2,57.7150013650246,0|0|0,2:0|2:0|2:0,2:0:0:0:
84,245,257277,1,0,1:0:0:0:
144,80,257423,5,0,2:0:0:0:
144,80,257497,2,0,P|157:139|129:205,1,115.430002730049,0|0,2:0|2:0,2:0:0:0:
141,191,257715,1,0,1:0:0:0:
382,18,257934,6,0,L|439:30,1,57.7150013650246,0|0,2:0|2:0,2:0:0:0:
476,99,258080,1,0,2:0:0:0:
476,99,258154,2,0,L|343:124,1,115.430002730049,0|0,1:0|2:0,2:0:0:0:
303,77,258373,2,0,P|281:52|274:12,2,57.7150013650246,0|0|0,2:0|2:0|2:0,2:0:0:0:
362,120,258592,6,0,B|394:216|298:184|330:280,1,173.145004095074,0|0,1:0|2:0,2:0:0:0:
505,294,258956,1,0,2:0:0:0:
505,294,259030,2,0,P|473:257|400:259,1,115.430002730049,0|0,1:0|2:0,2:0:0:0:
300,357,259248,2,0,P|243:357|204:316,1,115.430002730049,0|0,2:0|2:0,2:0:0:0:
174,183,259467,6,0,P|132:144|54:160,1,115.430002730049,2|0,1:0|2:0,2:0:0:0:
71,136,259686,2,0,P|23:168|21:247,1,115.430002730049,2|0,2:0|2:0,2:0:0:0:
0,229,259905,2,0,P|20:282|110:299,1,137.444997273583,2|0,1:0|2:0,2:0:0:0:
221,96,260269,5,0,2:0:0:0:
221,96,260343,2,0,P|206:168|189:276,1,173.145004095074,2|0,1:0|2:0,2:0:0:0:
389,342,260672,1,2,2:0:0:0:
443,295,260781,2,0,P|417:248|355:255,1,115.430002730049,0|0,1:0|2:0,2:0:0:0:
361,250,260999,1,0,2:0:0:0:
228,352,261145,5,0,2:0:0:0:
228,352,261219,2,0,P|282:354|310:307,1,115.430002730049,2|0,1:0|2:0,2:0:0:0:
285,229,261438,2,0,P|275:200|283:166,1,57.7150013650246,0|0,2:0|2:0,2:0:0:0:
342,133,261584,1,0,2:0:0:0:
342,133,261657,2,0,P|287:150|241:111,1,115.430002730049,2|0,1:0|2:0,2:0:0:0:
165,5,261876,5,2,2:0:0:0:
142,79,261986,1,2,2:0:0:0:
122,153,262095,1,2,1:0:0:0:
9,215,262205,5,2,2:0:0:0:
48,276,262314,2,0,P|89:287|144:307,1,86.5725020475369,0|0,2:0|2:0,2:0:0:0:
296,360,262533,2,0,P|243:327|263:272,1,115.430002730049,2|0,1:0|2:0,2:0:0:0:
280,198,262752,2,0,P|321:191|368:228,1,86.5725020475369,0|0,2:0|2:0,2:0:0:0:
374,292,262971,6,0,P|424:302|456:266,1,99.0675024186402,2|0,1:0|2:0,2:0:0:0:
374,292,263409,2,0,P|424:302|456:266,1,99.0675024186402,2|0,1:0|2:0,2:0:0:0:
459,191,263847,5,2,1:0:0:0:
