osu file format v14

[General]
AudioFilename: feryEther.mp3
AudioLeadIn: 0
PreviewTime: 50750
Countdown: 0
SampleSet: Soft
StackLeniency: 0.2
Mode: 0
LetterboxInBreaks: 0
WidescreenStoryboard: 0

[Editor]
Bookmarks: 99458,137858,147458,179858,214658
DistanceSpacing: 0.3
BeatDivisor: 8
GridSize: 32
TimelineZoom: 3.799998

[Metadata]
Title:Ether
TitleUnicode:エーテル
Artist:Feryquitous feat. Aitsuki Nakuru
ArtistUnicode:Feryquitous feat. 藍月なくる
Creator:Yusomi
Version:Luminiferous
Source:
Tags:
BeatmapID:2033829
BeatmapSetID:971367

[Difficulty]
HPDrainRate:4
CircleSize:4.5
OverallDifficulty:8.5
ApproachRate:9.5
SliderMultiplier:2
SliderTickRate:0.5

[Events]
//Background and Video events
0,0,"Konachan.com - 281061.jpg",0,0
//Break Periods
2,176457,179483
//Storyboard Layer 0 (Background)
//Storyboard Layer 1 (Fail)
//Storyboard Layer 2 (Pass)
//Storyboard Layer 3 (Foreground)
//Storyboard Sound Samples

[TimingPoints]
1058,300,4,2,3,40,1,0
10658,-222.222222222222,4,2,3,40,0,0
10676,-222.222222222222,4,2,1,5,0,0
13058,-222.222222222222,4,2,3,40,0,0
14258,-222.222222222222,4,2,3,40,0,0
15458,-222.222222222222,4,2,3,40,0,0
15476,-222.222222222222,4,2,1,5,0,0
17258,-222.222222222222,4,2,3,5,0,0
17858,-222.222222222222,4,2,3,40,0,0
18758,-333.333333333333,4,2,3,40,0,0
18776,-333.333333333333,4,2,1,5,0,0
19058,-333.333333333333,4,2,3,40,0,0
19358,-333.333333333333,4,2,3,40,0,0
19376,-333.333333333333,4,2,1,5,0,0
19658,-333.333333333333,4,2,3,40,0,0
19958,-333.333333333333,4,2,3,40,0,0
19976,-333.333333333333,4,2,1,5,0,0
20108,-333.333333333333,4,2,3,40,0,0
20258,-222.222222222222,4,2,3,40,0,0
20276,-222.222222222222,4,2,1,5,0,0
20858,-222.222222222222,4,2,3,40,0,0
21176,-222.222222222222,4,2,1,5,0,0
21458,-222.222222222222,4,2,3,40,0,0
21758,-133.333333333333,4,2,3,40,0,0
22058,-222.222222222222,4,2,3,40,0,0
22076,-222.222222222222,4,2,1,5,0,0
22358,-222.222222222222,4,2,3,40,0,0
22676,-222.222222222222,4,2,1,5,0,0
23783,-222.222222222222,4,2,3,40,0,0
23858,-166.666666666667,4,2,3,40,0,0
24083,-166.666666666667,4,2,3,5,0,0
24158,-166.666666666667,4,2,3,40,0,0
25058,-138.888888888889,4,2,3,40,0,0
25076,-138.888888888889,4,2,1,5,0,0
26558,-111.111111111111,4,2,3,40,0,0
27476,-111.111111111111,4,2,1,5,0,0
28958,-111.111111111111,4,2,3,40,0,0
29858,-133.333333333333,4,2,3,50,0,0
46658,-120.481927710843,4,2,3,50,0,0
51458,-50,4,2,3,70,0,1
51758,-66.6666666666667,4,2,3,70,0,1
52358,-200,4,2,3,70,0,1
52508,-111.111111111111,4,2,3,70,0,1
52658,-66.6666666666667,4,2,3,70,0,1
53258,-100,4,2,3,70,0,1
53858,-100,4,2,3,70,0,1
54758,-66.6666666666667,4,2,3,70,0,1
55358,-200,4,2,3,70,0,1
56258,-83.3333333333333,4,2,3,70,0,1
56708,-100,4,2,3,70,0,1
57308,-83.3333333333333,4,2,3,70,0,1
57758,-100,4,2,3,70,0,1
58658,-250,4,2,3,70,0,1
58808,-100,4,2,3,70,0,1
58958,-57.1428571428571,4,2,3,70,0,1
61058,-66.6666666666667,4,2,3,70,0,1
61358,-66.6666666666667,4,2,3,70,0,1
61658,-100,4,2,3,70,0,1
62258,-66.6666666666667,4,2,3,70,0,1
62558,-100,4,2,3,70,0,1
62858,-250,4,2,3,70,0,1
63158,-100,4,2,3,70,0,1
63458,-66.6666666666667,4,2,3,70,0,1
63758,-66.6666666666667,4,2,3,70,0,1
64208,-200,4,2,3,70,0,1
64358,-100,4,2,3,70,0,1
64508,-66.6666666666667,4,2,3,70,0,1
64808,-200,4,2,3,70,0,1
64958,-100,4,2,3,70,0,1
65858,-43.4782608695652,4,2,3,70,0,1
66058,-71.4285714285714,4,2,3,70,0,1
66258,-125,4,2,3,70,0,1
66658,-71.4285714285714,4,2,3,70,0,1
66858,-43.4782608695652,4,2,3,70,0,1
67058,-57.1428571428571,4,2,3,70,0,1
68108,-83.3333333333333,4,2,3,70,0,0
69458,-250,4,2,3,70,0,0
70508,-149.253731343284,4,2,3,70,0,0
70658,-71.4285714285714,4,2,3,70,0,0
70958,-52.6315789473684,4,2,3,70,0,0
71558,-100,4,2,3,50,0,0
72008,-100,4,2,3,60,0,0
73058,-250,4,2,3,70,0,0
73208,-125,4,2,3,70,0,0
73358,-52.6315789473684,4,2,3,70,0,0
73958,-100,4,2,3,50,0,0
74558,-142.857142857143,4,2,3,60,0,0
74858,-43.4782608695652,4,2,3,60,0,0
75158,-200,4,2,3,70,0,0
75458,-71.4285714285714,4,2,3,70,0,0
75758,-52.6315789473684,4,2,3,70,0,0
75870,-52.6315789473684,4,2,3,5,0,0
75908,-52.6315789473684,4,2,3,70,0,0
76358,-133.333333333333,4,2,3,50,0,0
76808,-133.333333333333,4,2,3,60,0,0
77858,-71.4285714285714,4,2,3,70,0,0
78158,-52.6315789473684,4,2,3,70,0,0
78758,-133.333333333333,4,2,3,70,0,0
80258,-66.6666666666667,4,2,3,60,0,0
80558,-90.9090909090909,4,2,3,60,0,0
81308,-74.0740740740741,4,2,3,60,0,0
81908,-100,4,2,3,60,0,0
82958,-250,4,2,3,60,0,0
83408,-90.9090909090909,4,2,3,60,0,0
83708,-125,4,2,3,60,0,0
84008,-100,4,2,3,60,0,0
84758,-200,4,2,3,60,0,0
85058,-66.6666666666667,4,2,3,60,0,0
85958,-90.9090909090909,4,2,3,60,0,0
86408,-111.111111111111,4,2,3,60,0,0
87158,-250,4,2,3,60,0,0
87458,-142.857142857143,4,2,3,60,0,0
87758,-50,4,2,3,60,0,0
88058,-40,4,2,3,60,0,0
88208,-200,4,2,3,60,0,0
88508,-66.6666666666667,4,2,3,60,0,0
88808,-127.388535031847,4,2,3,60,0,0
89108,-76.9230769230769,4,2,3,60,0,0
90158,-60.6060606060606,4,2,3,60,0,0
90308,-76.9230769230769,4,2,3,60,0,0
91958,-117.647058823529,4,2,3,60,0,0
92258,-83.3333333333333,4,2,3,60,0,0
92558,-66.6666666666667,4,2,3,60,0,0
93158,-90.9090909090909,4,2,3,60,0,0
93908,-66.6666666666667,4,2,3,60,0,0
94208,-100,4,2,3,60,0,0
94358,-76.9230769230769,4,2,3,60,0,0
94658,-62.5,4,2,3,60,0,0
94958,-100,4,2,3,60,0,0
95108,-68.0272108843537,4,2,3,60,0,0
95408,-74.0740740740741,4,2,3,60,0,0
96008,-66.6666666666667,4,2,3,60,0,0
96308,-74.0740740740741,4,2,3,60,0,0
96758,-50,4,2,3,60,0,0
97058,-40,4,2,3,60,0,0
97358,-66.6666666666667,4,2,3,60,0,0
97508,-50,4,2,3,60,0,0
97658,-40,4,2,3,60,0,0
97808,-55.5555555555556,4,2,3,60,0,0
97958,-45.4545454545455,4,2,3,60,0,0
98408,-66.6666666666667,4,2,3,60,0,0
98858,-50,4,2,3,60,0,0
99158,-66.6666666666667,4,2,3,60,0,0
99308,-200,4,2,3,60,0,0
99458,-133.333333333333,4,2,3,55,0,0
109058,-100,4,2,3,55,0,0
116258,-153.846153846154,4,2,3,55,0,0
118658,-125,4,2,3,55,0,0
119558,-166.666666666667,4,2,3,55,0,0
121058,-60.6060606060606,4,2,3,55,0,1
121358,-100,4,2,3,55,0,1
121958,-76.9230769230769,4,2,3,55,0,1
122258,-62.5,4,2,3,55,0,1
122558,-166.666666666667,4,2,3,55,0,1
122708,-62.5,4,2,3,55,0,1
123008,-166.666666666667,4,2,3,55,0,1
123158,-83.3333333333333,4,2,3,55,0,1
123458,-58.8235294117647,4,2,3,55,0,1
123758,-133.333333333333,4,2,3,55,0,1
124058,-100,4,2,3,55,0,1
124208,-60.6060606060606,4,2,3,55,0,1
124508,-58.8235294117647,4,2,3,55,0,1
124958,-133.333333333333,4,2,3,55,0,1
125858,-66.6666666666667,4,2,3,55,0,1
126158,-100,4,2,3,55,0,1
126908,-66.6666666666667,4,2,3,55,0,1
127208,-100,4,2,3,55,0,1
128258,-250,4,2,3,55,0,1
128408,-100,4,2,3,55,0,1
128558,-57.1428571428571,4,2,3,55,0,1
131558,-100,4,2,3,55,0,1
131858,-66.6666666666667,4,2,3,55,0,1
132158,-76.9230769230769,4,2,3,55,0,1
132458,-250,4,2,3,55,0,1
132758,-100,4,2,3,55,0,1
133058,-66.6666666666667,4,2,3,55,0,1
133808,-200,4,2,3,55,0,1
133958,-100,4,2,3,55,0,1
134108,-66.6666666666667,4,2,3,55,0,1
134408,-200,4,2,3,55,0,1
134558,-100,4,2,3,55,0,1
134708,-100,4,2,3,55,0,1
135458,-142.857142857143,4,2,3,55,0,0
136508,-76.9230769230769,4,2,3,55,0,0
136808,-200,4,2,3,55,0,0
137108,-50,4,2,3,55,0,0
137858,-62.5,4,2,3,55,0,0
138308,-100,4,2,3,55,0,0
138683,-90.9090909090909,4,2,3,55,0,0
139058,-83.3333333333333,4,2,3,55,0,0
141308,-100,4,2,3,55,0,0
141908,-200,4,2,3,55,0,0
142358,-66.6666666666667,4,2,3,55,0,0
142658,-83.3333333333333,4,2,3,55,0,0
146258,-166.666666666667,4,2,3,55,0,0
147458,-100,4,2,3,55,0,0
150758,-76.9230769230769,4,2,3,55,0,0
151208,-55.5555555555556,4,2,3,55,0,0
151508,-44.4444444444445,4,2,3,55,0,0
151808,-66.6666666666667,4,2,3,55,0,0
152258,-43.4782608695652,4,2,3,55,0,0
152458,-71.4285714285714,4,2,3,55,0,0
152658,-200,4,2,3,55,0,0
153058,-71.4285714285714,4,2,3,55,0,0
153258,-43.4782608695652,4,2,3,55,0,0
153908,-66.6666666666667,4,2,3,55,0,0
154208,-43.4782608695652,4,2,3,55,0,0
154508,-71.4285714285714,4,2,3,55,0,0
156458,-66.6666666666667,4,2,3,40,0,0
156758,-200,4,2,3,40,0,0
157058,-200,4,2,3,40,0,0
161108,-200,4,2,3,40,0,0
161858,-333.333333333333,4,2,3,40,0,0
164708,-250,4,2,3,40,0,0
165158,-200,4,2,3,40,0,0
165608,-166.666666666667,4,2,3,40,0,0
166658,-76.9230769230769,4,2,3,40,0,0
167258,-166.666666666667,4,2,3,40,0,0
168308,-250.000000000001,4,2,3,40,0,0
171158,-133.333333333333,4,2,3,40,0,0
171458,-200,4,2,3,40,0,0
173708,-250.000000000001,4,2,3,40,0,0
175058,-588.235294117647,4,2,3,40,0,0
179858,-333.333333333334,4,2,3,30,0,0
180008,-66.6666666666667,4,2,3,30,0,0
180158,-133.333333333333,4,2,3,30,0,0
180308,-133.333333333333,4,2,3,40,0,0
180608,-133.333333333333,4,2,3,50,0,0
180908,-133.333333333333,4,2,3,60,0,0
181058,-60.6060606060606,4,2,3,70,0,1
181508,-76.9230769230769,4,2,3,70,0,1
181958,-100,4,2,3,70,0,1
182258,-66.6666666666667,4,2,3,70,0,1
182558,-90.9090909090909,4,2,3,70,0,1
182708,-66.6666666666667,4,2,3,70,0,1
182858,-100,4,2,3,70,0,1
183158,-90.9090909090909,4,2,3,70,0,1
183308,-83.3333333333333,4,2,3,70,0,1
183458,-50,4,2,3,70,0,1
183758,-100,4,2,3,70,0,1
183908,-71.4285714285714,4,2,3,70,0,1
184208,-62.5,4,2,3,70,0,1
184358,-83.3333333333333,4,2,3,70,0,1
184658,-66.6666666666667,4,2,3,70,0,1
184958,-111.111111111111,4,2,3,70,0,1
185108,-90.9090909090909,4,2,3,70,0,1
185858,-66.6666666666667,4,2,3,70,0,1
186308,-100,4,2,3,70,0,1
186758,-71.4285714285714,4,2,3,70,0,1
186908,-66.6666666666667,4,2,3,70,0,1
187358,-100,4,2,3,70,0,1
187508,-100,4,2,3,70,0,1
187808,-58.8235294117647,4,2,3,70,0,1
188108,-90.9090909090909,4,2,3,70,0,1
188258,-250,4,2,3,70,0,1
188408,-100,4,2,3,70,0,1
188558,-57.1428571428571,4,2,3,70,0,1
188858,-66.6666666666667,4,2,3,70,0,1
189008,-58.8235294117647,4,2,3,70,0,1
189158,-125,4,2,3,70,0,1
189458,-58.8235294117647,4,2,3,70,0,1
189758,-71.4285714285714,4,2,3,70,0,1
190658,-60.6060606060606,4,2,3,70,0,1
190958,-100,4,2,3,70,0,1
191558,-250,4,2,3,70,0,1
191858,-62.5,4,2,3,70,0,1
192158,-90.9090909090909,4,2,3,70,0,1
192308,-66.6666666666667,4,2,3,70,0,1
192758,-83.3333333333333,4,2,3,70,0,1
193058,-71.4285714285714,4,2,3,70,0,1
193358,-60.6060606060606,4,2,3,70,0,1
193658,-100,4,2,3,70,0,1
193808,-100,4,2,3,70,0,1
193958,-71.4285714285714,4,2,3,70,0,1
194258,-50,4,2,3,70,0,1
194558,-76.9230769230769,4,2,3,70,0,1
194708,-62.5,4,2,3,70,0,1
195158,-71.4285714285714,4,2,3,70,0,1
195308,-58.8235294117647,4,2,3,70,0,1
195458,-58.8235294117647,4,2,3,70,0,0
196508,-181.818181818182,4,2,3,70,0,0
197108,-37.7358490566038,4,2,3,70,0,0
197408,-55.5555555555556,4,2,3,70,0,0
197708,-76.9230769230769,4,2,3,70,0,0
198158,-250,4,2,3,70,0,0
198308,-100,4,2,3,70,0,0
198458,-60.6060606060606,4,2,3,70,0,0
198608,-153.846153846154,4,2,3,70,0,0
198758,-83.3333333333333,4,2,3,70,0,0
198908,-52.6315789473684,4,2,3,70,0,0
199208,-68.9655172413793,4,2,3,70,0,0
199358,-125,4,2,3,70,0,0
199508,-50,4,2,3,70,0,0
200108,-100,4,2,3,70,0,0
200558,-68.9655172413793,4,2,3,70,0,0
200858,-62.5,4,2,3,70,0,0
201158,-71.4285714285714,4,2,3,70,0,0
201758,-133.333333333333,4,2,3,70,0,0
202058,-62.5,4,2,3,70,0,0
202358,-45.4545454545455,4,2,3,70,0,0
202508,-56.8181818181818,4,2,3,70,0,0
202658,-66.6666666666667,4,2,3,70,0,0
203108,-100,4,2,3,70,0,0
203708,-66.6666666666667,4,2,3,70,0,0
204158,-100,4,2,3,70,0,0
204608,-71.4285714285714,4,2,3,70,0,0
205058,-250,4,2,3,70,0,0
205208,-100,4,2,3,70,0,0
205358,-57.1428571428571,4,2,3,70,0,0
205658,-76.9230769230769,4,2,3,70,0,0
205808,-71.4285714285714,4,2,3,70,0,0
205958,-83.3333333333333,4,2,3,70,0,0
206408,-111.111111111111,4,2,3,70,0,0
206708,-100,4,2,3,70,0,0
207008,-90.909090909091,4,2,3,70,0,0
207458,-66.6666666666667,4,2,3,70,0,0
207758,-100,4,2,3,70,0,0
208358,-200,4,2,3,70,0,0
208658,-66.6666666666667,4,2,3,70,0,0
208958,-111.111111111111,4,2,3,70,0,0
209108,-66.6666666666667,4,2,3,70,0,0
209258,-90.9090909090909,4,2,3,70,0,0
209558,-57.1428571428571,4,2,3,70,0,0
210158,-50,4,2,3,70,0,0
210458,-76.9230769230769,4,2,3,70,0,0
210608,-83.3333333333333,4,2,3,70,0,0
210758,-62.5,4,2,3,70,0,0
210908,-71.4285714285714,4,2,3,70,0,0
211208,-250,4,2,3,70,0,0
211358,-62.5,4,2,3,70,0,0
211508,-71.4285714285714,4,2,3,70,0,0
211808,-83.3333333333333,4,2,3,70,0,0
212258,-250,4,2,3,70,0,0
213308,-333.333333333333,4,2,3,70,0,0
214058,-58.8235294117647,4,2,3,70,0,0
214658,-111.111111111111,4,2,3,70,0,0
216008,-133.333333333333,4,2,3,70,0,0
217058,-111.111111111111,4,2,3,70,0,0
217958,-76.9230769230769,4,2,3,70,0,0
218108,-57.1428571428571,4,2,3,70,0,0
218258,-50,4,2,3,70,0,0
218558,-133.333333333333,4,2,3,70,0,0
218858,-66.6666666666667,4,2,3,70,0,0
219458,-111.111111111111,4,2,3,70,0,0
220658,-133.333333333333,4,2,3,70,0,0
221858,-111.111111111111,4,2,3,70,0,0
223208,-133.333333333333,4,2,3,70,0,0
223658,-125,4,2,3,70,0,0
223808,-83.3333333333333,4,2,3,70,0,0
223958,-100,4,2,3,70,0,0
224108,-62.5,4,2,3,70,0,0
224258,-111.111111111111,4,2,3,70,0,0
225608,-133.333333333333,4,2,3,70,0,0
226658,-111.111111111111,4,2,3,70,0,0
228008,-133.333333333333,4,2,3,70,0,0
228458,-125,4,2,3,70,0,0
228608,-83.3333333333333,4,2,3,70,0,0
228758,-100,4,2,3,70,0,0
228908,-62.5,4,2,3,70,0,0
229058,-250,4,2,3,70,0,0
230708,-100,4,2,3,70,0,0
231458,-200,4,2,3,40,0,0
235508,-142.857142857143,4,2,3,40,0,0
237908,-333.333333333334,4,2,3,40,0,0
239858,-250.000000000001,4,2,3,40,0,0
249308,-250.000000000001,4,2,3,5,0,0

[Colours]
Combo1 : 159,205,255
Combo2 : 254,255,232
Combo3 : 199,233,230
Combo4 : 250,240,211

[HitObjects]
397,102,10658,6,0,B|376:109|376:109|438:114|489:167|489:167|463:49|347:-20|186:9|136:82|136:82|157:122|145:172|106:191,1,719.999978027344,2|2,0:0|0:0,0:0:0:0:
62,120,14258,1,2,0:0:0:0:
74,329,15458,6,0,B|32:352|-8:329|-25:263|36:239|36:239|161:248|161:248|221:256|196:292|252:301|252:301|355:306|355:306|337:303|323:294,1,539.999983520508,2|0,0:0|0:0,0:0:0:0:
152,330,17858,1,2,0:0:0:0:
404,381,18758,6,0,P|431:370|450:347,1,59.9999981689454,0|0,0:0|0:0,0:0:0:0:
448,127,19358,2,0,P|420:137|401:160,1,59.9999981689454,0|0,0:0|0:0,0:0:0:0:
331,319,19958,2,0,L|360:314,1,29.9999990844727,0|0,0:0|0:0,0:0:0:0:
468,255,20258,6,0,P|380:235|291:243,1,179.999994506836,2|0,0:0|0:0,0:0:0:0:
148,383,21158,2,0,P|178:345|179:304,1,89.9999972534181,0|0,0:0|0:0,0:0:0:0:
107,115,21758,6,0,P|87:145|51:154,1,75.0000028610231,8|0,0:0|0:0,0:0:0:0:
37,151,22058,6,0,B|35:102|35:102|33:100|33:100|31:58,1,89.9999972534181,0|0,0:0|0:0,0:0:0:0:
357,58,22658,6,0,B|350:-4|277:-50|187:-12|179:63|179:63|206:102|188:140,1,337.499989700318,2|0,0:0|0:0,0:0:0:0:
188,140,23858,6,0,B|183:182|209:177|202:227,1,89.9999972534181,0|0,0:0|0:0,0:0:0:0:
201,235,24158,1,8,0:0:0:0:
152,289,24308,2,0,P|78:274|125:215,1,179.999994506836,0|0,0:0|0:0,0:0:0:0:
381,343,25058,6,0,B|283:367|283:367|247:266|316:227|335:276|393:193|381:115|345:55|345:55|318:127|352:236|419:264,1,684.000016699219,2|0,0:0|0:0,0:0:0:0:
412,261,26558,6,0,B|445:269|458:300|458:300|433:280|424:226|450:190,1,179.999994506836,8|0,0:0|0:0,0:0:0:0:
505,83,27158,1,0,0:0:0:0:
512,94,27458,6,0,B|409:145|354:60|354:60|299:-24|197:28,1,359.999989013672,2|0,0:0|0:0,0:0:0:0:
197,27,28958,1,0,0:0:0:0:
51,283,29708,1,0,0:0:0:0:
52,366,29858,6,0,P|91:358|115:335,2,75.0000028610231,4|0|0,0:3|0:0|3:0,0:0:0:0:
249,292,30758,1,0,0:0:0:0:
264,365,30908,1,0,1:0:0:0:
259,369,31208,5,0,3:0:0:0:
256,177,31358,1,8,0:0:0:0:
251,181,31658,5,0,1:0:0:0:
328,202,31808,1,0,0:0:0:0:
398,163,31958,1,0,0:0:0:0:
460,366,32258,6,0,P|421:358|397:335,2,75.0000028610231,2|0|0,0:0|0:0|1:0,0:0:0:0:
461,283,32708,1,0,0:0:0:0:
263,292,33158,1,0,0:0:0:0:
248,365,33308,1,0,3:0:0:0:
253,369,33608,5,0,1:0:0:0:
256,177,33758,1,8,0:0:0:0:
205,239,33908,1,0,0:0:0:0:
260,183,34058,1,0,0:0:0:0:
256,32,34358,1,2,0:0:0:0:
52,18,34658,6,0,P|91:26|115:49,2,75.0000028610231,0|0|0,3:0|0:0|1:0,0:0:0:0:
53,100,35108,2,0,P|35:119|49:97,1,75.0000028610231,0|0,0:0|0:0,0:0:0:0:
249,92,35558,1,2,0:0:0:0:
264,19,35708,1,0,0:0:0:0:
259,15,36008,6,0,L|257:54,1,37.5000014305115,0|0,3:0|0:0,0:0:0:0:
256,207,36158,1,8,0:0:0:0:
251,203,36458,5,0,0:0:0:0:
328,182,36608,1,0,0:0:0:0:
398,221,36758,1,0,1:0:0:0:
461,101,36908,1,0,0:0:0:0:
460,18,37058,6,0,P|421:26|397:49,2,75.0000028610231,0|0|0,0:0|0:0|1:0,0:0:0:0:
461,101,37508,2,0,B|443:182|499:159|482:247,1,150.000005722046,0|0,0:0|3:0,0:0:0:0:
417,291,37958,2,0,P|379:351|308:343,1,150.000005722046,0|0,0:0|0:0,0:0:0:0:
215,285,38408,1,0,1:0:0:0:
52,366,38558,2,0,P|91:358|115:335,2,75.0000028610231,8|0|2,0:0|3:0|0:0,0:0:0:0:
256,192,39158,1,0,0:0:0:0:
460,366,39458,6,0,P|421:358|397:335,2,75.0000028610231,0|0|2,0:0|0:0|0:0,0:0:0:0:
458,283,39908,2,0,P|476:264|463:287,1,75.0000028610231,0|0,0:0|0:0,0:0:0:0:
249,292,40358,1,0,0:0:0:0:
264,365,40508,1,0,1:0:0:0:
261,371,40808,5,8,0:0:0:0:
256,177,40958,1,0,3:0:0:0:
251,181,41258,5,2,0:0:0:0:
328,202,41408,1,0,0:0:0:0:
398,163,41558,1,0,3:0:0:0:
465,30,41708,1,0,0:0:0:0:
465,23,41783,1,0,0:0:0:0:
460,18,41858,6,0,P|421:26|397:49,2,75.0000028610231,0|0|0,0:0|3:0|1:0,0:0:0:0:
461,101,42308,1,0,0:0:0:0:
263,92,42758,1,0,0:0:0:0:
248,19,42908,1,0,1:0:0:0:
251,13,43208,5,0,1:0:0:0:
256,207,43358,1,8,0:0:0:0:
307,145,43508,1,0,0:0:0:0:
261,203,43658,5,0,0:0:0:0:
256,352,43958,1,0,3:0:0:0:
52,366,44258,6,0,P|91:358|115:335,2,75.0000028610231,0|0|0,3:0|0:0|1:0,0:0:0:0:
48,360,45008,1,0,0:0:0:0:
249,292,45158,1,2,0:0:0:0:
264,365,45308,1,0,1:0:0:0:
342,303,45458,1,0,0:0:0:0:
261,371,45608,5,0,3:0:0:0:
256,177,45758,1,8,0:0:0:0:
205,239,45908,1,0,0:0:0:0:
251,181,46058,1,2,0:0:0:0:
460,366,46358,6,0,P|421:358|397:335,1,75.0000028610231,0|0,1:0|0:0,0:0:0:0:
232,325,46658,6,0,B|261:367|309:345|309:345|348:240|348:240|370:225|370:225|377:98|428:41|428:41|388:147|275:159|275:159|346:126|461:142|516:233|477:339|477:339|285:265|285:265|274:251|274:251|169:212|169:212|178:222,1,1328.00001925049,2|8,0:0|0:3,0:0:0:0:
61,113,51458,6,0,B|2:126|2:126|181:164|181:164|212:170|230:144,1,300,4|0,1:0|0:0,0:0:0:0:
246,70,51758,6,0,P|209:66|178:87,1,75.0000028610231,8|0,0:1|0:0,0:0:0:0:
146,248,51908,2,0,L|133:3,1,225.000008583069,0|0,0:0|0:0,0:0:0:0:
134,16,52208,1,0,3:0:0:0:
225,237,52358,6,0,L|254:240,1,25,8|0,0:1|0:0,0:0:0:0:
333,196,52508,2,0,L|377:203,1,44.999998626709,0|0,1:0|0:0,0:0:0:0:
465,173,52658,6,0,P|483:174|462:176,1,75.0000028610231,0|0,0:0|0:0,0:0:0:0:
259,153,52808,5,0,0:0:0:0:
364,277,52958,1,8,0:1:0:0:
459,183,53108,6,0,P|485:190|465:173,1,75.0000028610231,0|0,3:0|0:0,0:0:0:0:
380,130,53258,1,0,1:0:0:0:
422,373,53408,1,2,0:0:0:0:
442,265,53558,2,0,B|418:277|409:300|409:300|393:282|366:278,1,100,8|0,0:1|1:0,0:0:0:0:
297,234,53858,5,0,3:0:0:0:
162,270,54008,1,0,0:0:0:0:
17,308,54158,1,8,0:1:0:0:
240,291,54308,1,2,0:0:0:0:
96,320,54458,1,0,1:0:0:0:
141,141,54608,2,0,P|143:165|149:190,1,50,0|0,1:0|0:0,0:0:0:0:
179,357,54758,2,0,P|183:380|182:355,1,75.0000028610231,8|0,0:1|0:0,0:0:0:0:
6,177,54908,2,0,B|103:151|56:211|149:190,1,150.000005722046,2|0,0:0|0:0,0:0:0:0:
341,205,55208,5,0,0:0:0:0:
253,119,55358,2,0,L|257:69,1,50,8|2,0:1|0:0,0:0:0:0:
256,0,55658,5,0,3:0:0:0:
163,105,55808,1,2,0:0:0:0:
234,225,55958,1,8,0:1:0:0:
370,194,56108,1,0,1:0:0:0:
384,55,56258,6,0,P|305:88|300:174,1,179.999994506836,4|0,1:3|0:0,0:0:0:0:
344,267,56558,1,8,0:1:0:0:
349,272,56708,2,0,B|395:296|427:273|427:273|415:259,1,100,2|0,0:0|3:0,0:0:0:0:
256,320,57008,1,2,0:0:0:0:
304,178,57158,1,8,0:1:0:0:
127,55,57308,6,0,P|206:88|211:174,1,179.999994506836,0|0,0:0|0:0,0:0:0:0:
168,267,57608,1,0,0:0:0:0:
163,272,57758,2,0,B|117:296|85:273|85:273|96:259,1,100,8|0,0:1|0:0,0:0:0:0:
108,164,58058,5,0,3:0:0:0:
389,246,58208,1,0,0:0:0:0:
237,243,58358,5,8,0:1:0:0:
305,204,58508,1,0,0:0:0:0:
320,320,58658,6,0,P|313:312|311:302,1,20,0|0,1:0|0:0,0:0:0:0:
238,162,58808,6,0,P|250:140|273:130,1,50,2|0,0:0|0:0,0:0:0:0:
331,43,58958,6,0,B|386:21|418:57|418:57|378:83|344:56,1,175.00000166893,8|2,0:1|0:0,0:0:0:0:
173,3,59258,5,0,3:0:0:0:
29,57,59408,1,0,3:0:0:0:
176,95,59558,1,8,0:1:0:0:
179,187,59708,1,2,0:0:0:0:
182,279,59858,1,0,0:0:0:0:
38,333,60008,1,0,0:0:0:0:
185,371,60158,5,8,0:1:0:0:
306,384,60308,1,2,0:0:0:0:
438,303,60458,1,0,3:0:0:0:
473,109,60608,1,0,3:0:0:0:
256,0,60758,1,8,0:1:0:0:
352,312,60908,1,2,0:0:0:0:
483,23,61058,6,0,B|475:21|475:21|470:31|470:31|448:20|448:20|441:40|441:40|369:20|399:65|312:53|312:53|341:114|393:88,1,300.000011444092,4|8,1:0|0:1,0:0:0:0:
477,113,61508,1,0,0:0:0:0:
260,4,61658,1,2,0:0:0:0:
172,125,61808,1,0,3:0:0:0:
30,7,61958,2,0,P|37:30|40:55,1,50,8|0,0:1|0:0,0:0:0:0:
121,61,62108,2,0,P|114:37|110:12,1,50,0|0,1:0|0:0,0:0:0:0:
37,133,62258,6,0,B|18:135|0:126|0:126|5:147|29:152,1,75.0000028610231,0|0,0:0|0:0,0:0:0:0:
176,129,62408,1,0,0:0:0:0:
9,229,62558,2,0,P|58:224|94:190,1,100,8|0,0:1|3:0,0:0:0:0:
205,38,62858,6,0,L|197:69,1,20,0|0,1:0|0:0,0:0:0:0:
308,110,63008,2,0,L|316:141,1,20,2|0,0:0|0:0,0:0:0:0:
214,192,63158,2,0,P|191:202|166:202,1,50,8|0,0:1|0:0,0:0:0:0:
340,239,63308,2,0,P|362:249|387:249,1,50,0|0,1:0|0:0,0:0:0:0:
215,350,63458,6,0,B|184:388|102:392|90:325|90:325|111:295|147:306,1,225.000008583069,0|0,3:0|0:0,0:0:0:0:
274,308,63758,2,0,B|299:293|324:309|324:309|314:318|303:317,1,75.0000028610231,8|0,0:1|0:0,0:0:0:0:
210,270,63908,1,0,0:0:0:0:
470,305,64058,1,0,1:0:0:0:
402,368,64208,6,0,L|399:343,1,25,0|0,1:0|0:0,0:0:0:0:
429,186,64358,2,0,P|448:200|458:224,1,50,8|0,0:1|0:0,0:0:0:0:
387,249,64508,6,0,B|341:257|319:222|319:222|299:190|256:198,1,150.000005722046,2|0,0:0|1:0,0:0:0:0:
110,368,64808,6,0,L|113:343,1,25,0|0,0:0|0:0,0:0:0:0:
83,186,64958,2,0,P|64:200|54:224,1,50,8|0,0:1|0:0,0:0:0:0:
126,249,65108,6,0,B|171:257|193:222|193:222|213:190|256:198,1,150,2|0,0:0|0:0,0:0:0:0:
256,273,65408,1,2,0:0:0:0:
265,119,65558,2,0,B|255:76|255:76|256:69|256:69|246:21,1,100,8|0,0:1|1:0,0:0:0:0:
464,4,65858,6,0,P|435:87|430:157,1,153.333336257935,4|0,1:2|0:0,0:0:0:0:
433,155,66058,2,0,B|390:167|384:143|340:153,1,93.3333304850261,4|0,3:2|0:0,0:0:0:0:
256,198,66258,2,0,L|256:251,1,53.3333333333333,4|0,1:2|0:0,0:0:0:0:
256,384,66458,6,0,L|256:330,1,53.3333333333333,4|0,1:2|0:0,0:0:0:0:
172,153,66658,2,0,B|128:143|122:167|79:155,1,93.3333304850261,4|0,3:2|0:0,0:0:0:0:
82,151,66858,2,0,P|74:75|48:4,1,153.333336257935,8|0,0:1|0:0,0:0:0:0:
39,10,67058,6,0,P|29:34|41:10,1,87.500000834465,0|0,1:0|0:0,0:0:0:0:
152,238,67208,1,2,0:0:0:0:
152,224,67358,2,0,P|142:248|154:224,1,87.500000834465,8|0,0:1|0:0,0:0:0:0:
256,33,67508,1,2,0:0:0:0:
256,47,67658,2,0,P|246:23|258:47,1,87.500000834465,0|0,3:0|0:0,0:0:0:0:
360,238,67808,1,0,3:0:0:0:
360,224,67958,2,0,P|370:248|358:224,1,87.500000834465,0|0,0:0|0:0,0:0:0:0:
468,26,68108,6,0,B|390:39|321:115|307:226|356:298|356:298|421:299|459:353|459:353|499:227|383:132|271:141|226:188,1,839.999974365235,8|0,0:3|0:0,0:0:0:0:
76,345,69458,6,0,L|72:384,2,40,0|0|0,0:0|0:0|0:0,0:0:0:0:
126,281,69908,1,0,0:0:0:0:
123,200,70058,2,0,L|119:160,2,40,0|0|0,0:0|0:0|0:0,0:0:0:0:
130,285,70508,6,0,L|163:287,1,33.4999984153748,0|0,1:0|0:0,0:0:0:0:
232,383,70658,2,0,P|255:358|260:324,1,69.9999978637696,4|0,1:0|0:0,0:0:0:0:
239,158,70808,2,0,P|215:182|210:216,1,69.9999978637696,2|0,0:0|0:0,0:0:0:0:
295,247,70958,6,0,B|354:254|354:254|363:264|363:264|433:274,1,142.49999619484,8|0,0:0|0:0,0:0:0:0:
423,263,71108,5,0,3:0:0:0:
473,1,71558,5,2,0:0:0:0:
365,127,72008,5,2,0:0:0:0:
299,145,72083,1,0,0:0:0:0:
265,133,72158,1,0,3:0:0:0:
245,111,72233,1,0,0:0:0:0:
248,99,72308,1,0,3:0:0:0:
241,92,72383,1,0,3:0:0:0:
205,39,72458,5,8,3:2:0:0:
180,69,72533,1,0,3:0:0:0:
133,80,72608,1,0,3:0:0:0:
123,124,72683,1,0,3:0:0:0:
89,158,72758,1,0,3:0:0:0:
104,201,72833,1,0,3:0:0:0:
93,249,72908,1,0,1:0:0:0:
132,198,72983,1,0,0:0:0:0:
190,162,73058,6,0,L|209:167,1,20,0|0,1:0|0:0,0:0:0:0:
279,187,73208,2,0,L|317:197,1,40,2|0,0:0|0:0,0:0:0:0:
489,197,73358,6,0,B|418:237|473:266|404:304,1,142.49999619484,8|0,0:0|0:0,0:0:0:0:
389,218,73508,2,0,B|469:226|430:275|509:282,1,142.49999619484,0|0,1:0|0:0,0:0:0:0:
447,247,73658,5,8,0:1:0:0:
410,68,73808,1,0,1:0:0:0:
474,357,73958,5,2,0:0:0:0:
330,286,74408,5,2,0:0:0:0:
255,257,74558,2,0,P|251:274|250:291,1,34.9999989318848,0|0,3:0|3:0,0:0:0:0:
169,302,74708,2,0,P|172:319|178:335,1,34.9999989318848,0|0,3:0|3:0,0:0:0:0:
9,334,74858,6,0,B|-6:331|-6:331|26:353|41:385|41:385|83:401|90:304|35:281|33:314|-10:268|-24:222|12:172|34:193,1,345.000006580353,8|0,0:0|0:0,0:0:0:0:
106,213,75158,6,0,B|120:206|121:231|95:245,1,50,2|0,0:1|0:0,0:0:0:0:
168,302,75458,6,0,P|191:275|202:242,1,69.9999978637696,0|0,1:0|0:0,0:0:0:0:
121,71,75608,2,0,P|98:97|87:130,1,69.9999978637696,2|0,0:0|0:0,0:0:0:0:
187,148,75758,6,0,B|246:155|246:155|255:165|255:165|325:175,1,142.49999619484,8|0,0:0|0:0,0:0:0:0:
315,164,75908,5,0,1:0:0:0:
460,366,76358,6,0,P|421:358|397:335,2,75.0000028610231,2|2|8,0:0|3:0|0:0,0:0:0:0:
461,283,76808,1,2,3:0:0:0:
249,292,77258,1,2,0:0:0:0:
264,365,77408,1,0,0:0:0:0:
259,369,77708,6,0,L|257:330,1,37.5000014305115,0|0,1:0|0:0,0:0:0:0:
154,178,77858,2,0,P|167:209|198:222,1,69.9999978637696,0|0,1:0|0:0,0:0:0:0:
313,222,78008,2,0,P|344:209|358:178,1,69.9999978637696,2|0,0:0|0:0,0:0:0:0:
142,57,78158,6,0,B|174:51|174:51|204:78|204:78|203:85|203:85|250:127,1,142.49999619484,8|0,0:0|0:0,0:0:0:0:
261,127,78308,2,0,B|308:85|308:85|307:78|307:78|337:51|337:51|370:57,1,142.49999619484,0|0,1:0|0:0,0:0:0:0:
256,24,78458,5,8,0:1:0:0:
256,272,78608,1,0,1:0:0:0:
52,18,78758,6,0,P|91:26|115:49,2,75.0000028610231,2|2|8,0:0|3:0|0:0,0:0:0:0:
51,101,79208,5,2,0:0:0:0:
121,224,79358,1,2,3:0:0:0:
193,102,79508,1,8,0:0:0:0:
19,190,79658,6,0,B|47:185|47:185|39:179,1,37.5000014305115,2|0,3:0|0:0,0:0:0:0:
224,192,79808,2,0,B|196:186|196:186|203:181,1,37.5000014305115,2|0,0:0|0:0,0:0:0:0:
124,51,79958,2,0,L|123:88,1,37.5000014305115,8|0,0:0|0:0,0:0:0:0:
121,224,80108,2,0,L|120:261,1,37.5000014305115,2|0,0:0|0:0,0:0:0:0:
39,333,80258,6,0,B|82:350|106:320|106:320|131:289|175:307,1,150.000005722046,4|2,1:0|0:0,0:0:0:0:
424,228,80558,1,8,0:0:0:0:
479,314,80708,2,0,B|414:303|375:339|375:339|374:287|322:247,1,220.000006713867,2|0,0:0|3:0,0:0:0:0:
246,94,81158,1,8,0:0:0:0:
269,321,81308,6,0,P|271:366|260:322,1,135.000000514984,2|0,0:0|1:0,0:0:0:0:
133,86,81608,2,0,B|170:96|170:96|185:150|185:150|223:164,1,135.000000514984,0|8,0:0|0:0,0:0:0:0:
293,153,81908,2,0,B|322:126|322:126|316:49,1,100,2|2,0:0|0:0,0:0:0:0:
316,58,82208,1,0,0:0:0:0:
110,158,82358,2,0,B|64:153|64:153|57:148|57:148|12:143,1,100,8|0,0:0|1:0,0:0:0:0:
194,190,82658,6,0,B|203:209|226:209|226:209|220:176|184:171,1,100,0|0,3:0|3:0,0:0:0:0:
12,143,82958,2,0,L|13:162,1,20,8|0,0:1|0:0,0:0:0:0:
12,276,83108,2,0,L|13:256,1,20,0|0,0:0|0:0,0:0:0:0:
182,167,83258,1,0,0:0:0:0:
13,256,83408,6,0,B|58:253|85:220|85:220|97:260|137:280,1,165.000005035401,0|0,1:0|0:0,0:0:0:0:
213,268,83708,2,0,P|212:307|187:337,1,80,2|0,0:0|1:0,0:0:0:0:
44,362,84008,2,0,P|59:342|83:335,1,50,0|0,3:0|0:0,0:0:0:0:
269,362,84158,1,8,0:0:0:0:
82,335,84308,2,0,B|130:383|186:351|170:351|226:319|274:367,1,200,2|0,0:0|1:0,0:0:0:0:
468,374,84758,6,0,B|477:339|477:339|448:314,1,75,8|0,0:0|0:0,0:0:0:0:
468,374,85058,6,0,B|440:294|501:312|468:228,1,150.000005722046,0|0,1:0|1:0,0:0:0:0:
372,49,85358,2,0,B|334:86|334:86|521:19|521:19|485:54,1,300.000011444092,8|0,0:1|1:0,0:0:0:0:
483,56,85808,1,2,0:0:0:0:
356,316,85958,2,0,L|348:246,1,55.0000016784668,0|0,0:0|0:0,0:0:0:0:
491,149,86108,6,0,B|396:121|431:202|336:175,1,165.000005035401,0|0,3:0|0:0,0:0:0:0:
454,310,86408,2,0,P|478:259|462:220,1,89.9999972534181,2|8,0:0|0:0,0:0:0:0:
283,122,86708,2,0,P|259:173|275:212,1,89.9999972534181,2|0,0:0|0:0,0:0:0:0:
356,316,87008,1,2,0:0:0:0:
374,223,87158,2,0,L|370:242,1,20,8|0,0:0|0:0,0:0:0:0:
392,151,87308,2,0,L|395:131,1,20,0|0,3:0|0:0,0:0:0:0:
227,263,87458,6,0,P|211:254|201:240,1,34.9999989318848,0|0,1:0|0:0,0:0:0:0:
187,154,87608,2,0,P|186:136|194:120,1,34.9999989318848,0|0,1:0|0:0,0:0:0:0:
337,46,87758,6,0,P|323:93|283:121,1,100,8|0,0:1|0:0,0:0:0:0:
187,154,87908,2,0,P|139:165|94:145,1,100,0|0,0:0|0:0,0:0:0:0:
17,61,88058,6,0,B|-7:35|16:0|16:0|41:23|23:52,1,125,0|0,1:0|0:0,0:0:0:0:
21,138,88208,2,0,P|20:150|22:162,1,25,0|0,3:0|0:0,0:0:0:0:
37,336,88358,1,8,0:0:0:0:
15,262,88508,6,0,B|36:215|122:204|146:247|104:262|86:241,1,150.000005722046,0|0,0:0|3:0,0:0:0:0:
15,262,88808,6,0,L|92:245,1,78.5000002994537,0|8,0:0|0:0,0:0:0:0:
204,375,89108,2,0,P|242:323|256:260,1,129.999994049073,2|0,0:0|1:0,0:0:0:0:
203,107,89408,1,0,3:0:0:0:
440,299,89558,2,0,P|420:205|359:130,1,194.999991073609,8|0,0:0|0:0,0:0:0:0:
265,152,89858,6,0,P|283:190|270:149,1,129.999994049073,4|2,1:2|0:0,0:0:0:0:
451,0,90158,6,0,B|428:78|428:78|453:113,1,123.750001180172,8|0,0:0|0:0,0:0:0:0:
453,113,90308,6,0,P|356:100|270:56,1,194.999991073609,2|0,0:0|0:0,0:0:0:0:
228,0,90608,2,0,B|201:22|201:22|199:52,1,64.9999970245363,0|0,0:0|0:0,0:0:0:0:
137,280,90758,1,8,0:0:0:0:
109,17,90908,2,0,B|129:102|129:102|135:105|135:105|158:203,1,194.999991073609,2|0,0:0|0:0,0:0:0:0:
162,207,91208,1,0,0:0:0:0:
0,62,91358,2,0,B|34:68|34:68|51:93,1,64.9999970245363,8|0,0:0|0:0,0:0:0:0:
15,173,91508,6,0,B|138:177|59:124|198:128,1,194.999991073609,0|0,0:0|0:0,0:0:0:0:
271,132,91808,1,0,3:0:0:0:
399,317,91958,2,0,B|435:320|435:320|439:324|439:324|483:328,1,85.0000016212464,8|0,0:0|1:0,0:0:0:0:
507,212,92258,6,0,B|453:198|425:239|425:239|435:290|395:321,1,179.999994506836,0|0,3:0|0:0,0:0:0:0:
351,258,92558,2,0,B|307:261|323:240|278:244,1,75.0000028610231,8|0,0:1|0:0,0:0:0:0:
147,191,92708,2,0,L|159:284,1,75.0000028610231,0|0,0:0|0:0,0:0:0:0:
216,371,92858,2,0,L|228:278,1,75.0000028610231,2|0,0:0|0:0,0:0:0:0:
233,170,93008,1,0,1:0:0:0:
0,294,93158,6,0,P|25:340|78:338,1,110.000003356934,8|0,0:0|0:0,0:0:0:0:
82,342,93458,6,0,L|75:278,1,55.0000016784668,0|0,1:0|0:0,0:0:0:0:
56,92,93608,1,0,0:0:0:0:
15,221,93758,1,8,0:0:0:0:
155,151,93908,6,0,B|233:154|311:121|311:121|276:138|266:170,1,225.000008583069,2|0,0:0|0:0,0:0:0:0:
81,173,94208,2,0,P|89:196|108:212,1,50,0|0,1:0|0:0,0:0:0:0:
262,170,94358,2,0,B|264:114|264:114|260:103|260:103|263:40,1,129.999994049073,8|0,0:0|0:0,0:0:0:0:
204,340,94658,6,0,P|171:248|264:274,1,240,0|0,1:0|0:0,0:0:0:0:
284,354,94958,2,0,L|333:359,1,50,8|0,0:1|0:0,0:0:0:0:
113,368,95108,6,0,B|74:368|61:340|61:340|108:298|167:302|208:344,1,220.499989738083,0|0,0:0|0:0,0:0:0:0:
284,354,95408,2,0,P|314:366|346:358,1,67.5000002574921,2|0,0:0|0:0,0:0:0:0:
469,184,95558,1,8,0:0:0:0:
432,384,95708,6,0,P|415:284|389:186,1,202.500000772476,0|0,0:0|0:0,0:0:0:0:
339,131,96008,2,0,P|316:159|314:196,1,75.0000028610231,2|0,0:0|0:0,0:0:0:0:
489,265,96158,1,8,0:0:0:0:
473,102,96308,6,0,B|429:111|395:89|423:44|351:21|294:53,1,202.500000772476,2|0,0:0|0:0,0:0:0:0:
291,57,96608,2,0,L|197:53,1,67.5000002574921,2|0,0:0|0:0,0:0:0:0:
40,287,96758,6,0,B|-7:299|-9:370|53:384|100:363|112:309,1,200,8|0,0:0|0:0,0:0:0:0:
133,51,97058,6,0,B|160:90|162:141|135:129|96:182|121:252|195:251|195:251|213:204|199:164|154:148,1,375,0|0,1:0|0:0,0:0:0:0:
71,100,97358,6,0,B|67:121|46:126|32:103|40:82|57:84|61:91|61:101,1,75.0000028610231,8|0,0:1|0:0,0:0:0:0:
242,45,97508,6,0,B|214:54|194:34|211:4|241:-2|251:18|245:28|234:35,1,100,0|0,0:0|0:0,0:0:0:0:
370,104,97658,6,0,B|341:79|351:45|396:44|421:73|404:97|390:97|376:89,1,125,0|0,1:0|0:0,0:0:0:0:
356,222,97808,6,0,B|368:200|392:202|408:215|408:236|381:237|367:229,1,89.9999972534181,0|0,3:0|0:0,0:0:0:0:
40,287,97958,6,0,B|126:270|126:270|132:264|132:264|254:241,2,220.000006713867,8|0|0,0:0|0:0|0:0,0:0:0:0:
171,384,98408,6,0,P|197:357|212:323,1,75.0000028610231,2|0,0:0|0:0,0:0:0:0:
132,129,98558,2,0,B|102:123|102:123|96:125|96:125|58:116,1,75.0000028610231,8|0,0:0|0:0,0:0:0:0:
36,293,98708,1,2,0:0:0:0:
32,298,99008,6,0,P|74:272|101:231,1,100,0|0,3:0|0:0,0:0:0:0:
266,28,99158,2,0,P|236:47|235:83,1,75.0000028610231,8|0,0:0|0:0,0:0:0:0:
338,243,99308,2,0,L|350:268,1,25
410,373,99458,5,12,1:3:0:0:
446,181,99758,1,0,1:0:0:0:
414,377,100058,1,8,0:0:0:0:
349,266,100358,2,0,B|436:248|407:304|493:285,1,150.000005722046,0|0,0:0|0:0,0:0:0:0:
492,285,100808,1,0,3:0:0:0:
353,270,101108,1,0,3:0:0:0:
256,192,101258,1,0,1:0:0:0:
163,266,101408,2,0,B|76:248|105:304|19:285,1,150.000005722046,2|0,0:0|0:0,0:0:0:0:
102,373,101858,5,0,1:0:0:0:
66,181,102158,1,0,3:0:0:0:
98,377,102458,1,8,0:0:0:0:
207,333,102758,2,0,P|256:285|304:333,1,150.000005722046,0|0,0:0|0:0,0:0:0:0:
256,384,103208,1,0,3:0:0:0:
159,270,103508,1,0,3:0:0:0:
256,192,103658,1,8,0:0:0:0:
349,266,103808,1,2,0:0:0:0:
410,11,104258,6,0,B|416:62|416:62|451:93|451:93|456:144,2,150.000005722046,0|0|8,1:0|1:0|0:0,0:0:0:0:
492,22,105158,1,0,0:0:0:0:
373,133,105458,5,0,0:0:0:0:
300,99,105658,1,0,0:0:0:0:
298,19,105858,1,0,0:0:0:0:
214,19,106058,5,0,1:0:0:0:
212,99,106258,1,0,0:0:0:0:
139,133,106458,1,0,0:0:0:0:
102,11,106658,6,0,B|96:62|96:62|61:93|61:93|56:144,2,150.000005722046,0|0|8,1:0|3:0|0:0,0:0:0:0:
20,22,107708,1,0,0:0:0:0:
139,133,108008,1,0,3:0:0:0:
298,19,108308,1,0,3:0:0:0:
256,192,108458,1,8,0:0:0:0:
214,19,108608,1,2,0:0:0:0:
90,311,109058,6,0,P|96:217|12:175,1,200,0|0,1:0|1:0,0:0:0:0:
230,223,109658,2,0,B|182:245|141:217|141:217|85:246|89:302,1,200,8|0,0:0|0:0,0:0:0:0:
80,384,110108,1,0,0:0:0:0:
82,378,110408,1,0,3:0:0:0:
191,148,110708,1,0,3:0:0:0:
256,304,110858,1,0,1:0:0:0:
321,148,111008,1,2,0:0:0:0:
421,311,111458,6,0,P|415:217|500:175,1,200,0|0,1:0|3:0,0:0:0:0:
281,223,112058,2,0,B|330:245|371:217|371:217|427:246|423:302,1,200,8|0,0:0|0:0,0:0:0:0:
432,384,112508,1,0,0:0:0:0:
430,378,112808,1,0,3:0:0:0:
321,148,113108,1,0,3:0:0:0:
256,304,113258,1,8,0:0:0:0:
191,148,113408,1,2,0:0:0:0:
488,101,113858,6,0,B|360:121|429:48|298:71,2,200,0|0|8,1:0|1:0|0:0,0:0:0:0:
447,14,114908,1,0,0:0:0:0:
446,20,115208,1,0,3:0:0:0:
395,168,115508,1,0,3:0:0:0:
256,128,115658,1,0,1:0:0:0:
117,168,115808,1,2,0:0:0:0:
117,168,116258,6,0,B|191:159|228:76|187:25|102:6|38:99|56:221|92:313|172:355|172:355|83:390|35:335|77:323|-14:291|-14:291|76:312|130:260|95:251|157:187|241:195|270:261|215:323|172:277|183:246,1,1039.99995239258,2|8,0:0|0:3,0:0:0:0:
184,265,119558,6,0,P|223:269|184:260,1,119.999996337891,0|0,0:0|0:0,0:0:0:0:
65,181,120008,5,2,0:0:0:0:
75,204,120083,1,0,0:0:0:0:
72,229,120158,1,0,3:0:0:0:
65,233,120233,1,0,0:0:0:0:
69,241,120308,1,2,3:0:0:0:
61,244,120383,1,2,3:0:0:0:
28,315,120458,5,0,3:0:0:0:
74,327,120533,1,0,3:0:0:0:
109,373,120608,1,0,3:0:0:0:
165,363,120683,1,0,3:0:0:0:
218,384,120758,1,0,3:0:0:0:
260,344,120833,1,0,3:0:0:0:
323,333,120908,1,0,3:0:0:0:
337,267,120983,1,0,0:0:0:0:
389,210,121058,6,0,B|350:127|422:81|422:81|408:20|348:31,1,247.500002360344,4|0,1:0|0:0,0:0:0:0:
346,34,121358,1,8,0:1:0:0:
482,157,121508,2,0,P|449:165|480:151,1,100,0|0,0:0|0:0,0:0:0:0:
498,25,121808,1,0,3:0:0:0:
161,61,121958,2,0,B|216:72|216:72|223:80|223:80|284:93,1,129.999994049073,8|0,0:1|1:0,0:0:0:0:
371,121,122258,6,0,B|340:211|407:182|372:278,1,160,0|0,3:0|0:0,0:0:0:0:
251,225,122558,2,0,L|280:230,1,29.9999990844727,8|0,0:1|0:0,0:0:0:0:
373,275,122708,6,0,B|340:185|407:213|370:120,1,160,0|0,3:0|1:0,0:0:0:0:
493,221,123008,2,0,L|463:227,1,29.9999990844727,0|0,0:0|0:0,0:0:0:0:
419,344,123158,2,0,P|368:362|309:316,1,119.999996337891,8|0,0:1|1:0,0:0:0:0:
113,257,123458,6,0,B|154:182|245:217|249:284|249:284|227:316|242:349,1,255.000004863739,0|0,3:0|0:0,0:0:0:0:
83,323,123758,2,0,B|126:341|123:317|156:328,1,75.0000028610231,8|2,0:1|0:0,0:0:0:0:
245,352,124058,6,0,L|246:302,1,50,0|0,1:0|0:0,0:0:0:0:
134,132,124208,2,0,P|138:172|167:200,1,82.5000007867813,0|0,1:0|0:0,0:0:0:0:
344,200,124358,2,0,P|373:172|378:132,1,82.5000007867813,8|0,0:1|0:0,0:0:0:0:
201,71,124508,6,0,B|205:114|256:126|256:126|302:113|315:32|258:12|258:12|301:58|283:118|271:103|238:151|255:192,1,425.000008106232,2|0,0:0|0:0,0:0:0:0:
167,207,124958,6,0,L|125:200,1,37.5000014305115,8|0,0:1|0:0,0:0:0:0:
256,352,125108,1,2,0:0:0:0:
416,283,125258,1,0,3:0:0:0:
256,343,125408,1,0,0:0:0:0:
96,283,125558,1,8,0:1:0:0:
180,131,125708,1,0,1:0:0:0:
332,131,125858,6,0,B|367:82|434:63|491:124|453:184|402:168,1,225.000008583069,4|0,1:3|0:0,0:0:0:0:
430,245,126158,1,8,0:1:0:0:
426,253,126308,2,0,P|425:302|431:352,1,100,2|0,0:0|3:0,0:0:0:0:
332,253,126608,1,2,0:0:0:0:
180,131,126758,1,8,0:1:0:0:
180,253,126908,6,0,B|144:301|77:320|20:259|58:199|109:215,1,225.000008583069,0|0,0:0|0:0,0:0:0:0:
82,139,127208,1,0,0:0:0:0:
86,131,127358,2,0,P|86:81|80:31,1,100,8|0,0:1|0:0,0:0:0:0:
6,83,127658,5,0,3:0:0:0:
289,171,127808,1,0,0:0:0:0:
160,159,127958,5,8,0:1:0:0:
229,116,128108,1,0,0:0:0:0:
242,224,128258,6,0,P|234:217|227:210,1,20,0|0,1:0|0:0,0:0:0:0:
309,19,128408,6,0,L|315:89,1,50,0|0,0:0|0:0,0:0:0:0:
467,114,128558,6,0,B|413:104|385:149|385:149|434:155|450:201,1,175.00000166893,8|2,0:1|0:0,0:0:0:0:
419,350,128858,1,0,3:0:0:0:
256,359,129008,1,0,3:0:0:0:
379,229,129158,1,8,0:1:0:0:
256,184,129308,1,2,0:0:0:0:
133,229,129458,1,4,1:3:0:0:
258,352,129608,1,0,0:0:0:0:
93,350,129758,5,8,0:1:0:0:
28,223,129908,1,2,0:0:0:0:
94,46,130058,1,0,3:0:0:0:
342,2,130208,1,0,3:0:0:0:
496,205,130358,1,8,0:1:0:0:
132,145,130508,1,2,0:0:0:0:
433,28,130658,6,0,B|436:35|436:35|420:45|420:45|433:61|433:61|376:63|361:94|361:94|422:103|429:179|391:209|383:191|339:211|345:265,1,350.00000333786,4|8,1:0|0:1,0:0:0:0:
382,331,131108,1,0,0:0:0:0:
272,246,131258,1,2,0:0:0:0:
202,383,131408,1,0,3:0:0:0:
14,297,131558,2,0,P|38:302|63:306,1,50,8|0,0:1|0:0,0:0:0:0:
142,294,131708,2,0,P|136:318|132:343,1,50,0|0,1:0|0:0,0:0:0:0:
28,142,131858,6,0,B|9:144|-9:135|-9:135|-4:156|20:161,1,75.0000028610231,0|0,3:0|0:0,0:0:0:0:
272,251,132008,1,0,0:0:0:0:
60,228,132158,2,0,P|121:208|186:204,1,129.999994049073,8|0,0:1|0:0,0:0:0:0:
336,69,132458,6,0,P|327:74|318:78,1,20,0|0,1:0|0:0,0:0:0:0:
189,114,132608,2,0,P|197:119|206:123,1,20,2|0,0:0|0:0,0:0:0:0:
340,222,132758,2,0,L|389:231,1,50,8|0,0:1|0:0,0:0:0:0:
191,284,132908,2,0,L|141:293,1,50,0|0,1:0|0:0,0:0:0:0:
284,380,133058,6,0,B|295:377|295:377|302:339|302:339|306:335|306:335|304:328|304:328|311:295|311:295|261:264|261:264|266:193,1,225.000008583069,0|0,3:0|0:0,0:0:0:0:
244,54,133358,2,0,B|230:37|230:37|234:17|234:17|246:32|246:32|244:49,1,75.0000028610231,8|0,0:1|0:0,0:0:0:0:
284,121,133508,1,2,0:0:0:0:
85,69,133658,1,0,1:0:0:0:
158,38,133808,6,0,L|161:63,1,25,0|0,1:0|0:0,0:0:0:0:
83,198,133958,2,0,P|64:184|54:160,1,50,8|0,0:1|0:0,0:0:0:0:
125,135,134108,6,0,B|171:127|193:162|193:162|213:194|256:186,1,150,2|0,0:0|0:0,0:0:0:0:
354,38,134408,6,0,L|351:63,1,25,0|0,0:0|0:0,0:0:0:0:
429,198,134558,2,0,P|448:184|458:160,1,50,8|0,0:1|0:0,0:0:0:0:
386,135,134708,6,0,B|341:127|319:162|319:162|299:194|256:186,1,150,2|0,0:0|0:0,0:0:0:0:
256,112,135008,1,2,0:0:0:0:
265,265,135158,2,0,B|255:308|255:308|256:315|256:315|246:363,1,100,8|0,0:1|0:0,0:0:0:0:
256,368,135458,5,4,1:2:0:0:
181,317,135608,1,0,0:0:0:0:
93,339,135758,1,0,0:0:0:0:
496,272,136058,5,0,0:0:0:0:
428,284,136283,1,0,0:0:0:0:
444,352,136508,2,0,L|520:356,1,64.9999970245363,4|0,1:2|0:0,0:0:0:0:
100,269,136808,6,0,L|75:274,3,25,0|0|2|0,0:0|0:0|0:0|0:0,0:0:0:0:
192,344,137108,6,0,B|164:329|164:299|164:299|174:280|170:255,1,100,0|0,1:0|0:0,0:0:0:0:
387,210,137408,2,0,B|383:178|355:168|355:168|333:170|312:157,1,100,0|0,3:0|0:0,0:0:0:0:
165,101,137708,2,0,B|189:139|189:139|195:142|195:142|221:181,1,100,0|0,0:0|0:0,0:0:0:0:
280,263,137858,6,0,B|334:288|376:254|376:248|375:242|418:210|470:237|470:237|480:212|462:187,1,240,4|0,1:0|0:0,0:0:0:0:
441,326,138158,2,0,P|429:302|444:323,1,80,8|0,0:1|0:0,0:0:0:0:
439,133,138308,2,0,P|433:83|471:54,1,100,2|0,0:0|0:0,0:0:0:0:
479,62,138608,1,0,1:0:0:0:
387,210,138758,2,0,P|298:150|283:44,1,220.000006713867,8|0,0:1|1:0,0:0:0:0:
297,47,139208,5,0,0:0:0:0:
230,177,139358,1,8,0:1:0:0:
86,149,139508,2,0,P|45:117|51:47,1,119.999996337891,2|0,0:0|0:0,0:0:0:0:
114,16,139808,2,0,B|166:26|169:78|169:78|150:87|141:83,1,119.999996337891,0|8,1:0|0:1,0:0:0:0:
86,157,140108,1,2,0:0:0:0:
44,218,140258,5,0,1:0:0:0:
77,323,140408,1,0,0:0:0:0:
35,382,140558,5,8,0:1:0:0:
105,257,140708,1,0,0:0:0:0:
149,315,140858,5,2,3:2:0:0:
264,210,141008,1,0,0:0:0:0:
298,363,141158,1,8,0:1:0:0:
236,295,141308,1,2,0:0:0:0:
329,244,141458,6,0,B|390:279|419:231|418:224|417:218|449:172|502:198,1,200,0|8,0:0|0:1,0:0:0:0:
506,205,141908,6,0,B|459:210|459:210|450:207|450:207|407:211,1,100,2|0,0:0|0:0,0:0:0:0:
465,311,142358,6,0,L|461:53,1,225.000008583069,8|0,0:1|0:1,0:0:0:0:
465,90,142658,5,2,1:0:0:0:
316,164,142808,1,0,0:0:0:0:
232,32,142958,1,8,0:1:0:0:
147,164,143108,2,0,P|90:150|54:104,1,119.999996337891,2|0,0:0|0:0,0:0:0:0:
63,94,143408,1,0,3:0:0:0:
98,242,143558,2,0,P|115:298|93:353,1,119.999996337891,8|0,0:1|0:0,0:0:0:0:
82,365,143858,6,0,L|143:351,1,59.9999981689454,0|0,1:0|0:0,0:0:0:0:
316,332,144008,2,0,B|221:322|221:322|205:303,1,119.999996337891,2|8,0:0|0:1,0:0:0:0:
260,246,144308,2,0,L|256:186,1,59.9999981689454,0|0,3:0|0:0,0:0:0:0:
212,78,144458,5,0,1:0:0:0:
293,104,144608,1,0,3:0:0:0:
126,137,144758,5,8,0:1:0:0:
388,55,144908,1,2,0:0:0:0:
105,24,145058,5,0,0:0:0:0:
216,82,145208,1,0,3:0:0:0:
281,234,145358,1,8,0:1:0:0:
392,59,145508,1,2,0:0:0:0:
490,46,145658,1,0,0:0:0:0:
449,118,145808,5,0,3:0:0:0:
340,3,145958,1,8,0:1:0:0:
288,53,146108,1,2,0:0:0:0:
137,94,146258,6,0,L|125:129,1,29.9999990844727,0|0,1:0|0:0,0:0:0:0:
178,177,146408,2,0,L|190:212,1,29.9999990844727,0|0,0:0|0:0,0:0:0:0:
359,161,146558,6,0,L|371:196,1,29.9999990844727,8|0,0:1|0:0,0:0:0:0:
318,244,146708,2,0,L|306:279,1,29.9999990844727,2|0,0:0|0:0,0:0:0:0:
182,289,146858,6,0,L|129:278,1,29.9999990844727,0|0,3:0|0:0,0:0:0:0:
329,349,147008,2,0,L|358:355,1,29.9999990844727,0|0,3:0|0:0,0:0:0:0:
224,354,147158,6,0,L|213:407,1,29.9999990844727,8|0,0:1|0:0,0:0:0:0:
262,195,147308,2,0,L|268:165,1,29.9999990844727,2|0,0:0|0:0,0:0:0:0:
12,62,147458,5,4,1:0:0:0:
119,33,147608,1,0,3:0:0:0:
215,94,147758,1,8,0:1:0:0:
250,202,147908,1,2,0:0:0:0:
306,104,148058,1,0,0:0:0:0:
412,64,148208,1,0,1:0:0:0:
512,114,148358,2,0,B|533:74|516:31|516:31|507:38|507:46,1,100,8|2,0:1|0:0,0:0:0:0:
490,278,148658,5,0,1:0:0:0:
345,319,148808,1,0,3:0:0:0:
250,202,148958,1,8,0:1:0:0:
246,52,149108,1,2,0:0:0:0:
166,179,149258,1,0,0:0:0:0:
19,210,149408,1,0,1:0:0:0:
83,58,149558,2,0,B|83:53|74:46|74:46|57:89|78:129,1,100,0|2,0:0|0:0,0:0:0:0:
27,360,149858,5,0,1:0:0:0:
142,196,150008,1,0,0:0:0:0:
341,213,150158,1,8,0:1:0:0:
467,367,150308,1,2,0:0:0:0:
266,370,150458,1,0,3:2:0:0:
163,199,150608,1,0,0:0:0:0:
214,7,150758,2,0,B|285:-4|262:44|336:35,1,129.999994049073,8|2,0:1|0:0,0:0:0:0:
409,9,151058,1,0,1:0:0:0:
62,122,151208,6,0,B|160:137|128:70|230:83,1,179.999994506836,0|0,3:0|0:0,0:0:0:0:
501,210,151508,6,0,B|506:185|476:170|456:187|456:187|443:139|369:144|366:198|366:198|290:168|241:269|311:312|311:312|343:299|345:267,1,450.000017166138,2|0,0:0|0:0,0:0:0:0:
411,327,151958,2,0,P|425:292|424:255,1,75.0000028610231,8|0,0:1|0:0,0:0:0:0:
465,78,152108,1,2,0:0:0:0:
475,75,152183,1,0,0:0:0:0:
484,78,152258,6,0,B|441:95|408:65|422:59|388:28|343:46,1,153.333336257935,4|0,1:2|0:0,0:0:0:0:
296,110,152458,2,0,L|302:219,1,93.3333304850261,4|0,1:2|0:0,0:0:0:0:
297,281,152658,2,0,P|307:293|320:304,1,33.3333333333333,4|0,1:2|0:0,0:0:0:0:
191,304,152858,6,0,P|204:293|215:281,1,33.3333333333333,4|0,1:2|0:0,0:0:0:0:
210,203,153058,2,0,L|216:110,1,93.3333304850261,4|0,1:2|0:0,0:0:0:0:
168,46,153258,2,0,B|124:28|90:59|104:65|71:95|28:78,1,153.333336257935,4|0,1:2|0:0,0:0:0:0:
21,72,153458,5,0,1:0:0:0:
108,371,153608,2,0,L|121:142,1,230.000004386902,8|0,0:1|3:0,0:0:0:0:
256,48,153908,5,8,0:0:0:0:
256,320,154058,2,0,L|256:245,1,75.0000028610231,8|0,0:1|0:0,0:0:0:0:
391,142,154208,6,0,L|404:371,1,230.000004386902,2|0,0:0|1:0,0:0:0:0:
487,76,154508,6,0,B|443:200|301:160|301:160|240:188|329:116|195:80|91:136|91:136|140:1|285:8|348:98|348:98|358:95|358:95|312:222|334:308|457:339|457:339|441:258|359:250,1,1259.99996154785,2|2,0:0|0:0,0:0:0:0:
116,292,156158,5,0,0:0:0:0:
120,296,156233,1,0,0:0:0:0:
124,300,156308,1,0,0:0:0:0:
120,82,156458,5,0,0:0:0:0:
120,75,156533,2,0,L|124:313,1,225.000008583069,0|0,0:0|0:0,0:0:0:0:
86,169,156908,1,0,0:0:0:0:
155,200,157058,5,0,0:0:0:0:
156,206,157508,1,0,0:0:0:0:
368,258,158258,2,0,B|281:251|320:208|228:202,1,150,0|0,0:0|0:0,0:0:0:0:
242,289,159458,1,0,0:0:0:0:
232,202,160658,6,0,B|320:208|281:251|368:258,1,150,0|0,0:0|0:0,0:0:0:0:
413,238,161258,1,0,0:0:0:0:
412,188,161408,1,0,0:0:0:0:
478,60,161858,2,0,B|407:45|375:100|375:100|392:108|403:98,1,149.999995422363,0|0,0:0|0:0,0:0:0:0:
467,140,163058,5,0,0:0:0:0:
484,264,163508,1,0,0:0:0:0:
412,254,163808,1,0,0:0:0:0:
394,378,164258,6,0,P|365:375|342:357,1,59.9999981689454,0|0,0:0|0:0,0:0:0:0:
340,284,164708,1,0,0:0:0:0:
238,222,165008,1,0,0:0:0:0:
239,229,165158,2,0,L|172:230,1,50,0|0,0:0|0:0,0:0:0:0:
102,205,165458,6,0,B|88:286|138:266|123:350,1,150,0|0,0:0|0:0,0:0:0:0:
113,360,166058,2,0,L|68:365,1,29.9999990844727,0|0,0:0|0:0,0:0:0:0:
189,229,166358,2,0,L|234:234,1,29.9999990844727,0|0,0:0|0:0,0:0:0:0:
86,45,166658,6,0,B|35:57|11:109|11:109|102:49|159:70,1,259.999988098145,0|0,0:0|0:0,0:0:0:0:
220,130,167258,6,0,B|243:135|254:159|254:159|212:131|186:141,1,119.999996337891,0|0,0:0|0:0,0:0:0:0:
224,19,167858,6,0,B|228:54|266:62|266:62|264:27|234:21,1,119.999996337891,0|0,0:0|0:0,0:0:0:0:
344,39,168308,6,0,B|335:65|349:79|349:79|359:63|349:44,1,80,0|0,0:0|0:0,0:0:0:0:
409,132,168758,6,0,P|421:116|429:98,1,40,0|0,0:0|0:0,0:0:0:0:
425,21,169058,1,0,0:0:0:0:
417,296,170258,6,0,B|344:292|377:331|304:327,1,120,0|0,0:0|0:0,0:0:0:0:
235,349,171158,2,0,P|207:353|230:338,1,75.0000028610231,0|0,0:0|0:0,0:0:0:0:
257,267,171458,6,0,P|208:259|163:280,1,100,0|0,0:0|0:0,0:0:0:0:
128,347,171908,2,0,P|97:365|120:338,1,100,0|0,0:0|0:0,0:0:0:0:
91,266,172358,2,0,P|90:241|88:216,1,50,0|0,0:0|0:0,0:0:0:0:
84,25,172658,6,0,P|37:36|26:82,1,100,0|0,0:0|0:0,0:0:0:0:
21,164,173108,2,0,P|67:146|116:136,1,100,0|0,0:0|0:0,0:0:0:0:
171,84,173558,1,0,0:0:0:0:
176,91,173708,1,0,0:0:0:0:
198,257,173858,6,0,P|235:270|274:279,1,80,0|0,0:0|0:0,0:0:0:0:
332,121,174458,6,0,P|379:140|382:190,1,106.666666666667,0|0,0:0|0:0,0:0:0:0:
349,257,175058,6,0,B|338:286|371:316|371:316|413:302|416:271,1,136.000000830078,0|8,0:0|0:3,0:0:0:0:
87,93,180008,6,0,P|125:93|160:84,1,75.0000028610231,2|0,0:0|0:0,0:0:0:0:
158,96,180158,2,0,L|220:103,1,37.5000014305115,0|0,3:0|0:0,0:0:0:0:
111,172,180308,5,2,3:0:0:0:
140,169,180383,1,2,3:0:0:0:
169,197,180458,1,0,3:0:0:0:
210,188,180533,1,0,3:0:0:0:
253,223,180608,1,0,3:0:0:0:
295,199,180683,1,0,3:0:0:0:
346,207,180758,1,0,3:0:0:0:
366,156,180833,1,0,3:0:0:0:
420,119,180908,1,0,3:0:0:0:
413,61,180983,1,0,0:0:0:0:
483,36,181058,6,0,B|453:116|442:207|442:207|468:183|487:140,1,247.500002360344,4|0,1:0|0:0,0:0:0:0:
488,147,181358,1,8,0:1:0:0:
230,41,181508,2,0,B|228:32|228:32|275:36|299:75|294:121,1,129.999994049073,0|0,0:0|0:0,0:0:0:0:
461,274,181808,6,0,P|428:278|393:254,1,64.9999970245363,0|0,3:0|0:0,0:0:0:0:
294,116,181958,2,0,P|227:82|152:75,1,150,8|0,0:1|0:0,0:0:0:0:
33,212,182258,6,0,B|17:212|1:232|11:246|11:246|26:241|29:228,1,75.0000028610231,0|0,3:0|0:0,0:0:0:0:
58,70,182408,1,0,0:0:0:0:
171,161,182558,1,8,0:1:0:0:
29,228,182708,6,0,B|26:241|11:246|11:246|1:232|17:212|33:212,1,75.0000028610231,0|0,3:0|0:0,0:0:0:0:
87,148,182858,1,0,1:0:0:0:
0,21,183008,1,2,0:0:0:0:
164,237,183158,2,0,B|231:236|202:202|265:202,1,110.000003356934,8|0,0:1|1:0,0:0:0:0:
380,353,183458,6,0,B|394:372|394:372|335:350|293:350|293:350|282:288|324:256|334:279|361:239|354:197,1,300,0|0,3:0|0:0,0:0:0:0:
377,85,183758,2,0,B|399:71|404:45|404:45|418:69|447:76,1,100,8|2,0:1|0:0,0:0:0:0:
435,209,184058,1,0,0:0:0:0:
441,219,184208,6,0,P|439:179|420:144,1,80,0|0,1:0|0:0,0:0:0:0:
469,6,184358,2,0,B|422:-26|378:19|378:25|383:25|383:19|345:58|293:33,1,179.999994506836,8|0,0:1|0:0,0:0:0:0:
42,42,184658,6,0,B|-16:43|2:9|80:15|121:73,1,150.000005722046,0|0,1:0|0:0,0:0:0:0:
123,259,184958,2,0,P|144:252|160:236,1,44.999998626709,8|0,0:1|0:0,0:0:0:0:
213,79,185108,2,0,P|210:51|204:24,1,55.0000016784668,2|0,0:0|0:0,0:0:0:0:
60,119,185258,5,0,3:0:0:0:
252,204,185408,1,2,0:0:0:0:
119,172,185558,1,8,0:1:0:0:
305,119,185708,1,0,1:0:0:0:
28,250,185858,6,0,B|3:253|-14:222|6:194|39:197|39:197|51:329,1,225.000008583069,4|0,1:3|0:0,0:0:0:0:
123,259,186158,1,8,0:1:0:0:
122,246,186308,2,0,B|177:238|166:275|216:268,1,100,2|0,0:0|0:0,0:0:0:0:
256,352,186608,1,2,0:0:0:0:
296,190,186758,1,8,0:1:0:0:
460,327,186908,6,0,B|472:197|472:197|505:194|526:222|508:253|484:250,1,225.000008583069,0|0,0:0|0:0,0:0:0:0:
389,259,187208,1,0,0:0:0:0:
390,246,187358,2,0,B|335:238|346:275|295:268,1,100,8|0,0:1|0:0,0:0:0:0:
216,190,187658,5,0,0:0:0:0:
322,0,187808,1,0,0:0:0:0:
279,130,187958,5,8,0:1:0:0:
251,56,188108,1,0,0:0:0:0:
348,160,188258,6,0,P|351:150|353:140,1,20,0|0,1:0|0:0,0:0:0:0:
191,14,188408,6,0,P|178:38|179:63,1,50,2|0,0:0|0:0,0:0:0:0:
168,262,188558,6,0,B|210:252|246:281|246:317|246:317|231:291|246:254,1,175.00000166893,8|0,0:1|0:0,0:0:0:0:
355,64,188858,5,0,3:0:0:0:
335,284,189008,1,0,3:0:0:0:
279,130,189158,1,8,0:1:0:0:
180,149,189308,1,2,0:0:0:0:
84,116,189458,1,4,1:3:0:0:
21,264,189608,1,0,0:0:0:0:
18,39,189758,5,8,0:1:0:0:
153,0,189908,1,2,0:0:0:0:
395,60,190058,1,0,3:0:0:0:
380,284,190208,1,0,3:0:0:0:
148,384,190358,1,8,0:1:0:0:
256,0,190508,1,2,0:0:0:0:
512,261,190658,6,0,B|468:266|442:229|442:229|435:238|435:238|407:207|370:213,1,165.000001573563,4|2,1:0|0:0,0:0:0:0:
65,310,190958,6,0,B|40:333|40:333|152:305,1,150,8|0,0:1|0:0,0:0:0:0:
229,366,191258,2,0,L|234:316,1,50,0|0,0:0|0:0,0:0:0:0:
295,129,191408,2,0,L|289:79,1,50,0|0,3:0|0:0,0:0:0:0:
220,205,191558,2,0,L|192:211,1,20,8|0,0:1|0:0,0:0:0:0:
283,251,191708,2,0,L|311:257,1,20,0|0,1:0|0:0,0:0:0:0:
125,85,191858,6,0,B|78:84|81:41|151:35|195:113,1,160,0|0,3:0|0:0,0:0:0:0:
352,194,192158,2,0,B|369:187|382:200|382:200|368:204|360:198,1,55.0000016784668,8|0,0:1|0:0,0:0:0:0:
193,110,192308,6,0,P|118:104|45:120,1,150.000005722046,0|0,3:0|1:0,0:0:0:0:
272,255,192608,1,2,0:0:0:0:
367,94,192758,2,0,P|377:65|383:36,1,59.9999981689454,8|0,0:1|0:0,0:0:0:0:
244,29,192908,2,0,P|272:39|301:45,1,59.9999981689454,0|0,1:0|0:0,0:0:0:0:
427,156,193058,6,0,P|454:91|464:22,1,139.999995727539,0|0,3:0|0:0,0:0:0:0:
464,22,193358,6,0,B|442:67|442:67|488:208|488:208|465:251,1,247.500002360344,8|0,0:1|0:0,0:0:0:0:
492,318,193658,2,0,P|468:325|444:319,1,50,0|0,0:0|0:0,0:0:0:0:
167,306,193808,6,0,L|172:257,1,50,0|0,1:0|0:0,0:0:0:0:
103,98,193958,2,0,P|74:119|64:152,1,69.9999978637696,8|0,0:1|0:0,0:0:0:0:
249,230,194108,2,0,P|262:197|255:163,1,69.9999978637696,2|0,0:0|0:0,0:0:0:0:
63,236,194258,6,0,B|51:219|35:219|35:219|87:236|115:202|115:202|124:202|124:202|151:176|189:187,1,200,0|0,1:0|0:0,0:0:0:0:
367,367,194558,2,0,P|369:334|375:302,1,64.9999970245363,8|0,0:1|0:0,0:0:0:0:
376,231,194708,6,0,B|330:227|312:264|312:264|292:305|244:302,1,160,2|0,0:0|3:0,0:0:0:0:
95,301,195008,1,2,0:0:0:0:
103,92,195158,1,8,0:1:0:0:
304,35,195308,1,0,1:0:0:0:
387,60,195458,5,4,1:2:0:0:
415,158,195658,5,0,0:0:0:0:
345,213,195858,5,0,0:0:0:0:
275,177,196058,5,0,0:0:0:0:
285,130,196258,5,0,0:0:0:0:
326,119,196458,5,0,0:0:0:0:
329,123,196508,5,4,1:0:0:0:
130,52,196658,1,0,0:0:0:0:
199,28,196808,1,8,0:0:0:0:
125,32,196958,5,0,0:0:0:0:
109,136,197108,6,0,B|163:114|219:138|219:138|215:132|215:132|258:125|270:87|247:83|275:33|311:32|311:32|405:53|405:53|388:58|376:64,1,397.500016679764,8|0,0:1|0:0,0:0:0:0:
369,72,197408,6,0,B|355:116|391:109|377:157,1,89.9999972534181,0|0,3:0|0:0,0:0:0:0:
430,322,197558,2,0,P|409:360|367:371,1,89.9999972534181,2|0,0:0|0:0,0:0:0:0:
355,291,197708,1,0,1:0:0:0:
484,6,197858,5,2,0:0:0:0:
473,101,198158,6,0,L|454:107,1,20,0|0,1:0|0:0,0:0:0:0:
312,22,198308,2,0,P|298:43|291:67,1,50,8|0,0:0|0:0,0:0:0:0:
192,181,198458,2,0,B|205:216|237:212|237:212|230:196|217:194,1,82.5000007867813,2|0,0:0|0:0,0:0:0:0:
396,37,198608,6,0,L|375:81,1,32.4999985122681,8|0,0:0|0:0,0:0:0:0:
217,80,198758,2,0,P|227:107|250:126,1,59.9999981689454,0|0,3:0|0:0,0:0:0:0:
235,300,198908,2,0,B|267:312|287:284|287:284|262:274|241:293,1,94.9999974632264,8|0,0:0|0:0,0:0:0:0:
372,202,199058,6,0,B|358:211|328:202|328:164|375:152|364:199,1,94.9999974632264,0|0,1:0|0:0,0:0:0:0:
147,47,199208,6,0,B|134:40|128:15|156:0|184:28|145:39,1,72.5000022125245,8|0,0:0|0:0,0:0:0:0:
126,320,199358,6,0,B|116:315|111:295|133:283|145:305|129:316,1,40,0|0,3:0|0:0,0:0:0:0:
215,189,199508,5,4,1:2:0:0:
145,170,199808,5,4,1:2:0:0:
75,151,200108,5,4,1:2:0:0:
75,151,200558,6,0,P|182:142|291:163,1,217.500006637573,8|0,0:1|0:0,0:0:0:0:
318,96,200858,2,0,P|350:118|364:155,1,80,0|0,1:0|0:0,0:0:0:0:
215,189,201008,1,0,1:0:0:0:
473,20,201158,2,0,B|525:47|504:109|504:109|440:124|417:69,1,209.999993591309,8|0,0:1|0:0,0:0:0:0:
316,24,201458,6,0,P|345:87|363:154,1,139.999995727539,0|0,1:0|0:0,0:0:0:0:
294,344,201758,2,0,L|256:341,1,37.5000014305115,8|0,0:1|0:0,0:0:0:0:
436,178,201908,2,0,P|428:195|414:208,1,37.5000014305115,2|0,0:0|0:0,0:0:0:0:
398,292,202058,6,0,B|367:287|367:287|357:273|357:273|326:266,1,80,0|0,3:0|0:0,0:0:0:0:
130,319,202208,2,0,P|137:356|172:372,1,80,2|0,0:0|0:0,0:0:0:0:
172,372,202358,6,0,P|177:317|176:262,1,110.000003356934,8|0,0:1|0:0,0:0:0:0:
187,100,202508,2,0,P|157:64|117:51,1,88.0000026855469,0|0,1:0|0:0,0:0:0:0:
120,162,202658,6,0,B|126:111|38:110|38:192|85:227|146:205|129:194|158:173|193:189,1,225.000008583069,4|0,1:3|0:0,0:0:0:0:
182,266,202958,1,8,0:1:0:0:
80,370,203108,2,0,P|78:320|66:271,1,100,2|0,0:0|0:0,0:0:0:0:
197,184,203408,1,2,0:0:0:0:
288,352,203558,1,8,0:1:0:0:
392,162,203708,6,0,B|385:111|473:110|473:192|426:227|365:205|382:194|353:173|318:189,1,225.000008583069,0|0,0:0|0:0,0:0:0:0:
330,266,204008,1,0,0:0:0:0:
432,370,204158,2,0,P|433:320|445:271,1,100,8|0,0:1|0:0,0:0:0:0:
486,75,204458,5,0,3:0:0:0:
226,162,204608,1,0,0:0:0:0:
410,148,204758,5,8,0:1:0:0:
349,101,204908,1,0,0:0:0:0:
458,203,205058,6,0,P|465:196|471:188,1,20,0|0,1:0|0:0,0:0:0:0:
287,62,205208,6,0,P|277:84|277:109,1,50,0|0,0:0|0:0,0:0:0:0:
349,267,205358,6,0,B|370:266|389:240|372:197|336:184|286:199|273:242,1,175.00000166893,8|2,0:1|0:0,0:0:0:0:
245,376,205658,5,0,3:0:0:0:
40,351,205808,1,0,3:0:0:0:
278,249,205958,1,8,0:1:0:0:
177,332,206108,1,2,0:0:0:0:
201,253,206258,1,4,1:3:0:0:
472,351,206408,1,0,0:0:0:0:
307,324,206558,5,8,0:1:0:0:
235,185,206708,1,2,0:0:0:0:
319,3,206858,1,0,3:0:0:0:
289,243,207008,1,0,3:0:0:0:
13,355,207158,1,8,0:1:0:0:
154,0,207308,1,2,0:0:0:0:
185,378,207458,6,0,B|197:353|185:317|171:324|108:287|109:211|153:181,1,225.000008583069,4|0,1:0|0:0,0:0:0:0:
458,313,207758,6,0,B|425:311|425:311|414:305|414:305|359:300,1,100,8|0,0:1|0:0,0:0:0:0:
285,375,208058,2,0,P|279:350|277:325,1,50,2|0,0:0|0:0,0:0:0:0:
429,144,208208,2,0,P|434:119|436:94,1,50,0|0,3:0|0:0,0:0:0:0:
267,205,208358,2,0,L|242:196,1,25,8|0,0:1|0:0,0:0:0:0:
342,212,208508,2,0,L|367:221,1,25,0|0,1:0|0:0,0:0:0:0:
111,98,208658,6,0,B|99:85|99:85|138:61|191:79|206:127,1,150.000005722046,0|0,3:0|0:0,0:0:0:0:
147,295,208958,2,0,P|136:275|131:253,1,44.999998626709,8|0,0:1|0:0,0:0:0:0:
206,127,209108,2,0,P|211:90|234:61,1,75.0000028610231,0|0,0:0|0:0,0:0:0:0:
474,16,209258,6,0,P|467:42|466:70,1,55.0000016784668,0|0,1:0|0:0,0:0:0:0:
483,151,209408,2,0,P|456:143|428:143,1,55.0000016784668,0|0,0:0|0:0,0:0:0:0:
111,98,209558,6,0,P|127:143|140:189,1,87.500000834465,8|0,0:1|0:0,0:0:0:0:
147,295,209708,2,0,P|190:277|238:266,1,87.500000834465,0|0,1:0|0:0,0:0:0:0:
399,317,209858,6,0,P|490:264|476:369,1,262.500002503395,0|0,3:0|0:0,0:0:0:0:
475,369,210158,6,0,P|470:270|475:170,1,200,8|0,0:1|0:0,0:0:0:0:
422,40,210458,1,0,1:0:0:0:
498,43,210608,6,0,P|493:72|474:94,1,59.9999981689454,0|0,1:0|0:0,0:0:0:0:
508,233,210758,2,0,P|471:244|435:229,1,80,8|0,0:1|0:0,0:0:0:0:
423,34,210908,2,0,B|371:59|371:59|361:147|361:147|299:172,1,209.999993591309,2|0,0:0|0:0,0:0:0:0:
256,235,211208,6,0,L|256:255,1,20,0|0,0:0|0:0,0:0:0:0:
3,233,211358,2,0,P|40:244|76:229,1,80,8|0,0:1|0:0,0:0:0:0:
89,34,211508,2,0,B|141:59|141:59|151:147|151:147|213:172,1,209.999993591309,2|0,0:0|0:0,0:0:0:0:
38,168,211808,5,2,0:0:0:0:
111,303,211958,1,8,0:1:0:0:
256,352,212108,1,0,1:0:0:0:
384,106,212258,6,0,L|407:104,1,20,4|0,1:2|0:0,0:0:0:0:
474,94,212408,1,0,0:0:0:0:
446,350,212708,1,0,0:0:0:0:
451,340,212858,6,0,P|446:321|432:307,1,40
483,229,213083,2,0,P|465:237|445:236,1,40,0|0,0:0|0:0,0:0:0:0:
295,300,213308,1,4,1:2:0:0:
256,368,213458,5,0,0:0:0:0:
152,369,213608,1,0,0:0:0:0:
84,289,213758,1,0,0:0:0:0:
129,49,213908,1,8,0:1:0:0:
47,188,214058,1,2,0:0:0:0:
31,180,214133,1,2,0:0:0:0:
20,166,214208,5,0,1:0:0:0:
77,119,214283,1,0,0:0:0:0:
144,122,214358,1,8,0:1:0:0:
188,161,214433,1,8,0:1:0:0:
213,183,214508,1,8,0:1:0:0:
264,192,214583,1,8,0:1:0:0:
332,160,214658,6,0,L|351:101,1,44.999998626709,4|0,1:0|0:0,0:0:0:0:
483,236,214808,2,0,L|523:189,1,44.999998626709,0|0,0:0|0:0,0:0:0:0:
456,113,214958,1,8,0:1:0:0:
187,172,215108,6,0,L|172:214,1,44.999998626709,2|0,0:0|0:0,0:0:0:0:
398,204,215259,2,0,L|401:248,1,44.999998626709,0|0,0:0|0:0,0:0:0:0:
277,306,215408,1,0,1:0:0:0:
264,180,215558,6,0,L|245:121,1,44.999998626709,8|0,0:1|0:0,0:0:0:0:
62,294,215708,2,0,L|22:247,1,44.999998626709,2|0,0:0|0:0,0:0:0:0:
78,99,215858,1,0,1:0:0:0:
138,317,216008,6,0,L|141:262,1,37.5000014305115,0|0,3:0|0:0,0:0:0:0:
45,179,216158,2,0,L|100:182,1,37.5000014305115,8|0,0:1|0:0,0:0:0:0:
155,74,216308,1,2,0:0:0:0:
368,197,216458,5,0,0:0:0:0:
283,140,216608,5,0,1:0:0:0:
354,126,216758,5,8,0:1:0:0:
297,210,216908,5,0,0:0:0:0:
62,294,217058,6,0,L|22:247,1,44.999998626709,0|0,1:0|0:0,0:0:0:0:
213,218,217208,2,0,L|194:159,1,44.999998626709,0|0,0:0|0:0,0:0:0:0:
89,171,217358,1,8,0:1:0:0:
148,269,217508,6,0,L|142:330,1,44.999998626709,0|0,0:0|0:0,0:0:0:0:
369,242,217658,2,0,L|387:301,1,44.999998626709,2|0,3:2|0:0,0:0:0:0:
280,384,217808,6,0,P|274:367|270:385,1,44.999998626709,0|0,0:0|0:0,0:0:0:0:
298,195,217958,6,0,P|304:171|285:187,1,64.9999970245363,8|0,0:1|0:0,0:0:0:0:
463,119,218108,6,0,P|488:138|468:112,1,87.500000834465,2|0,0:0|0:0,0:0:0:0:
360,69,218258,6,0,B|302:42|252:70|259:70|214:96|165:73,1,200,0|0,1:0|3:0,0:0:0:0:
249,11,218558,6,0,L|251:48,1,37.5000014305115,8|0,0:1|0:0,0:0:0:0:
270,120,218708,2,0,L|267:157,1,37.5000014305115,2|0,0:0|0:0,0:0:0:0:
242,374,218858,6,0,P|305:366|276:309,1,150.000005722046,0|0,1:0|0:0,0:0:0:0:
219,231,219158,2,0,L|293:235,1,75.0000028610231,8|0,0:1|0:0,0:0:0:0:
505,232,219308,1,0,0:0:0:0:
510,221,219383,1,0,0:0:0:0:
512,210,219458,6,0,L|481:156,1,44.999998626709,0|0,1:0|0:0,0:0:0:0:
379,315,219608,2,0,L|330:277,1,44.999998626709,0|0,0:0|0:0,0:0:0:0:
355,157,219758,1,8,0:1:0:0:
488,41,219908,6,0,L|422:11,1,44.999998626709,0|0,1:0|0:0,0:0:0:0:
434,228,220058,2,0,L|362:226,1,44.999998626709,0|0,0:0|0:0,0:0:0:0:
304,97,220208,1,0,3:0:0:0:
213,30,220358,6,0,L|193:70,1,44.999998626709,8|0,0:1|0:0,0:0:0:0:
428,93,220508,2,0,L|426:137,1,44.999998626709,0|0,0:0|0:0,0:0:0:0:
276,244,220658,1,0,1:0:0:0:
113,147,220808,6,0,L|150:148,1,37.5000014305115,2|0,0:0|0:0,0:0:0:0:
306,59,220958,2,0,L|304:96,1,37.5000014305115,8|0,0:1|0:0,0:0:0:0:
301,315,221108,1,0,3:0:0:0:
262,173,221258,5,0,1:0:0:0:
347,230,221408,5,0,3:0:0:0:
276,244,221558,5,8,0:1:0:0:
333,160,221708,5,2,0:0:0:0:
44,79,221858,6,0,L|51:140,1,44.999998626709,0|0,1:0|0:0,0:0:0:0:
207,34,222008,2,0,L|237:88,1,44.999998626709,0|0,3:0|0:0,0:0:0:0:
167,189,222158,1,8,0:1:0:0:
0,243,222308,6,0,L|49:296,1,44.999998626709,0|0,0:0|0:0,0:0:0:0:
122,92,222458,2,0,L|187:121,1,44.999998626709,0|0,3:0|0:0,0:0:0:0:
191,264,222608,1,0,3:0:0:0:
248,361,222758,6,0,L|284:327,1,44.999998626709,8|0,0:1|0:0,0:0:0:0:
75,219,222908,2,0,L|95:174,1,44.999998626709,2|0,0:0|0:0,0:0:0:0:
274,139,223058,1,0,1:0:0:0:
176,374,223208,6,0,L|171:336,1,37.5000014305115,0|0,3:0|0:0,0:0:0:0:
167,189,223358,2,0,L|204:184,1,37.5000014305115,8|0,0:1|0:0,0:0:0:0:
328,277,223508,1,2,0:0:0:0:
66,355,223658,6,0,P|84:346|98:333,1,40,0|0,3:0|0:0,0:0:0:0:
239,301,223808,2,0,P|252:274|253:244,1,59.9999981689454,0|0,3:0|0:0,0:0:0:0:
404,235,223958,6,0,P|381:225|364:207,1,50,8|0,0:1|0:0,0:0:0:0:
167,189,224108,2,0,P|151:152|158:113,1,80,2|0,0:0|0:0,0:0:0:0:
422,117,224258,6,0,L|429:161,1,44.999998626709,4|0,1:0|0:0,0:0:0:0:
247,101,224408,2,0,L|236:144,1,44.999998626709,0|0,3:0|0:0,0:0:0:0:
328,277,224558,1,8,0:1:0:0:
328,194,224708,6,0,L|335:149,1,44.999998626709,0|0,0:0|0:0,0:0:0:0:
125,212,224858,2,0,L|114:168,1,44.999998626709,0|0,0:0|0:0,0:0:0:0:
219,8,225008,1,0,1:0:0:0:
229,100,225158,6,0,L|237:152,1,44.999998626709,8|0,0:1|0:0,0:0:0:0:
19,80,225308,2,0,L|6:132,1,44.999998626709,2|0,0:0|0:0,0:0:0:0:
115,289,225458,1,0,1:0:0:0:
117,130,225608,6,0,L|114:167,1,37.5000014305115,0|0,3:0|0:0,0:0:0:0:
0,281,225758,2,0,L|37:283,1,37.5000014305115,8|0,0:1|0:0,0:0:0:0:
193,293,225908,1,2,0:0:0:0:
103,59,226058,5,0,0:0:0:0:
188,116,226208,5,0,1:0:0:0:
117,130,226358,5,8,0:1:0:0:
174,46,226508,5,2,0:0:0:0:
10,212,226658,6,0,L|3:168,1,44.999998626709,0|0,1:0|0:0,0:0:0:0:
185,228,226808,2,0,L|196:185,1,44.999998626709,0|0,0:0|0:0,0:0:0:0:
104,52,226958,1,8,0:1:0:0:
106,173,227108,6,0,L|118:122,1,44.999998626709
286,270,227258,2,0,L|317:228,1,44.999998626709,2|0,3:2|0:0,0:0:0:0:
281,42,227408,1,0,0:0:0:0:
264,187,227558,6,0,L|300:137,1,44.999998626709,8|0,0:1|0:0,0:0:0:0:
413,373,227708,2,0,L|466:342,1,44.999998626709,2|0,0:0|0:0,0:0:0:0:
512,124,227858,1,0,1:0:0:0:
397,70,228008,6,0,L|394:123,1,37.5000014305115,0|0,3:0|0:0,0:0:0:0:
491,278,228158,2,0,L|438:275,1,37.5000014305115,8|0,0:1|0:0,0:0:0:0:
290,274,228308,1,2,0:0:0:0:
441,172,228458,6,0,P|435:190|420:203,1,40,0|0,1:0|0:0,0:0:0:0:
308,346,228608,2,0,P|278:350|251:338,1,59.9999981689454,0|0,0:0|0:0,0:0:0:0:
345,224,228758,6,0,P|329:206|305:201,1,50,8|0,0:1|0:0,0:0:0:0:
155,112,228908,2,0,P|118:125|98:159,1,80,2|0,0:0|0:0,0:0:0:0:
167,323,229058,6,0,L|172:302,1,20,0|0,1:0|0:0,0:0:0:0:
86,254,229208,2,0,L|106:247,1,20,2|0,0:0|0:0,0:0:0:0:
177,229,229358,1,2,0:0:0:0:
345,323,229508,6,0,L|340:302,1,20,0|0,1:0|0:0,0:0:0:0:
426,254,229658,2,0,L|406:247,1,20,2|0,0:0|0:0,0:0:0:0:
335,229,229808,1,2,0:0:0:0:
71,240,229958,6,0,L|86:254,1,20,0|0,3:0|0:0,0:0:0:0:
256,384,230108,2,0,L|255:362,1,20,4|0,1:3|0:0,0:0:0:0:
256,288,230258,1,0,0:0:0:0:
426,254,230408,2,0,L|441:240,3,20,0|0|0|0,0:0|0:0|3:0|0:0,0:0:0:0:
356,316,230708,6,0,P|347:292|341:268,1,50,8|0,0:0|0:0,0:0:0:0:
268,187,230858,1,2,3:0:0:0:
282,187,230933,1,2,3:0:0:0:
291,176,231008,2,0,P|299:152|305:128,1,50,2|2,3:0|3:0,0:0:0:0:
444,25,231158,1,0,3:0:0:0:
483,83,231233,1,0,3:0:0:0:
465,126,231308,1,0,3:0:0:0:
445,131,231383,1,0,3:0:0:0:
437,140,231458,5,4,1:0:0:0:
