osu file format v14

[General]
AudioFilename: audio.mp3
AudioLeadIn: 0
PreviewTime: 50779
Countdown: 0
SampleSet: Soft
StackLeniency: 0.7
Mode: 0
LetterboxInBreaks: 0
WidescreenStoryboard: 1

[Editor]
DistanceSpacing: 1
BeatDivisor: 2
GridSize: 32
TimelineZoom: 1.6

[Metadata]
Title:Ether
TitleUnicode:エーテル
Artist:Feryquitous feat. Aitsuki Nakuru
ArtistUnicode:Feryquitous feat. 藍月なくる
Creator:Gibune
Version:Normal
Source:
Tags:Japanese rock jrock vocal JelLaboratory featured artist fa mpg mappers' guild
BeatmapID:2885400
BeatmapSetID:1341385

[Difficulty]
HPDrainRate:4
CircleSize:3.5
OverallDifficulty:4
ApproachRate:5.5
SliderMultiplier:1
SliderTickRate:1

[Events]
//Background and Video events
0,0,"Ether.png",0,0
//Break Periods
2,156979,175054
2,176379,179254
//Storyboard Layer 0 (Background)
//Storyboard Layer 1 (Fail)
//Storyboard Layer 2 (Pass)
//Storyboard Layer 3 (Foreground)
//Storyboard Layer 4 (Overlay)
//Storyboard Sound Samples

[TimingPoints]
3379,300,4,2,2,10,1,0
10579,-100,4,2,2,50,0,0
11479,-133.333333333333,4,2,2,50,0,0
29779,-111.111111111111,4,2,2,60,0,0
51379,-100,4,2,1,75,0,0
70429,-111.111111111111,4,2,1,70,0,0
99379,-111.111111111111,4,2,1,60,0,0
119779,-111.111111111111,4,2,1,50,0,0
120079,-111.111111111111,4,2,1,55,0,0
120379,-111.111111111111,4,2,1,65,0,0
120679,-111.111111111111,4,2,1,70,0,0
120979,-100,4,2,1,75,0,0
176179,-100,4,2,1,30,0,0
179779,-100,4,2,1,50,0,0
180079,-100,4,2,1,55,0,0
180379,-100,4,2,1,65,0,0
180679,-100,4,2,1,70,0,0
180979,-100,4,2,1,75,0,0
198079,-100,4,2,1,80,0,0
200479,-100,4,2,1,75,0,0
231379,-100,4,2,2,30,0,0
234979,-133.333333333333,4,2,2,30,0,0

[Colours]
Combo1 : 17,254,176
Combo2 : 173,255,95
Combo3 : 255,88,100
Combo4 : 255,94,55

[HitObjects]
256,192,8179,12,2,10579,0:0:0:0:
363,69,11479,5,0,0:0:0:0:
363,69,11779,2,0,L|356:147,1,75.0000028610231,2|0,0:0|0:0,0:0:0:0:
385,220,12379,2,0,L|390:304,1,75.0000028610231,2|0,0:0|0:0,0:0:0:0:
340,361,12979,1,2,0:0:0:0:
340,361,13279,1,0,0:0:0:0:
185,317,13879,1,0,0:0:0:0:
185,317,14179,6,0,L|169:186,2,112.500004291535,2|0|0,0:0|0:0|0:0,0:0:0:0:
255,274,15379,1,2,0:0:0:0:
256,192,15454,12,2,17779,0:0:0:0:
351,129,18679,5,0,0:0:0:0:
351,129,18979,2,0,L|270:135,1,75.0000028610231
197,105,19579,2,0,L|110:95,1,75.0000028610231,2|0,0:0|0:0,0:0:0:0:
49,132,20179,1,2,0:0:0:0:
95,311,21079,5,0,0:0:0:0:
163,356,21379,2,0,L|252:344,1,75.0000028610231,2|2,0:0|3:0,0:0:0:0:
305,298,21979,2,0,L|389:312,1,75.0000028610231
454,355,22579,1,2,0:0:0:0:
454,355,22879,1,2,0:0:0:0:
427,196,23479,1,0,0:0:0:0:
427,196,23779,6,0,P|424:139|383:77,2,112.500004291535,2|2|0,0:0|0:0|0:0,0:0:0:0:
360,244,24979,1,2,0:0:0:0:
256,192,25054,12,2,26479,3:0:0:0:
312,97,27079,5,0,0:0:0:0:
339,174,27379,1,2,0:0:0:0:
339,174,28879,1,2,3:0:0:0:
184,113,29479,1,0,0:0:0:0:
113,168,29779,6,0,L|99:269,1,89.9999972534181,2|8,1:2|0:0,0:0:0:0:
259,352,30679,1,8,0:0:0:0:
259,352,30979,2,0,L|359:340,2,89.9999972534181,2|8|8,0:0|0:0|0:0,0:0:0:0:
222,271,31879,1,0,3:0:0:0:
262,191,32179,6,0,L|271:80,1,89.9999972534181,2|8,1:2|0:0,0:0:0:0:
443,55,33079,1,2,0:0:0:0:
474,139,33379,6,0,L|463:236,2,89.9999972534181,0|10|8,1:0|0:0|0:0,0:0:0:0:
390,172,34279,1,8,0:0:0:0:
300,175,34579,2,0,P|254:155|149:185,1,134.999995880127,2|2,1:2|0:0,0:0:0:0:
49,111,35479,1,0,0:0:0:0:
82,29,35779,6,0,L|228:47,1,134.999995880127
346,47,36679,1,8,0:0:0:0:
419,99,36979,6,0,B|409:158|409:158|411:182|411:182|401:237,2,134.999995880127,10|2|2,0:0|0:0|0:0,0:0:0:0:
302,167,38329,2,0,L|199:183,1,89.9999972534181,10|0,0:0|0:0,0:0:0:0:
180,212,38779,1,2,0:0:0:0:
203,298,39079,1,0,0:0:0:0:
292,307,39379,6,0,L|396:325,2,89.9999972534181,2|0|0,0:0|3:0|0:0,0:0:0:0:
309,218,40279,1,0,3:0:0:0:
364,146,40579,2,0,B|377:46,2,89.9999972534181,2|8|8,3:2|0:0|0:0,0:0:0:0:
285,101,41479,1,0,3:0:0:0:
204,59,41779,6,0,P|134:55|72:101,1,134.999995880127,10|0,0:0|3:0,0:0:0:0:
83,227,42679,1,2,0:0:0:0:
163,266,42979,2,0,P|217:273|266:283,1,89.9999972534181,2|8,0:0|0:0,0:0:0:0:
287,306,43429,1,0,3:0:0:0:
408,365,43879,1,2,0:0:0:0:
473,303,44179,6,0,L|487:201,1,89.9999972534181,10|0,0:0|3:0,0:0:0:0:
442,134,44779,2,0,P|373:104|263:144,1,179.999994506836,0|2,0:0|0:0,0:0:0:0:
285,221,45679,1,8,0:0:0:0:
197,241,45979,2,0,L|92:258,1,89.9999972534181,2|0,0:0|3:0,0:0:0:0:
37,199,46579,1,0,3:0:0:0:
256,192,46654,12,2,48979,0:3:0:0:
365,132,50779,6,0,P|294:128|240:74,1,134.999995880127,2|0,0:0|0:0,0:0:0:0:
207,57,51379,6,2,L|94:75,1,100,6|8,1:0|0:0,0:1:0:0:
69,103,51829,1,2,3:0:0:0:
99,198,52129,2,0,L|89:246,1,50,0|8,1:0|0:0,0:0:0:0:
55,284,52429,6,2,L|163:307,1,100,2|0,0:1|1:0,0:1:0:0:
186,341,52879,1,8,0:0:0:0:
251,265,53179,1,0,3:0:0:0:
349,284,53479,2,0,L|406:296,1,50,8|0,0:0|3:0,0:0:0:0:
446,282,53779,6,0,P|464:227|465:162,1,100,2|8,1:1|0:0,0:0:0:0:
457,135,54229,1,0,3:0:0:0:
418,42,54529,2,0,L|365:48,1,50,2|8,1:0|0:0,0:0:0:0:
319,58,54829,6,2,P|304:92|307:219,1,150,2|8,0:1|0:0,0:1:0:0:
327,251,55429,1,0,1:0:0:0:
327,251,55579,2,0,P|371:270|398:281,2,50,2|0|10,0:1|1:0|0:1,0:0:0:0:
245,309,56179,6,2,B|192:307|197:326|136:329,1,100,2|8,1:0|0:0,0:1:0:0:
104,353,56629,1,2,0:1:0:0:
6,331,56929,2,0,P|22:293|32:271,1,50,0|8,1:0|0:1,0:0:0:0:
19,235,57229,6,0,P|33:162|31:109,1,100,2|2,0:1|1:1,0:0:0:0:
25,91,57679,1,8,0:0:0:0:
25,91,57829,2,0,L|144:108,1,100,2|0,1:0|1:0,0:0:0:0:
170,88,58279,1,8,0:0:0:0:
253,32,58579,6,2,P|313:23|367:35,2,100,2|10|2,1:0|0:1|0:1,0:1:0:0:
282,127,59479,1,8,0:0:0:0:
282,127,59629,2,2,L|272:237,1,100,2|0,0:1|1:0,0:1:0:0:
290,273,60079,1,8,0:0:0:0:
365,338,60379,2,0,P|430:316|480:322,1,100,0|8,3:1|0:0,0:0:0:0:
497,283,60829,1,8,0:1:0:0:
497,283,60979,6,2,L|487:168,2,100,6|8|0,1:0|0:0|1:1,0:1:0:0:
406,240,61879,1,8,0:0:0:0:
406,240,62029,2,2,P|368:202|358:95,1,150,2|8,0:1|0:0,0:1:0:0:
270,52,62779,2,0,L|200:40,1,50,0|0,3:0|1:0,0:0:0:0:
175,21,63079,2,0,L|96:35,1,50,8|0,0:0|1:0,0:0:0:0:
84,58,63379,5,2,1:0:0:0:
151,132,63679,1,8,0:0:0:0:
77,199,63979,1,0,3:0:0:0:
77,199,64129,2,0,L|84:262,1,50,0|8,1:0|0:0,0:0:0:0:
49,287,64429,6,2,L|229:315,1,150,2|8,0:1|0:0,0:1:0:0:
233,344,65029,1,2,1:0:0:0:
313,284,65329,2,0,P|320:234|323:217,2,50,0|8|2,1:0|0:0|0:1,0:0:0:0:
345,322,65779,6,0,P|415:327|499:202,2,200,10|8|0,0:0|0:0|1:0,0:0:0:0:
310,285,67129,2,0,L|319:212,2,50,8|2|0,0:0|0:1|1:0,0:0:0:0:
269,311,67579,1,0,3:0:0:0:
269,311,67729,1,0,1:0:0:0:
177,270,68029,1,0,1:0:0:0:
256,192,68179,12,0,69379,0:0:0:0:
201,112,70429,6,0,L|208:52,2,44.999998626709,0|0|0,0:0|1:0|1:0,0:0:0:0:
224,156,70879,1,0,3:0:0:0:
224,156,71029,1,0,1:0:0:0:
240,317,72829,6,0,L|229:364,2,44.999998626709,0|0|0,3:0|1:0|1:0,0:0:0:0:
196,304,73279,2,0,L|78:323,1,89.9999972534181,0|0,3:0|1:0,0:0:0:0:
66,299,73729,1,0,3:0:0:0:
66,299,73879,1,0,1:0:0:0:
96,147,75229,6,0,L|104:101,2,44.999998626709,0|0|0,3:0|1:0|1:0,0:0:0:0:
140,139,75679,2,0,L|194:132,1,44.999998626709,0|0,3:0|1:0,0:0:0:0:
280,273,77629,6,0,L|318:297,2,44.999998626709,0|0|0,3:0|1:0|1:0,0:0:0:0:
316,246,78079,2,0,L|337:152,1,89.9999972534181,0|0,3:0|3:0,0:0:0:0:
369,128,78529,1,0,3:0:0:0:
369,128,78679,1,0,1:0:0:0:
298,74,80179,6,0,P|240:63|174:65,1,89.9999972534181,4|8,1:0|0:0,0:0:0:0:
169,84,80629,1,2,0:0:0:0:
103,145,80929,1,0,1:0:0:0:
103,145,81079,1,8,0:0:0:0:
45,214,81379,6,0,L|156:246,1,89.9999972534181,2|10,3:2|0:0,0:0:0:0:
183,312,81979,1,0,3:0:0:0:
266,279,82279,1,10,0:0:0:0:
340,330,82579,6,0,P|404:344|443:366,1,89.9999972534181,2|10,1:2|0:0,0:0:0:0:
470,350,83029,1,0,0:0:0:0:
508,220,83479,2,0,L|497:172,1,44.999998626709,10|0,0:0|0:0,0:0:0:0:
456,159,83779,6,0,B|403:148|403:148|383:136|383:136|298:118,2,134.999995880127,2|2|8,0:0|1:2|0:0,0:0:0:0:
511,88,84979,6,0,L|496:-13,1,89.9999972534181,6|8,1:2|0:0,0:0:0:0:
453,3,85429,1,0,0:0:0:0:
367,30,85729,2,0,L|311:36,1,44.999998626709,0|8,1:0|0:0,0:0:0:0:
276,33,86029,6,0,L|292:145,1,89.9999972534181,2|0,0:0|1:0,0:0:0:0:
327,203,86629,1,2,1:2:0:0:
285,284,86929,1,0,1:0:0:0:
285,284,87079,2,0,L|237:295,1,44.999998626709,8|0,0:0|0:0,0:0:0:0:
207,324,87379,6,0,P|161:302|91:307,1,89.9999972534181,2|8,1:2|0:0,0:0:0:0:
85,325,87829,1,2,0:0:0:0:
22,259,88129,1,2,1:2:0:0:
22,259,88279,6,0,L|11:149,2,89.9999972534181,8|0|8,0:0|0:0|0:0,0:0:0:0:
97,209,89179,1,0,3:0:0:0:
186,217,89479,1,10,0:0:0:0:
254,158,89779,6,0,P|264:99|263:35,2,89.9999972534181,2|8|0,1:2|0:0|0:0,0:0:0:0:
325,212,90679,1,8,0:0:0:0:
387,147,90979,2,0,L|489:166,1,89.9999972534181,2|8,0:0|0:0,0:0:0:0:
500,250,91579,2,0,L|491:343,1,89.9999972534181,2|10,0:0|0:0,0:0:0:0:
409,376,92179,5,2,1:2:0:0:
344,312,92479,2,0,L|247:328,1,89.9999972534181,8|0,0:0|3:0,0:0:0:0:
173,288,93079,1,10,0:0:0:0:
119,216,93379,6,0,P|136:160|137:60,2,134.999995880127,2|2|10,3:2|1:2|0:0,0:0:0:0:
46,269,94579,1,2,1:2:0:0:
96,343,94879,1,8,0:0:0:0:
96,343,95029,1,2,0:0:0:0:
177,305,95329,1,0,1:0:0:0:
257,344,95629,6,0,L|362:329,1,89.9999972534181,0|0,3:0|1:0,0:0:0:0:
419,279,96229,2,0,L|401:165,1,89.9999972534181,0|0,1:0|1:0,0:0:0:0:
424,149,96679,1,10,0:0:0:0:
356,89,96979,6,0,L|368:-2,2,89.9999972534181,2|8|0,1:2|0:0|3:0,0:0:0:0:
269,113,97879,2,0,P|203:119|129:105,1,134.999995880127,10|0,0:0|1:0,0:0:0:0:
45,101,98629,1,0,1:0:0:0:
10,183,98929,2,0,L|17:247,2,44.999998626709,0|8|0,1:0|0:0|0:0,0:0:0:0:
49,205,99379,5,4,1:0:0:0:
126,250,99679,1,0,1:0:0:0:
206,212,99979,1,8,0:0:0:0:
248,132,100279,1,2,0:0:0:0:
331,98,100579,6,0,P|399:110|451:233,1,179.999994506836,2|8,0:0|0:0,0:0:0:0:
407,275,101479,1,2,0:0:0:0:
334,328,101779,6,0,L|226:344,2,89.9999972534181,0|0|8,1:0|1:0|0:0,0:0:0:0:
280,255,102679,1,2,0:0:0:0:
200,213,102979,2,0,L|217:78,1,134.999995880127,2|0,0:0|1:0,0:0:0:0:
202,36,103579,1,8,0:0:0:0:
115,12,103879,1,2,0:0:0:0:
38,58,104179,6,0,L|21:161,1,89.9999972534181,2|0,1:2|1:0,0:0:0:0:
45,185,104629,2,0,L|32:250,1,44.999998626709,2|8,0:0|0:0,0:0:0:0:
14,316,105079,1,0,0:0:0:0:
137,369,105529,6,0,L|245:354,1,89.9999972534181,0|0,1:0|1:0,0:0:0:0:
263,330,105979,1,8,0:0:0:0:
218,251,106279,1,2,0:0:0:0:
262,172,106579,6,0,L|431:156,2,134.999995880127,2|2|2,1:2|0:0|0:0,0:0:0:0:
155,88,107929,2,0,P|197:72|251:62,1,89.9999972534181,0|0,1:0|1:0,0:0:0:0:
281,83,108379,1,8,0:0:0:0:
339,152,108679,1,2,0:0:0:0:
414,104,108979,6,0,L|447:19,2,89.9999972534181,6|0|8,1:2|1:0|0:0,0:0:0:0:
470,174,109879,1,2,0:0:0:0:
396,226,110179,2,0,L|414:383,1,134.999995880127,2|0,0:0|1:0,0:0:0:0:
370,378,110779,1,8,0:0:0:0:
287,342,111079,1,2,0:0:0:0:
239,265,111379,6,0,P|241:200|258:152,2,89.9999972534181,0|0|8,1:0|1:0|0:0,0:0:0:0:
326,244,112279,1,2,0:0:0:0:
390,180,112579,2,0,L|371:43,1,134.999995880127,2|0,0:0|1:0,0:0:0:0:
344,9,113179,1,8,0:0:0:0:
268,58,113479,1,2,0:0:0:0:
186,20,113779,6,0,L|89:8,1,89.9999972534181,2|0,1:2|1:0,0:0:0:0:
26,65,114379,2,0,L|45:167,1,89.9999972534181,8|0,0:0|0:0,0:0:0:0:
159,221,115129,1,0,1:0:0:0:
159,221,115279,2,0,L|145:297,1,44.999998626709,2|0,0:0|1:0,0:0:0:0:
118,297,115579,2,0,L|208:325,1,89.9999972534181,8|2,0:0|0:0,0:0:0:0:
282,279,116179,1,2,0:0:0:0:
256,192,116254,12,2,118579,0:3:0:0:
254,181,120379,5,0,3:0:0:0:
254,181,120529,2,0,L|243:79,1,89.9999972534181,0|0,3:0|3:0,0:0:0:0:
276,53,120979,6,2,L|382:67,1,100,6|8,1:0|0:0,0:1:0:0:
421,46,121429,1,2,3:0:0:0:
499,107,121729,2,0,L|505:170,1,50,0|10,1:0|0:1,0:0:0:0:
483,202,122029,6,0,P|439:218|368:210,1,100,2|0,0:1|1:0,0:0:0:0:
346,184,122479,1,10,0:1:0:0:
287,265,122779,1,2,3:1:0:0:
187,251,123079,2,0,L|119:248,1,50,8|2,0:0|3:1,0:0:0:0:
94,274,123379,6,0,P|85:216|90:163,1,100,2|8,1:0|0:0,0:0:0:0:
66,129,123829,1,0,3:0:0:0:
105,36,124129,2,0,L|152:19,1,50,2|10,1:0|0:1,0:0:0:0:
199,35,124429,6,2,P|215:90|203:182,1,150,2|8,1:0|0:0,0:1:0:0:
224,231,125029,1,0,1:0:0:0:
224,231,125179,2,0,L|212:291,2,50,2|0|10,3:1|1:0|0:1,0:0:0:0:
320,202,125779,6,0,P|374:210|416:252,1,100,6|8,1:0|0:0,0:0:0:0:
439,277,126229,1,2,0:1:0:0:
495,194,126529,2,0,P|489:162|487:123,1,50,0|8,1:0|0:0,0:0:0:0:
499,95,126829,6,0,P|453:85|398:63,1,100,2|0,0:1|1:0,0:0:0:0:
372,26,127279,1,8,0:0:0:0:
372,26,127429,2,0,L|264:43,1,100,2|2,1:0|1:0,0:0:0:0:
224,28,127879,1,8,0:0:0:0:
186,120,128179,6,2,P|178:184|177:231,2,100,4|8|0,1:2|0:0|3:0,0:1:0:0:
277,173,129079,1,8,0:0:0:0:
277,173,129229,2,0,B|329:172|320:194|382:196,1,100,2|0,0:1|1:0,0:0:0:0:
421,183,129679,1,8,0:0:0:0:
457,276,129979,2,0,P|420:299|346:310,1,100,2|8,0:1|0:0,0:0:0:0:
323,337,130429,1,8,0:0:0:0:
323,337,130579,6,0,L|221:351,2,100,4|8|0,1:0|0:0|0:0,0:0:0:0:
302,291,131329,2,0,L|281:234,1,50,0|8,1:0|0:0,0:0:0:0:
242,217,131629,2,0,L|257:54,1,150,2|10,0:1|0:1,0:0:0:0:
348,31,132379,2,0,L|414:24,1,50,0|0,3:0|1:0,0:0:0:0:
433,60,132679,2,0,L|443:113,1,50,8|2,0:0|3:1,0:0:0:0:
476,145,132979,5,4,1:2:0:0:
419,227,133279,1,8,0:0:0:0:
322,200,133579,1,0,3:0:0:0:
322,200,133729,2,0,L|266:191,1,50,0|8,1:0|0:0,0:0:0:0:
228,168,134029,6,2,L|211:335,1,150,2|10,0:1|0:1,0:1:0:0:
234,362,134629,1,2,1:0:0:0:
134,354,134929,2,0,L|76:371,2,50,0|8|0,1:0|0:0|3:0,0:0:0:0:
113,308,135379,1,0,1:0:0:0:
258,133,136429,5,0,1:0:0:0:
438,219,137029,1,8,0:0:0:0:
463,315,137329,1,8,0:0:0:0:
371,354,137629,1,8,0:0:0:0:
371,354,137779,6,2,L|261:369,1,100,6|8,1:0|0:0,0:1:0:0:
223,352,138229,1,0,3:0:0:0:
165,270,138529,1,0,1:0:0:0:
165,270,138679,1,10,0:1:0:0:
77,318,138979,6,0,L|14:331,2,50,0|0|8,3:0|1:0|0:0,0:0:0:0:
50,275,139429,1,0,1:0:0:0:
9,183,139729,1,0,1:0:0:0:
60,97,140029,1,0,3:0:0:0:
60,97,140179,6,2,P|49:54|11:7,2,100,2|8|0,1:0|0:0|3:0,0:1:0:0:
111,115,140929,1,0,1:0:0:0:
111,115,141079,1,8,0:0:0:0:
188,51,141379,6,0,L|199:2,2,50,2|0|8,3:0|1:0|0:0,0:0:0:0:
214,93,141829,1,0,1:0:0:0:
192,190,142129,1,0,1:0:0:0:
192,190,142279,1,10,0:1:0:0:
277,241,142579,6,2,P|338:258|391:268,1,100,2|8,1:0|0:0,0:1:0:0:
420,246,143029,1,2,0:1:0:0:
481,167,143329,2,0,L|469:115,1,50,2|10,1:0|0:1,0:0:0:0:
391,55,143779,2,0,L|398:-3,2,50,2|2|8,3:1|1:0|0:0,0:0:0:0:
343,72,144229,6,0,L|352:148,1,50,2|0,1:0|0:0,0:0:0:0:
334,169,144529,2,0,L|321:232,1,50,2|8,1:3|0:0,0:0:0:0:
252,288,144979,6,0,L|141:306,1,100,0|8,1:0|0:0,0:0:0:0:
112,333,145429,1,2,0:1:0:0:
25,282,145729,1,2,1:0:0:0:
25,282,145879,1,8,0:0:0:0:
11,182,146179,6,0,P|7:151|1:122,2,50,4|0|8,0:2|1:0|0:0,0:0:0:0:
94,126,146779,2,0,P|98:95|104:66,2,50,0|0|8,3:0|1:0|0:0,0:0:0:0:
135,153,147229,1,8,0:0:0:0:
135,153,147379,6,2,L|260:137,2,100,2|8|2,1:0|0:0|3:1,0:1:0:0:
123,201,148129,1,2,1:0:0:0:
123,201,148279,1,8,0:0:0:0:
185,278,148579,6,0,L|172:362,2,50,2|0|8,0:1|1:0|0:0,0:0:0:0:
234,273,149029,1,2,1:3:0:0:
311,336,149329,1,2,1:3:0:0:
405,302,149629,1,2,3:1:0:0:
405,302,149779,6,0,L|423:189,1,100,2|10,1:0|0:1,0:0:0:0:
381,110,150379,2,0,L|391:45,2,50,2|0|10,3:1|1:0|0:1,0:0:0:0:
289,152,150979,6,0,L|223:159,1,50,4|0,0:2|1:0,0:0:0:0:
193,137,151279,1,8,0:0:0:0:
193,137,151429,2,2,L|181:9,1,100,2|2,1:0|1:0,0:1:0:0:
148,1,151879,1,10,0:1:0:0:
65,57,152179,6,0,P|34:117|44:258,2,200,2|10|0,1:1|0:1|1:0,0:0:0:0:
208,103,153829,1,0,1:0:0:0:
264,185,154129,1,0,1:0:0:0:
359,155,154429,1,2,1:0:0:0:
256,192,154579,12,2,155779,0:0:0:0:
219,75,176179,5,2,3:0:0:0:
350,97,180379,6,0,L|211:80,1,100,0|0,3:0|3:0,0:0:0:0:
206,103,180829,1,0,3:0:0:0:
206,103,180979,6,2,L|223:242,1,100,6|0,1:0|0:0,0:1:0:0:
198,248,181429,1,2,3:0:0:0:
280,304,181729,2,0,L|346:321,1,50,0|8,1:0|0:0,0:0:0:0:
360,354,182029,6,2,P|384:301|390:230,1,100,2|0,0:1|1:0,0:1:0:0:
367,215,182479,1,8,0:0:0:0:
444,151,182779,1,2,3:1:0:0:
388,68,183079,2,0,L|376:4,1,50,8|2,0:0|0:1,0:0:0:0:
330,5,183379,6,0,L|186:28,1,100,0|8,1:2|0:0,0:0:0:0:
194,54,183829,1,0,0:0:0:0:
246,139,184129,1,2,1:0:0:0:
246,139,184279,1,10,0:1:0:0:
160,191,184579,6,0,L|42:208,1,100,2|8,3:1|0:0,0:0:0:0:
33,247,185029,1,0,1:0:0:0:
33,247,185179,2,0,L|16:310,2,50,2|0|10,3:1|1:0|0:1,0:0:0:0:
110,311,185779,6,2,P|173:333|221:327,1,100,2|8,1:0|0:0,0:1:0:0:
251,310,186229,1,2,0:1:0:0:
348,287,186529,2,0,P|351:252|357:225,1,50,0|8,1:0|0:0,0:0:0:0:
340,189,186829,6,0,P|319:133|311:68,1,100,2|2,3:0|1:0,0:0:0:0:
330,49,187279,1,8,0:0:0:0:
330,49,187429,2,0,L|437:70,1,100,2|0,1:0|1:0,0:0:0:0:
476,54,187879,1,8,0:0:0:0:
499,151,188179,6,2,P|491:215|490:262,2,100,4|8|0,1:2|0:0|3:0,0:1:0:0:
411,199,189079,1,8,0:0:0:0:
411,199,189229,2,0,L|285:212,1,100,2|0,0:1|1:0,0:0:0:0:
266,187,189679,1,8,0:0:0:0:
191,253,189979,6,0,B|140:252|143:277|67:275,1,100,0|8,3:0|0:0,0:0:0:0:
45,262,190429,1,8,0:0:0:0:
45,262,190579,6,2,L|27:124,2,100,6|8|0,1:0|0:0|3:0,0:1:0:0:
117,192,191479,1,8,0:0:0:0:
117,192,191629,6,0,P|171:159|186:67,1,150,2|10,0:1|0:1,0:0:0:0:
257,5,192379,2,0,L|309:17,1,50,2|0,3:1|1:0,0:0:0:0:
336,56,192679,2,0,L|347:114,1,50,8|0,0:0|3:0,0:0:0:0:
371,147,192979,5,2,1:0:0:0:
325,236,193279,1,8,0:0:0:0:
360,329,193579,1,0,3:0:0:0:
360,329,193729,2,0,L|427:345,2,50,2|10|2,1:0|0:1|3:0,0:0:0:0:
309,330,194179,6,0,L|204:346,1,100,2|8,0:1|0:0,0:0:0:0:
166,320,194629,1,2,1:0:0:0:
185,222,194929,2,0,L|197:166,2,50,0|8|0,1:0|0:0|3:0,0:0:0:0:
142,195,195379,1,0,1:0:0:0:
287,117,196429,5,0,1:0:0:0:
354,305,197029,1,8,0:0:0:0:
448,273,197329,2,0,L|460:224,2,50,8|0|8,0:0|1:0|0:0,0:0:0:0:
454,322,197779,1,0,1:0:0:0:
361,358,198079,6,0,L|294:372,2,50,8|8|8,0:0|0:0|0:0,0:0:0:0:
354,305,198529,2,0,L|370:236,2,50,0|8|8,1:0|0:0|0:0,0:0:0:0:
310,281,198979,5,0,1:0:0:0:
224,333,199279,1,8,0:0:0:0:
224,333,199429,1,0,1:0:0:0:
155,260,199729,1,0,1:0:0:0:
218,183,200029,1,0,1:0:0:0:
125,65,200479,6,2,P|47:73|11:156,1,150,6|0,1:0|1:0,0:1:0:0:
23,177,201079,1,8,0:0:0:0:
83,256,201379,6,0,L|74:316,2,50,2|0|8,3:0|1:0|0:0,0:0:0:0:
165,198,201979,2,0,L|237:220,1,50,2|0,0:1|1:0,0:0:0:0:
248,247,202279,1,10,0:1:0:0:
336,200,202579,6,0,L|472:183,1,100,2|8,1:0|0:0,0:0:0:0:
483,172,203029,1,2,0:1:0:0:
438,82,203329,2,0,L|423:27,1,50,0|8,1:0|0:1,0:0:0:0:
380,11,203629,6,0,L|244:30,1,100,2|0,3:1|1:0,0:0:0:0:
251,65,204079,1,8,0:0:0:0:
251,65,204229,1,2,1:0:0:0:
185,140,204529,2,0,L|126:133,2,50,0|8|2,1:0|0:0|0:1,0:0:0:0:
227,166,204979,6,0,P|245:213|247:296,1,100,0|8,1:0|0:0,0:0:0:0:
280,302,205429,1,2,0:1:0:0:
207,371,205729,1,0,1:0:0:0:
207,371,205879,1,8,0:0:0:0:
207,371,206029,6,0,L|62:355,1,100,2|0,0:1|1:0,0:0:0:0:
58,370,206479,1,8,0:0:0:0:
6,284,206779,2,0,L|17:229,1,50,2|0,0:1|1:0,0:0:0:0:
44,194,207079,2,0,L|40:121,1,50,8|10,0:0|0:1,0:0:0:0:
19,99,207379,6,2,P|66:73|134:77,1,100,4|8,1:2|0:0,0:1:0:0:
156,93,207829,1,2,0:1:0:0:
246,49,208129,2,0,L|253:-3,2,50,0|8|2,1:0|0:0|0:1,0:0:0:0:
266,95,208579,5,2,3:0:0:0:
344,156,208879,2,0,L|399:157,2,50,8|0|0,0:0|1:0|3:0,0:0:0:0:
308,192,209329,1,0,1:0:0:0:
308,192,209479,1,8,0:0:0:0:
321,291,209779,6,0,L|428:320,2,100,2|8|0,1:0|0:0|0:0,0:0:0:0:
272,303,210529,2,0,L|200:323,1,50,0|8,1:0|0:0,0:0:0:0:
175,303,210829,6,2,P|167:243|177:178,1,100,2|0,0:1|1:0,0:1:0:0:
198,161,211279,1,8,0:0:0:0:
198,161,211429,1,2,1:0:0:0:
271,93,211729,2,0,L|263:37,2,50,0|8|2,1:0|0:0|0:1,0:0:0:0:
317,111,212179,5,2,1:0:0:0:
180,260,213229,1,0,1:0:0:0:
241,69,213829,1,8,0:0:0:0:
157,19,214129,1,8,0:0:0:0:
69,67,214429,1,8,0:0:0:0:
69,67,214579,6,2,L|51:182,1,100,6|8,1:0|0:0,0:1:0:0:
17,200,215029,1,2,3:0:0:0:
64,288,215329,2,0,L|48:347,2,50,2|8|2,1:0|0:0|0:1,0:0:0:0:
108,265,215779,6,0,L|162:252,2,50,2|0|8,3:0|1:0|0:0,0:0:0:0:
137,305,216229,2,0,L|257:333,1,100,0|0,1:0|1:0,0:0:0:0:
265,367,216679,1,8,0:0:0:0:
350,315,216979,6,0,L|419:333,2,50,2|0|8,1:3|3:0|0:0,0:0:0:0:
297,229,217579,1,2,3:0:0:0:
297,229,217729,2,0,L|285:169,2,50,0|8|0,1:0|0:0|3:0,0:0:0:0:
342,208,218179,6,0,P|386:184|422:135,1,100,2|8,0:1|0:0,0:0:0:0:
375,54,218779,2,0,P|306:33|244:32,1,100,2|8,0:1|0:0,0:0:0:0:
193,83,219379,6,0,L|126:90,2,50,2|0|8,1:0|0:0|0:0,0:0:0:0:
235,173,219979,1,2,3:1:0:0:
170,249,220279,1,8,0:0:0:0:
222,333,220579,6,0,L|212:388,2,50,2|0|8,0:1|1:0|0:0,0:0:0:0:
262,303,221029,1,0,1:0:0:0:
262,303,221179,1,2,0:1:0:0:
351,347,221479,1,8,0:0:0:0:
425,279,221779,6,0,L|431:221,1,50,2|0,1:0|3:0,0:0:0:0:
462,191,222079,1,8,0:0:0:0:
493,96,222379,1,0,3:0:0:0:
493,96,222529,1,0,1:0:0:0:
418,29,222829,1,0,3:0:0:0:
418,29,222979,5,2,3:0:0:0:
322,58,223279,1,8,0:0:0:0:
322,58,223429,2,0,L|312:5,2,50,0|0|0,1:0|3:0|1:0,0:0:0:0:
302,103,223879,2,0,L|281:176,1,50,8|8,0:0|0:0,0:0:0:0:
300,199,224179,6,0,L|167:226,1,100,4|8,1:2|0:0,0:0:0:0:
126,284,224779,1,0,3:0:0:0:
126,284,224929,2,0,L|7:270,1,100,0|0,1:0|3:0,0:0:0:0:
12,224,225379,5,2,3:0:0:0:
34,126,225679,2,0,L|18:78,2,50,8|0|0,0:0|1:0|3:0,0:0:0:0:
83,119,226129,1,0,1:0:0:0:
83,119,226279,1,8,0:0:0:0:
112,23,226579,5,0,1:0:0:0:
207,52,226879,2,0,L|324:27,1,100,8|0,0:0|3:0,0:0:0:0:
346,3,227329,1,0,1:0:0:0:
431,54,227629,1,0,3:0:0:0:
431,54,227779,5,2,3:0:0:0:
397,148,228079,2,0,L|405:210,2,50,8|0|0,0:0|1:0|3:0,0:0:0:0:
347,146,228529,2,0,L|273:141,2,50,0|8|0,1:0|0:0|3:0,0:0:0:0:
317,186,228979,5,0,1:0:0:0:
187,242,230029,1,0,1:0:0:0:
360,340,230629,6,0,L|475:328,1,100,8|8,0:0|0:0,0:0:0:0:
491,291,231079,2,0,L|471:245,1,50,0|8,3:0|0:0,0:0:0:0:
481,196,231379,1,4,3:1:0:0:
256,192,231454,12,2,233779,0:0:0:0:
407,96,234979,6,0,P|353:74|291:88,1,112.500004291535,2|0,0:0|0:0,0:0:0:0:
280,113,235579,1,0,0:0:0:0:
280,113,235729,1,2,0:0:0:0:
281,225,236179,1,2,0:0:0:0:
281,225,237379,6,0,P|235:246|168:253,1,112.500004291535,2|0,0:0|0:0,0:0:0:0:
100,244,238129,1,0,0:0:0:0:
23,146,238579,2,0,L|37:71,1,75.0000028610231,2|0,0:0|0:0,0:0:0:0:
139,3,239329,1,0,0:0:0:0:
235,81,239779,6,0,L|390:105,1,150.000005722046,2|2,0:0|0:0,0:0:0:0:
506,213,240979,1,2,0:0:0:0:
310,310,242179,6,0,L|287:192,1,112.500004291535,2|0,0:0|0:0,0:0:0:0:
349,2,243379,1,2,0:0:0:0:
243,64,244579,6,0,L|118:87,1,112.500004291535,2|0,0:0|0:0,0:0:0:0:
19,257,245779,1,2,0:0:0:0:
258,301,246829,1,2,0:0:0:0:
234,197,248629,6,0,L|238:154,2,37.5000014305115,2|0|0,0:0|0:0|0:0,0:0:0:0:
264,273,249229,1,0,0:0:0:0:
