osu file format v14

[General]
AudioFilename: audio.mp3
AudioLeadIn: 0
PreviewTime: 50779
Countdown: 0
SampleSet: Soft
StackLeniency: 0.7
Mode: 0
LetterboxInBreaks: 0
WidescreenStoryboard: 1

[Editor]
DistanceSpacing: 1
BeatDivisor: 4
GridSize: 32
TimelineZoom: 1.6

[Metadata]
Title:Ether
TitleUnicode:エーテル
Artist:Feryquitous feat. Aitsuki Nakuru
ArtistUnicode:Feryquitous feat. 藍月なくる
Creator:Gibune
Version:Hard
Source:
Tags:Japanese rock jrock vocal JelLaboratory featured artist fa mpg mappers' guild
BeatmapID:2874299
BeatmapSetID:1341385

[Difficulty]
HPDrainRate:5
CircleSize:4
OverallDifficulty:6
ApproachRate:8
SliderMultiplier:1.4
SliderTickRate:1

[Events]
//Background and Video events
0,0,"Ether.png",0,0
//Break Periods
2,156979,175429
2,176379,179029
//Storyboard Layer 0 (Background)
//Storyboard Layer 1 (Fail)
//Storyboard Layer 2 (Pass)
//Storyboard Layer 3 (Foreground)
//Storyboard Layer 4 (Overlay)
//Storyboard Sound Samples

[TimingPoints]
3379,300,4,2,2,10,1,0
10579,-100,4,2,2,50,0,0
11479,-200,4,2,2,50,0,0
29479,-111.111111111111,4,2,2,50,0,0
29779,-111.111111111111,4,2,2,60,0,0
51379,-90.9090909090909,4,2,1,75,0,0
70429,-90.9090909090909,4,2,1,70,0,0
70579,-100,4,2,1,70,0,0
99379,-133.333333333333,4,2,1,60,0,0
119779,-133.333333333333,4,2,1,50,0,0
120079,-133.333333333333,4,2,1,55,0,0
120379,-133.333333333333,4,2,1,65,0,0
120679,-133.333333333333,4,2,1,70,0,0
120979,-90.9090909090909,4,2,1,75,0,0
176179,-90.9090909090909,4,2,1,30,0,0
179779,-90.9090909090909,4,2,1,50,0,0
180079,-90.9090909090909,4,2,1,55,0,0
180379,-90.9090909090909,4,2,1,65,0,0
180679,-90.9090909090909,4,2,1,70,0,0
180979,-90.9090909090909,4,2,1,75,0,0
198079,-90.9090909090909,4,2,1,80,0,0
200479,-90.9090909090909,4,2,1,75,0,0
231379,-90.9090909090909,4,2,2,30,0,0
234979,-200,4,2,2,30,0,0

[Colours]
Combo1 : 17,254,176
Combo2 : 173,255,95
Combo3 : 255,88,100
Combo4 : 255,94,55

[HitObjects]
256,192,8179,12,2,10579,0:0:0:0:
306,79,11479,5,0,0:0:0:0:
306,79,11779,2,0,L|316:158,1,70,2|0,0:0|0:0,0:0:0:0:
376,191,12379,2,0,L|367:277,1,70,2|0,0:0|0:0,0:0:0:0:
414,323,12979,1,2,0:0:0:0:
355,370,13279,1,0,0:0:0:0:
355,370,13879,1,0,0:0:0:0:
273,335,14179,6,0,L|162:354,2,105,2|0|0,0:0|0:0|0:0,0:0:0:0:
296,260,15379,1,2,0:0:0:0:
256,192,15454,12,2,17779,0:0:0:0:
95,241,18679,5,0,0:0:0:0:
162,196,18979,2,0,L|241:190,1,70
289,138,19579,2,0,L|371:155,1,70,2|0,0:0|0:0,0:0:0:0:
413,213,20179,1,2,0:0:0:0:
413,213,21079,5,0,0:0:0:0:
460,153,21379,2,0,L|451:75,1,70,2|2,0:0|3:0,0:0:0:0:
394,32,21979,2,0,L|317:41,1,70
253,14,22579,1,2,0:0:0:0:
202,72,22879,2,0,L|211:152,1,70,2|0,0:0|0:0,0:0:0:0:
276,186,23479,1,0,0:0:0:0:
224,241,23779,6,0,L|107:228,2,105,2|2|0,0:0|0:0|0:0,0:0:0:0:
283,292,24979,1,2,0:0:0:0:
256,192,25054,12,2,26479,3:0:0:0:
218,115,27079,5,0,0:0:0:0:
261,186,27379,1,2,0:0:0:0:
256,192,27454,12,2,28879,3:0:0:0:
317,81,29479,5,0,0:0:0:0:
317,81,29779,2,0,P|238:93|185:98,1,125.999996154785,2|8,1:2|0:0,0:0:0:0:
5,55,30679,1,8,0:0:0:0:
82,5,30979,2,0,P|88:50|96:90,2,62.9999980773926,2|0|8,0:0|3:0|0:0,0:0:0:0:
190,66,31579,1,8,0:0:0:0:
113,167,31879,1,0,3:0:0:0:
202,249,32179,6,0,P|239:242|273:237,3,62.9999980773926,2|0|8|0,1:2|3:0|0:0|3:0,0:0:0:0:
264,238,33079,1,2,0:0:0:0:
348,346,33379,2,0,P|352:309|358:270,2,62.9999980773926,0|8|10,1:0|0:0|0:0,0:0:0:0:
462,293,33979,1,8,0:0:0:0:
396,187,34279,1,8,0:0:0:0:
483,94,34579,6,0,P|486:52|489:16,2,62.9999980773926,2|0|8,1:2|0:0|0:0,0:0:0:0:
434,78,35029,1,2,0:0:0:0:
385,63,35179,2,0,L|248:80,1,125.999996154785
133,62,35779,6,0,P|139:26|142:-5,2,62.9999980773926,0|0|8,0:0|3:0|0:0,0:0:0:0:
101,101,36229,1,0,0:0:0:0:
76,278,36679,2,0,P|116:284|145:291,1,62.9999980773926,8|0,0:0|3:0,0:0:0:0:
176,321,36979,6,0,P|226:311|254:304,3,62.9999980773926,10|0|8|2,0:0|3:0|0:0|0:0,0:0:0:0:
381,213,37879,2,0,L|443:223,1,62.9999980773926,2|0,0:0|0:0,0:0:0:0:
495,110,38329,1,10,0:0:0:0:
495,110,38479,2,0,P|476:64|465:33,1,62.9999980773926
422,37,38779,2,0,P|364:47|276:57,1,125.999996154785,2|0,0:0|0:0,0:0:0:0:
226,166,39379,6,0,P|217:133|203:87,2,62.9999980773926,2|8|0,0:0|0:0|3:0,0:0:0:0:
319,352,40279,1,0,3:0:0:0:
319,352,40579,2,0,P|357:342|392:336,2,62.9999980773926,2|8|8,3:2|0:0|0:0,0:0:0:0:
193,329,41179,1,8,0:0:0:0:
216,206,41479,2,0,P|228:166|236:130,1,62.9999980773926,0|0,3:0|0:0,0:0:0:0:
186,124,41779,6,0,P|153:130|121:133,3,62.9999980773926,10|0|8|0,0:0|3:0|0:0|3:0,0:0:0:0:
13,284,42679,2,0,P|21:325|29:355,1,62.9999980773926,2|8,0:0|0:0,0:0:0:0:
72,366,42979,2,0,P|132:354|266:343,2,188.999994232178,2|0|2,0:0|3:0|0:0,0:0:0:0:
151,248,44179,6,0,P|160:198|168:167,3,62.9999980773926,10|0|0|0,0:0|0:0|3:0|0:0,0:0:0:0:
205,159,44779,2,0,P|267:166|343:181,2,125.999996154785,0|8|2,0:0|0:0|0:0,0:0:0:0:
183,113,45529,1,8,0:0:0:0:
183,113,45679,1,8,0:0:0:0:
274,22,45979,2,0,P|308:27|345:34,1,62.9999980773926,2|0,0:0|0:0,0:0:0:0:
375,64,46279,2,0,P|428:61|456:55,1,62.9999980773926,0|8,3:0|0:0,0:0:0:0:
472,22,46579,5,0,3:0:0:0:
256,192,46654,12,2,48979,0:3:0:0:
296,48,50779,5,2,0:0:0:0:
328,88,50929,2,0,L|313:225,1,125.999996154785,2|0,0:0|0:0,0:0:0:0:
347,285,51379,6,2,B|275:285|286:324|168:323,1,154.000004699707,6|8,1:0|0:0,0:1:0:0:
133,371,51829,1,2,3:0:0:0:
133,371,52129,1,0,1:0:0:0:
76,308,52279,1,8,0:0:0:0:
131,243,52429,6,2,P|146:160|156:73,1,154.000004699707,2|0,0:1|1:0,0:1:0:0:
226,41,52879,2,0,P|281:31|325:20,1,77.0000023498536,8|0,0:0|1:0,0:0:0:0:
386,56,53179,2,0,P|369:98|351:146,1,77.0000023498536,0|0,3:0|1:0,0:0:0:0:
292,177,53479,1,8,0:0:0:0:
349,238,53629,1,0,3:0:0:0:
279,317,53779,6,0,L|260:141,2,154.000004699707,2|8|0,1:1|0:0|0:0,0:0:0:0:
210,375,54529,1,2,1:0:0:0:
210,375,54679,1,8,0:0:0:0:
134,326,54829,6,2,B|119:270|119:270|126:232|126:232|107:157,1,154.000004699707,2|2,0:1|1:0,0:1:0:0:
71,100,55279,2,0,P|29:115|-1:129,1,77.0000023498536,8|0,0:0|1:0,0:0:0:0:
57,24,55579,1,2,0:1:0:0:
137,50,55729,1,0,1:0:0:0:
209,12,55879,2,0,P|254:18|305:23,1,77.0000023498536,10|0,0:1|1:0,0:0:0:0:
374,81,56179,6,2,P|349:111|355:235,1,154.000004699707,2|8,1:0|0:0,0:1:0:0:
435,220,56629,1,2,0:1:0:0:
435,220,56929,1,0,1:0:0:0:
476,293,57079,1,8,0:1:0:0:
406,341,57229,6,0,P|368:347|326:354,2,77.0000023498536,2|2|2,0:1|3:0|1:1,0:0:0:0:
362,262,57679,1,8,0:0:0:0:
271,255,57829,2,0,P|248:218|232:93,1,154.000004699707,2|0,1:0|1:0,0:0:0:0:
180,46,58279,1,8,0:0:0:0:
180,46,58429,1,0,3:0:0:0:
112,93,58579,6,2,B|8:123|8:123|48:176,2,154.000004699707,2|10|2,1:0|0:1|0:1,0:1:0:0:
166,160,59329,2,0,P|161:200|154:250,2,77.0000023498536,0|8|2,1:0|0:0|0:1,0:0:0:0:
238,84,59779,5,0,0:0:0:0:
290,141,59929,1,0,1:0:0:0:
349,93,60079,2,0,P|396:89|437:87,1,77.0000023498536,8|0,0:0|1:0,0:0:0:0:
470,164,60379,1,0,3:1:0:0:
470,164,60529,2,0,P|460:211|456:248,1,77.0000023498536,0|8,1:0|0:0,0:0:0:0:
486,309,60829,1,8,0:1:0:0:
396,356,60979,6,2,P|388:300|367:184,2,154.000004699707,6|8|0,1:0|0:0|1:1,0:1:0:0:
312,342,61729,1,0,1:0:0:0:
252,278,61879,1,8,0:0:0:0:
279,195,62029,6,2,L|294:29,1,154.000004699707,2|0,0:1|1:0,0:1:0:0:
215,63,62479,2,0,P|160:71|136:73,1,77.0000023498536,8|0,0:0|1:0,0:0:0:0:
60,44,62779,2,0,P|53:89|48:132,1,77.0000023498536,0|0,3:0|1:0,0:0:0:0:
81,197,63079,1,8,0:0:0:0:
81,197,63229,1,0,1:0:0:0:
14,289,63379,6,0,P|69:278|164:357,2,154.000004699707,2|8|0,1:0|0:0|3:0,0:0:0:0:
42,369,64129,1,0,1:0:0:0:
42,369,64279,1,8,0:0:0:0:
122,366,64429,6,2,P|205:357|281:348,1,154.000004699707,2|0,0:1|1:0,0:1:0:0:
319,285,64879,1,8,0:0:0:0:
415,320,65029,1,2,1:0:0:0:
415,320,65329,1,0,1:0:0:0:
472,257,65479,1,8,0:0:0:0:
426,186,65629,1,2,0:1:0:0:
472,115,65779,6,0,L|486:-2,2,102.666669799805,10|0|2,0:0|1:0|1:0,0:0:0:0:
365,89,66379,2,0,L|254:103,2,102.666669799805,8|2|10,0:0|1:0|0:1,0:0:0:0:
355,200,66979,6,0,P|343:261|343:296,2,77.0000023498536,0|8|2,1:0|0:0|0:1,0:0:0:0:
269,200,67429,2,0,P|232:208|190:216,1,77.0000023498536,0|0,1:0|3:0,0:0:0:0:
137,273,67729,1,0,1:0:0:0:
61,252,67879,1,0,3:0:0:0:
50,176,68029,1,0,1:0:0:0:
256,192,68104,12,0,70279,0:0:0:0:
296,122,70579,6,0,L|211:132,1,70,0|0,1:0|1:0,0:0:0:0:
172,187,70879,1,0,3:0:0:0:
172,187,71029,1,0,1:0:0:0:
50,83,71479,6,0,L|34:227,1,140,0|0,1:0|0:0,0:0:0:0:
112,242,71929,2,0,L|126:391,1,140,2|0,0:3|3:0,0:0:0:0:
199,349,72379,2,0,L|241:357,3,35,0|0|0|0,3:0|3:0|3:0|3:0,0:0:0:0:
254,343,72679,2,0,L|295:337,3,35,0|0|0|0,3:0|3:0|3:0|3:0,0:0:0:0:
309,348,72979,6,0,L|323:262,1,70,0|0,1:0|1:0,0:0:0:0:
387,235,73279,2,0,L|372:139,1,70,0|0,3:0|1:0,0:0:0:0:
324,110,73579,1,0,1:0:0:0:
263,158,73729,1,0,3:0:0:0:
223,90,73879,1,0,1:0:0:0:
223,90,74329,1,0,3:0:0:0:
223,90,74779,1,2,1:0:0:0:
101,160,75079,5,2,1:0:0:0:
32,127,75229,1,0,3:0:0:0:
5,198,75379,2,0,L|15:290,1,70,0|0,1:0|1:0,0:0:0:0:
77,316,75679,1,0,3:0:0:0:
77,316,75829,1,0,1:0:0:0:
259,206,76279,6,0,P|263:154|269:119,2,70,0|0|0,1:0|3:0|3:0,0:0:0:0:
309,274,76729,1,2,0:3:0:0:
309,274,77179,1,2,0:3:0:0:
309,274,77629,1,0,3:0:0:0:
374,316,77779,6,0,L|456:331,1,70,0|0,1:0|1:0,0:0:0:0:
491,264,78079,2,0,L|422:251,1,70,0|0,3:0|3:0,0:0:0:0:
390,185,78379,1,0,3:0:0:0:
434,125,78529,1,0,3:0:0:0:
503,151,78679,1,0,1:0:0:0:
408,36,78979,5,0,3:0:0:0:
336,62,79129,1,2,0:3:0:0:
336,62,79579,2,0,P|283:43|206:151,1,210,2|0,0:3|3:3,0:0:0:0:
277,192,80179,6,0,P|265:272|261:349,2,140,4|8|0,1:0|0:0|0:0,0:0:0:0:
195,224,80929,1,0,1:0:0:0:
121,198,81079,1,8,0:0:0:0:
48,231,81229,6,0,P|37:306|43:386,1,140,0|0,0:0|1:0,0:0:0:0:
119,346,81679,1,10,0:0:0:0:
198,384,81829,1,0,1:0:0:0:
198,384,82129,1,0,1:0:0:0:
257,330,82279,2,0,L|249:250,1,70,10|0,0:0|0:0,0:0:0:0:
315,194,82579,6,0,B|395:179|384:225|479:210,2,140,2|10|0,1:2|0:0|0:0,0:0:0:0:
257,143,83329,1,0,1:0:0:0:
184,164,83479,2,0,L|103:178,1,70,10|0,0:0|0:0,0:0:0:0:
34,139,83779,6,0,P|39:100|40:66,2,70,2|0|8,0:0|1:0|1:0,0:0:0:0:
47,219,84229,2,0,P|51:291|51:372,1,140,2|0,1:2|1:0,0:0:0:0:
131,302,84679,2,0,L|205:313,1,70,8|0,0:0|0:0,0:0:0:0:
279,367,84979,6,0,P|295:316|295:207,1,140,6|8,1:2|0:0,0:0:0:0:
247,173,85429,1,0,0:0:0:0:
247,173,85729,1,0,1:0:0:0:
275,100,85879,1,8,0:0:0:0:
351,77,86029,6,0,P|416:87|495:99,1,140,2|0,0:0|1:0,0:0:0:0:
446,169,86479,1,8,0:0:0:0:
446,169,86629,2,0,B|452:216|452:216|465:255|465:255|470:317,1,140,2|0,1:2|1:0,0:0:0:0:
390,273,87079,2,0,P|348:267|306:261,1,70,8|0,0:0|0:0,0:0:0:0:
255,316,87379,6,0,L|271:387,1,70,2|0,1:2|0:0,0:0:0:0:
190,362,87679,1,8,0:0:0:0:
141,305,87829,1,2,0:0:0:0:
181,244,87979,2,0,P|186:199|185:155,1,70,2|2,0:0|1:2,0:0:0:0:
119,134,88279,2,0,L|41:143,1,70,8|2,0:0|0:0,0:0:0:0:
16,219,88579,6,0,P|24:258|30:303,2,70,0|0|8,0:0|1:0|0:0,0:0:0:0:
99,240,89029,1,0,1:0:0:0:
141,305,89179,2,0,P|134:361|130:395,1,70,0|0,3:0|1:0,0:0:0:0:
211,353,89479,2,0,P|255:346|310:343,1,70,10|0,0:0|0:0,0:0:0:0:
344,285,89779,6,0,P|331:234|373:141,1,140,2|8,1:2|0:0,0:0:0:0:
439,149,90229,1,0,3:0:0:0:
439,149,90529,1,0,1:0:0:0:
480,88,90679,1,8,0:0:0:0:
441,27,90829,1,0,0:0:0:0:
366,48,90979,6,0,P|319:44|270:38,2,70,2|0|8,0:0|1:0|0:0,0:0:0:0:
338,120,91429,1,0,1:0:0:0:
338,120,91729,1,0,1:0:0:0:
271,157,91879,2,0,P|228:147|191:142,1,70,10|0,0:0|0:0,0:0:0:0:
118,101,92179,6,0,P|126:179|131:254,2,140,2|8|0,1:2|0:0|3:0,0:0:0:0:
63,51,92929,1,0,1:0:0:0:
126,6,93079,2,0,L|200:14,1,70,10|0,0:0|0:0,0:0:0:0:
255,66,93379,6,0,P|295:55|334:48,2,70,2|0|8,3:2|1:0|0:0,0:0:0:0:
243,143,93829,2,0,P|282:154|401:152,1,140,2|0,1:2|1:0,0:0:0:0:
436,105,94279,2,0,P|477:99|507:96,1,70,10|0,0:0|0:0,0:0:0:0:
501,179,94579,6,0,B|481:246|512:243|492:326,1,140,2|8,1:2|0:0,0:0:0:0:
424,343,95029,1,2,0:0:0:0:
424,343,95329,1,0,1:0:0:0:
355,304,95479,1,8,0:0:0:0:
392,236,95629,6,0,P|384:169|371:90,1,140,0|0,3:0|1:0,0:0:0:0:
307,62,96079,1,8,0:0:0:0:
237,87,96229,2,0,L|164:98,1,70,0|0,1:0|0:0,0:0:0:0:
219,165,96529,1,0,1:0:0:0:
196,236,96679,2,0,L|188:314,1,70,10|0,0:0|0:0,0:0:0:0:
242,365,96979,6,0,P|276:359|327:368,1,70,2|0,1:2|0:0,0:0:0:0:
375,322,97279,2,0,P|383:284|395:243,2,70,8|0|0,0:0|3:0|3:0,0:0:0:0:
305,281,97729,1,0,1:0:0:0:
289,207,97879,1,10,0:0:0:0:
289,207,98029,6,0,P|305:142|318:49,1,140,0|0,0:0|1:0,0:0:0:0:
383,27,98479,1,8,0:0:0:0:
455,69,98629,2,0,P|460:152|471:221,1,140,0|0,1:0|1:0,0:0:0:0:
425,271,99079,1,8,0:0:0:0:
300,224,99379,6,0,P|256:232|189:245,1,105.000004005432,4|0,1:0|1:0,0:0:0:0:
120,317,99979,1,8,0:0:0:0:
34,261,100279,1,2,0:0:0:0:
97,172,100579,5,2,0:0:0:0:
97,172,100729,2,0,P|86:94|77:45,1,105.000004005432,0|0,1:0|1:0,0:0:0:0:
119,48,101179,2,0,L|183:61,1,52.5000020027161,8|0,0:0|1:0,0:0:0:0:
209,43,101479,1,2,0:0:0:0:
286,109,101779,6,0,P|295:162|296:231,2,105.000004005432,0|0|8,1:0|1:0|0:0,0:0:0:0:
371,48,102679,1,2,0:0:0:0:
455,112,102979,1,2,0:0:0:0:
455,112,103129,2,0,P|462:169|466:224,1,105.000004005432,0|0,1:0|1:0,0:0:0:0:
438,249,103579,1,8,0:0:0:0:
438,249,103729,2,0,L|375:241,1,52.5000020027161,0|2,1:0|0:0,0:0:0:0:
288,277,104179,6,0,P|229:286|170:291,1,105.000004005432,2|0,1:2|1:0,0:0:0:0:
152,317,104629,1,2,0:0:0:0:
152,317,104779,1,8,0:0:0:0:
247,364,105079,1,0,0:0:0:0:
282,263,105379,5,0,3:0:0:0:
282,263,105529,1,0,1:0:0:0:
242,167,105829,1,0,1:0:0:0:
242,167,105979,2,0,L|248:94,1,52.5000020027161,8|0,0:0|1:0,0:0:0:0:
276,85,106279,1,2,0:0:0:0:
183,30,106579,6,0,P|101:45|70:50,1,105.000004005432,2|0,1:2|1:0,0:0:0:0:
53,81,107029,1,2,0:0:0:0:
53,81,107179,1,8,0:0:0:0:
1,170,107479,2,0,P|66:182|166:196,1,157.500006008148,2|0,0:0|1:0,0:0:0:0:
247,255,108229,5,0,1:0:0:0:
247,255,108379,2,0,P|285:263|311:268,2,52.5000020027161,8|0|2,0:0|1:0|0:0,0:0:0:0:
305,168,108979,6,0,P|308:121|310:50,2,105.000004005432,6|0|8,1:2|1:0|0:0,0:0:0:0:
406,133,109879,1,2,0:0:0:0:
457,225,110179,5,2,0:0:0:0:
457,225,110329,1,0,1:0:0:0:
401,320,110629,1,0,1:0:0:0:
401,320,110779,2,0,P|368:327|341:334,2,52.5000020027161,8|0|2,0:0|1:0|0:0,0:0:0:0:
306,267,111379,5,0,1:0:0:0:
201,269,111679,1,0,1:0:0:0:
173,371,111979,1,8,0:0:0:0:
71,350,112279,2,0,P|61:313|55:286,1,52.5000020027161,2|0,0:0|0:0,0:0:0:0:
72,259,112579,5,2,0:0:0:0:
72,259,112729,1,0,1:0:0:0:
11,170,113029,1,0,1:0:0:0:
11,170,113179,2,0,P|16:123|15:95,2,52.5000020027161,8|0|2,0:0|1:0|0:0,0:0:0:0:
108,128,113779,6,0,P|182:122|230:118,2,105.000004005432,2|0|8,1:2|1:0|0:0,0:0:0:0:
142,230,114679,1,0,0:0:0:0:
142,230,114829,1,0,0:0:0:0:
245,270,115129,6,0,P|249:236|257:199,2,52.5000020027161,0|2|0,1:0|0:0|1:0,0:0:0:0:
274,299,115579,2,0,P|277:331|282:366,2,52.5000020027161,8|0|2,0:0|1:0|0:0,0:0:0:0:
314,286,116029,1,0,0:0:0:0:
314,286,116179,1,2,0:0:0:0:
256,192,116254,12,2,118579,0:3:0:0:
174,221,119779,6,0,L|181:185,3,26.2500010013581,0|0|0|0,0:0|0:0|3:0|3:0,0:0:0:0:
164,177,120079,2,0,L|159:139,3,26.2500010013581,0|0|0|0,3:0|3:0|3:0|3:0,0:0:0:0:
177,133,120379,2,0,L|182:95,3,26.2500010013581,0|0|0|0,3:0|3:0|3:0|3:0,0:0:0:0:
202,89,120679,1,0,3:0:0:0:
202,89,120754,1,0,3:0:0:0:
202,89,120829,1,0,3:0:0:0:
202,89,120904,1,0,3:0:0:0:
202,89,120979,6,2,P|245:77|345:119,1,154.000004699707,6|8,1:0|0:0,0:1:0:0:
422,126,121429,2,0,P|409:189|398:287,1,154.000004699707,2|0,3:0|1:0,0:0:0:0:
421,351,121879,1,10,0:1:0:0:
349,376,122029,1,2,0:1:0:0:
282,335,122179,6,0,P|242:342|204:344,1,77.0000023498536,0|0,3:0|1:0,0:0:0:0:
153,285,122479,2,0,P|163:245|168:193,1,77.0000023498536,10|0,0:1|1:0,0:0:0:0:
135,141,122779,1,2,3:1:0:0:
135,141,122929,1,0,1:0:0:0:
193,90,123079,2,0,L|275:105,1,77.0000023498536,8|2,0:0|3:1,0:0:0:0:
336,178,123379,6,0,P|350:134|372:22,2,154.000004699707,2|8|0,1:0|0:0|0:0,0:0:0:0:
371,248,124129,1,2,1:0:0:0:
312,301,124279,1,10,0:1:0:0:
378,353,124429,6,2,L|216:336,1,154.000004699707,2|2,1:0|1:0,0:1:0:0:
165,284,124879,2,0,P|159:239|162:198,1,77.0000023498536,8|0,0:0|1:0,0:0:0:0:
90,184,125179,2,0,P|47:191|10:193,1,77.0000023498536,2|0,3:1|1:0,0:0:0:0:
48,107,125479,2,0,P|56:69|54:27,1,77.0000023498536,10|0,0:1|3:0,0:0:0:0:
156,45,125779,6,0,P|198:53|318:58,1,154.000004699707,6|8,1:0|0:0,0:0:0:0:
380,14,126229,1,2,0:1:0:0:
380,14,126529,1,0,1:0:0:0:
423,89,126679,1,8,0:0:0:0:
365,155,126829,6,0,B|357:206|357:206|366:239|366:239|355:326,1,154.000004699707,2|0,0:1|1:0,0:0:0:0:
401,377,127279,1,8,0:0:0:0:
464,321,127429,2,0,P|473:243|472:159,1,154.000004699707,2|2,1:0|1:0,0:0:0:0:
504,96,127879,1,8,0:0:0:0:
457,33,128029,1,2,3:1:0:0:
382,57,128179,6,2,P|296:58|222:63,2,154.000004699707,4|8|0,1:2|0:0|3:0,0:1:0:0:
351,133,128929,1,0,1:0:0:0:
271,147,129079,2,0,P|260:195|255:236,1,77.0000023498536,8|2,0:0|0:1,0:0:0:0:
260,310,129379,6,0,P|303:300|338:293,2,77.0000023498536,0|0|8,0:0|1:0|0:0,0:0:0:0:
200,368,129829,1,0,1:0:0:0:
134,316,129979,2,0,P|130:274|119:231,1,77.0000023498536,2|0,0:1|1:0,0:0:0:0:
64,186,130279,1,8,0:0:0:0:
64,186,130429,1,8,0:0:0:0:
120,125,130579,6,0,P|180:117|278:100,1,154.000004699707,4|8,1:0|0:0,0:0:0:0:
325,25,131029,1,2,0:1:0:0:
325,25,131329,1,0,1:0:0:0:
386,78,131479,1,8,0:0:0:0:
345,146,131629,6,0,P|332:191|342:310,1,154.000004699707,2|0,0:1|1:0,0:0:0:0:
416,305,132079,2,0,P|407:353|401:386,1,77.0000023498536,10|0,0:1|1:0,0:0:0:0:
313,373,132379,2,0,P|268:356|223:339,1,77.0000023498536,0|0,3:0|1:0,0:0:0:0:
196,284,132679,1,8,0:0:0:0:
128,319,132829,1,2,3:1:0:0:
71,264,132979,6,0,P|68:205|55:108,1,154.000004699707,4|8,1:2|0:0,0:0:0:0:
41,31,133429,1,0,0:0:0:0:
182,94,133729,1,0,1:0:0:0:
245,44,133879,1,8,0:0:0:0:
320,71,134029,6,2,P|326:127|329:236,1,154.000004699707,2|0,0:1|1:0,0:1:0:0:
323,299,134479,1,10,0:1:0:0:
410,278,134629,1,2,1:0:0:0:
410,278,134929,1,0,1:0:0:0:
489,306,135079,2,0,L|478:391,1,77.0000023498536,8|0,0:0|3:0,0:0:0:0:
391,362,135379,5,0,1:0:0:0:
292,150,136429,1,0,1:0:0:0:
189,215,137029,1,8,0:0:0:0:
189,215,137329,1,8,0:0:0:0:
189,215,137629,1,8,0:0:0:0:
146,286,137779,6,2,B|86:293|86:293|51:310|51:310|-10:321,1,154.000004699707,6|8,1:0|0:0,0:1:0:0:
30,237,138229,2,0,L|48:63,1,154.000004699707,0|0,3:0|1:0,0:0:0:0:
119,53,138679,2,0,L|200:72,1,77.0000023498536,10|0,0:1|0:0,0:0:0:0:
272,50,138979,5,0,3:0:0:0:
321,113,139129,1,0,1:0:0:0:
269,174,139279,1,8,0:0:0:0:
310,240,139429,2,0,P|357:247|401:258,1,77.0000023498536,0|0,1:0|0:0,0:0:0:0:
461,236,139729,2,0,P|466:192|474:150,2,77.0000023498536,0|8|0,1:0|0:0|3:0,0:0:0:0:
430,321,140179,6,2,P|387:332|277:378,2,154.000004699707,2|8|0,1:0|0:0|3:0,0:1:0:0:
367,252,140929,1,0,1:0:0:0:
367,252,141079,2,0,P|356:206|352:156,1,77.0000023498536,8|0,0:0|0:0,0:0:0:0:
263,136,141379,6,0,P|220:135|167:134,2,77.0000023498536,2|0|8,3:0|1:0|0:0,0:0:0:0:
233,217,141829,1,0,1:0:0:0:
233,217,142129,1,0,1:0:0:0:
276,285,142279,2,2,P|277:329|280:363,1,77.0000023498536,10|0,0:1|0:0,0:1:0:0:
200,368,142579,6,2,P|155:348|50:380,1,154.000004699707,2|8,1:0|0:0,0:1:0:0:
14,303,143029,1,2,0:1:0:0:
105,161,143329,1,2,1:0:0:0:
75,85,143479,2,0,L|-7:100,1,77.0000023498536,10|0,0:1|0:0,0:0:0:0:
38,13,143779,5,2,3:1:0:0:
38,13,143929,2,0,L|113:0,1,77.0000023498536,2|8,1:0|0:0,0:0:0:0:
185,60,144229,2,0,P|221:68|276:68,1,77.0000023498536,2|0,1:0|0:0,0:0:0:0:
310,141,144529,2,0,P|271:142|234:150,1,77.0000023498536,2|8,1:3|0:0,0:0:0:0:
196,219,144829,1,0,3:0:0:0:
246,281,144979,6,0,P|306:292|408:286,1,154.000004699707,0|8,1:0|0:0,0:0:0:0:
456,236,145429,1,2,0:1:0:0:
456,236,145729,1,2,1:0:0:0:
503,173,145879,2,0,P|496:131|488:79,1,77.0000023498536,8|2,0:0|0:1,0:0:0:0:
401,75,146179,6,0,P|412:38|415:-1,2,77.0000023498536,4|0|8,0:2|1:0|0:0,0:0:0:0:
326,109,146629,1,0,1:0:0:0:
369,178,146779,2,0,P|365:216|354:253,2,77.0000023498536,0|0|8,3:0|1:0|0:0,0:0:0:0:
287,192,147229,1,8,0:0:0:0:
204,213,147379,6,2,B|130:218|144:257|44:256,1,154.000004699707,2|8,1:0|0:0,0:1:0:0:
4,207,147829,1,0,3:0:0:0:
54,146,147979,2,0,P|63:105|54:67,1,77.0000023498536,2|2,3:1|1:0,0:0:0:0:
111,17,148279,2,0,P|153:10|205:27,1,77.0000023498536,8|2,0:0|0:1,0:0:0:0:
246,89,148579,6,0,P|257:44|265:11,2,77.0000023498536,2|0|8,0:1|1:0|0:0,0:0:0:0:
187,151,149029,2,0,L|210:239,1,77.0000023498536,2|0,1:3|0:0,0:0:0:0:
271,291,149329,2,0,L|297:202,1,77.0000023498536,2|8,1:3|0:0,0:0:0:0:
357,171,149629,1,2,3:1:0:0:
432,197,149779,6,0,P|436:262|438:363,2,154.000004699707,2|10|2,1:0|0:1|3:1,0:0:0:0:
476,127,150529,1,0,1:0:0:0:
476,127,150679,2,0,P|486:82|489:39,1,77.0000023498536,10|0,0:1|0:0,0:0:0:0:
412,14,150979,6,0,L|323:4,2,77.0000023498536,4|0|8,0:2|1:0|0:0,0:0:0:0:
366,91,151429,2,2,P|330:117|194:134,1,154.000004699707,2|2,1:0|1:0,0:1:0:0:
152,104,151879,1,10,0:1:0:0:
77,133,152029,1,2,0:1:0:0:
63,214,152179,6,0,L|84:325,2,102.666669799805,2|0|0,1:1|1:0|1:0,0:0:0:0:
168,249,152779,2,0,L|301:271,2,102.666669799805,10|2|10,0:1|1:1|0:1,0:0:0:0:
223,150,153379,6,0,P|231:108|245:65,2,77.0000023498536,0|8|0,1:0|0:0|3:0,0:0:0:0:
306,164,153829,1,0,1:0:0:0:
292,16,154129,1,0,1:0:0:0:
127,104,154429,1,2,1:0:0:0:
256,192,154504,12,2,155779,0:0:0:0:
171,189,176179,5,2,3:0:0:0:
283,270,179779,6,0,L|287:226,3,38.5000011749268,0|0|0|0,0:0|0:0|3:0|3:0,0:0:0:0:
277,212,180079,2,0,L|273:168,3,38.5000011749268,0|0|0|0,3:0|3:0|3:0|3:0,0:0:0:0:
291,160,180379,2,0,L|295:116,3,38.5000011749268,0|0|0|0,3:0|3:0|3:0|3:0,0:0:0:0:
296,113,180679,1,0,3:0:0:0:
296,113,180754,1,0,3:0:0:0:
296,113,180829,1,0,3:0:0:0:
296,113,180904,1,0,3:0:0:0:
296,113,180979,6,2,B|222:99|243:142|141:133,1,154.000004699707,6|0,1:0|0:0,0:1:0:0:
81,85,181429,1,2,3:0:0:0:
81,85,181729,1,0,1:0:0:0:
22,140,181879,1,8,0:0:0:0:
61,211,182029,6,2,P|64:275|67:380,1,154.000004699707,2|0,0:1|1:0,0:1:0:0:
146,323,182479,2,0,P|192:313|240:313,1,77.0000023498536,8|0,0:0|1:0,0:0:0:0:
281,257,182779,2,0,P|274:205|282:154,1,77.0000023498536,2|0,3:1|1:0,0:0:0:0:
336,124,183079,1,8,0:0:0:0:
408,158,183229,1,2,0:1:0:0:
474,113,183379,6,0,B|485:6|485:6|447:54,2,154.000004699707,0|8|0,1:2|0:0|3:2,0:0:0:0:
503,194,184129,1,2,1:0:0:0:
503,194,184279,2,2,L|491:281,1,77.0000023498536,10|0,0:1|0:0,0:1:0:0:
412,336,184579,6,0,P|454:345|493:359,2,77.0000023498536,2|0|8,3:1|1:0|0:0,0:0:0:0:
361,278,185029,1,0,1:0:0:0:
285,282,185179,2,0,P|250:290|198:298,1,77.0000023498536,2|0,3:1|1:0,0:0:0:0:
144,254,185479,2,0,P|133:215|129:161,1,77.0000023498536,10|0,0:1|0:0,0:0:0:0:
58,109,185779,6,2,P|43:187|24:262,1,154.000004699707,2|8,1:0|0:0,0:1:0:0:
65,339,186229,1,2,0:1:0:0:
65,339,186529,1,0,1:0:0:0:
131,292,186679,1,8,0:0:0:0:
199,335,186829,6,0,P|236:318|287:306,1,77.0000023498536,2|0,3:0|0:0,0:0:0:0:
344,269,187129,2,0,P|382:277|427:280,1,77.0000023498536,2|8,1:0|0:0,0:0:0:0:
494,223,187429,2,0,P|493:174|458:71,1,154.000004699707,2|0,1:0|1:0,0:0:0:0:
377,62,187879,1,8,0:0:0:0:
316,111,188029,1,0,3:0:0:0:
249,71,188179,6,2,P|237:137|224:246,2,154.000004699707,4|8|0,1:2|0:0|3:0,0:1:0:0:
164,116,188929,1,0,1:0:0:0:
96,73,189079,1,8,0:0:0:0:
51,139,189229,1,2,0:1:0:0:
117,185,189379,6,0,P|107:222|101:274,2,77.0000023498536,0|0|8,3:2|1:0|0:0,0:0:0:0:
189,242,189829,1,0,1:0:0:0:
189,242,189979,2,0,P|236:263|281:273,1,77.0000023498536,0|0,3:0|1:0,0:0:0:0:
318,326,190279,1,8,0:0:0:0:
398,309,190429,1,8,0:0:0:0:
442,241,190579,6,2,B|451:178|451:178|444:145|444:145|454:81,1,154.000004699707,6|8,1:0|0:0,0:1:0:0:
368,76,191029,2,0,P|366:38|357:-5,2,77.0000023498536,0|0|0,0:0|3:0|1:0,0:0:0:0:
301,127,191479,1,8,0:0:0:0:
301,127,191629,6,0,P|310:203|315:287,1,154.000004699707,2|0,0:1|1:0,0:0:0:0:
260,334,192079,2,0,P|208:346|169:358,1,77.0000023498536,10|0,0:1|1:0,0:0:0:0:
108,329,192379,2,0,P|106:291|111:248,1,77.0000023498536,2|0,3:1|1:0,0:0:0:0:
165,198,192679,1,8,0:0:0:0:
147,123,192829,1,0,3:0:0:0:
184,45,192979,6,0,P|114:37|30:15,2,154.000004699707,2|8|0,1:0|0:0|3:0,0:0:0:0:
258,14,193729,1,2,1:0:0:0:
258,14,193879,2,0,P|301:34|350:52,1,77.0000023498536,10|2,0:1|3:0,0:0:0:0:
428,17,194179,6,0,P|411:65|386:171,1,154.000004699707,2|8,0:1|0:0,0:0:0:0:
425,237,194629,1,2,1:0:0:0:
307,343,194929,1,0,1:0:0:0:
236,310,195079,1,8,0:0:0:0:
229,232,195229,1,0,3:0:0:0:
284,176,195379,1,0,1:0:0:0:
284,176,196429,5,0,1:0:0:0:
95,72,197029,1,8,0:0:0:0:
95,72,197329,2,0,P|139:66|196:56,2,77.0000023498536,8|0|8,0:0|1:0|0:0,0:0:0:0:
45,143,197779,1,0,1:0:0:0:
45,143,198079,5,8,0:0:0:0:
55,222,198229,1,8,0:0:0:0:
133,238,198379,1,8,0:0:0:0:
201,198,198529,1,0,1:0:0:0:
280,192,198679,2,0,P|321:204|366:220,1,77.0000023498536,8|8,0:0|0:0,0:0:0:0:
339,299,198979,6,0,P|283:327|184:374,1,154.000004699707,0|8,1:0|0:0,0:0:0:0:
124,338,199429,1,0,1:0:0:0:
165,166,199729,1,0,1:0:0:0:
14,254,200029,1,0,1:0:0:0:
132,42,200479,6,2,B|215:28|203:64|298:54,1,154.000004699707,6|0,1:0|0:0,0:1:0:0:
357,23,200929,1,0,1:0:0:0:
424,70,201079,2,0,P|432:113|439:162,1,77.0000023498536,8|0,0:0|0:0,0:0:0:0:
373,203,201379,6,0,P|332:189|288:185,2,77.0000023498536,2|0|8,3:0|1:0|0:0,0:0:0:0:
430,260,201829,1,0,1:0:0:0:
376,320,201979,2,0,L|288:334,1,77.0000023498536,2|0,0:1|1:0,0:0:0:0:
222,315,202279,2,0,L|195:230,1,77.0000023498536,10|0,0:1|0:0,0:0:0:0:
124,181,202579,6,0,P|199:160|286:141,1,154.000004699707,2|8,1:0|0:0,0:0:0:0:
328,88,203029,1,2,0:1:0:0:
328,88,203329,1,0,1:0:0:0:
293,17,203479,1,8,0:1:0:0:
214,13,203629,6,0,P|172:19|116:27,1,77.0000023498536,2|2,3:1|3:0,0:0:0:0:
102,93,203929,2,0,P|54:82|8:81,1,77.0000023498536,0|8,1:0|0:0,0:0:0:0:
14,161,204229,2,0,P|26:226|53:346,1,154.000004699707,2|0,1:0|1:0,0:1:0:0:
95,371,204679,1,8,0:0:0:0:
154,316,204829,1,2,0:1:0:0:
225,357,204979,6,0,P|269:364|331:373,1,77.0000023498536,0|0,1:0|0:0,0:0:0:0:
364,328,205279,1,8,0:0:0:0:
329,262,205429,2,0,P|278:257|150:241,1,154.000004699707,2|0,0:1|1:0,0:0:0:0:
94,267,205879,1,8,0:0:0:0:
44,207,206029,1,2,0:1:0:0:
89,144,206179,6,0,P|96:97|100:51,2,77.0000023498536,2|0|8,3:0|1:0|0:0,0:0:0:0:
178,125,206629,1,0,1:0:0:0:
232,191,206779,1,2,0:1:0:0:
232,191,206929,2,0,P|282:200|321:207,1,77.0000023498536,0|8,1:0|0:0,0:0:0:0:
363,264,207229,1,10,0:1:0:0:
443,289,207379,6,2,P|456:248|465:114,1,154.000004699707,4|8,1:2|0:0,0:1:0:0:
502,64,207829,1,2,0:1:0:0:
352,10,208129,1,0,1:0:0:0:
291,63,208279,1,8,0:0:0:0:
341,128,208429,6,0,P|338:184|348:298,1,154.000004699707,2|0,0:1|1:0,0:0:0:0:
289,341,208879,2,0,P|247:348|192:355,1,77.0000023498536,8|0,0:0|1:0,0:0:0:0:
139,317,209179,2,0,P|97:311|38:303,1,77.0000023498536,0|0,3:0|1:0,0:0:0:0:
101,235,209479,2,0,P|143:229|202:221,1,77.0000023498536,8|0,0:0|0:0,0:0:0:0:
233,166,209779,6,0,B|237:109|237:109|250:71|250:71|252:5,2,154.000004699707,2|8|0,1:0|0:0|0:0,0:0:0:0:
152,149,210529,1,0,1:0:0:0:
131,73,210679,1,8,0:0:0:0:
54,59,210829,6,2,P|38:107|23:232,1,154.000004699707,2|0,0:1|1:0,0:1:0:0:
86,265,211279,1,8,0:0:0:0:
46,338,211429,1,2,1:0:0:0:
46,338,211729,1,0,1:0:0:0:
120,370,211879,2,0,L|197:357,1,77.0000023498536,8|2,0:0|0:1,0:0:0:0:
234,280,212179,5,2,1:0:0:0:
234,280,213229,1,0,1:0:0:0:
234,280,213829,1,8,0:0:0:0:
275,207,213979,2,0,L|269:164,3,38.5000011749268,0|0|8|0,3:0|3:0|0:0|3:0,0:0:0:0:
295,162,214279,1,0,3:0:0:0:
295,162,214354,1,0,3:0:0:0:
295,162,214429,1,8,0:0:0:0:
295,162,214504,1,0,3:0:0:0:
295,162,214579,6,2,P|366:159|459:162,1,154.000004699707,6|8,1:0|0:0,0:1:0:0:
492,225,215029,1,2,3:0:0:0:
492,225,215329,1,2,1:0:0:0:
422,264,215479,1,8,0:0:0:0:
421,344,215629,1,2,0:1:0:0:
346,373,215779,6,0,P|306:366|256:360,2,77.0000023498536,2|0|8,3:0|1:0|0:0,0:0:0:0:
336,293,216229,2,0,P|320:237|293:130,1,154.000004699707,0|0,1:0|1:0,0:0:0:0:
229,105,216679,2,0,P|242:56|246:10,1,77.0000023498536,8|0,0:0|3:0,0:0:0:0:
161,35,216979,6,0,P|117:29|79:20,2,77.0000023498536,2|0|8,1:3|3:0|0:0,0:0:0:0:
149,113,217429,1,0,0:0:0:0:
149,113,217579,2,0,P|138:152|135:194,1,77.0000023498536,2|0,3:0|1:0,0:0:0:0:
196,237,217879,2,0,P|181:272|157:324,1,77.0000023498536,8|0,0:0|3:0,0:0:0:0:
88,340,218179,6,0,P|48:348|10:356,2,77.0000023498536,2|0|8,0:1|1:0|0:0,0:0:0:0:
75,260,218629,1,0,1:0:0:0:
75,260,218779,2,0,P|56:220|35:178,2,77.0000023498536,2|0|8,0:1|1:0|0:0,0:0:0:0:
146,219,219229,1,0,0:0:0:0:
218,254,219379,6,0,B|297:240|288:289|374:274,2,154.000004699707,2|8|2,1:0|0:0|3:1,0:0:0:0:
252,180,220129,1,0,1:0:0:0:
252,180,220279,2,0,P|246:127|237:83,1,77.0000023498536,8|0,0:0|0:0,0:0:0:0:
294,35,220579,6,0,P|341:47|383:55,2,77.0000023498536,2|0|8,0:1|1:0|0:0,0:0:0:0:
325,122,221029,1,0,1:0:0:0:
325,122,221179,2,0,P|339:157|348:201,1,77.0000023498536,2|0,0:1|1:0,0:0:0:0:
416,231,221479,2,0,P|424:184|439:151,1,77.0000023498536,8|0,0:0|0:0,0:0:0:0:
503,112,221779,6,0,P|497:72|494:30,2,77.0000023498536,2|0|8,1:0|3:0|0:0,0:0:0:0:
422,79,222229,1,0,0:0:0:0:
372,18,222379,1,0,3:0:0:0:
298,42,222529,2,0,P|249:54|218:62,1,77.0000023498536,0|8,1:0|0:0,0:0:0:0:
146,50,222829,1,0,3:0:0:0:
117,138,222979,6,0,P|126:181|127:223,2,77.0000023498536,2|0|8,3:0|1:0|0:0,0:0:0:0:
34,155,223429,1,0,1:0:0:0:
14,236,223579,2,0,P|20:285|21:326,1,77.0000023498536,0|0,3:0|1:0,0:0:0:0:
86,359,223879,1,8,0:0:0:0:
166,357,224029,1,8,0:0:0:0:
219,298,224179,6,0,P|223:260|233:213,2,77.0000023498536,4|0|8,1:2|0:0|0:0,0:0:0:0:
142,287,224629,1,0,3:0:0:0:
116,214,224779,1,0,3:0:0:0:
116,214,224929,2,0,P|131:161|145:119,1,77.0000023498536,0|8,1:0|0:0,0:0:0:0:
213,108,225229,1,0,3:0:0:0:
292,133,225379,6,0,P|331:123|372:116,2,77.0000023498536,2|0|8,3:0|1:0|0:0,0:0:0:0:
246,205,225829,1,0,1:0:0:0:
300,265,225979,1,0,3:0:0:0:
377,233,226129,1,0,1:0:0:0:
453,264,226279,2,0,P|447:314|444:345,1,77.0000023498536,8|0,0:0|3:0,0:0:0:0:
375,374,226579,6,0,P|335:378|291:379,2,77.0000023498536,0|0|8,1:0|0:0|0:0,0:0:0:0:
243,289,227179,1,0,3:0:0:0:
172,321,227329,2,0,P|128:329|75:341,1,77.0000023498536,0|8,1:0|0:0,0:0:0:0:
27,295,227629,1,0,3:0:0:0:
78,234,227779,6,0,P|72:195|68:142,1,77.0000023498536,2|0,3:0|1:0,0:0:0:0:
121,92,228079,1,8,0:0:0:0:
192,136,228229,1,0,1:0:0:0:
258,92,228379,2,0,P|297:87|336:78,1,77.0000023498536,0|0,3:0|1:0,0:0:0:0:
390,17,228679,2,0,P|430:26|471:30,1,77.0000023498536,8|0,0:0|3:0,0:0:0:0:
504,106,228979,5,0,1:0:0:0:
504,106,230029,1,0,1:0:0:0:
362,190,230629,1,8,0:0:0:0:
362,190,230704,1,0,0:0:0:0:
362,190,230779,2,0,L|323:194,3,38.5000011749268,0|0|8|0,3:0|3:0|0:0|3:0,0:0:0:0:
304,183,231079,2,0,L|264:176,3,38.5000011749268,0|0|8|0,3:0|3:0|0:0|3:0,0:0:0:0:
246,191,231379,1,4,3:1:0:0:
256,192,231454,12,2,233779,0:0:0:0:
302,173,234979,6,0,L|186:187,1,105,2|0,0:0|0:0,0:0:0:0:
185,206,235579,1,0,0:0:0:0:
185,206,235729,1,2,0:0:0:0:
84,239,236179,2,0,P|74:189|55:94,1,140,2|0,0:0|0:0,0:0:0:0:
184,24,237379,6,0,P|196:81|212:132,1,105,2|0,0:0|0:0,0:0:0:0:
277,171,238129,1,0,0:0:0:0:
247,275,238579,1,2,0:0:0:0:
299,328,238879,2,0,P|350:324|410:321,1,105
475,244,239779,6,0,P|469:193|464:162,1,70,2|0,0:0|0:0,0:0:0:0:
394,147,240379,2,0,P|400:96|405:65,1,70,2|0,0:0|0:0,0:0:0:0:
352,20,240979,1,2,0:0:0:0:
352,20,242179,6,0,P|305:31|235:46,1,105,2|0,0:0|0:0,0:0:0:0:
180,160,243379,1,2,0:0:0:0:
180,160,244579,6,0,P|188:201|197:267,1,105,2|0,0:0|0:0,0:0:0:0:
331,353,245779,1,2,0:0:0:0:
320,218,246829,1,2,0:0:0:0:
320,218,248629,6,0,L|326:184,2,35,2|0|0,0:0|0:0|0:0,0:0:0:0:
251,259,249079,2,0,L|258:285,2,17.5,0|2|0,0:0|0:0|0:0,0:0:0:0:
