osu file format v14

[General]
AudioFilename: Ether.mp3
AudioLeadIn: 0
PreviewTime:50750
Countdown: 0
SampleSet: Normal
StackLeniency: 0.5
Mode: 0
LetterboxInBreaks: 0
EpilepsyWarning: 1
WidescreenStoryboard: 1

[Editor]
DistanceSpacing: 0.7
BeatDivisor: 4
GridSize: 4
TimelineZoom: 2.5

[Metadata]
Title:Ether
TitleUnicode:エーテル
Artist:Feryquitous feat. Aitsuki Nakuru
ArtistUnicode:Feryquitous feat. 藍月なくる
Creator:Acyl
Version:fanzhen's Extra
Source:
Tags:『JelLaboratory』 c95 female vocal japanese doujin pop artcore -tochi j1_ how2miss otosaka-yu necho reincarnation suzuki_1112 moecho neilperry sing toybot kalibe lit120 lami lmt firika fanzhen0019 skystar yusomi amamiya yuko _epreus bbj0920 len fast kawashiro heilia cococolaco 藍月なくる aitsuki nakuru _todestrieb coco
BeatmapID:1962157
BeatmapSetID:902425

[Difficulty]
HPDrainRate:6
CircleSize:4.6
OverallDifficulty:8
ApproachRate:9.2
SliderMultiplier:2.08
SliderTickRate:1

[Events]
//Background and Video events
0,0,"background.jpg",0,0
//Break Periods
2,177458,179258
//Storyboard Layer 0 (Background)
Sprite,Background,Centre,"background.jpg",320,240 F,0,0,,0
Sprite,Background,Centre,"sb\blank.jpg",0,0 F,0,-4025,-3682,0,1 F,0,-3682,-253,1 F,0,-253,3,1,0 M,0,3,,320,240 S,0,3,,0.6493149
Sprite,Background,Centre,"sb\tochi.png",320,240 S,0,-3532,,0.6 F,0,-3532,-3187,0,1 F,0,-3187,-596,1,0.9893727 F,0,-596,-253,0.9893727,0
Sprite,Background,Centre,"sb\bgblurbw.jpg",0,0 F,2,1058,10658,0,0.6487671 M,0,1058,50258,320,-18.8055,320,240 S,0,1058,50258,0.9298632,0.5160549 F,0,10658,49058,0.6487671 F,0,49058,50258,0.6487671,0
Sprite,Background,Centre,"sb\bgblur.jpg",320,240 S,0,51458,,0.5160547 F,0,51458,70658,1 F,0,70658,70958,1,0
Sprite,Background,Centre,"sb\blank.jpg",320,240 S,0,49058,,0.537096 F,0,49058,50258,0,1 F,0,50258,51458,1 F,0,51458,51758,1,0
Sprite,Background,Centre,"sb\blank.jpg",320,240 S,0,70658,,0.5230685 F,0,70658,70958,0,1 F,0,70958,80258,1,0.9966667 F,0,80258,80408,0.9966667,0
Sprite,Background,Centre,"sb\bgblurbw.jpg",320,240 S,0,80258,,0.5300821 F,0,80258,80408,0,1 F,0,80408,118658,1,0.9866667 F,0,118658,119258,0.9866667,0.2384657 F,0,119258,121058,0.2384657,0.2459477 F,0,121058,121358,0.2459477,0
Sprite,Background,Centre,"sb\bgblur.jpg",320,240 F,0,121058,137858,1 S,0,121058,137858,0.5160547,0.5230685 F,0,137858,138158,1,0
Sprite,Background,Centre,"background.jpg",320,240 S,0,137858,,0.5230684 F,0,137858,138158,0,1 F,0,138158,156758,1,0.9866667 F,0,156758,157358,0.9866667,0
Sprite,Background,Centre,"sb\bgblur.jpg",320,240 S,0,181058,,0.5160547 F,0,181058,214658,1 F,0,214658,214958,1,0
Sprite,Background,Centre,"sb\bgblurbw.jpg",0,0 S,0,156758,,0.6493151 P,0,156758,,V F,0,156758,157358,0,1 M,0,156758,179858,200.0658,240,384.526,240 F,0,157358,175058,1 F,0,175058,176258,1,0.2565479 F,0,176258,181058,0.2565479
Sprite,Background,Centre,"background.jpg",320,240 S,0,214658,,0.5160549 F,0,214658,214958,0,1 F,0,214958,231458,1 F,0,231458,232658,1,0
Sprite,Background,Centre,"sb\bgblurbw.jpg",0,0 P,0,231458,,H F,0,231458,232658,0,1 M,2,231458,255458,457.4685,148.8219,-109.9397,549.3041 S,0,231458,255458,0.6984109,1.140274 R,0,231458,255458,-0.01402771,-0.2665204 F,0,232658,249308,1 F,0,249308,255458,1,0
Sprite,Background,Centre,"sb\blank.jpg",0,0 F,0,51308,51458,0,0.5 M,0,51458,,320,240 F,0,51458,51758,0.5,0.1 V,1,51458,51758,0.42,0.51,0.4,0.05 R,0,51458,70658,0.08416412,-0.1402744 P,0,51758,,A F,0,51758,70658,0.1 F,0,70658,70958,0.1,0
Sprite,Background,Centre,"sb\blank.jpg",0,0 F,0,120608,120758,0,0.5 M,0,120758,,320,240 F,0,120758,121058,0.5,0.1 V,1,120758,121058,0.42,0.51,0.4,0.05 R,0,120758,157058,-0.1402744,0.08416412 P,0,121058,,A F,0,121058,157058,0.1 F,0,157058,157358,0.1,0
Sprite,Background,Centre,"sb\blank.jpg",0,0 F,0,180458,180608,0,0.5 M,0,180608,,320,240 F,0,180608,180908,0.5,0.1 V,1,180608,180908,0.42,0.51,0.4,0.05 R,0,180608,231458,0.08416412,-0.1402744 P,0,180908,,A F,0,180908,231458,0.1 F,0,231458,231758,0.1,0
Sprite,Background,Centre,"sb\ring.png",0,0 M,0,51458,,73,141 C,0,51458,,255,255,255 F,1,51458,53758,0.9,0 S,1,51458,53758,0.25,0.5
Sprite,Background,Centre,"sb\ring.png",0,0 M,0,51908,,441,168 C,0,51908,,255,255,255 F,1,51908,54208,0.9,0 S,1,51908,54208,0.25,0.5
Sprite,Background,Centre,"sb\ring.png",0,0 M,0,52283,,267,149 C,0,52283,,255,255,255 F,1,52283,54358,0.9,0 S,1,52283,54358,0.25,0.5
Sprite,Background,Centre,"sb\ring.png",0,0 M,0,52508,,288,408 C,0,52508,,255,255,255 F,1,52508,54508,0.9,0 S,1,52508,54508,0.25,0.5
Sprite,Background,Centre,"sb\ring.png",0,0 M,0,52658,,98,339 C,0,52658,,255,255,255 F,1,52658,54658,0.9,0 S,1,52658,54658,0.25,0.5
Sprite,Background,Centre,"sb\ring.png",0,0 M,0,52808,,98,339 C,0,52808,,255,255,255 F,1,52808,54808,0.9,0 S,1,52808,54808,0.25,0.5
Sprite,Background,Centre,"sb\ring.png",0,0 M,0,52958,,98,339 C,0,52958,,255,255,255 F,1,52958,55108,0.9,0 S,1,52958,55108,0.25,0.5
Sprite,Background,Centre,"sb\ring.png",0,0 M,0,53258,,281,304 C,0,53258,,255,255,255 F,1,53258,55258,0.9,0 S,1,53258,55258,0.25,0.5
Sprite,Background,Centre,"sb\ring.png",0,0 M,0,53408,,281,304 C,0,53408,,255,255,255 F,1,53408,55408,0.9,0 S,1,53408,55408,0.25,0.5
Sprite,Background,Centre,"sb\ring.png",0,0 M,0,53558,,281,304 C,0,53558,,255,255,255 F,1,53558,55708,0.9,0 S,1,53558,55708,0.25,0.5
Sprite,Background,Centre,"sb\ring.png",0,0 M,0,53858,,197,399 C,0,53858,,255,255,255 F,1,53858,55858,0.9,0 S,1,53858,55858,0.25,0.5
Sprite,Background,Centre,"sb\ring.png",0,0 M,0,54008,,367,440 C,0,54008,,255,255,255 F,1,54008,56008,0.9,0 S,1,54008,56008,0.25,0.5
Sprite,Background,Centre,"sb\ring.png",0,0 M,0,54158,,504,358 C,0,54158,,255,255,255 F,1,54158,56308,0.9,0 S,1,54158,56308,0.25,0.5
Sprite,Background,Centre,"sb\ring.png",0,0 M,0,54383,,515,255 C,0,54383,,255,255,255 F,1,54383,56383,0.9,0 S,1,54383,56383,0.25,0.5
Sprite,Background,Centre,"sb\ring.png",0,0 M,0,54458,,515,255 C,0,54458,,255,255,255 F,1,54458,56458,0.9,0 S,1,54458,56458,0.25,0.5
Sprite,Background,Centre,"sb\ring.png",0,0 M,0,54608,,347,165 C,0,54608,,255,255,255 F,1,54608,56683,0.9,0 S,1,54608,56683,0.25,0.5
Sprite,Background,Centre,"sb\ring.png",0,0 M,0,54758,,351,96 C,0,54758,,255,255,255 F,1,54758,56833,0.9,0 S,1,54758,56833,0.25,0.5
Sprite,Background,Centre,"sb\ring.png",0,0 M,0,54908,,124,123 C,0,54908,,255,255,255 F,1,54908,57208,0.9,0 S,1,54908,57208,0.25,0.5
Sprite,Background,Centre,"sb\ring.png",0,0 M,0,55358,,549,139 C,0,55358,,255,255,255 F,1,55358,57508,0.9,0 S,1,55358,57508,0.25,0.5
Sprite,Background,Centre,"sb\ring.png",0,0 M,0,55583,,460,91 C,0,55583,,255,255,255 F,1,55583,57583,0.9,0 S,1,55583,57583,0.25,0.5
Sprite,Background,Centre,"sb\ring.png",0,0 M,0,55658,,460,91 C,0,55658,,255,255,255 F,1,55658,57808,0.9,0 S,1,55658,57808,0.25,0.5
Sprite,Background,Centre,"sb\ring.png",0,0 M,0,55958,,555,370 C,0,55958,,255,255,255 F,1,55958,58108,0.9,0 S,1,55958,58108,0.25,0.5
Sprite,Background,Centre,"sb\ring.png",0,0 M,0,56258,,334,310 C,0,56258,,255,255,255 F,1,56258,58558,0.9,0 S,1,56258,58558,0.25,0.5
Sprite,Background,Centre,"sb\ring.png",0,0 M,0,56708,,367,215 C,0,56708,,255,255,255 F,1,56708,58858,0.9,0 S,1,56708,58858,0.25,0.5
Sprite,Background,Centre,"sb\ring.png",0,0 M,0,57008,,270,225 C,0,57008,,255,255,255 F,1,57008,59008,0.9,0 S,1,57008,59008,0.25,0.5
Sprite,Background,Centre,"sb\ring.png",0,0 M,0,57158,,239,302 C,0,57158,,255,255,255 F,1,57158,59233,0.9,0 S,1,57158,59233,0.25,0.5
Sprite,Background,Centre,"sb\ring.png",0,0 M,0,57308,,174,383 C,0,57308,,255,255,255 F,1,57308,59608,0.9,0 S,1,57308,59608,0.25,0.5
Sprite,Background,Centre,"sb\ring.png",0,0 M,0,57683,,110,207 C,0,57683,,255,255,255 F,1,57683,59758,0.9,0 S,1,57683,59758,0.25,0.5
Sprite,Background,Centre,"sb\ring.png",0,0 M,0,57908,,75,139 C,0,57908,,255,255,255 F,1,57908,59908,0.9,0 S,1,57908,59908,0.25,0.5
Sprite,Background,Centre,"sb\ring.png",0,0 M,0,58058,,347,129 C,0,58058,,255,255,255 F,1,58058,60058,0.9,0 S,1,58058,60058,0.25,0.5
Sprite,Background,Centre,"sb\ring.png",0,0 M,0,58208,,347,129 C,0,58208,,255,255,255 F,1,58208,60208,0.9,0 S,1,58208,60208,0.25,0.5
Sprite,Background,Centre,"sb\ring.png",0,0 M,0,58358,,148,108 C,0,58358,,255,255,255 F,1,58358,60358,0.9,0 S,1,58358,60358,0.25,0.5
Sprite,Background,Centre,"sb\ring.png",0,0 M,0,58508,,347,129 C,0,58508,,255,255,255 F,1,58508,60658,0.9,0 S,1,58508,60658,0.25,0.5
Sprite,Background,Centre,"sb\ring.png",0,0 M,0,58808,,507,237 C,0,58808,,255,255,255 F,1,58808,60808,0.9,0 S,1,58808,60808,0.25,0.5
Sprite,Background,Centre,"sb\ring.png",0,0 M,0,58958,,517,56 C,0,58958,,255,255,255 F,1,58958,60958,0.9,0 S,1,58958,60958,0.25,0.5
Sprite,Background,Centre,"sb\ring.png",0,0 M,0,59108,,507,237 C,0,59108,,255,255,255 F,1,59108,61108,0.9,0 S,1,59108,61108,0.25,0.5
Sprite,Background,Centre,"sb\ring.png",0,0 M,0,59258,,356,143 C,0,59258,,255,255,255 F,1,59258,61408,0.9,0 S,1,59258,61408,0.25,0.5
Sprite,Background,Centre,"sb\ring.png",0,0 M,0,59558,,356,143 C,0,59558,,255,255,255 F,1,59558,61558,0.9,0 S,1,59558,61558,0.25,0.5
Sprite,Background,Centre,"sb\ring.png",0,0 M,0,59708,,255,126 C,0,59708,,255,255,255 F,1,59708,61708,0.9,0 S,1,59708,61708,0.25,0.5
Sprite,Background,Centre,"sb\ring.png",0,0 M,0,59858,,512,232 C,0,59858,,255,255,255 F,1,59858,62008,0.9,0 S,1,59858,62008,0.25,0.5
Sprite,Background,Centre,"sb\ring.png",0,0 M,0,60158,,257,276 C,0,60158,,255,255,255 F,1,60158,62308,0.9,0 S,1,60158,62308,0.25,0.5
Sprite,Background,Centre,"sb\ring.png",0,0 M,0,60383,,231,373 C,0,60383,,255,255,255 F,1,60383,62383,0.9,0 S,1,60383,62383,0.25,0.5
Sprite,Background,Centre,"sb\ring.png",0,0 M,0,60458,,231,373 C,0,60458,,255,255,255 F,1,60458,62533,0.9,0 S,1,60458,62533,0.25,0.5
Sprite,Background,Centre,"sb\ring.png",0,0 M,0,60608,,308,292 C,0,60608,,255,255,255 F,1,60608,62683,0.9,0 S,1,60608,62683,0.25,0.5
Sprite,Background,Centre,"sb\ring.png",0,0 M,0,60758,,424,272 C,0,60758,,255,255,255 F,1,60758,62833,0.9,0 S,1,60758,62833,0.25,0.5
Sprite,Background,Centre,"sb\ring.png",0,0 M,0,60908,,562,305 C,0,60908,,255,255,255 F,1,60908,62908,0.9,0 S,1,60908,62908,0.25,0.5
Sprite,Background,Centre,"sb\ring.png",0,0 M,0,61058,,562,305 C,0,61058,,255,255,255 F,1,61058,63358,0.9,0 S,1,61058,63358,0.25,0.5
Sprite,Background,Centre,"sb\ring.png",0,0 M,0,61508,,350,125 C,0,61508,,255,255,255 F,1,61508,63808,0.9,0 S,1,61508,63808,0.25,0.5
Sprite,Background,Centre,"sb\ring.png",0,0 M,0,61883,,569,115 C,0,61883,,255,255,255 F,1,61883,63958,0.9,0 S,1,61883,63958,0.25,0.5
Sprite,Background,Centre,"sb\ring.png",0,0 M,0,62108,,291,198 C,0,62108,,255,255,255 F,1,62108,64408,0.9,0 S,1,62108,64408,0.25,0.5
Sprite,Background,Centre,"sb\ring.png",0,0 M,0,62558,,291,75 C,0,62558,,255,255,255 F,1,62558,64558,0.9,0 S,1,62558,64558,0.25,0.5
Sprite,Background,Centre,"sb\ring.png",0,0 M,0,62708,,291,75 C,0,62708,,255,255,255 F,1,62708,64783,0.9,0 S,1,62708,64783,0.25,0.5
Sprite,Background,Centre,"sb\ring.png",0,0 M,0,62858,,85,238 C,0,62858,,255,255,255 F,1,62858,64858,0.9,0 S,1,62858,64858,0.25,0.5
Sprite,Background,Centre,"sb\ring.png",0,0 M,0,63008,,85,238 C,0,63008,,255,255,255 F,1,63008,65083,0.9,0 S,1,63008,65083,0.25,0.5
Sprite,Background,Centre,"sb\ring.png",0,0 M,0,63158,,252,416 C,0,63158,,255,255,255 F,1,63158,65158,0.9,0 S,1,63158,65158,0.25,0.5
Sprite,Background,Centre,"sb\ring.png",0,0 M,0,63308,,260,338 C,0,63308,,255,255,255 F,1,63308,65308,0.9,0 S,1,63308,65308,0.25,0.5
Sprite,Background,Centre,"sb\ring.png",0,0 M,0,63458,,268,260 C,0,63458,,255,255,255 F,1,63458,65758,0.9,0 S,1,63458,65758,0.25,0.5
Sprite,Background,Centre,"sb\ring.png",0,0 M,0,63908,,366,226 C,0,63908,,255,255,255 F,1,63908,65908,0.9,0 S,1,63908,65908,0.25,0.5
Sprite,Background,Centre,"sb\ring.png",0,0 M,0,63983,,366,226 C,0,63983,,255,255,255 F,1,63983,65983,0.9,0 S,1,63983,65983,0.25,0.5
Sprite,Background,Centre,"sb\ring.png",0,0 M,0,64058,,366,226 C,0,64058,,255,255,255 F,1,64058,66058,0.9,0 S,1,64058,66058,0.25,0.5
Sprite,Background,Centre,"sb\ring.png",0,0 M,0,64208,,460,310 C,0,64208,,255,255,255 F,1,64208,66283,0.9,0 S,1,64208,66283,0.25,0.5
Sprite,Background,Centre,"sb\ring.png",0,0 M,0,64358,,351,385 C,0,64358,,255,255,255 F,1,64358,66433,0.9,0 S,1,64358,66433,0.25,0.5
Sprite,Background,Centre,"sb\ring.png",0,0 M,0,64508,,509,394 C,0,64508,,255,255,255 F,1,64508,66808,0.9,0 S,1,64508,66808,0.25,0.5
Sprite,Background,Centre,"sb\ring.png",0,0 M,0,64958,,173,146 C,0,64958,,255,255,255 F,1,64958,67033,0.9,0 S,1,64958,67033,0.25,0.5
Sprite,Background,Centre,"sb\ring.png",0,0 M,0,65108,,99,124 C,0,65108,,255,255,255 F,1,65108,67408,0.9,0 S,1,65108,67408,0.25,0.5
Sprite,Background,Centre,"sb\ring.png",0,0 M,0,65558,,507,92 C,0,65558,,255,255,255 F,1,65558,67708,0.9,0 S,1,65558,67708,0.25,0.5
Sprite,Background,Centre,"sb\ring.png",0,0 M,0,65858,,386,206 C,0,65858,,255,255,255 F,1,65858,67858,0.9,0 S,1,65858,67858,0.25,0.5
Sprite,Background,Centre,"sb\ring.png",0,0 M,0,66058,,227,398 C,0,66058,,255,255,255 F,1,66058,68058,0.9,0 S,1,66058,68058,0.25,0.5
Sprite,Background,Centre,"sb\ring.png",0,0 M,0,66258,,480,440 C,0,66258,,255,255,255 F,1,66258,68258,0.9,0 S,1,66258,68258,0.25,0.5
Sprite,Background,Centre,"sb\ring.png",0,0 M,0,66458,,368,225 C,0,66458,,255,255,255 F,1,66458,68458,0.9,0 S,1,66458,68458,0.25,0.5
Sprite,Background,Centre,"sb\ring.png",0,0 M,0,66658,,479,333 C,0,66658,,255,255,255 F,1,66658,68658,0.9,0 S,1,66658,68658,0.25,0.5
Sprite,Background,Centre,"sb\ring.png",0,0 M,0,66858,,320,369 C,0,66858,,255,255,255 F,1,66858,68858,0.9,0 S,1,66858,68858,0.25,0.5
Sprite,Background,Centre,"sb\ring.png",0,0 M,0,67058,,379,253 C,0,67058,,255,255,255 F,1,67058,69058,0.9,0 S,1,67058,69058,0.25,0.5
Sprite,Background,Centre,"sb\ring.png",0,0 M,0,67208,,290,240 C,0,67208,,255,255,255 F,1,67208,69208,0.9,0 S,1,67208,69208,0.25,0.5
Sprite,Background,Centre,"sb\ring.png",0,0 M,0,67358,,277,327 C,0,67358,,255,255,255 F,1,67358,69358,0.9,0 S,1,67358,69358,0.25,0.5
Sprite,Background,Centre,"sb\ring.png",0,0 M,0,67508,,366,339 C,0,67508,,255,255,255 F,1,67508,69508,0.9,0 S,1,67508,69508,0.25,0.5
Sprite,Background,Centre,"sb\ring.png",0,0 M,0,67658,,368,225 C,0,67658,,255,255,255 F,1,67658,69658,0.9,0 S,1,67658,69658,0.25,0.5
Sprite,Background,Centre,"sb\ring.png",0,0 M,0,67808,,395,385 C,0,67808,,255,255,255 F,1,67808,69808,0.9,0 S,1,67808,69808,0.25,0.5
Sprite,Background,Centre,"sb\ring.png",0,0 M,0,67958,,236,414 C,0,67958,,255,255,255 F,1,67958,69958,0.9,0 S,1,67958,69958,0.25,0.5
Sprite,Background,Centre,"sb\ring.png",0,0 M,0,68108,,209,254 C,0,68108,,255,255,255 F,1,68108,70145,0.9,0 S,1,68108,70145,0.25,0.5
Sprite,Background,Centre,"sb\ring.png",0,0 M,0,68183,,320,248 C,0,68183,,255,255,255 F,1,68183,72358,0.9,0 S,1,68183,72358,0.25,0.5
Sprite,Background,Centre,"sb\ring.png",0,0 M,0,121058,,560,168 C,0,121058,,255,255,255 F,1,121058,123357,0.9,0 S,1,121058,123357,0.25,0.5
Sprite,Background,Centre,"sb\ring.png",0,0 M,0,121508,,279,79 C,0,121508,,255,255,255 F,1,121508,123807,0.9,0 S,1,121508,123807,0.25,0.5
Sprite,Background,Centre,"sb\ring.png",0,0 M,0,121883,,128,120 C,0,121883,,255,255,255 F,1,121883,123957,0.9,0 S,1,121883,123957,0.25,0.5
Sprite,Background,Centre,"sb\ring.png",0,0 M,0,122108,,236,404 C,0,122108,,255,255,255 F,1,122108,124108,0.9,0 S,1,122108,124108,0.25,0.5
Sprite,Background,Centre,"sb\ring.png",0,0 M,0,122258,,384,288 C,0,122258,,255,255,255 F,1,122258,124407,0.9,0 S,1,122258,124407,0.25,0.5
Sprite,Background,Centre,"sb\ring.png",0,0 M,0,122483,,325,323 C,0,122483,,255,255,255 F,1,122483,124483,0.9,0 S,1,122483,124483,0.25,0.5
Sprite,Background,Centre,"sb\ring.png",0,0 M,0,122558,,325,323 C,0,122558,,255,255,255 F,1,122558,124558,0.9,0 S,1,122558,124558,0.25,0.5
Sprite,Background,Centre,"sb\ring.png",0,0 M,0,122708,,236,404 C,0,122708,,255,255,255 F,1,122708,124708,0.9,0 S,1,122708,124708,0.25,0.5
Sprite,Background,Centre,"sb\ring.png",0,0 M,0,122858,,76,348 C,0,122858,,255,255,255 F,1,122858,125007,0.9,0 S,1,122858,125007,0.25,0.5
Sprite,Background,Centre,"sb\ring.png",0,0 M,0,123083,,134,312 C,0,123083,,255,255,255 F,1,123083,125083,0.9,0 S,1,123083,125083,0.25,0.5
Sprite,Background,Centre,"sb\ring.png",0,0 M,0,123158,,134,312 C,0,123158,,255,255,255 F,1,123158,125158,0.9,0 S,1,123158,125158,0.25,0.5
Sprite,Background,Centre,"sb\ring.png",0,0 M,0,123308,,224,232 C,0,123308,,255,255,255 F,1,123308,125308,0.9,0 S,1,123308,125308,0.25,0.5
Sprite,Background,Centre,"sb\ring.png",0,0 M,0,123458,,64,152 C,0,123458,,255,255,255 F,1,123458,125607,0.9,0 S,1,123458,125607,0.25,0.5
Sprite,Background,Centre,"sb\ring.png",0,0 M,0,123758,,400,172 C,0,123758,,255,255,255 F,1,123758,125907,0.9,0 S,1,123758,125907,0.25,0.5
Sprite,Background,Centre,"sb\ring.png",0,0 M,0,123983,,534,179 C,0,123983,,255,255,255 F,1,123983,125983,0.9,0 S,1,123983,125983,0.25,0.5
Sprite,Background,Centre,"sb\ring.png",0,0 M,0,124058,,534,179 C,0,124058,,255,255,255 F,1,124058,126058,0.9,0 S,1,124058,126058,0.25,0.5
Sprite,Background,Centre,"sb\ring.png",0,0 M,0,124208,,296,240 C,0,124208,,255,255,255 F,1,124208,126208,0.9,0 S,1,124208,126208,0.25,0.5
Sprite,Background,Centre,"sb\ring.png",0,0 M,0,124358,,64,152 C,0,124358,,255,255,255 F,1,124358,126358,0.9,0 S,1,124358,126358,0.25,0.5
Sprite,Background,Centre,"sb\ring.png",0,0 M,0,124508,,308,76 C,0,124508,,255,255,255 F,1,124508,126807,0.9,0 S,1,124508,126807,0.25,0.5
Sprite,Background,Centre,"sb\ring.png",0,0 M,0,124883,,284,416 C,0,124883,,255,255,255 F,1,124883,126883,0.9,0 S,1,124883,126883,0.25,0.5
Sprite,Background,Centre,"sb\ring.png",0,0 M,0,124958,,284,416 C,0,124958,,255,255,255 F,1,124958,127107,0.9,0 S,1,124958,127107,0.25,0.5
Sprite,Background,Centre,"sb\ring.png",0,0 M,0,125258,,288,346 C,0,125258,,255,255,255 F,1,125258,127407,0.9,0 S,1,125258,127407,0.25,0.5
Sprite,Background,Centre,"sb\ring.png",0,0 M,0,125558,,72,248 C,0,125558,,255,255,255 F,1,125558,127558,0.9,0 S,1,125558,127558,0.25,0.5
Sprite,Background,Centre,"sb\ring.png",0,0 M,0,125708,,216,304 C,0,125708,,255,255,255 F,1,125708,127708,0.9,0 S,1,125708,127708,0.25,0.5
Sprite,Background,Centre,"sb\ring.png",0,0 M,0,125783,,216,304 C,0,125783,,255,255,255 F,1,125783,127783,0.9,0 S,1,125783,127783,0.25,0.5
Sprite,Background,Centre,"sb\ring.png",0,0 M,0,125858,,216,304 C,0,125858,,255,255,255 F,1,125858,127932,0.9,0 S,1,125858,127932,0.25,0.5
Sprite,Background,Centre,"sb\ring.png",0,0 M,0,126008,,264,144 C,0,126008,,255,255,255 F,1,126008,128008,0.9,0 S,1,126008,128008,0.25,0.5
Sprite,Background,Centre,"sb\ring.png",0,0 M,0,126158,,72,248 C,0,126158,,255,255,255 F,1,126158,128158,0.9,0 S,1,126158,128158,0.25,0.5
Sprite,Background,Centre,"sb\ring.png",0,0 M,0,126308,,72,248 C,0,126308,,255,255,255 F,1,126308,128607,0.9,0 S,1,126308,128607,0.25,0.5
Sprite,Background,Centre,"sb\ring.png",0,0 M,0,126683,,334,227 C,0,126683,,255,255,255 F,1,126683,128683,0.9,0 S,1,126683,128683,0.25,0.5
Sprite,Background,Centre,"sb\ring.png",0,0 M,0,126758,,334,227 C,0,126758,,255,255,255 F,1,126758,128758,0.9,0 S,1,126758,128758,0.25,0.5
Sprite,Background,Centre,"sb\ring.png",0,0 M,0,126908,,384,392 C,0,126908,,255,255,255 F,1,126908,128908,0.9,0 S,1,126908,128908,0.25,0.5
Sprite,Background,Centre,"sb\ring.png",0,0 M,0,127058,,520,272 C,0,127058,,255,255,255 F,1,127058,129132,0.9,0 S,1,127058,129132,0.25,0.5
Sprite,Background,Centre,"sb\ring.png",0,0 M,0,127208,,392,388 C,0,127208,,255,255,255 F,1,127208,129507,0.9,0 S,1,127208,129507,0.25,0.5
Sprite,Background,Centre,"sb\ring.png",0,0 M,0,127658,,284,412 C,0,127658,,255,255,255 F,1,127658,129732,0.9,0 S,1,127658,129732,0.25,0.5
Sprite,Background,Centre,"sb\ring.png",0,0 M,0,127808,,156,296 C,0,127808,,255,255,255 F,1,127808,130107,0.9,0 S,1,127808,130107,0.25,0.5
Sprite,Background,Centre,"sb\ring.png",0,0 M,0,128258,,88,196 C,0,128258,,255,255,255 F,1,128258,130258,0.9,0 S,1,128258,130258,0.25,0.5
Sprite,Background,Centre,"sb\ring.png",0,0 M,0,128408,,124,72 C,0,128408,,255,255,255 F,1,128408,130408,0.9,0 S,1,128408,130408,0.25,0.5
Sprite,Background,Centre,"sb\ring.png",0,0 M,0,128558,,228,88 C,0,128558,,255,255,255 F,1,128558,130558,0.9,0 S,1,128558,130558,0.25,0.5
Sprite,Background,Centre,"sb\ring.png",0,0 M,0,128708,,236,212 C,0,128708,,255,255,255 F,1,128708,130708,0.9,0 S,1,128708,130708,0.25,0.5
Sprite,Background,Centre,"sb\ring.png",0,0 M,0,128858,,370,200 C,0,128858,,255,255,255 F,1,128858,131007,0.9,0 S,1,128858,131007,0.25,0.5
Sprite,Background,Centre,"sb\ring.png",0,0 M,0,129158,,360,76 C,0,129158,,255,255,255 F,1,129158,131158,0.9,0 S,1,129158,131158,0.25,0.5
Sprite,Background,Centre,"sb\ring.png",0,0 M,0,129308,,376,208 C,0,129308,,255,255,255 F,1,129308,131308,0.9,0 S,1,129308,131308,0.25,0.5
Sprite,Background,Centre,"sb\ring.png",0,0 M,0,129458,,416,132 C,0,129458,,255,255,255 F,1,129458,131458,0.9,0 S,1,129458,131458,0.25,0.5
Sprite,Background,Centre,"sb\ring.png",0,0 M,0,129608,,496,120 C,0,129608,,255,255,255 F,1,129608,131608,0.9,0 S,1,129608,131608,0.25,0.5
Sprite,Background,Centre,"sb\ring.png",0,0 M,0,129758,,531,250 C,0,129758,,255,255,255 F,1,129758,131907,0.9,0 S,1,129758,131907,0.25,0.5
Sprite,Background,Centre,"sb\ring.png",0,0 M,0,130058,,320,104 C,0,130058,,255,255,255 F,1,130058,132132,0.9,0 S,1,130058,132132,0.25,0.5
Sprite,Background,Centre,"sb\ring.png",0,0 M,0,130208,,196,192 C,0,130208,,255,255,255 F,1,130208,132282,0.9,0 S,1,130208,132282,0.25,0.5
Sprite,Background,Centre,"sb\ring.png",0,0 M,0,130358,,96,316 C,0,130358,,255,255,255 F,1,130358,132432,0.9,0 S,1,130358,132432,0.25,0.5
Sprite,Background,Centre,"sb\ring.png",0,0 M,0,130508,,216,264 C,0,130508,,255,255,255 F,1,130508,132582,0.9,0 S,1,130508,132582,0.25,0.5
Sprite,Background,Centre,"sb\ring.png",0,0 M,0,130658,,96,220 C,0,130658,,255,255,255 F,1,130658,132957,0.9,0 S,1,130658,132957,0.25,0.5
Sprite,Background,Centre,"sb\ring.png",0,0 M,0,131108,,363,91 C,0,131108,,255,255,255 F,1,131108,133407,0.9,0 S,1,131108,133407,0.25,0.5
Sprite,Background,Centre,"sb\ring.png",0,0 M,0,131483,,472,188 C,0,131483,,255,255,255 F,1,131483,133557,0.9,0 S,1,131483,133557,0.25,0.5
Sprite,Background,Centre,"sb\ring.png",0,0 M,0,131708,,444,420 C,0,131708,,255,255,255 F,1,131708,133708,0.9,0 S,1,131708,133708,0.25,0.5
Sprite,Background,Centre,"sb\ring.png",0,0 M,0,131783,,444,420 C,0,131783,,255,255,255 F,1,131783,133783,0.9,0 S,1,131783,133783,0.25,0.5
Sprite,Background,Centre,"sb\ring.png",0,0 M,0,131858,,444,420 C,0,131858,,255,255,255 F,1,131858,133932,0.9,0 S,1,131858,133932,0.25,0.5
Sprite,Background,Centre,"sb\ring.png",0,0 M,0,132008,,456,276 C,0,132008,,255,255,255 F,1,132008,134307,0.9,0 S,1,132008,134307,0.25,0.5
Sprite,Background,Centre,"sb\ring.png",0,0 M,0,132458,,256,232 C,0,132458,,255,255,255 F,1,132458,134532,0.9,0 S,1,132458,134532,0.25,0.5
Sprite,Background,Centre,"sb\ring.png",0,0 M,0,132608,,268,376 C,0,132608,,255,255,255 F,1,132608,134907,0.9,0 S,1,132608,134907,0.25,0.5
Sprite,Background,Centre,"sb\ring.png",0,0 M,0,133058,,72,440 C,0,133058,,255,255,255 F,1,133058,135132,0.9,0 S,1,133058,135132,0.25,0.5
Sprite,Background,Centre,"sb\ring.png",0,0 M,0,133208,,104,304 C,0,133208,,255,255,255 F,1,133208,135282,0.9,0 S,1,133208,135282,0.25,0.5
Sprite,Background,Centre,"sb\ring.png",0,0 M,0,133358,,324,248 C,0,133358,,255,255,255 F,1,133358,135432,0.9,0 S,1,133358,135432,0.25,0.5
Sprite,Background,Centre,"sb\ring.png",0,0 M,0,133508,,152,340 C,0,133508,,255,255,255 F,1,133508,135582,0.9,0 S,1,133508,135582,0.25,0.5
Sprite,Background,Centre,"sb\ring.png",0,0 M,0,133658,,211,200 C,0,133658,,255,255,255 F,1,133658,135732,0.9,0 S,1,133658,135732,0.25,0.5
Sprite,Background,Centre,"sb\ring.png",0,0 M,0,133808,,299,176 C,0,133808,,255,255,255 F,1,133808,135882,0.9,0 S,1,133808,135882,0.25,0.5
Sprite,Background,Centre,"sb\ring.png",0,0 M,0,133958,,441,228 C,0,133958,,255,255,255 F,1,133958,136032,0.9,0 S,1,133958,136032,0.25,0.5
Sprite,Background,Centre,"sb\ring.png",0,0 M,0,134108,,353,252 C,0,134108,,255,255,255 F,1,134108,136182,0.9,0 S,1,134108,136182,0.25,0.5
Sprite,Background,Centre,"sb\ring.png",0,0 M,0,134258,,272,96 C,0,134258,,255,255,255 F,1,134258,136258,0.9,0 S,1,134258,136258,0.25,0.5
Sprite,Background,Centre,"sb\ring.png",0,0 M,0,134408,,364,112 C,0,134408,,255,255,255 F,1,134408,136408,0.9,0 S,1,134408,136408,0.25,0.5
Sprite,Background,Centre,"sb\ring.png",0,0 M,0,134558,,204,120 C,0,134558,,255,255,255 F,1,134558,136558,0.9,0 S,1,134558,136558,0.25,0.5
Sprite,Background,Centre,"sb\ring.png",0,0 M,0,134708,,424,84 C,0,134708,,255,255,255 F,1,134708,136708,0.9,0 S,1,134708,136708,0.25,0.5
Sprite,Background,Centre,"sb\ring.png",0,0 M,0,134858,,72,104 C,0,134858,,255,255,255 F,1,134858,137007,0.9,0 S,1,134858,137007,0.25,0.5
Sprite,Background,Centre,"sb\ring.png",0,0 M,0,135158,,548,104 C,0,135158,,255,255,255 F,1,135158,137307,0.9,0 S,1,135158,137307,0.25,0.5
Sprite,Background,Centre,"sb\ring.png",0,0 M,0,135458,,312,80 C,0,135458,,255,255,255 F,1,135458,137458,0.9,0 S,1,135458,137458,0.25,0.5
Sprite,Background,Centre,"sb\ring.png",0,0 M,0,135608,,324,216 C,0,135608,,255,255,255 F,1,135608,137608,0.9,0 S,1,135608,137608,0.25,0.5
Sprite,Background,Centre,"sb\ring.png",0,0 M,0,135758,,336,352 C,0,135758,,255,255,255 F,1,135758,137758,0.9,0 S,1,135758,137758,0.25,0.5
Sprite,Background,Centre,"sb\ring.png",0,0 M,0,136208,,80,328 C,0,136208,,255,255,255 F,1,136208,138208,0.9,0 S,1,136208,138208,0.25,0.5
Sprite,Background,Centre,"sb\ring.png",0,0 M,0,136358,,148,340 C,0,136358,,255,255,255 F,1,136358,138358,0.9,0 S,1,136358,138358,0.25,0.5
Sprite,Background,Centre,"sb\ring.png",0,0 M,0,136508,,132,408 C,0,136508,,255,255,255 F,1,136508,138582,0.9,0 S,1,136508,138582,0.25,0.5
Sprite,Background,Centre,"sb\ring.png",0,0 M,0,136808,,476,300 C,0,136808,,255,255,255 F,1,136808,139032,0.9,0 S,1,136808,139032,0.25,0.5
Sprite,Background,Centre,"sb\ring.png",0,0 M,0,137108,,416,256 C,0,137108,,255,255,255 F,1,137108,139183,0.9,0 S,1,137108,139183,0.25,0.5
Sprite,Background,Centre,"sb\ring.png",0,0 M,0,137408,,408,256 C,0,137408,,255,255,255 F,1,137408,139483,0.9,0 S,1,137408,139483,0.25,0.5
Sprite,Background,Centre,"sb\ring.png",0,0 M,0,137708,,400,256 C,0,137708,,255,255,255 F,1,137708,139783,0.9,0 S,1,137708,139783,0.25,0.5
Sprite,Background,Centre,"sb\ring.png",0,0 M,0,137858,,496,80 C,0,137858,,255,255,255 F,1,137858,139858,0.9,0 S,1,137858,139858,0.25,0.5
Sprite,Background,Centre,"sb\ring.png",0,0 M,0,138008,,496,80 C,0,138008,,255,255,255 F,1,138008,140008,0.9,0 S,1,138008,140008,0.25,0.5
Sprite,Background,Centre,"sb\ring.png",0,0 M,0,138158,,300,100 C,0,138158,,255,255,255 F,1,138158,140308,0.9,0 S,1,138158,140308,0.25,0.5
Sprite,Background,Centre,"sb\ring.png",0,0 M,0,138458,,516,268 C,0,138458,,255,255,255 F,1,138458,140608,0.9,0 S,1,138458,140608,0.25,0.5
Sprite,Background,Centre,"sb\ring.png",0,0 M,0,138758,,496,80 C,0,138758,,255,255,255 F,1,138758,140758,0.9,0 S,1,138758,140758,0.25,0.5
Sprite,Background,Centre,"sb\ring.png",0,0 M,0,138908,,328,256 C,0,138908,,255,255,255 F,1,138908,140908,0.9,0 S,1,138908,140908,0.25,0.5
Sprite,Background,Centre,"sb\ring.png",0,0 M,0,139058,,304,252 C,0,139058,,255,255,255 F,1,139058,141058,0.9,0 S,1,139058,141058,0.25,0.5
Sprite,Background,Centre,"sb\ring.png",0,0 M,0,139208,,252,296 C,0,139208,,255,255,255 F,1,139208,141208,0.9,0 S,1,139208,141208,0.25,0.5
Sprite,Background,Centre,"sb\ring.png",0,0 M,0,139358,,228,292 C,0,139358,,255,255,255 F,1,139358,141358,0.9,0 S,1,139358,141358,0.25,0.5
Sprite,Background,Centre,"sb\ring.png",0,0 M,0,139508,,180,340 C,0,139508,,255,255,255 F,1,139508,141508,0.9,0 S,1,139508,141508,0.25,0.5
Sprite,Background,Centre,"sb\ring.png",0,0 M,0,139658,,156,336 C,0,139658,,255,255,255 F,1,139658,141658,0.9,0 S,1,139658,141658,0.25,0.5
Sprite,Background,Centre,"sb\ring.png",0,0 M,0,139808,,300,348 C,0,139808,,255,255,255 F,1,139808,141808,0.9,0 S,1,139808,141808,0.25,0.5
Sprite,Background,Centre,"sb\ring.png",0,0 M,0,139958,,296,372 C,0,139958,,255,255,255 F,1,139958,141958,0.9,0 S,1,139958,141958,0.25,0.5
Sprite,Background,Centre,"sb\ring.png",0,0 M,0,140108,,292,396 C,0,140108,,255,255,255 F,1,140108,142108,0.9,0 S,1,140108,142108,0.25,0.5
Sprite,Background,Centre,"sb\ring.png",0,0 M,0,140258,,144,416 C,0,140258,,255,255,255 F,1,140258,142258,0.9,0 S,1,140258,142258,0.25,0.5
Sprite,Background,Centre,"sb\ring.png",0,0 M,0,140408,,144,416 C,0,140408,,255,255,255 F,1,140408,142408,0.9,0 S,1,140408,142408,0.25,0.5
Sprite,Background,Centre,"sb\ring.png",0,0 M,0,140558,,340,396 C,0,140558,,255,255,255 F,1,140558,142708,0.9,0 S,1,140558,142708,0.25,0.5
Sprite,Background,Centre,"sb\ring.png",0,0 M,0,140858,,124,228 C,0,140858,,255,255,255 F,1,140858,143008,0.9,0 S,1,140858,143008,0.25,0.5
Sprite,Background,Centre,"sb\ring.png",0,0 M,0,141158,,144,416 C,0,141158,,255,255,255 F,1,141158,143158,0.9,0 S,1,141158,143158,0.25,0.5
Sprite,Background,Centre,"sb\ring.png",0,0 M,0,141308,,316,312 C,0,141308,,255,255,255 F,1,141308,143608,0.9,0 S,1,141308,143608,0.25,0.5
Sprite,Background,Centre,"sb\ring.png",0,0 M,0,141683,,514,352 C,0,141683,,255,255,255 F,1,141683,143683,0.9,0 S,1,141683,143683,0.25,0.5
Sprite,Background,Centre,"sb\ring.png",0,0 M,0,141758,,514,352 C,0,141758,,255,255,255 F,1,141758,143758,0.9,0 S,1,141758,143758,0.25,0.5
Sprite,Background,Centre,"sb\ring.png",0,0 M,0,141908,,340,396 C,0,141908,,255,255,255 F,1,141908,143908,0.9,0 S,1,141908,143908,0.25,0.5
Sprite,Background,Centre,"sb\ring.png",0,0 M,0,142058,,488,276 C,0,142058,,255,255,255 F,1,142058,144283,0.9,0 S,1,142058,144283,0.25,0.5
Sprite,Background,Centre,"sb\ring.png",0,0 M,0,142358,,500,172 C,0,142358,,255,255,255 F,1,142358,144583,0.9,0 S,1,142358,144583,0.25,0.5
Sprite,Background,Centre,"sb\ring.png",0,0 M,0,142658,,448,72 C,0,142658,,255,255,255 F,1,142658,144658,0.9,0 S,1,142658,144658,0.25,0.5
Sprite,Background,Centre,"sb\ring.png",0,0 M,0,142808,,448,72 C,0,142808,,255,255,255 F,1,142808,144808,0.9,0 S,1,142808,144808,0.25,0.5
Sprite,Background,Centre,"sb\ring.png",0,0 M,0,142958,,448,72 C,0,142958,,255,255,255 F,1,142958,145108,0.9,0 S,1,142958,145108,0.25,0.5
Sprite,Background,Centre,"sb\ring.png",0,0 M,0,143258,,72,140 C,0,143258,,255,255,255 F,1,143258,145258,0.9,0 S,1,143258,145258,0.25,0.5
Sprite,Background,Centre,"sb\ring.png",0,0 M,0,143408,,184,276 C,0,143408,,255,255,255 F,1,143408,145408,0.9,0 S,1,143408,145408,0.25,0.5
Sprite,Background,Centre,"sb\ring.png",0,0 M,0,143483,,184,276 C,0,143483,,255,255,255 F,1,143483,145483,0.9,0 S,1,143483,145483,0.25,0.5
Sprite,Background,Centre,"sb\ring.png",0,0 M,0,143558,,184,276 C,0,143558,,255,255,255 F,1,143558,145783,0.9,0 S,1,143558,145783,0.25,0.5
Sprite,Background,Centre,"sb\ring.png",0,0 M,0,143858,,124,152 C,0,143858,,255,255,255 F,1,143858,145933,0.9,0 S,1,143858,145933,0.25,0.5
Sprite,Background,Centre,"sb\ring.png",0,0 M,0,144008,,268,56 C,0,144008,,255,255,255 F,1,144008,146233,0.9,0 S,1,144008,146233,0.25,0.5
Sprite,Background,Centre,"sb\ring.png",0,0 M,0,144308,,356,236 C,0,144308,,255,255,255 F,1,144308,146383,0.9,0 S,1,144308,146383,0.25,0.5
Sprite,Background,Centre,"sb\ring.png",0,0 M,0,144458,,452,160 C,0,144458,,255,255,255 F,1,144458,146533,0.9,0 S,1,144458,146533,0.25,0.5
Sprite,Background,Centre,"sb\ring.png",0,0 M,0,144608,,272,224 C,0,144608,,255,255,255 F,1,144608,146608,0.9,0 S,1,144608,146608,0.25,0.5
Sprite,Background,Centre,"sb\ring.png",0,0 M,0,144758,,360,248 C,0,144758,,255,255,255 F,1,144758,146758,0.9,0 S,1,144758,146758,0.25,0.5
Sprite,Background,Centre,"sb\ring.png",0,0 M,0,144908,,448,236 C,0,144908,,255,255,255 F,1,144908,146908,0.9,0 S,1,144908,146908,0.25,0.5
Sprite,Background,Centre,"sb\ring.png",0,0 M,0,145058,,524,184 C,0,145058,,255,255,255 F,1,145058,147358,0.9,0 S,1,145058,147358,0.25,0.5
Sprite,Background,Centre,"sb\ring.png",0,0 M,0,145508,,528,276 C,0,145508,,255,255,255 F,1,145508,147808,0.9,0 S,1,145508,147808,0.25,0.5
Sprite,Background,Centre,"sb\ring.png",0,0 M,0,145958,,327,300 C,0,145958,,255,255,255 F,1,145958,147958,0.9,0 S,1,145958,147958,0.25,0.5
Sprite,Background,Centre,"sb\ring.png",0,0 M,0,146108,,327,300 C,0,146108,,255,255,255 F,1,146108,148108,0.9,0 S,1,146108,148108,0.25,0.5
Sprite,Background,Centre,"sb\ring.png",0,0 M,0,146183,,240,340 C,0,146183,,255,255,255 F,1,146183,148258,0.9,0 S,1,146183,148258,0.25,0.5
Sprite,Background,Centre,"sb\ring.png",0,0 M,0,146408,,236,352 C,0,146408,,255,255,255 F,1,146408,148408,0.9,0 S,1,146408,148408,0.25,0.5
Sprite,Background,Centre,"sb\ring.png",0,0 M,0,146558,,68,360 C,0,146558,,255,255,255 F,1,146558,148633,0.9,0 S,1,146558,148633,0.25,0.5
Sprite,Background,Centre,"sb\ring.png",0,0 M,0,146708,,72,372 C,0,146708,,255,255,255 F,1,146708,148783,0.9,0 S,1,146708,148783,0.25,0.5
Sprite,Background,Centre,"sb\ring.png",0,0 M,0,146858,,364,400 C,0,146858,,255,255,255 F,1,146858,148933,0.9,0 S,1,146858,148933,0.25,0.5
Sprite,Background,Centre,"sb\ring.png",0,0 M,0,147008,,368,388 C,0,147008,,255,255,255 F,1,147008,149083,0.9,0 S,1,147008,149083,0.25,0.5
Sprite,Background,Centre,"sb\ring.png",0,0 M,0,147158,,552,380 C,0,147158,,255,255,255 F,1,147158,149233,0.9,0 S,1,147158,149233,0.25,0.5
Sprite,Background,Centre,"sb\ring.png",0,0 M,0,147308,,548,368 C,0,147308,,255,255,255 F,1,147308,149383,0.9,0 S,1,147308,149383,0.25,0.5
Sprite,Background,Centre,"sb\ring.png",0,0 M,0,147458,,320,424 C,0,147458,,255,255,255 F,1,147458,149458,0.9,0 S,1,147458,149458,0.25,0.5
Sprite,Background,Centre,"sb\ring.png",0,0 M,0,147608,,224,300 C,0,147608,,255,255,255 F,1,147608,149608,0.9,0 S,1,147608,149608,0.25,0.5
Sprite,Background,Centre,"sb\ring.png",0,0 M,0,147758,,248,296 C,0,147758,,255,255,255 F,1,147758,149758,0.9,0 S,1,147758,149758,0.25,0.5
Sprite,Background,Centre,"sb\ring.png",0,0 M,0,147908,,272,292 C,0,147908,,255,255,255 F,1,147908,149908,0.9,0 S,1,147908,149908,0.25,0.5
Sprite,Background,Centre,"sb\ring.png",0,0 M,0,148058,,296,288 C,0,148058,,255,255,255 F,1,148058,150058,0.9,0 S,1,148058,150058,0.25,0.5
Sprite,Background,Centre,"sb\ring.png",0,0 M,0,148208,,320,284 C,0,148208,,255,255,255 F,1,148208,150208,0.9,0 S,1,148208,150208,0.25,0.5
Sprite,Background,Centre,"sb\ring.png",0,0 M,0,148358,,344,280 C,0,148358,,255,255,255 F,1,148358,150358,0.9,0 S,1,148358,150358,0.25,0.5
Sprite,Background,Centre,"sb\ring.png",0,0 M,0,148508,,368,276 C,0,148508,,255,255,255 F,1,148508,150583,0.9,0 S,1,148508,150583,0.25,0.5
Sprite,Background,Centre,"sb\ring.png",0,0 M,0,148658,,320,424 C,0,148658,,255,255,255 F,1,148658,150658,0.9,0 S,1,148658,150658,0.25,0.5
Sprite,Background,Centre,"sb\ring.png",0,0 M,0,148808,,472,232 C,0,148808,,255,255,255 F,1,148808,150808,0.9,0 S,1,148808,150808,0.25,0.5
Sprite,Background,Centre,"sb\ring.png",0,0 M,0,148958,,420,224 C,0,148958,,255,255,255 F,1,148958,150958,0.9,0 S,1,148958,150958,0.25,0.5
Sprite,Background,Centre,"sb\ring.png",0,0 M,0,149108,,368,216 C,0,149108,,255,255,255 F,1,149108,151108,0.9,0 S,1,149108,151108,0.25,0.5
Sprite,Background,Centre,"sb\ring.png",0,0 M,0,149258,,316,208 C,0,149258,,255,255,255 F,1,149258,151258,0.9,0 S,1,149258,151258,0.25,0.5
Sprite,Background,Centre,"sb\ring.png",0,0 M,0,149408,,264,200 C,0,149408,,255,255,255 F,1,149408,151408,0.9,0 S,1,149408,151408,0.25,0.5
Sprite,Background,Centre,"sb\ring.png",0,0 M,0,149558,,212,192 C,0,149558,,255,255,255 F,1,149558,151558,0.9,0 S,1,149558,151558,0.25,0.5
Sprite,Background,Centre,"sb\ring.png",0,0 M,0,149708,,160,184 C,0,149708,,255,255,255 F,1,149708,151783,0.9,0 S,1,149708,151783,0.25,0.5
Sprite,Background,Centre,"sb\ring.png",0,0 M,0,149858,,64,88 C,0,149858,,255,255,255 F,1,149858,151858,0.9,0 S,1,149858,151858,0.25,0.5
Sprite,Background,Centre,"sb\ring.png",0,0 M,0,150008,,80,152 C,0,150008,,255,255,255 F,1,150008,152008,0.9,0 S,1,150008,152008,0.25,0.5
Sprite,Background,Centre,"sb\ring.png",0,0 M,0,150158,,164,64 C,0,150158,,255,255,255 F,1,150158,152158,0.9,0 S,1,150158,152158,0.25,0.5
Sprite,Background,Centre,"sb\ring.png",0,0 M,0,150308,,200,184 C,0,150308,,255,255,255 F,1,150308,152308,0.9,0 S,1,150308,152308,0.25,0.5
Sprite,Background,Centre,"sb\ring.png",0,0 M,0,150458,,264,88 C,0,150458,,255,255,255 F,1,150458,152458,0.9,0 S,1,150458,152458,0.25,0.5
Sprite,Background,Centre,"sb\ring.png",0,0 M,0,150608,,296,176 C,0,150608,,255,255,255 F,1,150608,152608,0.9,0 S,1,150608,152608,0.25,0.5
Sprite,Background,Centre,"sb\ring.png",0,0 M,0,150758,,368,92 C,0,150758,,255,255,255 F,1,150758,152758,0.9,0 S,1,150758,152758,0.25,0.5
Sprite,Background,Centre,"sb\ring.png",0,0 M,0,150908,,412,224 C,0,150908,,255,255,255 F,1,150908,152908,0.9,0 S,1,150908,152908,0.25,0.5
Sprite,Background,Centre,"sb\ring.png",0,0 M,0,151058,,464,72 C,0,151058,,255,255,255 F,1,151058,153058,0.9,0 S,1,151058,153058,0.25,0.5
Sprite,Background,Centre,"sb\ring.png",0,0 M,0,151208,,500,156 C,0,151208,,255,255,255 F,1,151208,153358,0.9,0 S,1,151208,153358,0.25,0.5
Sprite,Background,Centre,"sb\ring.png",0,0 M,0,151508,,64,248 C,0,151508,,255,255,255 F,1,151508,153733,0.9,0 S,1,151508,153733,0.25,0.5
Sprite,Background,Centre,"sb\ring.png",0,0 M,0,151808,,272,208 C,0,151808,,255,255,255 F,1,151808,153883,0.9,0 S,1,151808,153883,0.25,0.5
Sprite,Background,Centre,"sb\ring.png",0,0 M,0,151958,,336,304 C,0,151958,,255,255,255 F,1,151958,153958,0.9,0 S,1,151958,153958,0.25,0.5
Sprite,Background,Centre,"sb\ring.png",0,0 M,0,152033,,376,308 C,0,152033,,255,255,255 F,1,152033,154033,0.9,0 S,1,152033,154033,0.25,0.5
Sprite,Background,Centre,"sb\ring.png",0,0 M,0,152108,,412,332 C,0,152108,,255,255,255 F,1,152108,154108,0.9,0 S,1,152108,154108,0.25,0.5
Sprite,Background,Centre,"sb\ring.png",0,0 M,0,152183,,436,368 C,0,152183,,255,255,255 F,1,152183,154183,0.9,0 S,1,152183,154183,0.25,0.5
Sprite,Background,Centre,"sb\ring.png",0,0 M,0,152258,,436,408 C,0,152258,,255,255,255 F,1,152258,154358,0.9,0 S,1,152258,154358,0.25,0.5
Sprite,Background,Centre,"sb\ring.png",0,0 M,0,152458,,528,304 C,0,152458,,255,255,255 F,1,152458,154558,0.9,0 S,1,152458,154558,0.25,0.5
Sprite,Background,Centre,"sb\ring.png",0,0 M,0,152658,,480,156 C,0,152658,,255,255,255 F,1,152658,154758,0.9,0 S,1,152658,154758,0.25,0.5
Sprite,Background,Centre,"sb\ring.png",0,0 M,0,152858,,304,72 C,0,152858,,255,255,255 F,1,152858,154958,0.9,0 S,1,152858,154958,0.25,0.5
Sprite,Background,Centre,"sb\ring.png",0,0 M,0,153058,,320,280 C,0,153058,,255,255,255 F,1,153058,155158,0.9,0 S,1,153058,155158,0.25,0.5
Sprite,Background,Centre,"sb\ring.png",0,0 M,0,153258,,208,192 C,0,153258,,255,255,255 F,1,153258,155358,0.9,0 S,1,153258,155358,0.25,0.5
Sprite,Background,Centre,"sb\ring.png",0,0 M,0,153458,,320,280 C,0,153458,,255,255,255 F,1,153458,155458,0.9,0 S,1,153458,155458,0.25,0.5
Sprite,Background,Centre,"sb\ring.png",0,0 M,0,153608,,200,184 C,0,153608,,255,255,255 F,1,153608,155758,0.9,0 S,1,153608,155758,0.25,0.5
Sprite,Background,Centre,"sb\ring.png",0,0 M,0,153908,,160,420 C,0,153908,,255,255,255 F,1,153908,155908,0.9,0 S,1,153908,155908,0.25,0.5
Sprite,Background,Centre,"sb\ring.png",0,0 M,0,154208,,320,72 C,0,154208,,255,255,255 F,1,154208,156208,0.9,0 S,1,154208,156208,0.25,0.5
Sprite,Background,Centre,"sb\ring.png",0,0 M,0,154508,,480,420 C,0,154508,,255,255,255 F,1,154508,156508,0.9,0 S,1,154508,156508,0.25,0.5
Sprite,Background,Centre,"sb\ring.png",0,0 M,0,154583,,320,248 C,0,154583,,255,255,255 F,1,154583,157858,0.9,0 S,1,154583,157858,0.25,0.5
Sprite,Background,Centre,"sb\ring.png",0,0 M,0,181058,,96,156 C,0,181058,,255,255,255 F,1,181058,183357,0.9,0 S,1,181058,183357,0.25,0.5
Sprite,Background,Centre,"sb\ring.png",0,0 M,0,181508,,360,72 C,0,181508,,255,255,255 F,1,181508,183807,0.9,0 S,1,181508,183807,0.25,0.5
Sprite,Background,Centre,"sb\ring.png",0,0 M,0,181883,,496,68 C,0,181883,,255,255,255 F,1,181883,183957,0.9,0 S,1,181883,183957,0.25,0.5
Sprite,Background,Centre,"sb\ring.png",0,0 M,0,182108,,381,411 C,0,182108,,255,255,255 F,1,182108,184108,0.9,0 S,1,182108,184108,0.25,0.5
Sprite,Background,Centre,"sb\ring.png",0,0 M,0,182183,,381,411 C,0,182183,,255,255,255 F,1,182183,184183,0.9,0 S,1,182183,184183,0.25,0.5
Sprite,Background,Centre,"sb\ring.png",0,0 M,0,182258,,381,411 C,0,182258,,255,255,255 F,1,182258,184332,0.9,0 S,1,182258,184332,0.25,0.5
Sprite,Background,Centre,"sb\ring.png",0,0 M,0,182408,,424,260 C,0,182408,,255,255,255 F,1,182408,184707,0.9,0 S,1,182408,184707,0.25,0.5
Sprite,Background,Centre,"sb\ring.png",0,0 M,0,182858,,136,208 C,0,182858,,255,255,255 F,1,182858,184932,0.9,0 S,1,182858,184932,0.25,0.5
Sprite,Background,Centre,"sb\ring.png",0,0 M,0,183008,,178,359 C,0,183008,,255,255,255 F,1,183008,185307,0.9,0 S,1,183008,185307,0.25,0.5
Sprite,Background,Centre,"sb\ring.png",0,0 M,0,183458,,64,176 C,0,183458,,255,255,255 F,1,183458,185607,0.9,0 S,1,183458,185607,0.25,0.5
Sprite,Background,Centre,"sb\ring.png",0,0 M,0,183758,,392,140 C,0,183758,,255,255,255 F,1,183758,185907,0.9,0 S,1,183758,185907,0.25,0.5
Sprite,Background,Centre,"sb\ring.png",0,0 M,0,183983,,526,125 C,0,183983,,255,255,255 F,1,183983,185983,0.9,0 S,1,183983,185983,0.25,0.5
Sprite,Background,Centre,"sb\ring.png",0,0 M,0,184058,,526,125 C,0,184058,,255,255,255 F,1,184058,186058,0.9,0 S,1,184058,186058,0.25,0.5
Sprite,Background,Centre,"sb\ring.png",0,0 M,0,184208,,288,80 C,0,184208,,255,255,255 F,1,184208,186208,0.9,0 S,1,184208,186208,0.25,0.5
Sprite,Background,Centre,"sb\ring.png",0,0 M,0,184358,,64,176 C,0,184358,,255,255,255 F,1,184358,186358,0.9,0 S,1,184358,186358,0.25,0.5
Sprite,Background,Centre,"sb\ring.png",0,0 M,0,184508,,308,224 C,0,184508,,255,255,255 F,1,184508,186508,0.9,0 S,1,184508,186508,0.25,0.5
Sprite,Background,Centre,"sb\ring.png",0,0 M,0,184583,,308,224 C,0,184583,,255,255,255 F,1,184583,186583,0.9,0 S,1,184583,186583,0.25,0.5
Sprite,Background,Centre,"sb\ring.png",0,0 M,0,184658,,308,224 C,0,184658,,255,255,255 F,1,184658,186807,0.9,0 S,1,184658,186807,0.25,0.5
Sprite,Background,Centre,"sb\ring.png",0,0 M,0,184883,,312,440 C,0,184883,,255,255,255 F,1,184883,186883,0.9,0 S,1,184883,186883,0.25,0.5
Sprite,Background,Centre,"sb\ring.png",0,0 M,0,184958,,252,396 C,0,184958,,255,255,255 F,1,184958,187032,0.9,0 S,1,184958,187032,0.25,0.5
Sprite,Background,Centre,"sb\ring.png",0,0 M,0,185108,,376,408 C,0,185108,,255,255,255 F,1,185108,187182,0.9,0 S,1,185108,187182,0.25,0.5
Sprite,Background,Centre,"sb\ring.png",0,0 M,0,185258,,108,384 C,0,185258,,255,255,255 F,1,185258,187258,0.9,0 S,1,185258,187258,0.25,0.5
Sprite,Background,Centre,"sb\ring.png",0,0 M,0,185408,,319,358 C,0,185408,,255,255,255 F,1,185408,187408,0.9,0 S,1,185408,187408,0.25,0.5
Sprite,Background,Centre,"sb\ring.png",0,0 M,0,185558,,516,424 C,0,185558,,255,255,255 F,1,185558,187558,0.9,0 S,1,185558,187558,0.25,0.5
Sprite,Background,Centre,"sb\ring.png",0,0 M,0,185708,,312,440 C,0,185708,,255,255,255 F,1,185708,187708,0.9,0 S,1,185708,187708,0.25,0.5
Sprite,Background,Centre,"sb\ring.png",0,0 M,0,185858,,136,300 C,0,185858,,255,255,255 F,1,185858,187932,0.9,0 S,1,185858,187932,0.25,0.5
Sprite,Background,Centre,"sb\ring.png",0,0 M,0,186008,,184,96 C,0,186008,,255,255,255 F,1,186008,188008,0.9,0 S,1,186008,188008,0.25,0.5
Sprite,Background,Centre,"sb\ring.png",0,0 M,0,186158,,324,172 C,0,186158,,255,255,255 F,1,186158,188158,0.9,0 S,1,186158,188158,0.25,0.5
Sprite,Background,Centre,"sb\ring.png",0,0 M,0,186308,,324,172 C,0,186308,,255,255,255 F,1,186308,188607,0.9,0 S,1,186308,188607,0.25,0.5
Sprite,Background,Centre,"sb\ring.png",0,0 M,0,186683,,64,204 C,0,186683,,255,255,255 F,1,186683,188683,0.9,0 S,1,186683,188683,0.25,0.5
Sprite,Background,Centre,"sb\ring.png",0,0 M,0,186758,,64,204 C,0,186758,,255,255,255 F,1,186758,188758,0.9,0 S,1,186758,188758,0.25,0.5
Sprite,Background,Centre,"sb\ring.png",0,0 M,0,186908,,224,352 C,0,186908,,255,255,255 F,1,186908,188908,0.9,0 S,1,186908,188908,0.25,0.5
Sprite,Background,Centre,"sb\ring.png",0,0 M,0,187058,,88,408 C,0,187058,,255,255,255 F,1,187058,189132,0.9,0 S,1,187058,189132,0.25,0.5
Sprite,Background,Centre,"sb\ring.png",0,0 M,0,187208,,292,300 C,0,187208,,255,255,255 F,1,187208,189507,0.9,0 S,1,187208,189507,0.25,0.5
Sprite,Background,Centre,"sb\ring.png",0,0 M,0,187658,,556,192 C,0,187658,,255,255,255 F,1,187658,189732,0.9,0 S,1,187658,189732,0.25,0.5
Sprite,Background,Centre,"sb\ring.png",0,0 M,0,187808,,352,84 C,0,187808,,255,255,255 F,1,187808,190107,0.9,0 S,1,187808,190107,0.25,0.5
Sprite,Background,Centre,"sb\ring.png",0,0 M,0,188258,,520,276 C,0,188258,,255,255,255 F,1,188258,190258,0.9,0 S,1,188258,190258,0.25,0.5
Sprite,Background,Centre,"sb\ring.png",0,0 M,0,188408,,500,436 C,0,188408,,255,255,255 F,1,188408,190408,0.9,0 S,1,188408,190408,0.25,0.5
Sprite,Background,Centre,"sb\ring.png",0,0 M,0,188558,,396,420 C,0,188558,,255,255,255 F,1,188558,190558,0.9,0 S,1,188558,190558,0.25,0.5
Sprite,Background,Centre,"sb\ring.png",0,0 M,0,188708,,374,286 C,0,188708,,255,255,255 F,1,188708,190708,0.9,0 S,1,188708,190708,0.25,0.5
Sprite,Background,Centre,"sb\ring.png",0,0 M,0,188858,,396,420 C,0,188858,,255,255,255 F,1,188858,191007,0.9,0 S,1,188858,191007,0.25,0.5
Sprite,Background,Centre,"sb\ring.png",0,0 M,0,189158,,128,428 C,0,189158,,255,255,255 F,1,189158,191307,0.9,0 S,1,189158,191307,0.25,0.5
Sprite,Background,Centre,"sb\ring.png",0,0 M,0,189458,,290,316 C,0,189458,,255,255,255 F,1,189458,191458,0.9,0 S,1,189458,191458,0.25,0.5
Sprite,Background,Centre,"sb\ring.png",0,0 M,0,189608,,262,412 C,0,189608,,255,255,255 F,1,189608,191608,0.9,0 S,1,189608,191608,0.25,0.5
Sprite,Background,Centre,"sb\ring.png",0,0 M,0,189758,,128,428 C,0,189758,,255,255,255 F,1,189758,191758,0.9,0 S,1,189758,191758,0.25,0.5
Sprite,Background,Centre,"sb\ring.png",0,0 M,0,189908,,88,244 C,0,189908,,255,255,255 F,1,189908,191908,0.9,0 S,1,189908,191908,0.25,0.5
Sprite,Background,Centre,"sb\ring.png",0,0 M,0,190058,,336,104 C,0,190058,,255,255,255 F,1,190058,192132,0.9,0 S,1,190058,192132,0.25,0.5
Sprite,Background,Centre,"sb\ring.png",0,0 M,0,190208,,412,208 C,0,190208,,255,255,255 F,1,190208,192282,0.9,0 S,1,190208,192282,0.25,0.5
Sprite,Background,Centre,"sb\ring.png",0,0 M,0,190358,,520,312 C,0,190358,,255,255,255 F,1,190358,192432,0.9,0 S,1,190358,192432,0.25,0.5
Sprite,Background,Centre,"sb\ring.png",0,0 M,0,190508,,412,280 C,0,190508,,255,255,255 F,1,190508,192582,0.9,0 S,1,190508,192582,0.25,0.5
Sprite,Background,Centre,"sb\ring.png",0,0 M,0,190658,,344,92 C,0,190658,,255,255,255 F,1,190658,192957,0.9,0 S,1,190658,192957,0.25,0.5
Sprite,Background,Centre,"sb\ring.png",0,0 M,0,191108,,87,197 C,0,191108,,255,255,255 F,1,191108,193407,0.9,0 S,1,191108,193407,0.25,0.5
Sprite,Background,Centre,"sb\ring.png",0,0 M,0,191483,,208,264 C,0,191483,,255,255,255 F,1,191483,193557,0.9,0 S,1,191483,193557,0.25,0.5
Sprite,Background,Centre,"sb\ring.png",0,0 M,0,191708,,256,432 C,0,191708,,255,255,255 F,1,191708,193708,0.9,0 S,1,191708,193708,0.25,0.5
Sprite,Background,Centre,"sb\ring.png",0,0 M,0,191783,,256,432 C,0,191783,,255,255,255 F,1,191783,193783,0.9,0 S,1,191783,193783,0.25,0.5
Sprite,Background,Centre,"sb\ring.png",0,0 M,0,191858,,256,432 C,0,191858,,255,255,255 F,1,191858,193932,0.9,0 S,1,191858,193932,0.25,0.5
Sprite,Background,Centre,"sb\ring.png",0,0 M,0,192008,,72,368 C,0,192008,,255,255,255 F,1,192008,194307,0.9,0 S,1,192008,194307,0.25,0.5
Sprite,Background,Centre,"sb\ring.png",0,0 M,0,192458,,376,292 C,0,192458,,255,255,255 F,1,192458,194532,0.9,0 S,1,192458,194532,0.25,0.5
Sprite,Background,Centre,"sb\ring.png",0,0 M,0,192608,,560,228 C,0,192608,,255,255,255 F,1,192608,194907,0.9,0 S,1,192608,194907,0.25,0.5
Sprite,Background,Centre,"sb\ring.png",0,0 M,0,193058,,272,156 C,0,193058,,255,255,255 F,1,193058,195132,0.9,0 S,1,193058,195132,0.25,0.5
Sprite,Background,Centre,"sb\ring.png",0,0 M,0,193208,,88,104 C,0,193208,,255,255,255 F,1,193208,195282,0.9,0 S,1,193208,195282,0.25,0.5
Sprite,Background,Centre,"sb\ring.png",0,0 M,0,193358,,136,240 C,0,193358,,255,255,255 F,1,193358,195432,0.9,0 S,1,193358,195432,0.25,0.5
Sprite,Background,Centre,"sb\ring.png",0,0 M,0,193508,,384,240 C,0,193508,,255,255,255 F,1,193508,195508,0.9,0 S,1,193508,195508,0.25,0.5
Sprite,Background,Centre,"sb\ring.png",0,0 M,0,193583,,384,240 C,0,193583,,255,255,255 F,1,193583,195583,0.9,0 S,1,193583,195583,0.25,0.5
Sprite,Background,Centre,"sb\ring.png",0,0 M,0,193658,,384,240 C,0,193658,,255,255,255 F,1,193658,195732,0.9,0 S,1,193658,195732,0.25,0.5
Sprite,Background,Centre,"sb\ring.png",0,0 M,0,193808,,284,248 C,0,193808,,255,255,255 F,1,193808,195882,0.9,0 S,1,193808,195882,0.25,0.5
Sprite,Background,Centre,"sb\ring.png",0,0 M,0,193958,,440,364 C,0,193958,,255,255,255 F,1,193958,196032,0.9,0 S,1,193958,196032,0.25,0.5
Sprite,Background,Centre,"sb\ring.png",0,0 M,0,194108,,244,360 C,0,194108,,255,255,255 F,1,194108,196182,0.9,0 S,1,194108,196182,0.25,0.5
Sprite,Background,Centre,"sb\ring.png",0,0 M,0,194258,,340,432 C,0,194258,,255,255,255 F,1,194258,196332,0.9,0 S,1,194258,196332,0.25,0.5
Sprite,Background,Centre,"sb\ring.png",0,0 M,0,194408,,556,248 C,0,194408,,255,255,255 F,1,194408,196408,0.9,0 S,1,194408,196408,0.25,0.5
Sprite,Background,Centre,"sb\ring.png",0,0 M,0,194483,,556,248 C,0,194483,,255,255,255 F,1,194483,196483,0.9,0 S,1,194483,196483,0.25,0.5
Sprite,Background,Centre,"sb\ring.png",0,0 M,0,194558,,556,248 C,0,194558,,255,255,255 F,1,194558,196632,0.9,0 S,1,194558,196632,0.25,0.5
Sprite,Background,Centre,"sb\ring.png",0,0 M,0,194708,,320,160 C,0,194708,,255,255,255 F,1,194708,196782,0.9,0 S,1,194708,196782,0.25,0.5
Sprite,Background,Centre,"sb\ring.png",0,0 M,0,194858,,336,80 C,0,194858,,255,255,255 F,1,194858,196858,0.9,0 S,1,194858,196858,0.25,0.5
Sprite,Background,Centre,"sb\ring.png",0,0 M,0,195008,,304,244 C,0,195008,,255,255,255 F,1,195008,197008,0.9,0 S,1,195008,197008,0.25,0.5
Sprite,Background,Centre,"sb\ring.png",0,0 M,0,195158,,464,144 C,0,195158,,255,255,255 F,1,195158,197158,0.9,0 S,1,195158,197158,0.25,0.5
Sprite,Background,Centre,"sb\ring.png",0,0 M,0,195308,,180,172 C,0,195308,,255,255,255 F,1,195308,197308,0.9,0 S,1,195308,197308,0.25,0.5
Sprite,Background,Centre,"sb\ring.png",0,0 M,0,195458,,416,392 C,0,195458,,255,255,255 F,1,195458,197458,0.9,0 S,1,195458,197458,0.25,0.5
Sprite,Background,Centre,"sb\ring.png",0,0 M,0,195608,,256,380 C,0,195608,,255,255,255 F,1,195608,197608,0.9,0 S,1,195608,197608,0.25,0.5
Sprite,Background,Centre,"sb\ring.png",0,0 M,0,195758,,96,368 C,0,195758,,255,255,255 F,1,195758,197758,0.9,0 S,1,195758,197758,0.25,0.5
Sprite,Background,Centre,"sb\ring.png",0,0 M,0,196358,,480,104 C,0,196358,,255,255,255 F,1,196358,198358,0.9,0 S,1,196358,198358,0.25,0.5
Sprite,Background,Centre,"sb\ring.png",0,0 M,0,196508,,464,180 C,0,196508,,255,255,255 F,1,196508,198582,0.9,0 S,1,196508,198582,0.25,0.5
Sprite,Background,Centre,"sb\ring.png",0,0 M,0,196658,,456,188 C,0,196658,,255,255,255 F,1,196658,198658,0.9,0 S,1,196658,198658,0.25,0.5
Sprite,Background,Centre,"sb\ring.png",0,0 M,0,196808,,376,204 C,0,196808,,255,255,255 F,1,196808,198808,0.9,0 S,1,196808,198808,0.25,0.5
Sprite,Background,Centre,"sb\ring.png",0,0 M,0,196958,,324,136 C,0,196958,,255,255,255 F,1,196958,198958,0.9,0 S,1,196958,198958,0.25,0.5
Sprite,Background,Centre,"sb\ring.png",0,0 M,0,197108,,272,308 C,0,197108,,255,255,255 F,1,197108,199182,0.9,0 S,1,197108,199182,0.25,0.5
Sprite,Background,Centre,"sb\ring.png",0,0 M,0,197258,,320,128 C,0,197258,,255,255,255 F,1,197258,199258,0.9,0 S,1,197258,199258,0.25,0.5
Sprite,Background,Centre,"sb\ring.png",0,0 M,0,197408,,400,364 C,0,197408,,255,255,255 F,1,197408,199482,0.9,0 S,1,197408,199482,0.25,0.5
Sprite,Background,Centre,"sb\ring.png",0,0 M,0,197558,,320,120 C,0,197558,,255,255,255 F,1,197558,199558,0.9,0 S,1,197558,199558,0.25,0.5
Sprite,Background,Centre,"sb\ring.png",0,0 M,0,197708,,192,420 C,0,197708,,255,255,255 F,1,197708,199782,0.9,0 S,1,197708,199782,0.25,0.5
Sprite,Background,Centre,"sb\ring.png",0,0 M,0,197858,,80,368 C,0,197858,,255,255,255 F,1,197858,200082,0.9,0 S,1,197858,200082,0.25,0.5
Sprite,Background,Centre,"sb\ring.png",0,0 M,0,198158,,96,248 C,0,198158,,255,255,255 F,1,198158,200233,0.9,0 S,1,198158,200233,0.25,0.5
Sprite,Background,Centre,"sb\ring.png",0,0 M,0,198308,,140,84 C,0,198308,,255,255,255 F,1,198308,200383,0.9,0 S,1,198308,200383,0.25,0.5
Sprite,Background,Centre,"sb\ring.png",0,0 M,0,198458,,216,308 C,0,198458,,255,255,255 F,1,198458,200533,0.9,0 S,1,198458,200533,0.25,0.5
Sprite,Background,Centre,"sb\ring.png",0,0 M,0,198608,,296,124 C,0,198608,,255,255,255 F,1,198608,200683,0.9,0 S,1,198608,200683,0.25,0.5
Sprite,Background,Centre,"sb\ring.png",0,0 M,0,198758,,296,352 C,0,198758,,255,255,255 F,1,198758,200833,0.9,0 S,1,198758,200833,0.25,0.5
Sprite,Background,Centre,"sb\ring.png",0,0 M,0,198908,,388,180 C,0,198908,,255,255,255 F,1,198908,200983,0.9,0 S,1,198908,200983,0.25,0.5
Sprite,Background,Centre,"sb\ring.png",0,0 M,0,199058,,416,336 C,0,199058,,255,255,255 F,1,199058,201133,0.9,0 S,1,199058,201133,0.25,0.5
Sprite,Background,Centre,"sb\ring.png",0,0 M,0,199208,,516,360 C,0,199208,,255,255,255 F,1,199208,201283,0.9,0 S,1,199208,201283,0.25,0.5
Sprite,Background,Centre,"sb\ring.png",0,0 M,0,199358,,568,184 C,0,199358,,255,255,255 F,1,199358,201433,0.9,0 S,1,199358,201433,0.25,0.5
Sprite,Background,Centre,"sb\ring.png",0,0 M,0,199508,,424,96 C,0,199508,,255,255,255 F,1,199508,201583,0.9,0 S,1,199508,201583,0.25,0.5
Sprite,Background,Centre,"sb\ring.png",0,0 M,0,199808,,296,408 C,0,199808,,255,255,255 F,1,199808,201883,0.9,0 S,1,199808,201883,0.25,0.5
Sprite,Background,Centre,"sb\ring.png",0,0 M,0,200108,,72,248 C,0,200108,,255,255,255 F,1,200108,202183,0.9,0 S,1,200108,202183,0.25,0.5
Sprite,Background,Centre,"sb\ring.png",0,0 M,0,200558,,76,256 C,0,200558,,255,255,255 F,1,200558,202782,0.9,0 S,1,200558,202782,0.25,0.5
Sprite,Background,Centre,"sb\ring.png",0,0 M,0,200858,,328,228 C,0,200858,,255,255,255 F,1,200858,202932,0.9,0 S,1,200858,202932,0.25,0.5
Sprite,Background,Centre,"sb\ring.png",0,0 M,0,201008,,128,328 C,0,201008,,255,255,255 F,1,201008,203082,0.9,0 S,1,201008,203082,0.25,0.5
Sprite,Background,Centre,"sb\ring.png",0,0 M,0,201158,,320,420 C,0,201158,,255,255,255 F,1,201158,203158,0.9,0 S,1,201158,203158,0.25,0.5
Sprite,Background,Centre,"sb\ring.png",0,0 M,0,201308,,320,420 C,0,201308,,255,255,255 F,1,201308,203532,0.9,0 S,1,201308,203532,0.25,0.5
Sprite,Background,Centre,"sb\ring.png",0,0 M,0,201608,,544,271 C,0,201608,,255,255,255 F,1,201608,203907,0.9,0 S,1,201608,203907,0.25,0.5
Sprite,Background,Centre,"sb\ring.png",0,0 M,0,202058,,576,194 C,0,202058,,255,255,255 F,1,202058,204207,0.9,0 S,1,202058,204207,0.25,0.5
Sprite,Background,Centre,"sb\ring.png",0,0 M,0,202358,,160,108 C,0,202358,,255,255,255 F,1,202358,204507,0.9,0 S,1,202358,204507,0.25,0.5
Sprite,Background,Centre,"sb\ring.png",0,0 M,0,202658,,100,232 C,0,202658,,255,255,255 F,1,202658,204658,0.9,0 S,1,202658,204658,0.25,0.5
Sprite,Background,Centre,"sb\ring.png",0,0 M,0,202808,,264,312 C,0,202808,,255,255,255 F,1,202808,204808,0.9,0 S,1,202808,204808,0.25,0.5
Sprite,Background,Centre,"sb\ring.png",0,0 M,0,202883,,264,312 C,0,202883,,255,255,255 F,1,202883,204883,0.9,0 S,1,202883,204883,0.25,0.5
Sprite,Background,Centre,"sb\ring.png",0,0 M,0,202958,,264,312 C,0,202958,,255,255,255 F,1,202958,205032,0.9,0 S,1,202958,205032,0.25,0.5
Sprite,Background,Centre,"sb\ring.png",0,0 M,0,203108,,88,412 C,0,203108,,255,255,255 F,1,203108,205257,0.9,0 S,1,203108,205257,0.25,0.5
Sprite,Background,Centre,"sb\ring.png",0,0 M,0,203408,,328,440 C,0,203408,,255,255,255 F,1,203408,205482,0.9,0 S,1,203408,205482,0.25,0.5
Sprite,Background,Centre,"sb\ring.png",0,0 M,0,203558,,388,312 C,0,203558,,255,255,255 F,1,203558,205707,0.9,0 S,1,203558,205707,0.25,0.5
Sprite,Background,Centre,"sb\ring.png",0,0 M,0,203858,,552,312 C,0,203858,,255,255,255 F,1,203858,205932,0.9,0 S,1,203858,205932,0.25,0.5
Sprite,Background,Centre,"sb\ring.png",0,0 M,0,204008,,516,176 C,0,204008,,255,255,255 F,1,204008,206307,0.9,0 S,1,204008,206307,0.25,0.5
Sprite,Background,Centre,"sb\ring.png",0,0 M,0,204458,,316,192 C,0,204458,,255,255,255 F,1,204458,206532,0.9,0 S,1,204458,206532,0.25,0.5
Sprite,Background,Centre,"sb\ring.png",0,0 M,0,204608,,268,324 C,0,204608,,255,255,255 F,1,204608,206907,0.9,0 S,1,204608,206907,0.25,0.5
Sprite,Background,Centre,"sb\ring.png",0,0 M,0,205058,,364,416 C,0,205058,,255,255,255 F,1,205058,207132,0.9,0 S,1,205058,207132,0.25,0.5
Sprite,Background,Centre,"sb\ring.png",0,0 M,0,205208,,176,256 C,0,205208,,255,255,255 F,1,205208,207208,0.9,0 S,1,205208,207208,0.25,0.5
Sprite,Background,Centre,"sb\ring.png",0,0 M,0,205358,,64,264 C,0,205358,,255,255,255 F,1,205358,207358,0.9,0 S,1,205358,207358,0.25,0.5
Sprite,Background,Centre,"sb\ring.png",0,0 M,0,205508,,176,256 C,0,205508,,255,255,255 F,1,205508,207508,0.9,0 S,1,205508,207508,0.25,0.5
Sprite,Background,Centre,"sb\ring.png",0,0 M,0,205658,,90,396 C,0,205658,,255,255,255 F,1,205658,207807,0.9,0 S,1,205658,207807,0.25,0.5
Sprite,Background,Centre,"sb\ring.png",0,0 M,0,205958,,200,152 C,0,205958,,255,255,255 F,1,205958,207958,0.9,0 S,1,205958,207958,0.25,0.5
Sprite,Background,Centre,"sb\ring.png",0,0 M,0,206108,,176,256 C,0,206108,,255,255,255 F,1,206108,208108,0.9,0 S,1,206108,208108,0.25,0.5
Sprite,Background,Centre,"sb\ring.png",0,0 M,0,206258,,304,120 C,0,206258,,255,255,255 F,1,206258,208258,0.9,0 S,1,206258,208258,0.25,0.5
Sprite,Background,Centre,"sb\ring.png",0,0 M,0,206408,,332,268 C,0,206408,,255,255,255 F,1,206408,208408,0.9,0 S,1,206408,208408,0.25,0.5
Sprite,Background,Centre,"sb\ring.png",0,0 M,0,206558,,456,276 C,0,206558,,255,255,255 F,1,206558,208558,0.9,0 S,1,206558,208558,0.25,0.5
Sprite,Background,Centre,"sb\ring.png",0,0 M,0,206708,,504,88 C,0,206708,,255,255,255 F,1,206708,208708,0.9,0 S,1,206708,208708,0.25,0.5
Sprite,Background,Centre,"sb\ring.png",0,0 M,0,206858,,304,120 C,0,206858,,255,255,255 F,1,206858,208932,0.9,0 S,1,206858,208932,0.25,0.5
Sprite,Background,Centre,"sb\ring.png",0,0 M,0,207008,,332,268 C,0,207008,,255,255,255 F,1,207008,209082,0.9,0 S,1,207008,209082,0.25,0.5
Sprite,Background,Centre,"sb\ring.png",0,0 M,0,207158,,456,276 C,0,207158,,255,255,255 F,1,207158,209232,0.9,0 S,1,207158,209232,0.25,0.5
Sprite,Background,Centre,"sb\ring.png",0,0 M,0,207308,,428,424 C,0,207308,,255,255,255 F,1,207308,209382,0.9,0 S,1,207308,209382,0.25,0.5
Sprite,Background,Centre,"sb\ring.png",0,0 M,0,207458,,280,408 C,0,207458,,255,255,255 F,1,207458,209757,0.9,0 S,1,207458,209757,0.25,0.5
Sprite,Background,Centre,"sb\ring.png",0,0 M,0,207908,,538,204 C,0,207908,,255,255,255 F,1,207908,210207,0.9,0 S,1,207908,210207,0.25,0.5
Sprite,Background,Centre,"sb\ring.png",0,0 M,0,208283,,424,144 C,0,208283,,255,255,255 F,1,208283,210357,0.9,0 S,1,208283,210357,0.25,0.5
Sprite,Background,Centre,"sb\ring.png",0,0 M,0,208508,,84,144 C,0,208508,,255,255,255 F,1,208508,210508,0.9,0 S,1,208508,210508,0.25,0.5
Sprite,Background,Centre,"sb\ring.png",0,0 M,0,208658,,280,88 C,0,208658,,255,255,255 F,1,208658,210732,0.9,0 S,1,208658,210732,0.25,0.5
Sprite,Background,Centre,"sb\ring.png",0,0 M,0,208808,,84,144 C,0,208808,,255,255,255 F,1,208808,210957,0.9,0 S,1,208808,210957,0.25,0.5
Sprite,Background,Centre,"sb\ring.png",0,0 M,0,209108,,360,292 C,0,209108,,255,255,255 F,1,209108,211108,0.9,0 S,1,209108,211108,0.25,0.5
Sprite,Background,Centre,"sb\ring.png",0,0 M,0,209183,,360,292 C,0,209183,,255,255,255 F,1,209183,211183,0.9,0 S,1,209183,211183,0.25,0.5
Sprite,Background,Centre,"sb\ring.png",0,0 M,0,209258,,360,292 C,0,209258,,255,255,255 F,1,209258,211332,0.9,0 S,1,209258,211332,0.25,0.5
Sprite,Background,Centre,"sb\ring.png",0,0 M,0,209408,,556,348 C,0,209408,,255,255,255 F,1,209408,211557,0.9,0 S,1,209408,211557,0.25,0.5
Sprite,Background,Centre,"sb\ring.png",0,0 M,0,209708,,292,248 C,0,209708,,255,255,255 F,1,209708,211708,0.9,0 S,1,209708,211708,0.25,0.5
Sprite,Background,Centre,"sb\ring.png",0,0 M,0,209783,,292,248 C,0,209783,,255,255,255 F,1,209783,211783,0.9,0 S,1,209783,211783,0.25,0.5
Sprite,Background,Centre,"sb\ring.png",0,0 M,0,209858,,292,248 C,0,209858,,255,255,255 F,1,209858,212082,0.9,0 S,1,209858,212082,0.25,0.5
Sprite,Background,Centre,"sb\ring.png",0,0 M,0,210158,,64,216 C,0,210158,,255,255,255 F,1,210158,212307,0.9,0 S,1,210158,212307,0.25,0.5
Sprite,Background,Centre,"sb\ring.png",0,0 M,0,210458,,264,384 C,0,210458,,255,255,255 F,1,210458,212532,0.9,0 S,1,210458,212532,0.25,0.5
Sprite,Background,Centre,"sb\ring.png",0,0 M,0,210608,,188,400 C,0,210608,,255,255,255 F,1,210608,212757,0.9,0 S,1,210608,212757,0.25,0.5
Sprite,Background,Centre,"sb\ring.png",0,0 M,0,210908,,524,256 C,0,210908,,255,255,255 F,1,210908,212908,0.9,0 S,1,210908,212908,0.25,0.5
Sprite,Background,Centre,"sb\ring.png",0,0 M,0,210983,,524,256 C,0,210983,,255,255,255 F,1,210983,212983,0.9,0 S,1,210983,212983,0.25,0.5
Sprite,Background,Centre,"sb\ring.png",0,0 M,0,211058,,524,256 C,0,211058,,255,255,255 F,1,211058,213207,0.9,0 S,1,211058,213207,0.25,0.5
Sprite,Background,Centre,"sb\ring.png",0,0 M,0,211358,,224,132 C,0,211358,,255,255,255 F,1,211358,213507,0.9,0 S,1,211358,213507,0.25,0.5
Sprite,Background,Centre,"sb\ring.png",0,0 M,0,211658,,432,72 C,0,211658,,255,255,255 F,1,211658,213732,0.9,0 S,1,211658,213732,0.25,0.5
Sprite,Background,Centre,"sb\ring.png",0,0 M,0,211808,,144,228 C,0,211808,,255,255,255 F,1,211808,213882,0.9,0 S,1,211808,213882,0.25,0.5
Sprite,Background,Centre,"sb\ring.png",0,0 M,0,211958,,316,296 C,0,211958,,255,255,255 F,1,211958,214032,0.9,0 S,1,211958,214032,0.25,0.5
Sprite,Background,Centre,"sb\ring.png",0,0 M,0,212108,,207,229 C,0,212108,,255,255,255 F,1,212108,214182,0.9,0 S,1,212108,214182,0.25,0.5
Sprite,Background,Centre,"sb\ring.png",0,0 M,0,212258,,76,284 C,0,212258,,255,255,255 F,1,212258,214657,0.9,0 S,1,212258,214657,0.25,0.5
Sprite,Background,Centre,"sb\ring.png",0,0 M,0,212858,,564,212 C,0,212858,,255,255,255 F,1,212858,215257,0.9,0 S,1,212858,215257,0.25,0.5
Sprite,Background,Centre,"sb\ring.png",0,0 M,0,213458,,452,332 C,0,213458,,255,255,255 F,1,213458,215458,0.9,0 S,1,213458,215458,0.25,0.5
Sprite,Background,Centre,"sb\ring.png",0,0 M,0,213608,,440,220 C,0,213608,,255,255,255 F,1,213608,215608,0.9,0 S,1,213608,215608,0.25,0.5
Sprite,Background,Centre,"sb\ring.png",0,0 M,0,213758,,556,208 C,0,213758,,255,255,255 F,1,213758,215758,0.9,0 S,1,213758,215758,0.25,0.5
Sprite,Background,Centre,"sb\ring.png",0,0 M,0,213908,,568,320 C,0,213908,,255,255,255 F,1,213908,215983,0.9,0 S,1,213908,215983,0.25,0.5
Sprite,Background,Centre,"sb\ring.png",0,0 M,0,214058,,442,319 C,0,214058,,255,255,255 F,1,214058,216058,0.9,0 S,1,214058,216058,0.25,0.5
Sprite,Background,Centre,"sb\ring.png",0,0 M,0,214133,,447,326 C,0,214133,,255,255,255 F,1,214133,216133,0.9,0 S,1,214133,216133,0.25,0.5
Sprite,Background,Centre,"sb\ring.png",0,0 M,0,214208,,452,332 C,0,214208,,255,255,255 F,1,214208,216283,0.9,0 S,1,214208,216283,0.25,0.5
Sprite,Background,Centre,"sb\ring.png",0,0 M,0,214358,,280,376 C,0,214358,,255,255,255 F,1,214358,216358,0.9,0 S,1,214358,216358,0.25,0.5
Sprite,Background,Centre,"sb\ring.png",0,0 M,0,214433,,248,380 C,0,214433,,255,255,255 F,1,214433,216433,0.9,0 S,1,214433,216433,0.25,0.5
Sprite,Background,Centre,"sb\ring.png",0,0 M,0,214508,,216,384 C,0,214508,,255,255,255 F,1,214508,216508,0.9,0 S,1,214508,216508,0.25,0.5
Sprite,Background,Centre,"sb\ring.png",0,0 M,0,214583,,184,388 C,0,214583,,255,255,255 F,1,214583,216583,0.9,0 S,1,214583,216583,0.25,0.5
Sprite,Background,Centre,"sb\ring.png",0,0 M,0,214658,,148,360 C,0,214658,,255,255,255 F,1,214658,216658,0.9,0 S,1,214658,216658,0.25,0.5
Sprite,Background,Centre,"sb\ring.png",0,0 M,0,214808,,144,284 C,0,214808,,255,255,255 F,1,214808,216808,0.9,0 S,1,214808,216808,0.25,0.5
Sprite,Background,Centre,"sb\ring.png",0,0 M,0,214958,,220,276 C,0,214958,,255,255,255 F,1,214958,217032,0.9,0 S,1,214958,217032,0.25,0.5
Sprite,Background,Centre,"sb\ring.png",0,0 M,0,215108,,220,348 C,0,215108,,255,255,255 F,1,215108,217108,0.9,0 S,1,215108,217108,0.25,0.5
Sprite,Background,Centre,"sb\ring.png",0,0 M,0,215258,,144,352 C,0,215258,,255,255,255 F,1,215258,217258,0.9,0 S,1,215258,217258,0.25,0.5
Sprite,Background,Centre,"sb\ring.png",0,0 M,0,215408,,136,276 C,0,215408,,255,255,255 F,1,215408,217482,0.9,0 S,1,215408,217482,0.25,0.5
Sprite,Background,Centre,"sb\ring.png",0,0 M,0,215558,,212,260 C,0,215558,,255,255,255 F,1,215558,217558,0.9,0 S,1,215558,217558,0.25,0.5
Sprite,Background,Centre,"sb\ring.png",0,0 M,0,215708,,216,336 C,0,215708,,255,255,255 F,1,215708,217708,0.9,0 S,1,215708,217708,0.25,0.5
Sprite,Background,Centre,"sb\ring.png",0,0 M,0,215858,,140,344 C,0,215858,,255,255,255 F,1,215858,217932,0.9,0 S,1,215858,217932,0.25,0.5
Sprite,Background,Centre,"sb\ring.png",0,0 M,0,216008,,128,256 C,0,216008,,255,255,255 F,1,216008,218008,0.9,0 S,1,216008,218008,0.25,0.5
Sprite,Background,Centre,"sb\ring.png",0,0 M,0,216158,,204,252 C,0,216158,,255,255,255 F,1,216158,218158,0.9,0 S,1,216158,218158,0.25,0.5
Sprite,Background,Centre,"sb\ring.png",0,0 M,0,216308,,212,328 C,0,216308,,255,255,255 F,1,216308,218382,0.9,0 S,1,216308,218382,0.25,0.5
Sprite,Background,Centre,"sb\ring.png",0,0 M,0,216458,,312,300 C,0,216458,,255,255,255 F,1,216458,218532,0.9,0 S,1,216458,218532,0.25,0.5
Sprite,Background,Centre,"sb\ring.png",0,0 M,0,216608,,392,304 C,0,216608,,255,255,255 F,1,216608,218682,0.9,0 S,1,216608,218682,0.25,0.5
Sprite,Background,Centre,"sb\ring.png",0,0 M,0,216758,,576,200 C,0,216758,,255,255,255 F,1,216758,218832,0.9,0 S,1,216758,218832,0.25,0.5
Sprite,Background,Centre,"sb\ring.png",0,0 M,0,216908,,496,204 C,0,216908,,255,255,255 F,1,216908,218982,0.9,0 S,1,216908,218982,0.25,0.5
Sprite,Background,Centre,"sb\ring.png",0,0 M,0,217058,,360,116 C,0,217058,,255,255,255 F,1,217058,219058,0.9,0 S,1,217058,219058,0.25,0.5
Sprite,Background,Centre,"sb\ring.png",0,0 M,0,217208,,264,112 C,0,217208,,255,255,255 F,1,217208,219208,0.9,0 S,1,217208,219208,0.25,0.5
Sprite,Background,Centre,"sb\ring.png",0,0 M,0,217358,,260,208 C,0,217358,,255,255,255 F,1,217358,219432,0.9,0 S,1,217358,219432,0.25,0.5
Sprite,Background,Centre,"sb\ring.png",0,0 M,0,217508,,268,116 C,0,217508,,255,255,255 F,1,217508,219508,0.9,0 S,1,217508,219508,0.25,0.5
Sprite,Background,Centre,"sb\ring.png",0,0 M,0,217658,,264,212 C,0,217658,,255,255,255 F,1,217658,219658,0.9,0 S,1,217658,219658,0.25,0.5
Sprite,Background,Centre,"sb\ring.png",0,0 M,0,217808,,360,216 C,0,217808,,255,255,255 F,1,217808,219882,0.9,0 S,1,217808,219882,0.25,0.5
Sprite,Background,Centre,"sb\ring.png",0,0 M,0,217958,,268,220 C,0,217958,,255,255,255 F,1,217958,219958,0.9,0 S,1,217958,219958,0.25,0.5
Sprite,Background,Centre,"sb\ring.png",0,0 M,0,218108,,364,224 C,0,218108,,255,255,255 F,1,218108,220108,0.9,0 S,1,218108,220108,0.25,0.5
Sprite,Background,Centre,"sb\ring.png",0,0 M,0,218258,,368,128 C,0,218258,,255,255,255 F,1,218258,220332,0.9,0 S,1,218258,220332,0.25,0.5
Sprite,Background,Centre,"sb\ring.png",0,0 M,0,218408,,368,232 C,0,218408,,255,255,255 F,1,218408,220408,0.9,0 S,1,218408,220408,0.25,0.5
Sprite,Background,Centre,"sb\ring.png",0,0 M,0,218558,,372,136 C,0,218558,,255,255,255 F,1,218558,220558,0.9,0 S,1,218558,220558,0.25,0.5
Sprite,Background,Centre,"sb\ring.png",0,0 M,0,218708,,276,132 C,0,218708,,255,255,255 F,1,218708,220782,0.9,0 S,1,218708,220782,0.25,0.5
Sprite,Background,Centre,"sb\ring.png",0,0 M,0,218858,,72,200 C,0,218858,,255,255,255 F,1,218858,220932,0.9,0 S,1,218858,220932,0.25,0.5
Sprite,Background,Centre,"sb\ring.png",0,0 M,0,219008,,84,268 C,0,219008,,255,255,255 F,1,219008,221082,0.9,0 S,1,219008,221082,0.25,0.5
Sprite,Background,Centre,"sb\ring.png",0,0 M,0,219158,,216,344 C,0,219158,,255,255,255 F,1,219158,221232,0.9,0 S,1,219158,221232,0.25,0.5
Sprite,Background,Centre,"sb\ring.png",0,0 M,0,219308,,228,412 C,0,219308,,255,255,255 F,1,219308,221382,0.9,0 S,1,219308,221382,0.25,0.5
Sprite,Background,Centre,"sb\ring.png",0,0 M,0,219458,,516,224 C,0,219458,,255,255,255 F,1,219458,221458,0.9,0 S,1,219458,221458,0.25,0.5
Sprite,Background,Centre,"sb\ring.png",0,0 M,0,219608,,504,316 C,0,219608,,255,255,255 F,1,219608,221608,0.9,0 S,1,219608,221608,0.25,0.5
Sprite,Background,Centre,"sb\ring.png",0,0 M,0,219758,,412,304 C,0,219758,,255,255,255 F,1,219758,221832,0.9,0 S,1,219758,221832,0.25,0.5
Sprite,Background,Centre,"sb\ring.png",0,0 M,0,219908,,412,296 C,0,219908,,255,255,255 F,1,219908,221908,0.9,0 S,1,219908,221908,0.25,0.5
Sprite,Background,Centre,"sb\ring.png",0,0 M,0,220058,,423,210 C,0,220058,,255,255,255 F,1,220058,222058,0.9,0 S,1,220058,222058,0.25,0.5
Sprite,Background,Centre,"sb\ring.png",0,0 M,0,220208,,508,221 C,0,220208,,255,255,255 F,1,220208,222282,0.9,0 S,1,220208,222282,0.25,0.5
Sprite,Background,Centre,"sb\ring.png",0,0 M,0,220358,,508,232 C,0,220358,,255,255,255 F,1,220358,222358,0.9,0 S,1,220358,222358,0.25,0.5
Sprite,Background,Centre,"sb\ring.png",0,0 M,0,220508,,497,310 C,0,220508,,255,255,255 F,1,220508,222508,0.9,0 S,1,220508,222508,0.25,0.5
Sprite,Background,Centre,"sb\ring.png",0,0 M,0,220658,,420,300 C,0,220658,,255,255,255 F,1,220658,222732,0.9,0 S,1,220658,222732,0.25,0.5
Sprite,Background,Centre,"sb\ring.png",0,0 M,0,220808,,428,292 C,0,220808,,255,255,255 F,1,220808,222808,0.9,0 S,1,220808,222808,0.25,0.5
Sprite,Background,Centre,"sb\ring.png",0,0 M,0,220958,,437,226 C,0,220958,,255,255,255 F,1,220958,222958,0.9,0 S,1,220958,222958,0.25,0.5
Sprite,Background,Centre,"sb\ring.png",0,0 M,0,221108,,501,234 C,0,221108,,255,255,255 F,1,221108,223182,0.9,0 S,1,221108,223182,0.25,0.5
Sprite,Background,Centre,"sb\ring.png",0,0 M,0,221258,,512,392 C,0,221258,,255,255,255 F,1,221258,223332,0.9,0 S,1,221258,223332,0.25,0.5
Sprite,Background,Centre,"sb\ring.png",0,0 M,0,221408,,348,364 C,0,221408,,255,255,255 F,1,221408,223482,0.9,0 S,1,221408,223482,0.25,0.5
Sprite,Background,Centre,"sb\ring.png",0,0 M,0,221558,,344,372 C,0,221558,,255,255,255 F,1,221558,223632,0.9,0 S,1,221558,223632,0.25,0.5
Sprite,Background,Centre,"sb\ring.png",0,0 M,0,221708,,256,224 C,0,221708,,255,255,255 F,1,221708,223782,0.9,0 S,1,221708,223782,0.25,0.5
Sprite,Background,Centre,"sb\ring.png",0,0 M,0,221858,,356,224 C,0,221858,,255,255,255 F,1,221858,223858,0.9,0 S,1,221858,223858,0.25,0.5
Sprite,Background,Centre,"sb\ring.png",0,0 M,0,222008,,348,104 C,0,222008,,255,255,255 F,1,222008,224008,0.9,0 S,1,222008,224008,0.25,0.5
Sprite,Background,Centre,"sb\ring.png",0,0 M,0,222158,,468,96 C,0,222158,,255,255,255 F,1,222158,224232,0.9,0 S,1,222158,224232,0.25,0.5
Sprite,Background,Centre,"sb\ring.png",0,0 M,0,222308,,464,236 C,0,222308,,255,255,255 F,1,222308,224308,0.9,0 S,1,222308,224308,0.25,0.5
Sprite,Background,Centre,"sb\ring.png",0,0 M,0,222458,,344,244 C,0,222458,,255,255,255 F,1,222458,224458,0.9,0 S,1,222458,224458,0.25,0.5
Sprite,Background,Centre,"sb\ring.png",0,0 M,0,222608,,336,124 C,0,222608,,255,255,255 F,1,222608,224682,0.9,0 S,1,222608,224682,0.25,0.5
Sprite,Background,Centre,"sb\ring.png",0,0 M,0,222758,,456,116 C,0,222758,,255,255,255 F,1,222758,224758,0.9,0 S,1,222758,224758,0.25,0.5
Sprite,Background,Centre,"sb\ring.png",0,0 M,0,222908,,464,236 C,0,222908,,255,255,255 F,1,222908,224908,0.9,0 S,1,222908,224908,0.25,0.5
Sprite,Background,Centre,"sb\ring.png",0,0 M,0,223058,,344,244 C,0,223058,,255,255,255 F,1,223058,225132,0.9,0 S,1,223058,225132,0.25,0.5
Sprite,Background,Centre,"sb\ring.png",0,0 M,0,223208,,348,104 C,0,223208,,255,255,255 F,1,223208,225208,0.9,0 S,1,223208,225208,0.25,0.5
Sprite,Background,Centre,"sb\ring.png",0,0 M,0,223358,,468,96 C,0,223358,,255,255,255 F,1,223358,225358,0.9,0 S,1,223358,225358,0.25,0.5
Sprite,Background,Centre,"sb\ring.png",0,0 M,0,223508,,476,216 C,0,223508,,255,255,255 F,1,223508,225582,0.9,0 S,1,223508,225582,0.25,0.5
Sprite,Background,Centre,"sb\ring.png",0,0 M,0,223658,,396,340 C,0,223658,,255,255,255 F,1,223658,225732,0.9,0 S,1,223658,225732,0.25,0.5
Sprite,Background,Centre,"sb\ring.png",0,0 M,0,223808,,304,256 C,0,223808,,255,255,255 F,1,223808,225882,0.9,0 S,1,223808,225882,0.25,0.5
Sprite,Background,Centre,"sb\ring.png",0,0 M,0,223958,,200,364 C,0,223958,,255,255,255 F,1,223958,226032,0.9,0 S,1,223958,226032,0.25,0.5
Sprite,Background,Centre,"sb\ring.png",0,0 M,0,224108,,108,280 C,0,224108,,255,255,255 F,1,224108,226182,0.9,0 S,1,224108,226182,0.25,0.5
Sprite,Background,Centre,"sb\ring.png",0,0 M,0,224258,,72,140 C,0,224258,,255,255,255 F,1,224258,226258,0.9,0 S,1,224258,226258,0.25,0.5
Sprite,Background,Centre,"sb\ring.png",0,0 M,0,224408,,168,132 C,0,224408,,255,255,255 F,1,224408,226408,0.9,0 S,1,224408,226408,0.25,0.5
Sprite,Background,Centre,"sb\ring.png",0,0 M,0,224558,,256,184 C,0,224558,,255,255,255 F,1,224558,226632,0.9,0 S,1,224558,226632,0.25,0.5
Sprite,Background,Centre,"sb\ring.png",0,0 M,0,224708,,160,152 C,0,224708,,255,255,255 F,1,224708,226708,0.9,0 S,1,224708,226708,0.25,0.5
Sprite,Background,Centre,"sb\ring.png",0,0 M,0,224858,,256,160 C,0,224858,,255,255,255 F,1,224858,226858,0.9,0 S,1,224858,226858,0.25,0.5
Sprite,Background,Centre,"sb\ring.png",0,0 M,0,225008,,344,108 C,0,225008,,255,255,255 F,1,225008,227082,0.9,0 S,1,225008,227082,0.25,0.5
Sprite,Background,Centre,"sb\ring.png",0,0 M,0,225158,,244,140 C,0,225158,,255,255,255 F,1,225158,227158,0.9,0 S,1,225158,227158,0.25,0.5
Sprite,Background,Centre,"sb\ring.png",0,0 M,0,225308,,340,132 C,0,225308,,255,255,255 F,1,225308,227308,0.9,0 S,1,225308,227308,0.25,0.5
Sprite,Background,Centre,"sb\ring.png",0,0 M,0,225458,,428,184 C,0,225458,,255,255,255 F,1,225458,227532,0.9,0 S,1,225458,227532,0.25,0.5
Sprite,Background,Centre,"sb\ring.png",0,0 M,0,225608,,332,152 C,0,225608,,255,255,255 F,1,225608,227608,0.9,0 S,1,225608,227608,0.25,0.5
Sprite,Background,Centre,"sb\ring.png",0,0 M,0,225758,,428,160 C,0,225758,,255,255,255 F,1,225758,227758,0.9,0 S,1,225758,227758,0.25,0.5
Sprite,Background,Centre,"sb\ring.png",0,0 M,0,225908,,516,108 C,0,225908,,255,255,255 F,1,225908,227982,0.9,0 S,1,225908,227982,0.25,0.5
Sprite,Background,Centre,"sb\ring.png",0,0 M,0,226058,,544,364 C,0,226058,,255,255,255 F,1,226058,228132,0.9,0 S,1,226058,228132,0.25,0.5
Sprite,Background,Centre,"sb\ring.png",0,0 M,0,226208,,408,292 C,0,226208,,255,255,255 F,1,226208,228282,0.9,0 S,1,226208,228282,0.25,0.5
Sprite,Background,Centre,"sb\ring.png",0,0 M,0,226358,,264,384 C,0,226358,,255,255,255 F,1,226358,228432,0.9,0 S,1,226358,228432,0.25,0.5
Sprite,Background,Centre,"sb\ring.png",0,0 M,0,226508,,128,312 C,0,226508,,255,255,255 F,1,226508,228582,0.9,0 S,1,226508,228582,0.25,0.5
Sprite,Background,Centre,"sb\ring.png",0,0 M,0,226658,,64,176 C,0,226658,,255,255,255 F,1,226658,228658,0.9,0 S,1,226658,228658,0.25,0.5
Sprite,Background,Centre,"sb\ring.png",0,0 M,0,226808,,72,80 C,0,226808,,255,255,255 F,1,226808,228808,0.9,0 S,1,226808,228808,0.25,0.5
Sprite,Background,Centre,"sb\ring.png",0,0 M,0,226958,,168,84 C,0,226958,,255,255,255 F,1,226958,229032,0.9,0 S,1,226958,229032,0.25,0.5
Sprite,Background,Centre,"sb\ring.png",0,0 M,0,227108,,176,100 C,0,227108,,255,255,255 F,1,227108,229108,0.9,0 S,1,227108,229108,0.25,0.5
Sprite,Background,Centre,"sb\ring.png",0,0 M,0,227258,,184,200 C,0,227258,,255,255,255 F,1,227258,229258,0.9,0 S,1,227258,229258,0.25,0.5
Sprite,Background,Centre,"sb\ring.png",0,0 M,0,227408,,285,196 C,0,227408,,255,255,255 F,1,227408,229482,0.9,0 S,1,227408,229482,0.25,0.5
Sprite,Background,Centre,"sb\ring.png",0,0 M,0,227558,,292,180 C,0,227558,,255,255,255 F,1,227558,229558,0.9,0 S,1,227558,229558,0.25,0.5
Sprite,Background,Centre,"sb\ring.png",0,0 M,0,227708,,300,80 C,0,227708,,255,255,255 F,1,227708,229708,0.9,0 S,1,227708,229708,0.25,0.5
Sprite,Background,Centre,"sb\ring.png",0,0 M,0,227858,,401,84 C,0,227858,,255,255,255 F,1,227858,229932,0.9,0 S,1,227858,229932,0.25,0.5
Sprite,Background,Centre,"sb\ring.png",0,0 M,0,228008,,400,96 C,0,228008,,255,255,255 F,1,228008,230008,0.9,0 S,1,228008,230008,0.25,0.5
Sprite,Background,Centre,"sb\ring.png",0,0 M,0,228158,,408,196 C,0,228158,,255,255,255 F,1,228158,230158,0.9,0 S,1,228158,230158,0.25,0.5
Sprite,Background,Centre,"sb\ring.png",0,0 M,0,228308,,509,192 C,0,228308,,255,255,255 F,1,228308,230382,0.9,0 S,1,228308,230382,0.25,0.5
Sprite,Background,Centre,"sb\ring.png",0,0 M,0,228458,,528,292 C,0,228458,,255,255,255 F,1,228458,230532,0.9,0 S,1,228458,230532,0.25,0.5
Sprite,Background,Centre,"sb\ring.png",0,0 M,0,228608,,368,284 C,0,228608,,255,255,255 F,1,228608,230682,0.9,0 S,1,228608,230682,0.25,0.5
Sprite,Background,Centre,"sb\ring.png",0,0 M,0,228758,,292,392 C,0,228758,,255,255,255 F,1,228758,230832,0.9,0 S,1,228758,230832,0.25,0.5
Sprite,Background,Centre,"sb\ring.png",0,0 M,0,228908,,132,400 C,0,228908,,255,255,255 F,1,228908,230982,0.9,0 S,1,228908,230982,0.25,0.5
Sprite,Background,Centre,"sb\ring.png",0,0 M,0,229058,,152,144 C,0,229058,,255,255,255 F,1,229058,231058,0.9,0 S,1,229058,231058,0.25,0.5
Sprite,Background,Centre,"sb\ring.png",0,0 M,0,229208,,64,116 C,0,229208,,255,255,255 F,1,229208,231208,0.9,0 S,1,229208,231208,0.25,0.5
Sprite,Background,Centre,"sb\ring.png",0,0 M,0,229358,,148,68 C,0,229358,,255,255,255 F,1,229358,231432,0.9,0 S,1,229358,231432,0.25,0.5
Sprite,Background,Centre,"sb\ring.png",0,0 M,0,229508,,480,112 C,0,229508,,255,255,255 F,1,229508,231508,0.9,0 S,1,229508,231508,0.25,0.5
Sprite,Background,Centre,"sb\ring.png",0,0 M,0,229658,,568,140 C,0,229658,,255,255,255 F,1,229658,231658,0.9,0 S,1,229658,231658,0.25,0.5
Sprite,Background,Centre,"sb\ring.png",0,0 M,0,229808,,484,188 C,0,229808,,255,255,255 F,1,229808,231882,0.9,0 S,1,229808,231882,0.25,0.5
Sprite,Background,Centre,"sb\ring.png",0,0 M,0,229958,,352,144 C,0,229958,,255,255,255 F,1,229958,231958,0.9,0 S,1,229958,231958,0.25,0.5
Sprite,Background,Centre,"sb\ring.png",0,0 M,0,230108,,324,56 C,0,230108,,255,255,255 F,1,230108,232108,0.9,0 S,1,230108,232108,0.25,0.5
Sprite,Background,Centre,"sb\ring.png",0,0 M,0,230258,,276,140 C,0,230258,,255,255,255 F,1,230258,232333,0.9,0 S,1,230258,232333,0.25,0.5
Sprite,Background,Centre,"sb\ring.png",0,0 M,0,230408,,288,336 C,0,230408,,255,255,255 F,1,230408,232408,0.9,0 S,1,230408,232408,0.25,0.5
Sprite,Background,Centre,"sb\ring.png",0,0 M,0,230558,,316,440 C,0,230558,,255,255,255 F,1,230558,232783,0.9,0 S,1,230558,232783,0.25,0.5
Sprite,Background,Centre,"sb\ring.png",0,0 M,0,230858,,400,364 C,0,230858,,255,255,255 F,1,230858,232933,0.9,0 S,1,230858,232933,0.25,0.5
Sprite,Background,Centre,"sb\ring.png",0,0 M,0,231008,,216,368 C,0,231008,,255,255,255 F,1,231008,233083,0.9,0 S,1,231008,233083,0.25,0.5
Sprite,Background,Centre,"sb\ring.png",0,0 M,0,231158,,100,300 C,0,231158,,255,255,255 F,1,231158,233158,0.9,0 S,1,231158,233158,0.25,0.5
Sprite,Background,Centre,"sb\ring.png",0,0 M,0,231233,,96,288 C,0,231233,,255,255,255 F,1,231233,233233,0.9,0 S,1,231233,233233,0.25,0.5
Sprite,Background,Centre,"sb\ring.png",0,0 M,0,231308,,92,276 C,0,231308,,255,255,255 F,1,231308,233308,0.9,0 S,1,231308,233308,0.25,0.5
//Storyboard Layer 1 (Fail)
//Storyboard Layer 2 (Pass)
//Storyboard Layer 3 (Foreground)
//Storyboard Layer 4 (Overlay)
//Storyboard Sound Samples

[TimingPoints]
1058,300,4,2,3,30,1,0
11558,-333.333333333333,4,2,0,25,0,0
18758,-333.333333333333,4,2,0,25,0,0
29858,-333.333333333333,4,2,0,25,0,0
51158,-100,4,1,0,55,0,0
51458,-100,4,1,0,55,0,0
68108,-500,4,1,0,55,0,0
70658,-50,4,1,0,55,0,0
71258,-200,4,1,0,55,0,0
72158,-133.333333333333,4,1,0,55,0,0
72308,-100,4,1,0,55,0,0
72458,-66.6666666666667,4,1,0,55,0,0
73058,-50,4,1,0,55,0,0
73958,-200,4,1,0,55,0,0
74558,-133.333333333333,4,1,0,55,0,0
74708,-100,4,1,0,55,0,0
74858,-66.6666666666667,4,1,0,55,0,0
75458,-50,4,1,0,55,0,0
76358,-100,4,1,0,55,0,0
77858,-50,4,1,0,55,0,0
78758,-100,4,1,0,55,0,0
80258,-100,4,1,0,45,0,0
99458,-133.333333333333,4,1,0,45,0,0
119858,-100,4,1,0,55,0,0
120008,-100,4,1,0,55,0,0
120158,-100,4,1,0,55,0,0
120308,-100,4,1,0,55,0,0
120458,-66.6666666666667,4,1,0,55,0,0
120608,-50,4,1,0,55,0,0
121058,-76.9230769230769,4,1,0,65,0,1
137108,-50,4,1,0,65,0,1
137858,-100,4,1,0,55,0,0
154508,-500,4,1,0,55,0,0
155858,-200,4,1,0,55,0,0
156758,-200,4,1,0,55,0,0
157058,-200,4,1,0,25,0,0
176333,-200,4,1,0,55,0,0
179858,-100,4,1,0,55,0,0
180008,-100,4,1,0,55,0,0
180158,-100,4,1,0,55,0,0
180308,-100,4,1,0,55,0,0
180458,-66.6666666666667,4,1,0,55,0,0
180608,-50,4,1,0,55,0,0
181058,-76.9230769230769,4,1,0,65,0,1
197858,-333.333333333333,4,1,0,55,0,0
198158,-50,4,1,0,65,0,1
199658,-50,4,1,0,55,0,0
199808,-50,4,1,0,65,0,1
199958,-50,4,1,0,55,0,0
200108,-50,4,1,0,65,0,1
200258,-50,4,1,0,55,0,0
200558,-76.9230769230769,4,1,0,65,0,1
213908,-50,4,1,0,65,0,1
214658,-76.9230769230769,4,1,0,55,0,0
230258,-100,4,1,0,55,0,0
230408,-100,4,1,0,55,0,0
230558,-100,4,1,0,55,0,0
230708,-100,4,1,0,45,0,0
230858,-100,4,1,0,45,0,0
231458,-333.333333333333,4,1,0,45,0,0
234458,-333.333333333333,4,1,0,35,0,0
248743,526.315789473684,4,2,3,20,1,0
248874,555.555555555556,4,2,3,20,1,0
249012,659.340659340659,4,2,3,20,1,0
249176,615.384615384615,4,2,3,20,1,0
249252,300,4,2,3,20,1,0
255458,-333.333333333333,4,1,0,5,0,0

[Colours]
Combo1 : 191,191,191
Combo2 : 204,165,248
Combo3 : 133,84,152
Combo4 : 142,198,204

[HitObjects]
66,340,11558,5,2,2:0:0:0:
61,328,11858,1,2,2:0:0:0:
59,315,12158,1,0,2:0:0:0:
59,302,12458,1,2,2:0:0:0:
62,290,12758,1,0,2:0:0:0:
67,279,13058,1,2,2:0:0:0:
75,269,13358,1,0,2:0:0:0:
420,141,13958,5,2,2:0:0:0:
425,129,14258,2,0,P|419:77|421:31,2,93.5999971435548,2|0|0,2:0|2:0|2:0,0:0:0:0:
419,140,15458,2,0,B|357:152|304:130|347:61|207:34|81:151|154:291|346:299|306:213|357:197|424:214,1,499.199984765625,2|2,2:0|2:0,0:0:0:0:
294,344,18758,5,2,2:0:0:0:
282,347,19058,1,2,2:0:0:0:
269,346,19358,1,0,2:0:0:0:
256,342,19658,1,2,2:0:0:0:
246,334,19958,1,0,2:0:0:0:
238,323,20258,2,0,P|227:297|225:260,1,62.3999980957032,2|0,2:0|2:0,0:0:0:0:
241,17,21158,5,2,2:0:0:0:
239,29,21458,1,2,2:0:0:0:
232,39,21758,1,2,2:3:0:0:
222,47,22058,1,0,2:0:0:0:
210,52,22358,1,2,2:0:0:0:
197,54,22658,1,2,2:0:0:0:
184,53,22958,1,0,2:0:0:0:
106,328,23558,5,2,2:0:0:0:
96,320,23858,2,0,P|81:275|80:226,2,93.5999971435548,2|0|0,2:0|2:0|2:0,0:0:0:0:
102,330,25058,2,0,B|116:355|131:361|165:355|184:323|63:217|261:113|428:260|270:335|278:367|311:379|335:374|355:356,1,374.399988574219,2|0,2:0|0:0,0:0:0:0:
451,266,27158,5,2,2:0:0:0:
444,255,27458,2,0,P|432:213|432:189,1,62.3999980957032,2|0,2:0|0:0,0:0:0:0:
256,192,28208,12,0,29408,0:0:0:0:
103,185,29558,5,2,2:0:0:0:
103,185,29858,2,0,L|55:189,3,31.1999990478516,2|0|2|0,2:0|0:0|2:3|0:0,0:0:0:0:
57,181,30758,5,2,2:0:0:0:
171,200,30908,1,0,2:0:0:0:
150,314,31058,1,0,2:0:0:0:
36,295,31208,1,4,2:3:0:0:
57,181,31358,2,0,L|51:111,1,62.3999980957032,2|4,2:3|2:3,0:0:0:0:
456,135,31958,1,2,2:0:0:0:
456,135,32258,6,0,L|398:128,3,31.1999990478516,2|0|2|4,2:0|0:0|2:3|2:3,0:0:0:0:
410,138,33158,5,2,2:0:0:0:
389,48,33308,1,0,0:0:0:0:
298,66,33458,1,0,2:0:0:0:
316,159,33608,1,4,2:3:0:0:
410,138,33758,2,0,L|477:145,1,62.3999980957032,2|0,2:3|2:0,0:0:0:0:
102,322,34358,1,2,2:0:0:0:
102,322,34658,6,0,P|90:291|86:269,1,31.1999990478516,2|4,2:0|2:3,0:0:0:0:
126,221,34958,2,0,P|138:190|142:168,1,31.1999990478516,2|0,2:3|2:0,0:0:0:0:
101,117,35258,2,0,B|93:82|106:88|102:42,1,62.3999980957032,0|0,2:0|2:0,0:0:0:0:
102,322,35858,6,0,P|92:308|80:286,1,31.1999990478516,2|4,2:0|2:3,0:0:0:0:
135,243,36158,2,0,P|151:222|158:204,1,31.1999990478516,2|0,2:3|2:0,0:0:0:0:
109,153,36458,2,0,B|92:120|122:124|109:98,1,46.7999985717774,0|0,2:0|0:0,0:0:0:0:
109,99,36758,1,2,2:3:0:0:
0,46,37058,6,0,P|31:31|64:29,1,62.3999980957032,2|2,2:0|2:3,0:0:0:0:
64,169,37508,2,0,P|95:184|128:186,1,62.3999980957032,0|0,2:0|2:0,0:0:0:0:
241,113,37958,2,0,P|274:106|307:108,1,62.3999980957032,2|0,2:0|2:0,0:0:0:0:
372,312,38408,2,0,P|398:332|430:337,1,62.3999980957032,4|4,2:3|2:3,0:0:0:0:
489,194,38858,1,2,2:0:0:0:
490,187,39158,1,2,2:0:0:0:
489,180,39458,6,0,L|454:178,2,31.1999990478516,2|0|2,2:0|0:0|2:0,0:0:0:0:
324,152,39908,2,0,L|388:156,1,62.3999980957032
489,180,40358,1,2,2:0:0:0:
394,234,40508,1,0,2:0:0:0:
324,152,40658,1,2,2:0:0:0:
248,189,40808,1,0,2:0:0:0:
186,131,40958,2,0,P|171:95|165:70,1,62.3999980957032,2|0,2:0|2:0,0:0:0:0:
20,290,41558,1,2,2:0:0:0:
20,290,41858,6,0,L|55:288,2,31.1999990478516,2|0|2,2:0|0:0|2:0,0:0:0:0:
185,262,42308,2,0,L|121:266,1,62.3999980957032,0|0,2:0|0:0,0:0:0:0:
20,290,42758,1,2,2:0:0:0:
115,344,42908,1,0,0:0:0:0:
185,262,43058,1,2,2:0:0:0:
261,299,43208,1,0,2:0:0:0:
323,241,43358,2,0,P|338:205|344:180,1,62.3999980957032,2|0,2:0|0:0,0:0:0:0:
343,182,43808,1,0,2:0:0:0:
343,182,43958,1,2,2:0:0:0:
343,182,44108,1,0,2:0:0:0:
492,294,44258,5,2,2:0:0:0:
320,357,44408,1,0,2:0:0:0:
320,357,44558,2,0,L|363:360,1,31.1999990478516,2|0,2:0|0:0,0:0:0:0:
134,131,45008,2,0,L|177:134,2,31.1999990478516,2|0|0,0:0|2:0|2:0,0:0:0:0:
125,57,45458,5,2,2:0:0:0:
8,207,45608,1,0,2:0:0:0:
8,207,45758,2,0,L|52:202,1,31.1999990478516,0|0,2:0|0:0,0:0:0:0:
164,327,46058,1,2,2:0:0:0:
238,350,46208,1,0,0:0:0:0:
305,311,46358,1,0,2:0:0:0:
382,329,46508,1,0,0:0:0:0:
453,300,46658,1,0,2:0:0:0:
256,192,46733,12,0,49058,2:0:0:0:
9,85,51458,6,0,L|231:71,1,208,4|10,0:0|0:2,0:0:0:0:
377,112,51908,2,0,P|320:51|206:90,1,208,0|0,0:2|0:2,0:0:0:0:
203,93,52283,2,0,L|209:155,1,52,0|8,0:0|0:2,0:0:0:0:
224,352,52508,1,0,0:0:0:0:
34,283,52658,5,0,0:0:0:0:
34,283,52808,1,0,0:0:0:0:
34,283,52958,2,0,L|27:177,1,104,10|0,0:2|0:0,0:0:0:0:
217,248,53258,5,2,0:2:0:0:
217,248,53408,1,0,0:2:0:0:
217,248,53558,2,0,L|224:354,1,104,10|2,1:2|1:2,0:0:0:0:
133,343,53858,5,0,0:2:0:0:
303,384,54008,1,0,0:2:0:0:
440,302,54158,2,0,P|442:252|453:195,1,104,10|0,0:2|0:0,0:0:0:0:
451,199,54383,1,0,0:0:0:0:
451,199,54458,1,0,0:0:0:0:
283,109,54608,6,0,L|274:43,1,52,2|0,0:2|0:0,0:0:0:0:
287,40,54758,2,0,L|294:91,1,52,10|0,0:2|0:0,0:0:0:0:
60,67,54908,2,0,B|193:47|165:94|279:75,1,208,2|2,0:2|0:3,0:0:0:0:
485,83,55358,2,0,P|446:48|388:36,1,104,10|2,0:2|0:3,0:0:0:0:
396,35,55583,1,0,0:0:0:0:
396,35,55658,6,0,P|384:86|401:142,1,104,0|2,0:0|0:2,0:0:0:0:
491,314,55958,2,0,P|502:262|485:206,1,104,8|0,0:2|0:0,0:0:0:0:
270,254,56258,2,0,P|296:336|403:375,1,208,6|8,0:2|0:2,0:0:0:0:
303,159,56708,2,0,P|242:150|196:182,1,104,2|0,0:2|0:0,0:0:0:0:
206,169,57008,1,4,0:2:0:0:
175,246,57158,6,0,P|169:271|179:309,1,52,8|0,2:2|0:0,0:0:0:0:
110,327,57308,2,0,B|81:211|139:243|110:114,1,208,4|2,0:2|0:2,0:0:0:0:
46,151,57683,2,0,P|50:176|44:202,1,52,0|8,0:0|2:0,0:0:0:0:
11,83,57908,1,2,0:2:0:0:
283,73,58058,5,0,0:0:0:0:
283,73,58208,1,2,0:2:0:0:
84,52,58358,1,8,0:2:0:0:
283,73,58508,2,0,P|339:74|384:56,1,104,2|4,0:2|0:3,0:0:0:0:
443,181,58808,5,8,0:3:0:0:
453,0,58958,1,8,0:2:0:0:
443,181,59108,1,2,0:2:0:0:
292,87,59258,2,0,P|243:68|191:70,1,104,2|2,0:0|0:0,0:0:0:0:
292,87,59558,1,8,0:2:0:0:
191,70,59708,1,2,0:0:0:0:
448,176,59858,6,0,P|379:190|341:222,1,104,2|8,0:1|0:3,0:0:0:0:
193,220,60158,2,0,P|168:275|172:334,1,104,2|0,0:1|0:0,0:0:0:0:
167,317,60383,1,0,0:0:0:0:
167,317,60458,6,0,P|138:308|99:313,1,52,2|0,2:0|0:0,0:0:0:0:
244,236,60608,2,0,P|223:217|196:208,1,52,2|0,0:2|0:0,0:0:0:0:
360,216,60758,2,0,P|349:186|335:169,1,52,0|0,0:2|0:0,0:0:0:0:
498,249,60908,1,8,0:2:0:0:
498,249,61058,6,0,P|517:162|489:34,1,208,4|10,0:1|0:2,0:0:0:0:
286,69,61508,2,0,B|370:64|370:64|397:41|397:41|506:33,1,208
505,59,61883,2,0,L|443:63,1,52,0|10,0:0|0:2,0:0:0:0:
227,142,62108,6,0,P|165:147|82:29,1,208
227,19,62558,1,10,0:2:0:0:
227,19,62708,2,0,P|221:52|195:75,1,52
21,182,62858,1,2,0:2:0:0:
21,182,63008,2,0,P|27:215|53:238,1,52,0|0,2:0|0:0,0:0:0:0:
188,360,63158,5,10,0:2:0:0:
196,282,63308,1,2,0:2:0:0:
204,204,63458,2,0,B|157:297|157:297|235:381,1,208,4|2,0:2|0:1,0:0:0:0:
302,170,63908,5,0,0:0:0:0:
302,170,63983,1,0,0:0:0:0:
302,170,64058,1,0,0:0:0:0:
396,254,64208,2,0,L|334:251,1,52,2|0,0:0|0:0,0:0:0:0:
287,329,64358,2,0,L|338:331,1,52,2|0,0:0|0:0,0:0:0:0:
445,338,64508,2,0,B|492:245|492:245|414:161,1,208,4|4,0:3|0:3,0:0:0:0:
109,90,64958,6,0,P|118:64|137:43,1,52
35,68,65108,2,0,B|147:42|123:105|252:76,1,208,2|2,0:1|0:0,0:0:0:0:
443,36,65558,2,0,P|385:29|323:47,1,104,2|0,0:0|0:0,0:0:0:0:
322,150,65858,5,2,0:2:0:0:
163,342,66058,1,0,0:0:0:0:
416,384,66258,1,2,0:2:0:0:
304,169,66458,5,2,0:2:0:0:
415,277,66658,1,0,0:0:0:0:
256,313,66858,1,2,0:2:0:0:
315,197,67058,5,0,0:0:0:0:
226,184,67208,1,4,0:3:0:0:
213,271,67358,1,0,0:0:0:0:
302,283,67508,1,4,0:3:0:0:
304,169,67658,5,0,0:0:0:0:
331,329,67808,1,4,0:3:0:0:
172,358,67958,1,0,0:0:0:0:
145,198,68108,2,0,L|143:190,1,5.2,4|0,0:2|0:0,0:0:0:0:
256,192,68183,12,0,70358,0:0:0:0:
256,192,70508,5,0,0:0:0:0:
256,192,70658,6,0,B|293:195|293:195|329:185|329:185|375:192,1,104,0|0,0:0|2:0,0:0:0:0:
384,125,70808,2,0,B|415:131|415:131|438:208,1,104,0|0,0:0|2:0,0:0:0:0:
512,212,70958,2,0,L|479:108,1,104,2|0,0:0|2:0,0:0:0:0:
435,200,71108,2,0,L|466:299,1,104,4|0,2:3|2:0,0:0:0:0:
466,299,71558,6,0,P|427:313|364:283,1,104,4|0,2:3|0:0,0:0:0:0:
309,335,72008,2,0,P|309:353|313:371,1,26,2|0,2:0|2:0,0:0:0:0:
234,313,72158,2,0,P|228:334|231:359,1,39.000001487732,0|2,2:0|2:3,0:0:0:0:
155,279,72308,2,0,P|141:309|140:337,1,52,4|4,2:3|2:3,0:0:0:0:
68,195,72458,6,0,P|43:178|64:140,1,78.000002975464,4|0,2:3|1:0,0:0:0:0:
143,130,72608,2,0,P|168:147|147:185,1,78.000002975464,4|0,2:3|1:0,0:0:0:0:
68,195,72758,6,0,B|36:169|36:169|60:141,1,78.000002975464,0|2,1:0|2:3,0:0:0:0:
143,130,72908,2,0,B|175:156|175:156|151:184,1,78.000002975464,4|0,2:3|0:0,0:0:0:0:
59,141,73058,6,0,L|45:36,1,104,0|0,0:0|2:0,0:0:0:0:
128,54,73208,2,0,B|171:61|171:61|191:72|191:72|233:66,1,104,0|0,0:0|2:0,0:0:0:0:
331,51,73358,2,0,L|228:65,1,104,0|0,0:0|2:0,0:0:0:0:
275,131,73508,2,0,B|312:125|312:125|332:136|332:136|375:143,1,104,2|0,0:0|2:0,0:0:0:0:
343,212,73658,2,0,L|470:232,1,104,4|0,2:3|2:0,0:0:0:0:
412,297,73808,2,0,B|449:302|449:302|465:319|465:319|504:338,1,104,4|0,2:3|2:0,0:0:0:0:
412,297,73958,6,0,P|379:324|305:319,1,104,4|0,2:3|0:0,0:0:0:0:
222,367,74408,2,0,P|215:349|215:338,1,26,4|0,2:3|0:0,0:0:0:0:
136,351,74558,2,0,P|137:333|147:302,1,39.000001487732
63,303,74708,2,0,P|70:273|82:252,1,52
66,161,74858,6,0,B|72:105|72:105|85:102|85:102|-15:87|-15:87|0:83|0:83|5:14,1,234.000008926392,2|0,0:0|2:0,0:0:0:0:
66,77,75158,2,0,P|36:104|-12:108,1,78.000002975464,0|0,0:0|2:0,0:0:0:0:
295,132,75458,6,0,L|286:21,1,104,0|0,0:0|2:0,0:0:0:0:
202,144,75608,2,0,B|249:161|249:161|295:131,1,104,0|0,0:0|2:0,0:0:0:0:
471,153,75758,2,0,B|424:136|424:136|378:166,1,104,2|0,0:0|2:0,0:0:0:0:
315,206,75908,2,0,B|273:233|273:233|281:290,1,104,4|0,2:3|2:0,0:0:0:0:
4,285,76358,6,0,P|30:283|53:269,1,52,0|0,1:0|2:0,0:0:0:0:
94,214,76508,2,0,P|95:189|85:156,1,52,2|0,2:3|2:0,0:0:0:0:
195,249,76658,2,0,P|168:250|145:264,1,52,2|0,2:3|2:0,0:0:0:0:
105,320,76808,2,0,P|103:344|113:377,1,52,2|0,2:0|2:0,0:0:0:0:
456,313,77858,6,0,L|470:206,1,104,0|0,0:0|2:0,0:0:0:0:
383,268,78008,2,0,L|397:161,1,104,0|0,0:0|2:0,0:0:0:0:
361,96,78158,2,0,B|346:143|346:143|396:164,1,104,2|0,0:0|2:0,0:0:0:0:
307,212,78308,2,0,B|275:199|275:199|200:211,1,104,2|0,0:0|2:0,0:0:0:0:
202,138,78458,2,0,L|86:157,1,104,4|0,2:3|2:0,0:0:0:0:
104,81,78608,2,0,B|36:92|36:92|4:79,1,104,4|0,2:3|2:0,0:0:0:0:
111,88,78758,6,0,L|50:98,1,52,4|0,2:3|2:0,0:0:0:0:
4,174,78908,2,0,B|7:198|7:198|34:214,1,52,2|0,2:3|2:0,0:0:0:0:
185,182,79058,2,0,B|199:162|199:162|192:132,1,52,2|0,2:3|2:0,0:0:0:0:
272,63,79208,2,0,P|282:51|319:39,1,52,2|0,2:0|2:0,0:0:0:0:
285,60,79358,2,0,P|296:48|333:40,1,52,0|0,0:0|2:0,0:0:0:0:
297,61,79508,2,0,P|308:50|347:45,1,52,0|0,0:0|2:0,0:0:0:0:
308,65,79658,2,0,P|321:56|359:54,1,52,0|0,0:0|2:0,0:0:0:0:
510,129,79808,5,2,2:2:0:0:
325,243,79958,2,0,L|320:191,1,52
380,299,80108,1,0,0:2:0:0:
216,303,80258,5,4,0:2:0:0:
400,226,80408,1,0,0:0:0:0:
430,357,80558,2,0,P|385:372|319:344,1,104,8|2,0:2|2:2,0:0:0:0:
51,268,80858,1,0,2:0:0:0:
221,298,81008,2,0,P|176:283|110:311,2,104,0|8|0,0:0|0:2|2:0,0:0:0:0:
256,370,81383,5,0,2:0:0:0:
256,370,81458,2,0,P|247:286|250:252,1,104,0|2,0:0|0:3,0:0:0:0:
256,14,81758,2,0,P|265:98|262:132,1,104,8|2,0:2|0:3,0:0:0:0:
434,192,82058,2,0,P|350:201|316:198,1,104,0|2,2:0|0:3,0:0:0:0:
78,192,82358,2,0,P|162:183|196:186,1,104,8|0,0:2|2:0,0:0:0:0:
256,359,82658,5,2,0:2:0:0:
72,363,82808,1,0,2:0:0:0:
318,308,82958,2,0,P|276:283|210:289,1,104,10|2,0:2|0:2,0:0:0:0:
151,261,83183,1,0,0:0:0:0:
151,261,83258,2,0,P|144:316|166:365,1,104
390,329,83558,2,0,P|397:274|375:225,1,104,8|0,0:2|0:0,0:0:0:0:
476,71,83858,5,0,2:0:0:0:
476,71,84008,1,0,0:0:0:0:
476,71,84158,2,0,L|338:75,1,104,8|2,0:2|0:2,0:0:0:0:
305,100,84383,2,0,P|297:67|303:49,1,52,0|0,2:0|0:0,0:0:0:0:
284,42,84533,2,0,P|279:67|287:92,1,52,0|0,2:0|0:0,0:0:0:0:
214,198,84758,2,0,P|161:152|61:142,1,156,10|0,0:2|0:0,0:0:0:0:
20,69,85058,6,0,L|123:65,1,104,4|0,0:2|0:0,0:0:0:0:
129,212,85358,2,0,L|25:215,1,104,2|0,0:0|0:0,0:0:0:0:
168,308,85658,5,0,0:0:0:0:
174,280,85808,1,2,0:0:0:0:
219,84,85958,5,0,0:0:0:0:
238,103,86108,1,2,0:0:0:0:
383,236,86258,5,0,0:0:0:0:
357,243,86408,1,2,0:0:0:0:
174,280,86558,5,0,0:0:0:0:
238,103,86708,1,0,0:0:0:0:
357,243,86858,1,2,0:1:0:0:
383,236,87008,5,0,0:1:0:0:
219,84,87158,1,0,0:0:0:0:
168,308,87308,1,2,0:0:0:0:
376,352,87458,6,0,L|479:348,1,104,4|2,0:2|0:0,0:0:0:0:
468,72,87758,2,0,L|364:75,1,104,2|2,0:0|0:0,0:0:0:0:
368,212,88058,2,0,L|471:208,1,104,2|0,0:0|0:0,0:0:0:0:
220,192,88358,5,8,0:2:0:0:
184,348,88508,1,0,0:0:0:0:
184,348,88583,1,0,0:0:0:0:
184,348,88658,2,0,P|144:316|64:312,1,104,0|0,2:0|0:0,0:0:0:0:
96,300,88958,2,0,P|146:309|186:341,1,104,8|0,0:2|0:0,0:0:0:0:
272,384,89258,2,0,P|272:308|260:276,1,104,0|0,2:0|0:0,0:0:0:0:
38,102,89558,2,0,P|88:115|132:144,1,104,8|0,0:2|0:0,0:0:0:0:
260,72,89858,6,0,B|360:88|320:32|420:48,1,156,4|0,0:2|2:0,0:0:0:0:
428,64,90158,2,0,P|416:32|412:0,1,52,8|0,0:2|2:0,0:0:0:0:
488,140,90308,1,0,0:0:0:0:
392,152,90458,2,0,P|384:204|400:272,1,104,2|0,2:0|0:0,0:0:0:0:
304,248,90683,1,0,0:0:0:0:
304,248,90758,6,0,P|308:316|292:372,1,104,8|2,0:2|2:0,0:0:0:0:
208,136,91058,2,0,P|204:68|220:12,1,104,0|0,2:0|0:0,0:0:0:0:
312,144,91358,2,0,P|380:140|436:156,1,104,8|0,0:2|0:0,0:0:0:0:
200,240,91658,2,0,P|132:244|76:228,1,104,0|0,2:0|0:0,0:0:0:0:
304,248,91958,5,8,0:2:0:0:
404,372,92108,1,0,0:0:0:0:
248,304,92258,2,0,P|296:320|352:308,1,104,0|2,0:0|0:2,0:0:0:0:
416,268,92483,1,0,0:0:0:0:
416,268,92558,2,0,P|424:320|400:376,1,104,8|0,0:2|0:0,0:0:0:0:
176,344,92858,2,0,P|168:292|192:236,1,104,0|0,2:0|0:0,0:0:0:0:
72,132,93158,6,0,P|72:68|52:16,1,104,8|0,0:2|0:0,0:0:0:0:
0,196,93458,2,0,P|40:196|104:228,1,104,2|0,2:0|0:0,0:0:0:0:
97,222,93683,1,0,0:0:0:0:
97,222,93758,1,8,0:2:0:0:
216,172,93908,2,0,P|224:144|248:116,1,52
224,44,94058,2,0,P|276:68|344:60,1,104
496,96,94358,2,0,P|412:108|356:172,1,156,8|0,0:2|0:0,0:0:0:0:
336,232,94658,6,0,L|472:236,1,104
252,360,94958,2,0,L|388:364,1,104,2|0,0:0|0:0,0:0:0:0:
88,200,95258,5,0,0:0:0:0:
60,212,95408,1,2,0:0:0:0:
208,152,95558,5,0,0:0:0:0:
220,180,95708,1,2,0:0:0:0:
160,32,95858,5,0,0:0:0:0:
188,20,96008,1,2,0:0:0:0:
40,80,96158,5,0,0:0:0:0:
28,52,96308,1,0,0:0:0:0:
8,76,96458,5,0,0:1:0:0:
164,0,96608,1,0,0:0:0:0:
240,156,96758,1,2,0:0:0:0:
84,232,96908,1,0,0:0:0:0:
136,364,97058,6,0,L|0:368,1,104,2|0,0:0|0:0,0:0:0:0:
312,24,97358,2,0,L|415:20,1,104
276,192,97658,2,0,L|140:196,1,104,2|0,0:1|0:0,0:0:0:0:
32,116,97958,5,2,0:0:0:0:
16,48,98108,1,0,0:0:0:0:
160,128,98258,5,2,0:0:0:0:
148,80,98408,1,0,0:2:0:0:
300,144,98558,5,2,0:1:0:0:
288,116,98708,1,0,0:0:0:0:
440,164,98858,5,2,0:2:0:0:
440,164,99008,1,2,0:2:0:0:
440,164,99158,1,8,0:2:0:0:
440,164,99308,1,0,0:0:0:0:
440,164,99458,6,0,L|460:8,2,156.000005950928
368,180,100808,2,0,L|388:24,1,156.000005950928
387,25,101258,1,0,0:0:0:0:
368,180,101408,1,0,0:0:0:0:
60,344,101858,6,0,L|40:188,2,156.000005950928
196,292,102608,2,0,B|276:280|256:340|356:328,1,156.000005950928,0|2,0:0|2:0,0:0:0:0:
343,329,103058,1,0,0:0:0:0:
132,360,103208,2,0,L|112:204,1,156.000005950928
112,205,103658,1,0,0:0:0:0:
132,360,103808,1,0,0:0:0:0:
272,340,103958,2,0,L|264:256,1,78.000002975464
160,88,104258,6,0,P|119:81|80:100,1,78.000002975464
128,148,104558,2,0,L|132:192,1,39.000001487732
196,32,104708,2,0,P|108:16|32:56,1,156.000005950928,0|0,0:0|2:0,0:0:0:0:
220,128,105158,2,0,P|256:140|292:128,1,78.000002975464,2|2,2:0|2:0,0:0:0:0:
352,88,105458,6,0,P|393:81|432:100,1,78.000002975464,2|0,2:0|0:0,0:0:0:0:
384,148,105758,2,0,L|380:192,1,39.000001487732
316,32,105908,2,0,P|404:16|480:56,1,156.000005950928
292,127,106358,2,0,P|256:139|220:128,1,78.000002975464
256,228,106658,6,0,P|320:240|384:308,1,156.000005950928
256,228,107108,2,0,P|192:240|128:308,1,156.000005950928
424,236,107558,2,0,P|452:308|440:388,1,156.000005950928,0|0,2:0|2:0,0:0:0:0:
88,236,108008,2,0,P|60:308|72:388,1,156.000005950928,0|0,1:0|1:0,0:0:0:0:
368,376,108458,2,0,P|340:336|304:320,1,78.000002975464
197,322,108758,2,0,P|164:342|144:376,1,78.000002975464,0|2,0:0|2:0,0:0:0:0:
24,204,109058,6,0,P|-4:132|8:44,3,156.000005950928,0|0|0|0,1:0|1:0|1:0|0:0,0:0:0:0:
112,188,110108,1,2,2:0:0:0:
112,188,110408,2,0,P|119:111|91:39,1,156.000005950928,0|0,1:0|1:0,0:0:0:0:
91,39,110858,1,0,1:0:0:0:
24,204,111008,1,0,1:0:0:0:
24,204,111158,2,0,P|64:216|100:256,1,78.000002975464,0|0,2:0|2:0,0:0:0:0:
480,328,111458,6,0,P|508:256|496:168,3,156.000005950928,0|0|0|0,1:0|1:0|1:0|2:0,0:0:0:0:
392,312,112508,1,2,2:0:0:0:
392,312,112808,2,0,P|384:235|412:163,1,156.000005950928,0|0,1:0|1:0,0:0:0:0:
412,163,113258,1,0,1:0:0:0:
480,328,113408,1,0,1:0:0:0:
480,328,113558,2,0,P|440:340|404:380,1,78.000002975464,0|0,0:0|2:0,0:0:0:0:
256,260,113858,6,0,P|224:240|212:192,1,78.000002975464,0|0,1:0|0:0,0:0:0:0:
301,203,114158,2,0,P|288:239|256:260,1,78.000002975464,0|0,1:0|0:0,0:0:0:0:
172,144,114458,2,0,P|256:36|340:144,1,312.000011901856,0|0,1:0|2:0,0:0:0:0:
256,116,115208,2,0,L|256:164,1,39.000001487732,2|0,1:2|0:0,0:0:0:0:
220,320,115358,2,0,P|256:332|292:320,1,78.000002975464,2|2,2:3|1:2,0:0:0:0:
444,228,115658,6,0,L|356:228,1,78.000002975464,0|0,1:0|1:0,0:0:0:0:
146,228,115958,2,0,L|68:228,1,78.000002975464,0|0,0:0|2:0,0:0:0:0:
256,192,116258,1,0,0:0:0:0:
256,192,116333,12,8,118658,2:3:0:0:
16,160,119858,6,0,P|8:136|8:108,1,52
16,160,120008,6,0,P|16:136|32:112,1,52,2|0,2:0|2:0,0:0:0:0:
16,160,120158,6,0,P|40:136|60:128,1,52,2|2,2:0|2:3,0:0:0:0:
92,200,120308,6,0,P|104:224|132:240,1,52,2|2,2:0|2:3,0:0:0:0:
196,372,120458,6,0,P|208:328|244:292,1,78.000002975464,0|2,2:0|2:3,0:0:0:0:
316,140,120608,6,0,P|368:152|432:124,1,104,2|2,2:0|2:0,0:0:0:0:
464,12,120758,5,0,0:0:0:0:
468,20,120833,1,0,0:0:0:0:
472,28,120908,1,0,0:0:0:0:
476,36,120983,1,0,0:0:0:0:
496,112,121058,6,0,P|412:140|296:16,1,270.399987622071,4|8,0:1|0:0,0:0:0:0:
215,23,121508,2,0,P|143:129|16:112,1,270.399987622071
64,64,121883,2,0,P|96:72|129:59,1,67.5999969055177,0|8,0:0|0:0,0:0:0:0:
172,348,122108,5,2,0:2:0:0:
320,232,122258,2,0,B|228:240|228:240|272:276,1,135.199993811035
261,267,122483,1,0,0:0:0:0:
261,267,122558,1,8,0:0:0:0:
172,348,122708,1,0,0:0:0:0:
12,292,122858,2,0,B|104:284|104:284|60:248,1,135.199993811035,2|0,0:2|0:2,0:0:0:0:
70,256,123083,1,0,2:0:0:0:
70,256,123158,1,8,0:0:0:0:
160,176,123308,1,2,0:2:0:0:
0,96,123458,6,0,L|136:104,1,135.199993811035
336,116,123758,2,0,L|472:124,1,135.199993811035,8|0,0:0|0:0,0:0:0:0:
470,123,123983,1,0,0:0:0:0:
470,123,124058,1,0,0:0:0:0:
232,184,124208,1,2,0:2:0:0:
0,96,124358,1,8,0:0:0:0:
244,20,124508,2,0,L|224:312,1,270.399987622071,2|2,0:2|0:3,0:0:0:0:
220,360,124883,1,0,0:0:0:0:
220,360,124958,2,0,B|165:319|165:319|225:290,1,135.199993811035,8|2,0:0|0:3,0:0:0:0:
224,290,125258,2,0,B|279:331|279:331|219:360,1,135.199993811035,0|2,0:0|0:2,0:0:0:0:
8,192,125558,5,8,0:0:0:0:
152,248,125708,1,0,0:0:0:0:
152,248,125783,1,0,0:0:0:0:
152,248,125858,2,0,P|148:204|128:176,1,67.5999969055177,2|0,0:0|0:0,0:0:0:0:
200,88,126008,1,0,0:0:0:0:
8,192,126158,1,10,2:1:0:0:
8,192,126308,2,0,B|108:196|108:196|152:168|152:168|272:172,1,270.399987622071,0|0,0:0|0:2,0:0:0:0:
270,171,126683,1,0,0:0:0:0:
270,171,126758,1,8,2:1:0:0:
320,336,126908,1,0,0:2:0:0:
456,216,127058,6,0,P|424:224|392:252,1,67.5999969055177,0|0,0:0|2:0,0:0:0:0:
328,332,127208,2,0,L|464:336,2,135.199993811035,0|8|0,0:2|2:1|0:0,0:0:0:0:
220,356,127658,6,0,P|188:348|156:320,1,67.5999969055177
92,240,127808,2,0,L|228:236,2,135.199993811035,2|8|2,0:2|0:1|0:2,0:0:0:0:
24,140,128258,5,4,0:3:0:0:
60,16,128408,1,8,0:3:0:0:
164,32,128558,5,10,0:1:0:0:
172,156,128708,1,0,0:0:0:0:
306,144,128858,2,0,L|162:156,1,135.199993811035,2|2,0:0|0:0,0:0:0:0:
296,20,129158,1,0,0:0:0:0:
312,152,129308,5,2,0:0:0:0:
352,76,129458,1,2,0:0:0:0:
432,64,129608,5,8,0:3:0:0:
467,194,129758,2,0,L|430:56,1,135.199993811035,2|0,0:0|0:0,0:0:0:0:
256,48,130058,6,0,P|240:84|240:116,1,67.5999969055177,0|0,0:0|0:1,0:0:0:0:
132,136,130208,2,0,L|144:216,1,67.5999969055177,2|0,0:2|0:0,0:0:0:0:
32,260,130358,2,0,P|60:284|72:332,1,67.5999969055177,0|0,0:2|0:0,0:0:0:0:
152,208,130508,2,0,L|141:141,1,67.5999969055177,8|0,0:2|0:0,0:0:0:0:
32,164,130658,6,0,P|60:68|232:48,1,270.399987622071,4|2,0:0|0:2,0:0:0:0:
299,35,131108,2,0,P|428:46|480:164,1,270.399987622071,2|6,0:2|0:2,0:0:0:0:
408,132,131483,2,0,P|380:124|336:136,1,67.5999969055177,0|2,0:0|0:2,0:0:0:0:
380,364,131708,1,6,0:2:0:0:
380,364,131783,1,0,0:0:0:0:
380,364,131858,6,0,L|372:296,1,67.5999969055177
392,220,132008,2,0,P|448:232|496:300,2,135.199993811035,2|2|0,0:0|0:0|0:0,0:0:0:0:
192,176,132458,6,0,L|184:244,1,67.5999969055177,2|0,0:0|0:0,0:0:0:0:
204,320,132608,2,0,P|260:308|308:240,2,135.199993811035,2|2|2,0:0|0:2|0:0,0:0:0:0:
8,384,133058,6,0,L|0:316,1,67.5999969055177,2|0,0:0|2:0,0:0:0:0:
40,248,133208,2,0,P|80:260|112:296,1,67.5999969055177,0|0,0:0|2:0,0:0:0:0:
260,192,133358,2,0,P|268:156|264:116,1,67.5999969055177,6|0,0:2|2:0,0:0:0:0:
88,284,133508,2,0,P|108:312|112:356,1,67.5999969055177,0|0,0:0|2:0,0:0:0:0:
147,144,133658,6,0,L|67:136,1,67.5999969055177,2|0,0:0|2:0,0:0:0:0:
235,120,133808,2,0,B|268:112|268:112|312:132,1,67.5999969055177,2|0,0:2|2:0,0:0:0:0:
377,172,133958,2,0,L|457:180,1,67.5999969055177,6|0,0:2|2:0,0:0:0:0:
289,196,134108,2,0,B|256:204|256:204|212:184,1,67.5999969055177,2|0,0:2|2:0,0:0:0:0:
208,40,134258,5,2,0:0:0:0:
300,56,134408,1,0,0:0:0:0:
140,64,134558,5,2,0:2:0:0:
360,28,134708,1,2,0:0:0:0:
8,48,134858,6,0,P|60:44|144:84,1,135.199993811035
484,48,135158,2,0,P|432:52|348:12,1,135.199993811035,2|2,0:2|2:0,0:0:0:0:
248,24,135458,5,2,0:0:0:0:
260,160,135608,1,2,2:0:0:0:
272,296,135758,1,2,2:0:0:0:
16,272,136208,5,0,0:0:0:0:
84,284,136358,1,0,0:0:0:0:
68,352,136508,2,0,L|-20:356,1,67.5999969055177
412,244,136808,6,0,L|500:240,3,67.5999969055177
352,200,137108,6,0,B|349:176|349:176|371:133|371:133|368:84,1,104,0|0,0:0|2:0,0:0:0:0:
344,200,137408,2,0,B|341:176|341:176|363:133|363:133|360:84,1,104,0|0,0:0|2:0,0:0:0:0:
336,200,137708,2,0,B|333:176|333:176|355:133|355:133|352:84,1,104,0|0,0:0|2:0,0:0:0:0:
432,24,137858,5,4,0:0:0:0:
432,24,138008,1,0,0:0:0:0:
236,44,138158,2,0,L|352:32,1,104,8|2,0:2|0:2,0:0:0:0:
452,212,138458,2,0,L|440:96,1,104
432,24,138758,1,8,0:2:0:0:
264,200,138908,5,0,0:0:0:0:
240,196,139058,1,2,0:2:0:0:
188,240,139208,1,0,0:0:0:0:
164,236,139358,1,8,0:2:0:0:
116,284,139508,1,2,0:2:0:0:
92,280,139658,1,0,0:0:0:0:
236,292,139808,5,2,0:2:0:0:
232,316,139958,1,8,0:2:0:0:
228,340,140108,1,0,0:0:0:0:
80,360,140258,5,0,0:0:0:0:
80,360,140408,1,0,0:0:0:0:
276,340,140558,2,0,L|160:352,1,104,8|0,0:2|0:0,0:0:0:0:
60,172,140858,2,0,L|72:288,1,104
80,360,141158,1,8,0:2:0:0:
252,256,141308,6,0,B|360:244|332:316|452:296,1,208
450,296,141683,1,0,0:0:0:0:
450,296,141758,1,8,0:2:0:0:
276,340,141908,1,0,0:0:0:0:
424,220,142058,2,0,P|408:200|396:168,3,52
436,116,142358,2,0,P|444:80|440:56,3,52,8|0|0|0,0:2|0:0|0:0|2:0,0:0:0:0:
384,16,142658,5,4,0:2:0:0:
384,16,142808,1,0,0:0:0:0:
384,16,142958,2,0,L|268:24,1,104,10|0,2:0|0:1,0:0:0:0:
8,84,143258,1,0,0:0:0:0:
120,220,143408,1,0,0:0:0:0:
120,220,143483,1,0,0:0:0:0:
120,220,143558,2,0,B|84:140|160:140|132:68,1,156,10|0,2:0|2:0,0:0:0:0:
60,96,143858,6,0,P|36:92|12:76,1,52,0|0,1:0|2:0,0:0:0:0:
204,0,144008,2,0,B|177:68|253:68|217:148,1,156,0|0,0:1|2:1,0:0:0:0:
292,180,144308,2,0,P|316:176|340:160,1,52,2|0,0:2|2:0,0:0:0:0:
388,104,144458,2,0,P|396:76|396:44,1,52,0|0,0:0|2:0,0:0:0:0:
208,168,144608,5,0,0:0:0:0:
296,192,144758,1,2,0:2:0:0:
384,180,144908,1,2,0:2:0:0:
460,128,145058,2,0,P|472:76|468:24,2,104,0|2|0,0:0|0:2|0:2,0:0:0:0:
464,220,145508,2,0,B|352:200|376:272|260:244,1,208,0|2,0:0|0:2,0:0:0:0:
263,244,145958,1,2,0:2:0:0:
263,244,146108,1,2,0:2:0:0:
176,284,146258,6,0,P|152:288|120:288,1,52,0|0,0:0|2:0,0:0:0:0:
172,296,146408,1,0,0:0:0:0:
4,304,146558,2,0,P|28:308|56:308,1,52,0|0,0:0|2:0,0:0:0:0:
8,316,146708,2,0,P|32:320|60:320,1,52,0|0,0:0|2:0,0:0:0:0:
300,344,146858,6,0,P|324:340|352:340,1,52
304,332,147008,2,0,P|328:328|356:328,1,52
488,324,147158,2,0,P|464:320|436:320,1,52
484,312,147308,2,0,P|460:308|432:308,1,52
256,368,147458,5,4,0:0:0:0:
160,244,147608,1,0,0:0:0:0:
184,240,147758,1,0,0:0:0:0:
208,236,147908,1,0,0:0:0:0:
232,232,148058,1,0,0:0:0:0:
256,228,148208,1,0,0:0:0:0:
280,224,148358,1,0,0:0:0:0:
304,220,148508,2,0,L|280:284,1,52
256,368,148658,5,0,0:0:0:0:
408,176,148808,1,0,0:0:0:0:
356,168,148958,1,0,0:0:0:0:
304,160,149108,1,2,0:2:0:0:
252,152,149258,1,0,0:0:0:0:
200,144,149408,1,2,0:2:0:0:
148,136,149558,1,0,0:0:0:0:
96,128,149708,2,0,L|80:60,1,52,2|2,0:2|0:2,0:0:0:0:
0,32,149858,5,0,0:0:0:0:
16,96,150008,1,2,0:2:0:0:
100,8,150158,1,0,0:0:0:0:
136,128,150308,1,2,0:2:0:0:
200,32,150458,1,2,0:2:0:0:
232,120,150608,1,0,0:0:0:0:
304,36,150758,1,2,0:2:0:0:
348,168,150908,1,2,0:2:0:0:
400,16,151058,1,2,0:2:0:0:
436,100,151208,2,0,P|464:100|496:104,2,52
0,192,151508,2,0,B|72:180|72:212|156:196,1,156,2|0,0:1|0:0,0:0:0:0:
208,152,151808,2,0,P|216:128|216:88,1,52,2|0,0:0|0:0,0:0:0:0:
272,248,151958,5,2,0:2:0:0:
312,252,152033,1,0,0:0:0:0:
348,276,152108,1,2,0:2:0:0:
372,312,152183,1,0,0:0:0:0:
371,351,152258,6,0,P|355:307|359:259,1,69.3333333333333,2|0,0:0|2:1,0:0:0:0:
464,248,152458,2,0,P|480:204|476:156,1,69.3333333333333,0|0,0:0|2:0,0:0:0:0:
416,100,152658,2,0,L|328:92,1,69.3333333333333,0|0,0:0|2:0,0:0:0:0:
240,16,152858,2,0,P|220:48|224:96,1,69.3333333333333,2|0,0:0|2:0,0:0:0:0:
256,224,153058,2,0,P|276:192|272:144,1,69.3333333333333,0|0,0:0|2:0,0:0:0:0:
144,136,153258,2,0,L|56:128,1,69.3333333333333,2|0,0:0|2:0,0:0:0:0:
256,224,153458,5,2,0:0:0:0:
136,128,153608,2,0,L|21:117,1,104
96,364,153908,5,4,0:0:0:0:
256,16,154208,1,4,0:0:0:0:
416,364,154508,1,4,0:0:0:0:
256,192,154583,12,2,155858,2:2:0:0:
476,92,157058,5,2,2:0:0:0:
480,68,157508,1,0,0:0:0:0:
48,312,158258,5,2,0:0:0:0:
52,336,158708,1,0,0:0:0:0:
484,216,159458,5,2,0:0:0:0:
32,132,160658,5,2,0:0:0:0:
24,112,161108,1,0,0:0:0:0:
248,72,161258,1,2,0:0:0:0:
188,108,161408,2,0,P|152:84|76:84,1,104
211,269,161858,5,2,0:0:0:0:
40,232,163058,5,2,0:0:0:0:
44,256,163508,1,0,0:0:0:0:
152,304,163808,2,0,P|152:336|144:364,1,52,2|0,0:0|0:0,0:0:0:0:
472,112,164258,6,0,P|488:60|488:8,1,104,2|0,0:0|0:0,0:0:0:0:
488,10,164708,1,0,0:0:0:0:
404,140,165008,1,0,0:0:0:0:
356,100,165158,1,2,0:0:0:0:
328,44,165308,1,0,0:0:0:0:
228,156,165458,6,0,P|176:137|124:134,1,104,2|0,0:0|0:0,0:0:0:0:
126,134,165908,1,0,0:0:0:0:
12,40,166058,2,0,P|63:21|115:18,1,104,2|0,0:0|0:0,0:0:0:0:
114,18,166508,1,0,0:0:0:0:
100,284,166658,6,0,P|48:280|0:262,3,104,2|0|0|0,0:0|0:0|0:0|0:0,0:0:0:0:
364,360,167858,6,0,P|416:340|464:336,1,104,2|0,0:0|0:0,0:0:0:0:
472,312,168308,1,2,0:0:0:0:
292,236,168608,2,0,P|296:264|304:296,2,52
492,32,169058,6,0,P|492:87|484:144,1,104,2|0,0:0|0:0,0:0:0:0:
464,152,169508,1,0,0:0:0:0:
400,44,169808,1,2,0:0:0:0:
300,120,170108,1,0,0:0:0:0:
20,32,170258,6,0,P|19:87|28:144,1,104,2|0,0:0|0:0,0:0:0:0:
48,152,170708,1,2,0:0:0:0:
112,44,171008,1,0,0:0:0:0:
212,120,171308,1,2,0:0:0:0:
212,240,171458,6,0,B|100:212|120:284|0:256,1,208,2|0,0:0|0:0,0:0:0:0:
360,308,172658,6,0,B|443:287|428:340|517:319,1,156,2|0,0:0|0:0,0:0:0:0:
296,368,173708,1,2,0:0:0:0:
256,192,174458,12,0,176258,2:0:0:0:
496,224,179858,6,0,P|504:248|504:276,1,52,2|0,2:0|2:0,0:0:0:0:
496,224,180008,6,0,P|496:248|480:272,1,52,4|2,2:3|2:3,0:0:0:0:
496,224,180158,6,0,P|472:248|452:256,1,52,4|2,2:3|2:3,0:0:0:0:
420,184,180308,6,0,P|400:168|380:144,1,52,4|2,0:3|2:0,0:0:0:0:
312,316,180458,6,0,P|300:360|264:396,1,78.000002975464,6|0,2:3|1:3,0:0:0:0:
192,160,180608,6,0,P|152:128|136:64,1,104,6|4,2:3|2:3,0:0:0:0:
4,40,180758,5,2,1:3:0:0:
8,32,180833,1,4,2:3:0:0:
12,24,180908,1,0,1:0:0:0:
16,16,180983,1,0,1:0:0:0:
32,100,181058,6,0,P|96:48|208:184,1,270.399987622071,4|2,0:0|0:2,0:0:0:0:
296,16,181508,2,0,P|367:118|480:66,1,270.399987622071
432,12,181883,2,0,P|399:16|372:40,1,67.5999969055177
317,355,182108,1,0,0:0:0:0:
317,355,182183,1,0,0:0:0:0:
317,355,182258,6,0,L|328:276,1,67.5999969055177
360,204,182408,2,0,P|424:172|492:192,2,135.199993811035,0|2|0,0:0|0:2|0:0,0:0:0:0:
72,152,182858,6,0,L|82:231,1,67.5999969055177,2|0,0:2|2:0,0:0:0:0:
114,303,183008,2,0,P|178:335|246:315,2,135.199993811035,0|2|2,0:0|0:2|0:2,0:0:0:0:
0,120,183458,6,0,L|148:104,1,135.199993811035
328,84,183758,2,0,L|476:68,1,135.199993811035,2|0,0:2|0:0,0:0:0:0:
462,69,183983,1,0,0:0:0:0:
462,69,184058,1,0,0:0:0:0:
224,24,184208,1,2,0:2:0:0:
0,120,184358,1,2,0:2:0:0:
244,168,184508,1,2,0:2:0:0:
244,168,184583,1,0,0:0:0:0:
244,168,184658,2,0,L|256:312,1,135.199993811035,0|2,0:0|0:3,0:0:0:0:
248,384,184883,1,0,0:0:0:0:
188,340,184958,6,0,L|100:332,1,67.5999969055177,2|0,0:2|0:0,0:0:0:0:
312,352,185108,2,0,L|400:360,1,67.5999969055177,2|0,0:3|0:0,0:0:0:0:
44,328,185258,5,0,0:0:0:0:
255,302,185408,1,2,0:2:0:0:
452,368,185558,1,0,0:0:0:0:
248,384,185708,1,0,0:0:0:0:
72,244,185858,6,0,L|64:172,1,67.5999969055177,4|0,0:2|0:0,0:0:0:0:
120,40,186008,1,0,0:0:0:0:
260,116,186158,1,0,0:0:0:0:
260,116,186308,2,0,B|176:112|176:112|100:152|100:152|-8:148,1,270.399987622071,2|4,0:2|0:2,0:0:0:0:
0,148,186683,1,0,0:0:0:0:
0,148,186758,1,0,0:0:0:0:
160,296,186908,1,6,0:2:0:0:
24,352,187058,6,0,L|96:344,1,67.5999969055177,0|0,0:0|2:0,0:0:0:0:
228,244,187208,2,0,P|248:300|216:372,2,135.199993811035,2|0|2,0:2|2:0|0:2,0:0:0:0:
492,136,187658,6,0,L|420:128,1,67.5999969055177,0|0,0:0|2:0,0:0:0:0:
288,28,187808,2,0,P|268:84|300:156,2,135.199993811035,2|8|0,0:2|0:3|0:0,0:0:0:0:
456,220,188258,5,4,0:3:0:0:
436,380,188408,1,8,0:3:0:0:
332,364,188558,5,2,0:2:0:0:
310,230,188708,1,2,0:2:0:0:
332,364,188858,2,0,L|308:216,1,135.199993811035,2|2,0:0|0:0,0:0:0:0:
64,372,189158,6,0,L|200:356,1,135.199993811035,0|2,0:0|0:0,0:0:0:0:
226,260,189458,1,2,0:0:0:0:
198,356,189608,1,8,0:3:0:0:
64,372,189758,5,2,0:1:0:0:
24,188,189908,1,6,2:2:0:0:
272,48,190058,6,0,P|264:88|248:112,1,67.5999969055177,0|0,0:0|2:0,0:0:0:0:
348,152,190208,2,0,L|356:228,1,67.5999969055177,4|0,0:2|2:0,0:0:0:0:
456,256,190358,2,0,P|468:292|492:312,1,67.5999969055177,0|0,0:0|2:0,0:0:0:0:
348,224,190508,2,0,L|340:156,1,67.5999969055177,4|0,0:2|2:0,0:0:0:0:
280,36,190658,6,0,P|312:112|496:112,1,270.399987622071,4|2,0:0|0:2,0:0:0:0:
23,141,191108,2,0,P|150:126|224:232,1,270.399987622071
144,208,191483,2,0,P|108:208|68:228,1,67.5999969055177,0|2,0:0|0:2,0:0:0:0:
192,376,191708,1,2,0:2:0:0:
192,376,191783,1,0,0:0:0:0:
192,376,191858,6,0,L|208:292,1,67.5999969055177
8,312,192008,2,0,P|40:368|116:388,2,135.199993811035,0|2|0,0:0|0:2|0:0,0:0:0:0:
312,236,192458,6,0,L|296:152,1,67.5999969055177,2|0,0:2|0:0,0:0:0:0:
496,172,192608,2,0,P|464:228|388:248,2,135.199993811035,0|2|2,0:0|0:2|0:2,0:0:0:0:
208,100,193058,6,0,L|224:16,1,67.5999969055177,0|0,0:0|2:0,0:0:0:0:
24,48,193208,2,0,P|36:88|72:116,1,67.5999969055177,0|0,0:0|2:0,0:0:0:0:
72,184,193358,2,0,P|108:160|152:156,1,67.5999969055177,2|0,0:2|2:0,0:0:0:0:
320,184,193508,1,0,0:0:0:0:
320,184,193583,1,0,0:0:0:0:
320,184,193658,6,0,L|328:104,1,67.5999969055177,0|0,0:0|2:0,0:0:0:0:
220,192,193808,2,0,B|192:200|192:200|188:240,1,67.5999969055177,2|0,0:2|2:0,0:0:0:0:
376,308,193958,2,0,B|393:285|393:285|373:250,1,67.5999969055177,0|0,0:0|2:0,0:0:0:0:
180,304,194108,2,0,B|178:333|178:333|215:349,1,67.5999969055177,2|0,0:2|2:0,0:0:0:0:
276,376,194258,2,0,B|303:385|303:385|330:355,1,67.5999969055177,2|0,0:0|2:0,0:0:0:0:
492,192,194408,5,0,0:0:0:0:
492,192,194483,1,0,0:0:0:0:
492,192,194558,2,0,L|400:184,1,67.5999969055177,2|0,0:2|2:0,0:0:0:0:
256,104,194708,2,0,L|348:96,1,67.5999969055177,0|0,0:0|2:0,0:0:0:0:
272,24,194858,5,0,0:0:0:0:
240,188,195008,1,0,0:0:0:0:
400,88,195158,5,2,0:2:0:0:
116,116,195308,1,0,0:0:0:0:
352,336,195458,5,2,0:2:0:0:
192,324,195608,1,0,0:0:0:0:
32,312,195758,1,0,0:0:0:0:
416,48,196358,5,0,0:0:0:0:
400,124,196508,2,0,L|488:120,1,67.5999969055177,4|0,0:0|0:0,0:0:0:0:
392,132,196658,5,0,0:0:0:0:
312,148,196808,1,0,1:0:0:0:
260,80,196958,1,0,0:0:0:0:
208,252,197108,6,0,L|128:256,1,67.5999969055177,0|0,0:0|1:0,0:0:0:0:
256,72,197258,1,0,0:0:0:0:
336,308,197408,6,0,L|416:304,1,67.5999969055177,0|0,0:0|1:0,0:0:0:0:
256,64,197558,1,0,0:0:0:0:
128,364,197708,6,0,L|48:368,1,67.5999969055177,0|0,0:0|1:0,0:0:0:0:
16,312,197858,6,0,P|8:288|12:256,1,46.7999985717774,0|0,0:0|2:0,0:0:0:0:
32,192,198158,6,0,B|76:180|76:180|92:108,1,104,4|0,0:2|2:0,0:0:0:0:
76,28,198308,6,0,L|108:148,1,104,0|0,0:0|2:0,0:0:0:0:
152,252,198458,6,0,L|176:124,1,104,0|0,0:0|2:0,0:0:0:0:
232,68,198608,6,0,B|188:80|188:80|172:152,1,104,4|0,0:2|2:0,0:0:0:0:
232,296,198758,6,0,B|276:284|276:284|292:212,1,104,0|0,0:0|2:0,0:0:0:0:
324,124,198908,6,0,B|374:147|374:147|364:216,1,104,0|0,0:0|2:0,0:0:0:0:
352,280,199058,6,0,B|396:268|396:268|440:312,1,104,4|0,0:2|2:0,0:0:0:0:
452,304,199208,6,0,L|468:184,1,104,0|0,0:0|2:0,0:0:0:0:
504,128,199358,6,0,L|380:112,1,104,0|0,0:0|2:0,0:0:0:0:
360,40,199508,6,0,L|484:24,1,104,4|0,0:2|2:0,0:0:0:0:
232,352,199808,6,0,L|356:368,1,104,4|0,0:2|2:0,0:0:0:0:
8,192,200108,6,0,L|132:192,1,104,4|0,0:2|2:0,0:0:0:0:
12,200,200558,6,0,B|88:200|88:200|132:224|132:224|216:224,1,202.799990716553,6|0,0:2|2:0,0:0:0:0:
264,172,200858,2,0,P|260:148|232:114,1,67.5999969055177,0|0,0:0|2:0,0:0:0:0:
64,272,201008,2,0,P|48:304|48:340,1,67.5999969055177,0|0,0:0|2:0,0:0:0:0:
256,364,201158,1,2,0:2:0:0:
256,364,201308,2,0,P|296:288|420:244,1,202.799990716553,0|0,0:0|2:0,0:0:0:0:
480,215,201608,2,0,P|464:291|464:367,2,135.199993811035,2|2|2,0:3|0:2|0:3,0:0:0:0:
512,138,202058,6,0,L|364:122,1,135.199993811035
96,52,202358,2,0,L|244:36,1,135.199993811035
36,176,202658,5,2,0:0:0:0:
200,256,202808,1,0,0:0:0:0:
200,256,202883,1,0,0:0:0:0:
200,256,202958,2,0,P|200:300|192:332,1,67.5999969055177,0|0,0:0|2:0,0:0:0:0:
24,356,203108,2,0,P|60:296|148:280,1,135.199993811035,2|0,0:2|0:0,0:0:0:0:
264,384,203408,2,0,P|264:340|272:308,1,67.5999969055177,4|0,0:2|2:0,0:0:0:0:
324,256,203558,2,0,P|376:312|452:324,1,135.199993811035,0|6,0:0|0:2,0:0:0:0:
488,256,203858,6,0,L|496:184,1,67.5999969055177
452,120,204008,2,0,P|412:88|388:0,2,135.199993811035,2|0|2,0:2|0:0|0:2,0:0:0:0:
252,136,204458,6,0,L|260:208,1,67.5999969055177
204,268,204608,2,0,P|164:300|140:388,2,135.199993811035
300,360,205058,2,0,L|220:356,1,67.5999969055177,4|0,0:3|0:0,0:0:0:0:
112,200,205208,5,0,0:0:0:0:
0,208,205358,1,0,0:0:0:0:
112,200,205508,1,0,0:0:0:0:
26,340,205658,2,0,L|-2:200,1,135.199993811035,2|2,0:0|0:0,0:0:0:0:
136,96,205958,5,0,0:0:0:0:
112,200,206108,1,2,0:0:0:0:
240,64,206258,5,2,0:0:0:0:
268,212,206408,1,8,0:3:0:0:
392,220,206558,5,0,0:0:0:0:
440,32,206708,1,4,0:2:0:0:
240,64,206858,6,0,P|272:88|288:124,1,67.5999969055177,0|0,0:0|2:0,0:0:0:0:
268,212,207008,2,0,P|297:184|336:176,1,67.5999969055177,4|0,0:2|2:0,0:0:0:0:
392,220,207158,2,0,P|360:244|344:280,1,67.5999969055177,0|0,0:0|2:0,0:0:0:0:
364,368,207308,2,0,P|332:344|292:340,1,67.5999969055177,4|0,0:2|2:0,0:0:0:0:
216,352,207458,6,0,P|124:368|48:204,1,270.399987622071
474,148,207908,2,0,P|423:31|296:32,1,270.399987622071,0|4,0:0|0:2,0:0:0:0:
360,88,208283,2,0,P|352:124|320:156,1,67.5999969055177
20,88,208508,1,4,0:2:0:0:
216,32,208658,6,0,L|184:92,1,67.5999969055177
20,88,208808,2,0,P|88:148|152:136,1,135.199993811035,2|2,0:0|0:0,0:0:0:0:
296,236,209108,1,0,0:0:0:0:
296,236,209183,1,0,0:0:0:0:
296,236,209258,6,0,L|328:296,1,67.5999969055177,2|0,0:0|0:0,0:0:0:0:
492,292,209408,2,0,P|424:352|360:340,1,135.199993811035,2|0,0:0|0:0,0:0:0:0:
228,192,209708,1,2,0:0:0:0:
228,192,209783,1,0,0:0:0:0:
228,192,209858,2,0,B|120:172|152:244|8:216,1,202.799990716553
0,160,210158,2,0,P|24:232|8:296,1,135.199993811035
200,328,210458,2,0,P|200:288|184:256,1,67.5999969055177
124,344,210608,2,0,P|196:344|256:380,1,135.199993811035,2|2,0:2|0:2,0:0:0:0:
460,200,210908,1,2,0:2:0:0:
460,200,210983,1,0,0:0:0:0:
460,200,211058,6,0,P|436:228|336:240,1,135.199993811035,0|8,0:0|0:2,0:0:0:0:
160,76,211358,2,0,P|184:104|284:116,1,135.199993811035,8|2,0:2|0:2,0:0:0:0:
368,16,211658,2,0,P|360:52|340:84,1,67.5999969055177,0|0,0:0|2:0,0:0:0:0:
80,172,211808,2,0,L|164:164,1,67.5999969055177,0|0,0:0|2:0,0:0:0:0:
252,240,211958,2,0,P|244:204|224:172,1,67.5999969055177,0|0,0:0|2:0,0:0:0:0:
143,173,212108,2,0,L|76:180,1,67.5999969055177,0|0,0:0|2:0,0:0:0:0:
12,228,212258,6,0,B|8:284|8:284|68:316|68:316|64:388,2,180.266658414714,0|2|2,0:0|2:0|2:0,0:0:0:0:
500,156,212858,2,0,B|504:100|504:100|444:68|444:68|448:-4,2,180.266658414714,2|2|2,2:0|2:0|2:0,0:0:0:0:
388,276,213458,5,0,0:0:0:0:
376,164,213608,1,0,0:0:0:0:
492,152,213758,1,0,0:0:0:0:
504,264,213908,2,0,B|503:295|503:295|468:328|468:328|465:369,1,104,4|0,0:2|0:0,0:0:0:0:
378,263,214058,5,0,0:0:0:0:
383,270,214133,1,0,0:0:0:0:
388,276,214208,2,0,B|387:307|387:307|352:340|352:340|349:381,1,104,4|0,0:2|0:0,0:0:0:0:
216,320,214358,5,0,0:0:0:0:
184,324,214433,1,0,0:0:0:0:
152,328,214508,1,4,0:2:0:0:
120,332,214583,1,0,0:0:0:0:
84,304,214658,5,4,1:1:0:0:
80,228,214808,1,0,2:0:0:0:
156,220,214958,2,0,L|228:216,1,67.5999969055177,8|0,2:0|2:0,0:0:0:0:
156,292,215108,5,0,1:0:0:0:
80,296,215258,1,0,2:0:0:0:
72,220,215408,2,0,L|68:148,1,67.5999969055177,0|0,2:0|2:0,0:0:0:0:
148,204,215558,5,8,1:2:0:0:
152,280,215708,1,0,2:0:0:0:
76,288,215858,2,0,L|4:292,1,67.5999969055177,0|0,1:0|2:0,0:0:0:0:
64,200,216008,5,0,1:0:0:0:
140,196,216158,1,8,2:0:0:0:
148,272,216308,2,0,L|152:344,1,67.5999969055177,0|0,1:0|2:0,0:0:0:0:
248,244,216458,6,0,P|284:244|328:268,1,67.5999969055177,0|0,1:0|2:0,0:0:0:0:
328,248,216608,2,0,P|352:276|364:320,1,67.5999969055177,2|0,1:2|2:0,0:0:0:0:
512,144,216758,6,0,P|476:144|432:168,1,67.5999969055177,10|0,1:2|2:0,0:0:0:0:
432,148,216908,2,0,P|408:176|396:220,1,67.5999969055177,2|0,1:2|2:0,0:0:0:0:
296,60,217058,5,0,1:0:0:0:
200,56,217208,1,0,2:0:0:0:
196,152,217358,2,0,L|192:228,1,67.5999969055177,8|0,2:0|2:0,0:0:0:0:
204,60,217508,5,0,1:0:0:0:
200,156,217658,1,0,2:0:0:0:
296,160,217808,2,0,L|372:164,1,67.5999969055177,0|0,2:0|2:0,0:0:0:0:
204,164,217958,5,10,1:2:0:0:
300,168,218108,1,2,2:0:0:0:
304,72,218258,2,0,L|308:-4,1,67.5999969055177,2|0,1:2|2:0,0:0:0:0:
304,176,218408,5,0,2:0:0:0:
308,80,218558,1,8,2:0:0:0:
212,76,218708,2,0,L|136:72,1,67.5999969055177,0|0,1:0|2:0,0:0:0:0:
8,144,218858,6,0,L|75:147,1,67.5999969055177,2|0,1:0|2:0,0:0:0:0:
20,212,219008,2,0,L|87:215,1,67.5999969055177,0|0,1:0|2:0,0:0:0:0:
152,288,219158,2,0,L|219:291,1,67.5999969055177,8|0,1:0|2:2,0:0:0:0:
164,356,219308,2,0,L|231:359,1,67.5999969055177,0|0,1:0|2:0,0:0:0:0:
452,168,219458,5,2,1:2:0:0:
440,260,219608,1,0,2:0:0:0:
348,248,219758,2,0,L|276:240,1,67.5999969055177,8|0,2:0|2:0,0:0:0:0:
348,240,219908,5,0,1:0:0:0:
359,154,220058,1,2,2:2:0:0:
444,165,220208,2,0,L|510:172,1,67.5999969055177,0|0,2:0|2:0,0:0:0:0:
444,176,220358,5,8,1:2:0:0:
433,254,220508,1,0,2:0:0:0:
356,244,220658,2,0,L|288:236,1,67.5999969055177,2|0,1:2|2:0,0:0:0:0:
364,236,220808,5,0,1:0:0:0:
373,170,220958,1,8,2:0:0:0:
437,178,221108,2,0,L|503:187,1,67.5999969055177,0|0,1:0|2:0,0:0:0:0:
448,336,221258,6,0,P|424:352|376:360,1,67.5999969055177,0|0,1:0|2:0,0:0:0:0:
284,308,221408,2,0,P|248:296|220:268,1,67.5999969055177,0|0,1:0|2:0,0:0:0:0:
280,316,221558,2,0,P|244:304|216:276,1,67.5999969055177,8|0,1:0|2:0,0:0:0:0:
192,168,221708,2,0,P|164:132|160:108,1,67.5999969055177,0|0,1:0|2:0,0:0:0:0:
292,168,221858,5,2,1:2:0:0:
284,48,222008,1,0,2:0:0:0:
404,40,222158,2,0,L|480:36,1,67.5999969055177,8|0,2:0|2:0,0:0:0:0:
400,180,222308,5,0,1:0:0:0:
280,188,222458,1,0,2:0:0:0:
272,68,222608,2,0,L|268:-8,1,67.5999969055177,0|0,2:0|2:0,0:0:0:0:
392,60,222758,5,8,1:2:0:0:
400,180,222908,1,0,2:0:0:0:
280,188,223058,2,0,L|204:192,1,67.5999969055177,0|0,1:0|2:0,0:0:0:0:
284,48,223208,5,0,2:0:0:0:
404,40,223358,1,8,2:0:0:0:
412,160,223508,2,0,L|416:236,1,67.5999969055177,0|0,1:0|2:0,0:0:0:0:
332,284,223658,6,0,P|312:316|308:360,1,67.5999969055177,0|0,1:0|2:0,0:0:0:0:
240,200,223808,2,0,P|220:232|216:276,1,67.5999969055177,2|0,1:2|2:0,0:0:0:0:
136,308,223958,2,0,P|116:340|112:384,1,67.5999969055177,10|0,1:2|2:0,0:0:0:0:
44,224,224108,2,0,P|24:256|20:300,1,67.5999969055177,2|0,1:2|2:0,0:0:0:0:
8,84,224258,5,4,1:0:0:0:
104,76,224408,1,0,2:0:0:0:
192,128,224558,2,0,L|256:168,1,67.5999969055177,8|0,2:0|2:0,0:0:0:0:
96,96,224708,5,0,1:0:0:0:
192,104,224858,1,0,2:0:0:0:
280,52,225008,2,0,L|344:12,1,67.5999969055177,0|0,2:0|2:0,0:0:0:0:
180,84,225158,5,8,1:2:0:0:
276,76,225308,1,0,2:0:0:0:
364,128,225458,2,0,L|428:168,1,67.5999969055177,0|0,1:0|2:0,0:0:0:0:
268,96,225608,5,0,1:0:0:0:
364,104,225758,1,8,2:0:0:0:
452,52,225908,2,0,L|516:12,1,67.5999969055177,0|0,1:0|2:0,0:0:0:0:
480,308,226058,6,0,P|448:328|396:324,1,67.5999969055177,2|0,1:2|2:0,0:0:0:0:
344,236,226208,2,0,P|316:224|276:224,1,67.5999969055177,2|0,1:2|2:0,0:0:0:0:
200,328,226358,2,0,P|168:348|116:344,1,67.5999969055177,10|0,1:2|2:0,0:0:0:0:
64,256,226508,2,0,P|36:244|-4:244,1,67.5999969055177,2|0,1:2|2:0,0:0:0:0:
0,120,226658,5,0,1:0:0:0:
8,24,226808,1,0,2:0:0:0:
104,28,226958,2,0,L|176:24,1,67.5999969055177,8|0,2:0|2:0,0:0:0:0:
112,44,227108,5,0,1:0:0:0:
120,144,227258,1,0,2:0:0:0:
221,140,227408,2,0,L|296:144,1,67.5999969055177,0|0,2:0|2:0,0:0:0:0:
228,124,227558,5,8,1:2:0:0:
236,24,227708,1,0,2:0:0:0:
337,28,227858,2,0,L|412:23,1,67.5999969055177,0|0,1:0|2:0,0:0:0:0:
336,40,228008,5,0,2:0:0:0:
344,140,228158,1,8,2:0:0:0:
445,136,228308,2,0,L|520:140,1,67.5999969055177,0|0,1:0|2:0,0:0:0:0:
464,236,228458,6,0,L|384:232,1,67.5999969055177,2|0,1:2|2:0,0:0:0:0:
304,228,228608,2,0,L|224:224,1,67.5999969055177,2|0,1:2|2:0,0:0:0:0:
228,336,228758,2,0,L|148:340,1,67.5999969055177,10|0,1:2|2:0,0:0:0:0:
68,344,228908,2,0,L|-12:348,1,67.5999969055177,2|0,1:2|2:0,0:0:0:0:
88,88,229058,5,0,1:0:0:0:
0,60,229208,1,0,2:0:0:0:
84,12,229358,2,0,P|116:4|160:12,1,67.5999969055177,2|0,2:2|2:0,0:0:0:0:
416,56,229508,5,0,1:0:0:0:
504,84,229658,1,0,2:0:0:0:
420,132,229808,2,0,P|388:140|344:132,1,67.5999969055177,2|0,2:2|2:0,0:0:0:0:
288,88,229958,5,0,1:0:0:0:
260,0,230108,1,4,2:2:0:0:
212,84,230258,2,0,P|204:116|208:152,1,52,2|0,2:2|2:0,0:0:0:0:
224,280,230408,5,0,1:0:0:0:
252,384,230558,2,0,P|264:360|268:332,3,52,0|0|0|0,1:0|1:0|1:0|1:0,0:0:0:0:
336,308,230858,6,0,L|400:312,1,52,8|0,1:2|1:0,0:0:0:0:
152,312,231008,2,0,L|88:308,1,52,8|0,2:0|1:0,0:0:0:0:
36,244,231158,5,0,1:0:0:0:
32,232,231233,1,0,1:0:0:0:
28,220,231308,1,8,2:0:0:0:
16,352,231458,5,4,2:1:0:0:
256,192,231533,12,0,234458,2:0:0:0:
