osu file format v14

[General]
AudioFilename: Ether.mp3
AudioLeadIn: 0
PreviewTime:50750
Countdown: 0
SampleSet: Soft
StackLeniency: 0.7
Mode: 0
LetterboxInBreaks: 0
EpilepsyWarning: 1
WidescreenStoryboard: 1

[Editor]
DistanceSpacing: 1.1
BeatDivisor: 3
GridSize: 4
TimelineZoom: 2

[Metadata]
Title:Ether
TitleUnicode:エーテル
Artist:Feryquitous feat. Aitsuki Nakuru
ArtistUnicode:Feryquitous feat. 藍月なくる
Creator:Acyl
Version:coco's Expert
Source:
Tags:『JelLaboratory』 c95 female vocal japanese doujin pop artcore -tochi j1_ how2miss otosaka-yu necho reincarnation suzuki_1112 moecho neilperry sing toybot kalibe lit120 lami lmt firika fanzhen0019 skystar yusomi amamiya yuko _epreus bbj0920 len fast kawashiro heilia cococolaco 藍月なくる aitsuki nakuru _todestrieb coco
BeatmapID:2034145
BeatmapSetID:902425

[Difficulty]
HPDrainRate:6
CircleSize:4
OverallDifficulty:8
ApproachRate:9.2
SliderMultiplier:1.9
SliderTickRate:2

[Events]
//Background and Video events
0,0,"background.jpg",0,0
//Break Periods
2,118367,119438
2,176458,179438
//Storyboard Layer 0 (Background)
Sprite,Background,Centre,"background.jpg",320,240 F,0,0,,0
Sprite,Background,Centre,"sb\blank.jpg",0,0 F,0,-4025,-3682,0,1 F,0,-3682,-253,1 F,0,-253,3,1,0 M,0,3,,320,240 S,0,3,,0.6493149
Sprite,Background,Centre,"sb\tochi.png",320,240 S,0,-3532,,0.6 F,0,-3532,-3187,0,1 F,0,-3187,-596,1,0.9893727 F,0,-596,-253,0.9893727,0
Sprite,Background,Centre,"sb\bgblurbw.jpg",0,0 F,2,1058,10658,0,0.6487671 M,0,1058,50258,320,-18.8055,320,240 S,0,1058,50258,0.9298632,0.5160549 F,0,10658,49058,0.6487671 F,0,49058,50258,0.6487671,0
Sprite,Background,Centre,"sb\bgblur.jpg",320,240 S,0,51458,,0.5160547 F,0,51458,70658,1 F,0,70658,70958,1,0
Sprite,Background,Centre,"sb\blank.jpg",320,240 S,0,49058,,0.537096 F,0,49058,50258,0,1 F,0,50258,51458,1 F,0,51458,51758,1,0
Sprite,Background,Centre,"sb\blank.jpg",320,240 S,0,70658,,0.5230685 F,0,70658,70958,0,1 F,0,70958,80258,1,0.9966667 F,0,80258,80408,0.9966667,0
Sprite,Background,Centre,"sb\bgblurbw.jpg",320,240 S,0,80258,,0.5300821 F,0,80258,80408,0,1 F,0,80408,118658,1,0.9866667 F,0,118658,119258,0.9866667,0.2384657 F,0,119258,121058,0.2384657,0.2459477 F,0,121058,121358,0.2459477,0
Sprite,Background,Centre,"sb\bgblur.jpg",320,240 F,0,121058,137858,1 S,0,121058,137858,0.5160547,0.5230685 F,0,137858,138158,1,0
Sprite,Background,Centre,"background.jpg",320,240 S,0,137858,,0.5230684 F,0,137858,138158,0,1 F,0,138158,156758,1,0.9866667 F,0,156758,157358,0.9866667,0
Sprite,Background,Centre,"sb\bgblur.jpg",320,240 S,0,181058,,0.5160547 F,0,181058,214658,1 F,0,214658,214958,1,0
Sprite,Background,Centre,"sb\bgblurbw.jpg",0,0 S,0,156758,,0.6493151 P,0,156758,,V F,0,156758,157358,0,1 M,0,156758,179858,200.0658,240,384.526,240 F,0,157358,175058,1 F,0,175058,176258,1,0.2565479 F,0,176258,181058,0.2565479
Sprite,Background,Centre,"background.jpg",320,240 S,0,214658,,0.5160549 F,0,214658,214958,0,1 F,0,214958,231458,1 F,0,231458,232658,1,0
Sprite,Background,Centre,"sb\bgblurbw.jpg",0,0 P,0,231458,,H F,0,231458,232658,0,1 M,2,231458,255458,457.4685,148.8219,-109.9397,549.3041 S,0,231458,255458,0.6984109,1.140274 R,0,231458,255458,-0.01402771,-0.2665204 F,0,232658,249308,1 F,0,249308,255458,1,0
Sprite,Background,Centre,"sb\blank.jpg",0,0 F,0,51308,51458,0,0.5 M,0,51458,,320,240 F,0,51458,51758,0.5,0.1 V,1,51458,51758,0.42,0.51,0.4,0.05 R,0,51458,70658,0.08416412,-0.1402744 P,0,51758,,A F,0,51758,70658,0.1 F,0,70658,70958,0.1,0
Sprite,Background,Centre,"sb\blank.jpg",0,0 F,0,120608,120758,0,0.5 M,0,120758,,320,240 F,0,120758,121058,0.5,0.1 V,1,120758,121058,0.42,0.51,0.4,0.05 R,0,120758,157058,-0.1402744,0.08416412 P,0,121058,,A F,0,121058,157058,0.1 F,0,157058,157358,0.1,0
Sprite,Background,Centre,"sb\blank.jpg",0,0 F,0,180458,180608,0,0.5 M,0,180608,,320,240 F,0,180608,180908,0.5,0.1 V,1,180608,180908,0.42,0.51,0.4,0.05 R,0,180608,231458,0.08416412,-0.1402744 P,0,180908,,A F,0,180908,231458,0.1 F,0,231458,231758,0.1,0
Sprite,Background,Centre,"sb/ring.png",0,0 M,0,51458,,466,232 S,1,51458,53458,0.25,0.5 F,1,51458,53458,0.9,0 C,0,51458,,255,255,255
Sprite,Background,Centre,"sb/ring.png",0,0 M,0,51608,,320,136 S,1,51608,53608,0.25,0.5 F,1,51608,53608,0.9,0 C,0,51608,,255,255,255
Sprite,Background,Centre,"sb/ring.png",0,0 M,0,51683,,320,136 S,1,51683,53683,0.25,0.5 F,1,51683,53683,0.9,0 C,0,51683,,255,255,255
Sprite,Background,Centre,"sb/ring.png",0,0 M,0,51758,,320,136 S,1,51758,53758,0.25,0.5 F,1,51758,53758,0.9,0 C,0,51758,,255,255,255
Sprite,Background,Centre,"sb/ring.png",0,0 M,0,51908,,233,186 S,1,51908,54208,0.25,0.5 F,1,51908,54208,0.9,0 C,0,51908,,255,255,255
Sprite,Background,Centre,"sb/ring.png",0,0 M,0,52358,,407,172 S,1,52358,54358,0.25,0.5 F,1,52358,54358,0.9,0 C,0,52358,,255,255,255
Sprite,Background,Centre,"sb/ring.png",0,0 M,0,52508,,223,280 S,1,52508,54508,0.25,0.5 F,1,52508,54508,0.9,0 C,0,52508,,255,255,255
Sprite,Background,Centre,"sb/ring.png",0,0 M,0,52658,,442,440 S,1,52658,54808,0.25,0.5 F,1,52658,54808,0.9,0 C,0,52658,,255,255,255
Sprite,Background,Centre,"sb/ring.png",0,0 M,0,52958,,323,221 S,1,52958,55108,0.25,0.5 F,1,52958,55108,0.9,0 C,0,52958,,255,255,255
Sprite,Background,Centre,"sb/ring.png",0,0 M,0,53183,,363,397 S,1,53183,55183,0.25,0.5 F,1,53183,55183,0.9,0 C,0,53183,,255,255,255
Sprite,Background,Centre,"sb/ring.png",0,0 M,0,53258,,363,397 S,1,53258,55333,0.25,0.5 F,1,53258,55333,0.9,0 C,0,53258,,255,255,255
Sprite,Background,Centre,"sb/ring.png",0,0 M,0,53408,,152,286 S,1,53408,55483,0.25,0.5 F,1,53408,55483,0.9,0 C,0,53408,,255,255,255
Sprite,Background,Centre,"sb/ring.png",0,0 M,0,53558,,407,172 S,1,53558,55633,0.25,0.5 F,1,53558,55633,0.9,0 C,0,53558,,255,255,255
Sprite,Background,Centre,"sb/ring.png",0,0 M,0,53708,,314,63 S,1,53708,55708,0.25,0.5 F,1,53708,55708,0.9,0 C,0,53708,,255,255,255
Sprite,Background,Centre,"sb/ring.png",0,0 M,0,53858,,397,191 S,1,53858,56008,0.25,0.5 F,1,53858,56008,0.9,0 C,0,53858,,255,255,255
Sprite,Background,Centre,"sb/ring.png",0,0 M,0,54083,,499,198 S,1,54083,56083,0.25,0.5 F,1,54083,56083,0.9,0 C,0,54083,,255,255,255
Sprite,Background,Centre,"sb/ring.png",0,0 M,0,54158,,508,204 S,1,54158,56158,0.25,0.5 F,1,54158,56158,0.9,0 C,0,54158,,255,255,255
Sprite,Background,Centre,"sb/ring.png",0,0 M,0,54308,,576,153 S,1,54308,56308,0.25,0.5 F,1,54308,56308,0.9,0 C,0,54308,,255,255,255
Sprite,Background,Centre,"sb/ring.png",0,0 M,0,54458,,429,274 S,1,54458,56458,0.25,0.5 F,1,54458,56458,0.9,0 C,0,54458,,255,255,255
Sprite,Background,Centre,"sb/ring.png",0,0 M,0,54608,,553,341 S,1,54608,56608,0.25,0.5 F,1,54608,56608,0.9,0 C,0,54608,,255,255,255
Sprite,Background,Centre,"sb/ring.png",0,0 M,0,54758,,380,425 S,1,54758,56758,0.25,0.5 F,1,54758,56758,0.9,0 C,0,54758,,255,255,255
Sprite,Background,Centre,"sb/ring.png",0,0 M,0,54908,,553,341 S,1,54908,56983,0.25,0.5 F,1,54908,56983,0.9,0 C,0,54908,,255,255,255
Sprite,Background,Centre,"sb/ring.png",0,0 M,0,55058,,348,310 S,1,55058,57208,0.25,0.5 F,1,55058,57208,0.9,0 C,0,55058,,255,255,255
Sprite,Background,Centre,"sb/ring.png",0,0 M,0,55358,,565,103 S,1,55358,57508,0.25,0.5 F,1,55358,57508,0.9,0 C,0,55358,,255,255,255
Sprite,Background,Centre,"sb/ring.png",0,0 M,0,55583,,501,254 S,1,55583,57583,0.25,0.5 F,1,55583,57583,0.9,0 C,0,55583,,255,255,255
Sprite,Background,Centre,"sb/ring.png",0,0 M,0,55658,,501,254 S,1,55658,57733,0.25,0.5 F,1,55658,57733,0.9,0 C,0,55658,,255,255,255
Sprite,Background,Centre,"sb/ring.png",0,0 M,0,55808,,457,153 S,1,55808,57883,0.25,0.5 F,1,55808,57883,0.9,0 C,0,55808,,255,255,255
Sprite,Background,Centre,"sb/ring.png",0,0 M,0,55958,,368,321 S,1,55958,57958,0.25,0.5 F,1,55958,57958,0.9,0 C,0,55958,,255,255,255
Sprite,Background,Centre,"sb/ring.png",0,0 M,0,56108,,521,245 S,1,56108,58108,0.25,0.5 F,1,56108,58108,0.9,0 C,0,56108,,255,255,255
Sprite,Background,Centre,"sb/ring.png",0,0 M,0,56258,,303,146 S,1,56258,58483,0.25,0.5 F,1,56258,58483,0.9,0 C,0,56258,,255,255,255
Sprite,Background,Centre,"sb/ring.png",0,0 M,0,56558,,441,141 S,1,56558,58558,0.25,0.5 F,1,56558,58558,0.9,0 C,0,56558,,255,255,255
Sprite,Background,Centre,"sb/ring.png",0,0 M,0,56708,,285,289 S,1,56708,58858,0.25,0.5 F,1,56708,58858,0.9,0 C,0,56708,,255,255,255
Sprite,Background,Centre,"sb/ring.png",0,0 M,0,57008,,355,231 S,1,57008,59008,0.25,0.5 F,1,57008,59008,0.9,0 C,0,57008,,255,255,255
Sprite,Background,Centre,"sb/ring.png",0,0 M,0,57158,,231,99 S,1,57158,59158,0.25,0.5 F,1,57158,59158,0.9,0 C,0,57158,,255,255,255
Sprite,Background,Centre,"sb/ring.png",0,0 M,0,57308,,303,56 S,1,57308,59308,0.25,0.5 F,1,57308,59308,0.9,0 C,0,57308,,255,255,255
Sprite,Background,Centre,"sb/ring.png",0,0 M,0,57458,,227,198 S,1,57458,59608,0.25,0.5 F,1,57458,59608,0.9,0 C,0,57458,,255,255,255
Sprite,Background,Centre,"sb/ring.png",0,0 M,0,57758,,183,388 S,1,57758,59758,0.25,0.5 F,1,57758,59758,0.9,0 C,0,57758,,255,255,255
Sprite,Background,Centre,"sb/ring.png",0,0 M,0,57908,,369,336 S,1,57908,60133,0.25,0.5 F,1,57908,60133,0.9,0 C,0,57908,,255,255,255
Sprite,Background,Centre,"sb/ring.png",0,0 M,0,58208,,575,429 S,1,58208,60358,0.25,0.5 F,1,58208,60358,0.9,0 C,0,58208,,255,255,255
Sprite,Background,Centre,"sb/ring.png",0,0 M,0,58508,,372,215 S,1,58508,60508,0.25,0.5 F,1,58508,60508,0.9,0 C,0,58508,,255,255,255
Sprite,Background,Centre,"sb/ring.png",0,0 M,0,58658,,576,242 S,1,58658,60808,0.25,0.5 F,1,58658,60808,0.9,0 C,0,58658,,255,255,255
Sprite,Background,Centre,"sb/ring.png",0,0 M,0,58883,,476,256 S,1,58883,60883,0.25,0.5 F,1,58883,60883,0.9,0 C,0,58883,,255,255,255
Sprite,Background,Centre,"sb/ring.png",0,0 M,0,58958,,469,252 S,1,58958,60958,0.25,0.5 F,1,58958,60958,0.9,0 C,0,58958,,255,255,255
Sprite,Background,Centre,"sb/ring.png",0,0 M,0,59108,,448,73 S,1,59108,61108,0.25,0.5 F,1,59108,61108,0.9,0 C,0,59108,,255,255,255
Sprite,Background,Centre,"sb/ring.png",0,0 M,0,59258,,501,167 S,1,59258,61258,0.25,0.5 F,1,59258,61258,0.9,0 C,0,59258,,255,255,255
Sprite,Background,Centre,"sb/ring.png",0,0 M,0,59408,,386,121 S,1,59408,61408,0.25,0.5 F,1,59408,61408,0.9,0 C,0,59408,,255,255,255
Sprite,Background,Centre,"sb/ring.png",0,0 M,0,59558,,567,115 S,1,59558,61558,0.25,0.5 F,1,59558,61558,0.9,0 C,0,59558,,255,255,255
Sprite,Background,Centre,"sb/ring.png",0,0 M,0,59708,,386,121 S,1,59708,61858,0.25,0.5 F,1,59708,61858,0.9,0 C,0,59708,,255,255,255
Sprite,Background,Centre,"sb/ring.png",0,0 M,0,60008,,197,232 S,1,60008,62008,0.25,0.5 F,1,60008,62008,0.9,0 C,0,60008,,255,255,255
Sprite,Background,Centre,"sb/ring.png",0,0 M,0,60158,,282,255 S,1,60158,62233,0.25,0.5 F,1,60158,62233,0.9,0 C,0,60158,,255,255,255
Sprite,Background,Centre,"sb/ring.png",0,0 M,0,60308,,113,203 S,1,60308,62383,0.25,0.5 F,1,60308,62383,0.9,0 C,0,60308,,255,255,255
Sprite,Background,Centre,"sb/ring.png",0,0 M,0,60458,,199,414 S,1,60458,62608,0.25,0.5 F,1,60458,62608,0.9,0 C,0,60458,,255,255,255
Sprite,Background,Centre,"sb/ring.png",0,0 M,0,60683,,197,232 S,1,60683,62683,0.25,0.5 F,1,60683,62683,0.9,0 C,0,60683,,255,255,255
Sprite,Background,Centre,"sb/ring.png",0,0 M,0,60758,,197,232 S,1,60758,62758,0.25,0.5 F,1,60758,62758,0.9,0 C,0,60758,,255,255,255
Sprite,Background,Centre,"sb/ring.png",0,0 M,0,60908,,78,347 S,1,60908,62908,0.25,0.5 F,1,60908,62908,0.9,0 C,0,60908,,255,255,255
Sprite,Background,Centre,"sb/ring.png",0,0 M,0,61058,,197,232 S,1,61058,63058,0.25,0.5 F,1,61058,63058,0.9,0 C,0,61058,,255,255,255
Sprite,Background,Centre,"sb/ring.png",0,0 M,0,61208,,289,263 S,1,61208,63208,0.25,0.5 F,1,61208,63208,0.9,0 C,0,61208,,255,255,255
Sprite,Background,Centre,"sb/ring.png",0,0 M,0,61283,,289,263 S,1,61283,63283,0.25,0.5 F,1,61283,63283,0.9,0 C,0,61283,,255,255,255
Sprite,Background,Centre,"sb/ring.png",0,0 M,0,61358,,289,263 S,1,61358,63358,0.25,0.5 F,1,61358,63358,0.9,0 C,0,61358,,255,255,255
Sprite,Background,Centre,"sb/ring.png",0,0 M,0,61508,,432,188 S,1,61508,63508,0.25,0.5 F,1,61508,63508,0.9,0 C,0,61508,,255,255,255
Sprite,Background,Centre,"sb/ring.png",0,0 M,0,61658,,499,241 S,1,61658,63808,0.25,0.5 F,1,61658,63808,0.9,0 C,0,61658,,255,255,255
Sprite,Background,Centre,"sb/ring.png",0,0 M,0,61958,,309,280 S,1,61958,63958,0.25,0.5 F,1,61958,63958,0.9,0 C,0,61958,,255,255,255
Sprite,Background,Centre,"sb/ring.png",0,0 M,0,62108,,347,197 S,1,62108,64258,0.25,0.5 F,1,62108,64258,0.9,0 C,0,62108,,255,255,255
Sprite,Background,Centre,"sb/ring.png",0,0 M,0,62408,,418,358 S,1,62408,64408,0.25,0.5 F,1,62408,64408,0.9,0 C,0,62408,,255,255,255
Sprite,Background,Centre,"sb/ring.png",0,0 M,0,62558,,486,256 S,1,62558,64708,0.25,0.5 F,1,62558,64708,0.9,0 C,0,62558,,255,255,255
Sprite,Background,Centre,"sb/ring.png",0,0 M,0,62783,,303,349 S,1,62783,64783,0.25,0.5 F,1,62783,64783,0.9,0 C,0,62783,,255,255,255
Sprite,Background,Centre,"sb/ring.png",0,0 M,0,62858,,303,349 S,1,62858,64933,0.25,0.5 F,1,62858,64933,0.9,0 C,0,62858,,255,255,255
Sprite,Background,Centre,"sb/ring.png",0,0 M,0,63008,,131,216 S,1,63008,65083,0.25,0.5 F,1,63008,65083,0.9,0 C,0,63008,,255,255,255
Sprite,Background,Centre,"sb/ring.png",0,0 M,0,63158,,339,106 S,1,63158,65233,0.25,0.5 F,1,63158,65233,0.9,0 C,0,63158,,255,255,255
Sprite,Background,Centre,"sb/ring.png",0,0 M,0,63308,,140,225 S,1,63308,65383,0.25,0.5 F,1,63308,65383,0.9,0 C,0,63308,,255,255,255
Sprite,Background,Centre,"sb/ring.png",0,0 M,0,63458,,347,197 S,1,63458,65683,0.25,0.5 F,1,63458,65683,0.9,0 C,0,63458,,255,255,255
Sprite,Background,Centre,"sb/ring.png",0,0 M,0,63758,,226,249 S,1,63758,65758,0.25,0.5 F,1,63758,65758,0.9,0 C,0,63758,,255,255,255
Sprite,Background,Centre,"sb/ring.png",0,0 M,0,63908,,210,406 S,1,63908,66058,0.25,0.5 F,1,63908,66058,0.9,0 C,0,63908,,255,255,255
Sprite,Background,Centre,"sb/ring.png",0,0 M,0,64133,,108,312 S,1,64133,66133,0.25,0.5 F,1,64133,66133,0.9,0 C,0,64133,,255,255,255
Sprite,Background,Centre,"sb/ring.png",0,0 M,0,64208,,108,312 S,1,64208,66283,0.25,0.5 F,1,64208,66283,0.9,0 C,0,64208,,255,255,255
Sprite,Background,Centre,"sb/ring.png",0,0 M,0,64358,,318,221 S,1,64358,66433,0.25,0.5 F,1,64358,66433,0.9,0 C,0,64358,,255,255,255
Sprite,Background,Centre,"sb/ring.png",0,0 M,0,64508,,461,278 S,1,64508,66508,0.25,0.5 F,1,64508,66508,0.9,0 C,0,64508,,255,255,255
Sprite,Background,Centre,"sb/ring.png",0,0 M,0,64658,,306,238 S,1,64658,66808,0.25,0.5 F,1,64658,66808,0.9,0 C,0,64658,,255,255,255
Sprite,Background,Centre,"sb/ring.png",0,0 M,0,64958,,529,81 S,1,64958,66958,0.25,0.5 F,1,64958,66958,0.9,0 C,0,64958,,255,255,255
Sprite,Background,Centre,"sb/ring.png",0,0 M,0,65108,,465,132 S,1,65108,67333,0.25,0.5 F,1,65108,67333,0.9,0 C,0,65108,,255,255,255
Sprite,Background,Centre,"sb/ring.png",0,0 M,0,65408,,558,297 S,1,65408,67483,0.25,0.5 F,1,65408,67483,0.9,0 C,0,65408,,255,255,255
Sprite,Background,Centre,"sb/ring.png",0,0 M,0,65558,,381,278 S,1,65558,67633,0.25,0.5 F,1,65558,67633,0.9,0 C,0,65558,,255,255,255
Sprite,Background,Centre,"sb/ring.png",0,0 M,0,65708,,534,410 S,1,65708,67708,0.25,0.5 F,1,65708,67708,0.9,0 C,0,65708,,255,255,255
Sprite,Background,Centre,"sb/ring.png",0,0 M,0,65783,,534,410 S,1,65783,67783,0.25,0.5 F,1,65783,67783,0.9,0 C,0,65783,,255,255,255
Sprite,Background,Centre,"sb/ring.png",0,0 M,0,65858,,534,410 S,1,65858,67958,0.25,0.5 F,1,65858,67958,0.9,0 C,0,65858,,255,255,255
Sprite,Background,Centre,"sb/ring.png",0,0 M,0,66058,,291,344 S,1,66058,68158,0.25,0.5 F,1,66058,68158,0.9,0 C,0,66058,,255,255,255
Sprite,Background,Centre,"sb/ring.png",0,0 M,0,66258,,534,410 S,1,66258,68358,0.25,0.5 F,1,66258,68358,0.9,0 C,0,66258,,255,255,255
Sprite,Background,Centre,"sb/ring.png",0,0 M,0,66458,,470,264 S,1,66458,68558,0.25,0.5 F,1,66458,68558,0.9,0 C,0,66458,,255,255,255
Sprite,Background,Centre,"sb/ring.png",0,0 M,0,66658,,371,71 S,1,66658,68758,0.25,0.5 F,1,66658,68758,0.9,0 C,0,66658,,255,255,255
Sprite,Background,Centre,"sb/ring.png",0,0 M,0,66858,,562,231 S,1,66858,68958,0.25,0.5 F,1,66858,68958,0.9,0 C,0,66858,,255,255,255
Sprite,Background,Centre,"sb/ring.png",0,0 M,0,67058,,371,177 S,1,67058,69358,0.25,0.5 F,1,67058,69358,0.9,0 C,0,67058,,255,255,255
Sprite,Background,Centre,"sb/ring.png",0,0 M,0,67508,,469,85 S,1,67508,69508,0.25,0.5 F,1,67508,69508,0.9,0 C,0,67508,,255,255,255
Sprite,Background,Centre,"sb/ring.png",0,0 M,0,67658,,400,261 S,1,67658,69658,0.25,0.5 F,1,67658,69658,0.9,0 C,0,67658,,255,255,255
Sprite,Background,Centre,"sb/ring.png",0,0 M,0,67808,,264,129 S,1,67808,69958,0.25,0.5 F,1,67808,69958,0.9,0 C,0,67808,,255,255,255
Sprite,Background,Centre,"sb/ring.png",0,0 M,0,68108,,465,169 S,1,68108,70108,0.25,0.5 F,1,68108,70108,0.9,0 C,0,68108,,255,255,255
Sprite,Background,Centre,"sb/ring.png",0,0 M,0,68183,,320,248 S,1,68183,72508,0.25,0.5 F,1,68183,72508,0.9,0 C,0,68183,,255,255,255
Sprite,Background,Centre,"sb/ring.png",0,0 M,0,121058,,343,161 S,1,121058,123058,0.25,0.5 F,1,121058,123058,0.9,0 C,0,121058,,255,255,255
Sprite,Background,Centre,"sb/ring.png",0,0 M,0,121208,,258,303 S,1,121208,123208,0.25,0.5 F,1,121208,123208,0.9,0 C,0,121208,,255,255,255
Sprite,Background,Centre,"sb/ring.png",0,0 M,0,121358,,170,245 S,1,121358,123358,0.25,0.5 F,1,121358,123358,0.9,0 C,0,121358,,255,255,255
Sprite,Background,Centre,"sb/ring.png",0,0 M,0,121508,,270,290 S,1,121508,123733,0.25,0.5 F,1,121508,123733,0.9,0 C,0,121508,,255,255,255
Sprite,Background,Centre,"sb/ring.png",0,0 M,0,121808,,426,297 S,1,121808,123808,0.25,0.5 F,1,121808,123808,0.9,0 C,0,121808,,255,255,255
Sprite,Background,Centre,"sb/ring.png",0,0 M,0,121958,,275,203 S,1,121958,123958,0.25,0.5 F,1,121958,123958,0.9,0 C,0,121958,,255,255,255
Sprite,Background,Centre,"sb/ring.png",0,0 M,0,122108,,455,150 S,1,122108,124258,0.25,0.5 F,1,122108,124258,0.9,0 C,0,122108,,255,255,255
Sprite,Background,Centre,"sb/ring.png",0,0 M,0,122408,,288,213 S,1,122408,124408,0.25,0.5 F,1,122408,124408,0.9,0 C,0,122408,,255,255,255
Sprite,Background,Centre,"sb/ring.png",0,0 M,0,122558,,394,276 S,1,122558,124708,0.25,0.5 F,1,122558,124708,0.9,0 C,0,122558,,255,255,255
Sprite,Background,Centre,"sb/ring.png",0,0 M,0,122783,,481,435 S,1,122783,124783,0.25,0.5 F,1,122783,124783,0.9,0 C,0,122783,,255,255,255
Sprite,Background,Centre,"sb/ring.png",0,0 M,0,122858,,481,435 S,1,122858,124933,0.25,0.5 F,1,122858,124933,0.9,0 C,0,122858,,255,255,255
Sprite,Background,Centre,"sb/ring.png",0,0 M,0,123008,,309,344 S,1,123008,125083,0.25,0.5 F,1,123008,125083,0.9,0 C,0,123008,,255,255,255
Sprite,Background,Centre,"sb/ring.png",0,0 M,0,123158,,496,291 S,1,123158,125233,0.25,0.5 F,1,123158,125233,0.9,0 C,0,123158,,255,255,255
Sprite,Background,Centre,"sb/ring.png",0,0 M,0,123308,,329,203 S,1,123308,125383,0.25,0.5 F,1,123308,125383,0.9,0 C,0,123308,,255,255,255
Sprite,Background,Centre,"sb/ring.png",0,0 M,0,123458,,466,137 S,1,123458,125683,0.25,0.5 F,1,123458,125683,0.9,0 C,0,123458,,255,255,255
Sprite,Background,Centre,"sb/ring.png",0,0 M,0,123758,,329,203 S,1,123758,125758,0.25,0.5 F,1,123758,125758,0.9,0 C,0,123758,,255,255,255
Sprite,Background,Centre,"sb/ring.png",0,0 M,0,123908,,182,174 S,1,123908,125908,0.25,0.5 F,1,123908,125908,0.9,0 C,0,123908,,255,255,255
Sprite,Background,Centre,"sb/ring.png",0,0 M,0,124058,,329,203 S,1,124058,126208,0.25,0.5 F,1,124058,126208,0.9,0 C,0,124058,,255,255,255
Sprite,Background,Centre,"sb/ring.png",0,0 M,0,124358,,176,355 S,1,124358,126358,0.25,0.5 F,1,124358,126358,0.9,0 C,0,124358,,255,255,255
Sprite,Background,Centre,"sb/ring.png",0,0 M,0,124508,,113,292 S,1,124508,126733,0.25,0.5 F,1,124508,126733,0.9,0 C,0,124508,,255,255,255
Sprite,Background,Centre,"sb/ring.png",0,0 M,0,124808,,90,151 S,1,124808,126808,0.25,0.5 F,1,124808,126808,0.9,0 C,0,124808,,255,255,255
Sprite,Background,Centre,"sb/ring.png",0,0 M,0,124958,,202,267 S,1,124958,127108,0.25,0.5 F,1,124958,127108,0.9,0 C,0,124958,,255,255,255
Sprite,Background,Centre,"sb/ring.png",0,0 M,0,125258,,453,363 S,1,125258,127408,0.25,0.5 F,1,125258,127408,0.9,0 C,0,125258,,255,255,255
Sprite,Background,Centre,"sb/ring.png",0,0 M,0,125483,,278,419 S,1,125483,127483,0.25,0.5 F,1,125483,127483,0.9,0 C,0,125483,,255,255,255
Sprite,Background,Centre,"sb/ring.png",0,0 M,0,125558,,278,419 S,1,125558,127633,0.25,0.5 F,1,125558,127633,0.9,0 C,0,125558,,255,255,255
Sprite,Background,Centre,"sb/ring.png",0,0 M,0,125708,,410,286 S,1,125708,127783,0.25,0.5 F,1,125708,127783,0.9,0 C,0,125708,,255,255,255
Sprite,Background,Centre,"sb/ring.png",0,0 M,0,125858,,207,164 S,1,125858,128158,0.25,0.5 F,1,125858,128158,0.9,0 C,0,125858,,255,255,255
Sprite,Background,Centre,"sb/ring.png",0,0 M,0,126308,,376,72 S,1,126308,128458,0.25,0.5 F,1,126308,128458,0.9,0 C,0,126308,,255,255,255
Sprite,Background,Centre,"sb/ring.png",0,0 M,0,126608,,333,231 S,1,126608,128608,0.25,0.5 F,1,126608,128608,0.9,0 C,0,126608,,255,255,255
Sprite,Background,Centre,"sb/ring.png",0,0 M,0,126758,,410,286 S,1,126758,128758,0.25,0.5 F,1,126758,128758,0.9,0 C,0,126758,,255,255,255
Sprite,Background,Centre,"sb/ring.png",0,0 M,0,126908,,489,166 S,1,126908,128908,0.25,0.5 F,1,126908,128908,0.9,0 C,0,126908,,255,255,255
Sprite,Background,Centre,"sb/ring.png",0,0 M,0,127058,,256,183 S,1,127058,129208,0.25,0.5 F,1,127058,129208,0.9,0 C,0,127058,,255,255,255
Sprite,Background,Centre,"sb/ring.png",0,0 M,0,127358,,452,398 S,1,127358,129358,0.25,0.5 F,1,127358,129358,0.9,0 C,0,127358,,255,255,255
Sprite,Background,Centre,"sb/ring.png",0,0 M,0,127508,,503,307 S,1,127508,129733,0.25,0.5 F,1,127508,129733,0.9,0 C,0,127508,,255,255,255
Sprite,Background,Centre,"sb/ring.png",0,0 M,0,127808,,570,148 S,1,127808,129958,0.25,0.5 F,1,127808,129958,0.9,0 C,0,127808,,255,255,255
Sprite,Background,Centre,"sb/ring.png",0,0 M,0,128108,,410,286 S,1,128108,130108,0.25,0.5 F,1,128108,130108,0.9,0 C,0,128108,,255,255,255
Sprite,Background,Centre,"sb/ring.png",0,0 M,0,128258,,350,191 S,1,128258,130408,0.25,0.5 F,1,128258,130408,0.9,0 C,0,128258,,255,255,255
Sprite,Background,Centre,"sb/ring.png",0,0 M,0,128483,,255,182 S,1,128483,130483,0.25,0.5 F,1,128483,130483,0.9,0 C,0,128483,,255,255,255
Sprite,Background,Centre,"sb/ring.png",0,0 M,0,128558,,255,182 S,1,128558,130558,0.25,0.5 F,1,128558,130558,0.9,0 C,0,128558,,255,255,255
Sprite,Background,Centre,"sb/ring.png",0,0 M,0,128708,,410,121 S,1,128708,130708,0.25,0.5 F,1,128708,130708,0.9,0 C,0,128708,,255,255,255
Sprite,Background,Centre,"sb/ring.png",0,0 M,0,128858,,304,277 S,1,128858,130858,0.25,0.5 F,1,128858,130858,0.9,0 C,0,128858,,255,255,255
Sprite,Background,Centre,"sb/ring.png",0,0 M,0,129008,,174,177 S,1,129008,131008,0.25,0.5 F,1,129008,131008,0.9,0 C,0,129008,,255,255,255
Sprite,Background,Centre,"sb/ring.png",0,0 M,0,129158,,220,108 S,1,129158,131158,0.25,0.5 F,1,129158,131158,0.9,0 C,0,129158,,255,255,255
Sprite,Background,Centre,"sb/ring.png",0,0 M,0,129308,,295,294 S,1,129308,131458,0.25,0.5 F,1,129308,131458,0.9,0 C,0,129308,,255,255,255
Sprite,Background,Centre,"sb/ring.png",0,0 M,0,129608,,94,348 S,1,129608,131608,0.25,0.5 F,1,129608,131608,0.9,0 C,0,129608,,255,255,255
Sprite,Background,Centre,"sb/ring.png",0,0 M,0,129758,,129,268 S,1,129758,131908,0.25,0.5 F,1,129758,131908,0.9,0 C,0,129758,,255,255,255
Sprite,Background,Centre,"sb/ring.png",0,0 M,0,130058,,365,125 S,1,130058,132058,0.25,0.5 F,1,130058,132058,0.9,0 C,0,130058,,255,255,255
Sprite,Background,Centre,"sb/ring.png",0,0 M,0,130208,,414,288 S,1,130208,132208,0.25,0.5 F,1,130208,132208,0.9,0 C,0,130208,,255,255,255
Sprite,Background,Centre,"sb/ring.png",0,0 M,0,130358,,355,113 S,1,130358,132433,0.25,0.5 F,1,130358,132433,0.9,0 C,0,130358,,255,255,255
Sprite,Background,Centre,"sb/ring.png",0,0 M,0,130508,,425,296 S,1,130508,132583,0.25,0.5 F,1,130508,132583,0.9,0 C,0,130508,,255,255,255
Sprite,Background,Centre,"sb/ring.png",0,0 M,0,130658,,320,371 S,1,130658,132883,0.25,0.5 F,1,130658,132883,0.9,0 C,0,130658,,255,255,255
Sprite,Background,Centre,"sb/ring.png",0,0 M,0,130958,,344,214 S,1,130958,133108,0.25,0.5 F,1,130958,133108,0.9,0 C,0,130958,,255,255,255
Sprite,Background,Centre,"sb/ring.png",0,0 M,0,131258,,419,394 S,1,131258,133258,0.25,0.5 F,1,131258,133258,0.9,0 C,0,131258,,255,255,255
Sprite,Background,Centre,"sb/ring.png",0,0 M,0,131408,,240,276 S,1,131408,133408,0.25,0.5 F,1,131408,133408,0.9,0 C,0,131408,,255,255,255
Sprite,Background,Centre,"sb/ring.png",0,0 M,0,131558,,163,330 S,1,131558,133558,0.25,0.5 F,1,131558,133558,0.9,0 C,0,131558,,255,255,255
Sprite,Background,Centre,"sb/ring.png",0,0 M,0,131708,,240,276 S,1,131708,133858,0.25,0.5 F,1,131708,133858,0.9,0 C,0,131708,,255,255,255
Sprite,Background,Centre,"sb/ring.png",0,0 M,0,132008,,169,134 S,1,132008,134008,0.25,0.5 F,1,132008,134008,0.9,0 C,0,132008,,255,255,255
Sprite,Background,Centre,"sb/ring.png",0,0 M,0,132158,,249,294 S,1,132158,134458,0.25,0.5 F,1,132158,134458,0.9,0 C,0,132158,,255,255,255
Sprite,Background,Centre,"sb/ring.png",0,0 M,0,132608,,339,243 S,1,132608,134758,0.25,0.5 F,1,132608,134758,0.9,0 C,0,132608,,255,255,255
Sprite,Background,Centre,"sb/ring.png",0,0 M,0,132908,,415,134 S,1,132908,134908,0.25,0.5 F,1,132908,134908,0.9,0 C,0,132908,,255,255,255
Sprite,Background,Centre,"sb/ring.png",0,0 M,0,133058,,326,230 S,1,133058,135358,0.25,0.5 F,1,133058,135358,0.9,0 C,0,133058,,255,255,255
Sprite,Background,Centre,"sb/ring.png",0,0 M,0,133508,,349,78 S,1,133508,135658,0.25,0.5 F,1,133508,135658,0.9,0 C,0,133508,,255,255,255
Sprite,Background,Centre,"sb/ring.png",0,0 M,0,133733,,165,78 S,1,133733,135733,0.25,0.5 F,1,133733,135733,0.9,0 C,0,133733,,255,255,255
Sprite,Background,Centre,"sb/ring.png",0,0 M,0,133808,,165,78 S,1,133808,135883,0.25,0.5 F,1,133808,135883,0.9,0 C,0,133808,,255,255,255
Sprite,Background,Centre,"sb/ring.png",0,0 M,0,133958,,326,230 S,1,133958,136033,0.25,0.5 F,1,133958,136033,0.9,0 C,0,133958,,255,255,255
Sprite,Background,Centre,"sb/ring.png",0,0 M,0,134108,,264,384 S,1,134108,136108,0.25,0.5 F,1,134108,136108,0.9,0 C,0,134108,,255,255,255
Sprite,Background,Centre,"sb/ring.png",0,0 M,0,134258,,341,213 S,1,134258,136408,0.25,0.5 F,1,134258,136408,0.9,0 C,0,134258,,255,255,255
Sprite,Background,Centre,"sb/ring.png",0,0 M,0,134558,,411,287 S,1,134558,136558,0.25,0.5 F,1,134558,136558,0.9,0 C,0,134558,,255,255,255
Sprite,Background,Centre,"sb/ring.png",0,0 M,0,134708,,230,295 S,1,134708,136933,0.25,0.5 F,1,134708,136933,0.9,0 C,0,134708,,255,255,255
Sprite,Background,Centre,"sb/ring.png",0,0 M,0,135008,,97,338 S,1,135008,137008,0.25,0.5 F,1,135008,137008,0.9,0 C,0,135008,,255,255,255
Sprite,Background,Centre,"sb/ring.png",0,0 M,0,135158,,93,199 S,1,135158,137308,0.25,0.5 F,1,135158,137308,0.9,0 C,0,135158,,255,255,255
Sprite,Background,Centre,"sb/ring.png",0,0 M,0,135458,,230,295 S,1,135458,137758,0.25,0.5 F,1,135458,137758,0.9,0 C,0,135458,,255,255,255
Sprite,Background,Centre,"sb/ring.png",0,0 M,0,135908,,215,208 S,1,135908,137908,0.25,0.5 F,1,135908,137908,0.9,0 C,0,135908,,255,255,255
Sprite,Background,Centre,"sb/ring.png",0,0 M,0,136058,,321,313 S,1,136058,138058,0.25,0.5 F,1,136058,138058,0.9,0 C,0,136058,,255,255,255
Sprite,Background,Centre,"sb/ring.png",0,0 M,0,136208,,382,252 S,1,136208,138358,0.25,0.5 F,1,136208,138358,0.9,0 C,0,136208,,255,255,255
Sprite,Background,Centre,"sb/ring.png",0,0 M,0,136508,,263,111 S,1,136508,138808,0.25,0.5 F,1,136508,138808,0.9,0 C,0,136508,,255,255,255
Sprite,Background,Centre,"sb/ring.png",0,0 M,0,136958,,328,319 S,1,136958,138958,0.25,0.5 F,1,136958,138958,0.9,0 C,0,136958,,255,255,255
Sprite,Background,Centre,"sb/ring.png",0,0 M,0,137033,,328,319 S,1,137033,139033,0.25,0.5 F,1,137033,139033,0.9,0 C,0,137033,,255,255,255
Sprite,Background,Centre,"sb/ring.png",0,0 M,0,137108,,328,319 S,1,137108,139408,0.25,0.5 F,1,137108,139408,0.9,0 C,0,137108,,255,255,255
Sprite,Background,Centre,"sb/ring.png",0,0 M,0,137558,,229,273 S,1,137558,139708,0.25,0.5 F,1,137558,139708,0.9,0 C,0,137558,,255,255,255
Sprite,Background,Centre,"sb/ring.png",0,0 M,0,137858,,164,198 S,1,137858,139858,0.25,0.5 F,1,137858,139858,0.9,0 C,0,137858,,255,255,255
Sprite,Background,Centre,"sb/ring.png",0,0 M,0,138008,,328,319 S,1,138008,140008,0.25,0.5 F,1,138008,140008,0.9,0 C,0,138008,,255,255,255
Sprite,Background,Centre,"sb/ring.png",0,0 M,0,138158,,398,246 S,1,138158,140158,0.25,0.5 F,1,138158,140158,0.9,0 C,0,138158,,255,255,255
Sprite,Background,Centre,"sb/ring.png",0,0 M,0,138308,,229,273 S,1,138308,140533,0.25,0.5 F,1,138308,140533,0.9,0 C,0,138308,,255,255,255
Sprite,Background,Centre,"sb/ring.png",0,0 M,0,138608,,85,319 S,1,138608,140608,0.25,0.5 F,1,138608,140608,0.9,0 C,0,138608,,255,255,255
Sprite,Background,Centre,"sb/ring.png",0,0 M,0,138758,,127,94 S,1,138758,140908,0.25,0.5 F,1,138758,140908,0.9,0 C,0,138758,,255,255,255
Sprite,Background,Centre,"sb/ring.png",0,0 M,0,139058,,418,234 S,1,139058,141208,0.25,0.5 F,1,139058,141208,0.9,0 C,0,139058,,255,255,255
Sprite,Background,Centre,"sb/ring.png",0,0 M,0,139358,,325,310 S,1,139358,141358,0.25,0.5 F,1,139358,141358,0.9,0 C,0,139358,,255,255,255
Sprite,Background,Centre,"sb/ring.png",0,0 M,0,139508,,166,234 S,1,139508,141733,0.25,0.5 F,1,139508,141733,0.9,0 C,0,139508,,255,255,255
Sprite,Background,Centre,"sb/ring.png",0,0 M,0,139808,,319,199 S,1,139808,141808,0.25,0.5 F,1,139808,141808,0.9,0 C,0,139808,,255,255,255
Sprite,Background,Centre,"sb/ring.png",0,0 M,0,139958,,501,333 S,1,139958,142108,0.25,0.5 F,1,139958,142108,0.9,0 C,0,139958,,255,255,255
Sprite,Background,Centre,"sb/ring.png",0,0 M,0,140258,,407,376 S,1,140258,142558,0.25,0.5 F,1,140258,142558,0.9,0 C,0,140258,,255,255,255
Sprite,Background,Centre,"sb/ring.png",0,0 M,0,140708,,261,101 S,1,140708,142708,0.25,0.5 F,1,140708,142708,0.9,0 C,0,140708,,255,255,255
Sprite,Background,Centre,"sb/ring.png",0,0 M,0,140858,,188,167 S,1,140858,143008,0.25,0.5 F,1,140858,143008,0.9,0 C,0,140858,,255,255,255
Sprite,Background,Centre,"sb/ring.png",0,0 M,0,141158,,339,173 S,1,141158,143308,0.25,0.5 F,1,141158,143308,0.9,0 C,0,141158,,255,255,255
Sprite,Background,Centre,"sb/ring.png",0,0 M,0,141458,,116,99 S,1,141458,143458,0.25,0.5 F,1,141458,143458,0.9,0 C,0,141458,,255,255,255
Sprite,Background,Centre,"sb/ring.png",0,0 M,0,141608,,73,162 S,1,141608,143608,0.25,0.5 F,1,141608,143608,0.9,0 C,0,141608,,255,255,255
Sprite,Background,Centre,"sb/ring.png",0,0 M,0,141758,,116,99 S,1,141758,144058,0.25,0.5 F,1,141758,144058,0.9,0 C,0,141758,,255,255,255
Sprite,Background,Centre,"sb/ring.png",0,0 M,0,142208,,174,387 S,1,142208,144208,0.25,0.5 F,1,142208,144208,0.9,0 C,0,142208,,255,255,255
Sprite,Background,Centre,"sb/ring.png",0,0 M,0,142358,,237,316 S,1,142358,144508,0.25,0.5 F,1,142358,144508,0.9,0 C,0,142358,,255,255,255
Sprite,Background,Centre,"sb/ring.png",0,0 M,0,142583,,352,389 S,1,142583,144583,0.25,0.5 F,1,142583,144583,0.9,0 C,0,142583,,255,255,255
Sprite,Background,Centre,"sb/ring.png",0,0 M,0,142658,,352,389 S,1,142658,144658,0.25,0.5 F,1,142658,144658,0.9,0 C,0,142658,,255,255,255
Sprite,Background,Centre,"sb/ring.png",0,0 M,0,142808,,304,317 S,1,142808,144808,0.25,0.5 F,1,142808,144808,0.9,0 C,0,142808,,255,255,255
Sprite,Background,Centre,"sb/ring.png",0,0 M,0,142958,,355,250 S,1,142958,144958,0.25,0.5 F,1,142958,144958,0.9,0 C,0,142958,,255,255,255
Sprite,Background,Centre,"sb/ring.png",0,0 M,0,143108,,263,397 S,1,143108,145258,0.25,0.5 F,1,143108,145258,0.9,0 C,0,143108,,255,255,255
Sprite,Background,Centre,"sb/ring.png",0,0 M,0,143408,,185,220 S,1,143408,145408,0.25,0.5 F,1,143408,145408,0.9,0 C,0,143408,,255,255,255
Sprite,Background,Centre,"sb/ring.png",0,0 M,0,143558,,264,243 S,1,143558,145708,0.25,0.5 F,1,143558,145708,0.9,0 C,0,143558,,255,255,255
Sprite,Background,Centre,"sb/ring.png",0,0 M,0,143858,,503,109 S,1,143858,145858,0.25,0.5 F,1,143858,145858,0.9,0 C,0,143858,,255,255,255
Sprite,Background,Centre,"sb/ring.png",0,0 M,0,144008,,421,101 S,1,144008,146158,0.25,0.5 F,1,144008,146158,0.9,0 C,0,144008,,255,255,255
Sprite,Background,Centre,"sb/ring.png",0,0 M,0,144308,,532,237 S,1,144308,146308,0.25,0.5 F,1,144308,146308,0.9,0 C,0,144308,,255,255,255
Sprite,Background,Centre,"sb/ring.png",0,0 M,0,144458,,450,335 S,1,144458,146458,0.25,0.5 F,1,144458,146458,0.9,0 C,0,144458,,255,255,255
Sprite,Background,Centre,"sb/ring.png",0,0 M,0,144608,,532,237 S,1,144608,146608,0.25,0.5 F,1,144608,146608,0.9,0 C,0,144608,,255,255,255
Sprite,Background,Centre,"sb/ring.png",0,0 M,0,144758,,448,256 S,1,144758,146908,0.25,0.5 F,1,144758,146908,0.9,0 C,0,144758,,255,255,255
Sprite,Background,Centre,"sb/ring.png",0,0 M,0,145058,,193,328 S,1,145058,147208,0.25,0.5 F,1,145058,147208,0.9,0 C,0,145058,,255,255,255
Sprite,Background,Centre,"sb/ring.png",0,0 M,0,145358,,268,264 S,1,145358,147508,0.25,0.5 F,1,145358,147508,0.9,0 C,0,145358,,255,255,255
Sprite,Background,Centre,"sb/ring.png",0,0 M,0,145658,,283,354 S,1,145658,147808,0.25,0.5 F,1,145658,147808,0.9,0 C,0,145658,,255,255,255
Sprite,Background,Centre,"sb/ring.png",0,0 M,0,145958,,183,233 S,1,145958,148183,0.25,0.5 F,1,145958,148183,0.9,0 C,0,145958,,255,255,255
Sprite,Background,Centre,"sb/ring.png",0,0 M,0,146258,,167,221 S,1,146258,148558,0.25,0.5 F,1,146258,148558,0.9,0 C,0,146258,,255,255,255
Sprite,Background,Centre,"sb/ring.png",0,0 M,0,146708,,371,277 S,1,146708,148708,0.25,0.5 F,1,146708,148708,0.9,0 C,0,146708,,255,255,255
Sprite,Background,Centre,"sb/ring.png",0,0 M,0,146783,,371,277 S,1,146783,148783,0.25,0.5 F,1,146783,148783,0.9,0 C,0,146783,,255,255,255
Sprite,Background,Centre,"sb/ring.png",0,0 M,0,146858,,371,277 S,1,146858,149008,0.25,0.5 F,1,146858,149008,0.9,0 C,0,146858,,255,255,255
Sprite,Background,Centre,"sb/ring.png",0,0 M,0,147158,,533,111 S,1,147158,149308,0.25,0.5 F,1,147158,149308,0.9,0 C,0,147158,,255,255,255
Sprite,Background,Centre,"sb/ring.png",0,0 M,0,147458,,558,207 S,1,147458,149458,0.25,0.5 F,1,147458,149458,0.9,0 C,0,147458,,255,255,255
Sprite,Background,Centre,"sb/ring.png",0,0 M,0,147608,,401,176 S,1,147608,149608,0.25,0.5 F,1,147608,149608,0.9,0 C,0,147608,,255,255,255
Sprite,Background,Centre,"sb/ring.png",0,0 M,0,147758,,558,207 S,1,147758,149758,0.25,0.5 F,1,147758,149758,0.9,0 C,0,147758,,255,255,255
Sprite,Background,Centre,"sb/ring.png",0,0 M,0,147908,,401,176 S,1,147908,149908,0.25,0.5 F,1,147908,149908,0.9,0 C,0,147908,,255,255,255
Sprite,Background,Centre,"sb/ring.png",0,0 M,0,148058,,524,298 S,1,148058,150208,0.25,0.5 F,1,148058,150208,0.9,0 C,0,148058,,255,255,255
Sprite,Background,Centre,"sb/ring.png",0,0 M,0,148283,,444,426 S,1,148283,150283,0.25,0.5 F,1,148283,150283,0.9,0 C,0,148283,,255,255,255
Sprite,Background,Centre,"sb/ring.png",0,0 M,0,148358,,444,426 S,1,148358,150508,0.25,0.5 F,1,148358,150508,0.9,0 C,0,148358,,255,255,255
Sprite,Background,Centre,"sb/ring.png",0,0 M,0,148658,,282,261 S,1,148658,150658,0.25,0.5 F,1,148658,150658,0.9,0 C,0,148658,,255,255,255
Sprite,Background,Centre,"sb/ring.png",0,0 M,0,148808,,218,365 S,1,148808,150808,0.25,0.5 F,1,148808,150808,0.9,0 C,0,148808,,255,255,255
Sprite,Background,Centre,"sb/ring.png",0,0 M,0,148958,,148,312 S,1,148958,150958,0.25,0.5 F,1,148958,150958,0.9,0 C,0,148958,,255,255,255
Sprite,Background,Centre,"sb/ring.png",0,0 M,0,149108,,148,312 S,1,149108,151258,0.25,0.5 F,1,149108,151258,0.9,0 C,0,149108,,255,255,255
Sprite,Background,Centre,"sb/ring.png",0,0 M,0,149408,,293,246 S,1,149408,151558,0.25,0.5 F,1,149408,151558,0.9,0 C,0,149408,,255,255,255
Sprite,Background,Centre,"sb/ring.png",0,0 M,0,149708,,152,170 S,1,149708,151858,0.25,0.5 F,1,149708,151858,0.9,0 C,0,149708,,255,255,255
Sprite,Background,Centre,"sb/ring.png",0,0 M,0,150008,,202,242 S,1,150008,152008,0.25,0.5 F,1,150008,152008,0.9,0 C,0,150008,,255,255,255
Sprite,Background,Centre,"sb/ring.png",0,0 M,0,150158,,321,161 S,1,150158,152308,0.25,0.5 F,1,150158,152308,0.9,0 C,0,150158,,255,255,255
Sprite,Background,Centre,"sb/ring.png",0,0 M,0,150458,,319,335 S,1,150458,152608,0.25,0.5 F,1,150458,152608,0.9,0 C,0,150458,,255,255,255
Sprite,Background,Centre,"sb/ring.png",0,0 M,0,150758,,457,270 S,1,150758,152758,0.25,0.5 F,1,150758,152758,0.9,0 C,0,150758,,255,255,255
Sprite,Background,Centre,"sb/ring.png",0,0 M,0,150908,,405,355 S,1,150908,152908,0.25,0.5 F,1,150908,152908,0.9,0 C,0,150908,,255,255,255
Sprite,Background,Centre,"sb/ring.png",0,0 M,0,151058,,296,252 S,1,151058,153358,0.25,0.5 F,1,151058,153358,0.9,0 C,0,151058,,255,255,255
Sprite,Background,Centre,"sb/ring.png",0,0 M,0,151508,,539,113 S,1,151508,153733,0.25,0.5 F,1,151508,153733,0.9,0 C,0,151508,,255,255,255
Sprite,Background,Centre,"sb/ring.png",0,0 M,0,151808,,538,231 S,1,151808,153808,0.25,0.5 F,1,151808,153808,0.9,0 C,0,151808,,255,255,255
Sprite,Background,Centre,"sb/ring.png",0,0 M,0,151958,,406,423 S,1,151958,154108,0.25,0.5 F,1,151958,154108,0.9,0 C,0,151958,,255,255,255
Sprite,Background,Centre,"sb/ring.png",0,0 M,0,152183,,435,282 S,1,152183,154183,0.25,0.5 F,1,152183,154183,0.9,0 C,0,152183,,255,255,255
Sprite,Background,Centre,"sb/ring.png",0,0 M,0,152258,,435,281 S,1,152258,154358,0.25,0.5 F,1,152258,154358,0.9,0 C,0,152258,,255,255,255
Sprite,Background,Centre,"sb/ring.png",0,0 M,0,152458,,375,135 S,1,152458,154558,0.25,0.5 F,1,152458,154558,0.9,0 C,0,152458,,255,255,255
Sprite,Background,Centre,"sb/ring.png",0,0 M,0,152658,,282,254 S,1,152658,154758,0.25,0.5 F,1,152658,154758,0.9,0 C,0,152658,,255,255,255
Sprite,Background,Centre,"sb/ring.png",0,0 M,0,152858,,435,295 S,1,152858,154958,0.25,0.5 F,1,152858,154958,0.9,0 C,0,152858,,255,255,255
Sprite,Background,Centre,"sb/ring.png",0,0 M,0,153058,,387,127 S,1,153058,155158,0.25,0.5 F,1,153058,155158,0.9,0 C,0,153058,,255,255,255
Sprite,Background,Centre,"sb/ring.png",0,0 M,0,153258,,269,247 S,1,153258,155358,0.25,0.5 F,1,153258,155358,0.9,0 C,0,153258,,255,255,255
Sprite,Background,Centre,"sb/ring.png",0,0 M,0,153458,,177,274 S,1,153458,155758,0.25,0.5 F,1,153458,155758,0.9,0 C,0,153458,,255,255,255
Sprite,Background,Centre,"sb/ring.png",0,0 M,0,153908,,200,159 S,1,153908,156058,0.25,0.5 F,1,153908,156058,0.9,0 C,0,153908,,255,255,255
Sprite,Background,Centre,"sb/ring.png",0,0 M,0,154208,,400,200 S,1,154208,156358,0.25,0.5 F,1,154208,156358,0.9,0 C,0,154208,,255,255,255
Sprite,Background,Centre,"sb/ring.png",0,0 M,0,154508,,264,353 S,1,154508,156658,0.25,0.5 F,1,154508,156658,0.9,0 C,0,154508,,255,255,255
Sprite,Background,Centre,"sb/ring.png",0,0 M,0,154808,,320,248 S,1,154808,159058,0.25,0.5 F,1,154808,159058,0.9,0 C,0,154808,,255,255,255
Sprite,Background,Centre,"sb/ring.png",0,0 M,0,181058,,338,275 S,1,181058,183283,0.25,0.5 F,1,181058,183283,0.9,0 C,0,181058,,255,255,255
Sprite,Background,Centre,"sb/ring.png",0,0 M,0,181358,,444,389 S,1,181358,183433,0.25,0.5 F,1,181358,183433,0.9,0 C,0,181358,,255,255,255
Sprite,Background,Centre,"sb/ring.png",0,0 M,0,181508,,447,193 S,1,181508,183508,0.25,0.5 F,1,181508,183508,0.9,0 C,0,181508,,255,255,255
Sprite,Background,Centre,"sb/ring.png",0,0 M,0,181658,,344,363 S,1,181658,183808,0.25,0.5 F,1,181658,183808,0.9,0 C,0,181658,,255,255,255
Sprite,Background,Centre,"sb/ring.png",0,0 M,0,181958,,130,222 S,1,181958,184108,0.25,0.5 F,1,181958,184108,0.9,0 C,0,181958,,255,255,255
Sprite,Background,Centre,"sb/ring.png",0,0 M,0,182258,,172,410 S,1,182258,184408,0.25,0.5 F,1,182258,184408,0.9,0 C,0,182258,,255,255,255
Sprite,Background,Centre,"sb/ring.png",0,0 M,0,182483,,252,299 S,1,182483,184483,0.25,0.5 F,1,182483,184483,0.9,0 C,0,182483,,255,255,255
Sprite,Background,Centre,"sb/ring.png",0,0 M,0,182558,,252,299 S,1,182558,184708,0.25,0.5 F,1,182558,184708,0.9,0 C,0,182558,,255,255,255
Sprite,Background,Centre,"sb/ring.png",0,0 M,0,182783,,255,125 S,1,182783,184783,0.25,0.5 F,1,182783,184783,0.9,0 C,0,182783,,255,255,255
Sprite,Background,Centre,"sb/ring.png",0,0 M,0,182858,,255,125 S,1,182858,184933,0.25,0.5 F,1,182858,184933,0.9,0 C,0,182858,,255,255,255
Sprite,Background,Centre,"sb/ring.png",0,0 M,0,183008,,376,237 S,1,183008,185083,0.25,0.5 F,1,183008,185083,0.9,0 C,0,183008,,255,255,255
Sprite,Background,Centre,"sb/ring.png",0,0 M,0,183158,,349,90 S,1,183158,185233,0.25,0.5 F,1,183158,185233,0.9,0 C,0,183158,,255,255,255
Sprite,Background,Centre,"sb/ring.png",0,0 M,0,183308,,529,274 S,1,183308,185383,0.25,0.5 F,1,183308,185383,0.9,0 C,0,183308,,255,255,255
Sprite,Background,Centre,"sb/ring.png",0,0 M,0,183458,,381,334 S,1,183458,185683,0.25,0.5 F,1,183458,185683,0.9,0 C,0,183458,,255,255,255
Sprite,Background,Centre,"sb/ring.png",0,0 M,0,183758,,258,396 S,1,183758,185758,0.25,0.5 F,1,183758,185758,0.9,0 C,0,183758,,255,255,255
Sprite,Background,Centre,"sb/ring.png",0,0 M,0,183908,,165,326 S,1,183908,185908,0.25,0.5 F,1,183908,185908,0.9,0 C,0,183908,,255,255,255
Sprite,Background,Centre,"sb/ring.png",0,0 M,0,184058,,258,396 S,1,184058,186058,0.25,0.5 F,1,184058,186058,0.9,0 C,0,184058,,255,255,255
Sprite,Background,Centre,"sb/ring.png",0,0 M,0,184208,,173,311 S,1,184208,186358,0.25,0.5 F,1,184208,186358,0.9,0 C,0,184208,,255,255,255
Sprite,Background,Centre,"sb/ring.png",0,0 M,0,184508,,259,170 S,1,184508,186508,0.25,0.5 F,1,184508,186508,0.9,0 C,0,184508,,255,255,255
Sprite,Background,Centre,"sb/ring.png",0,0 M,0,184658,,327,230 S,1,184658,186883,0.25,0.5 F,1,184658,186883,0.9,0 C,0,184658,,255,255,255
Sprite,Background,Centre,"sb/ring.png",0,0 M,0,184958,,481,268 S,1,184958,187108,0.25,0.5 F,1,184958,187108,0.9,0 C,0,184958,,255,255,255
Sprite,Background,Centre,"sb/ring.png",0,0 M,0,185183,,412,126 S,1,185183,187183,0.25,0.5 F,1,185183,187183,0.9,0 C,0,185183,,255,255,255
Sprite,Background,Centre,"sb/ring.png",0,0 M,0,185258,,412,126 S,1,185258,187333,0.25,0.5 F,1,185258,187333,0.9,0 C,0,185258,,255,255,255
Sprite,Background,Centre,"sb/ring.png",0,0 M,0,185408,,493,276 S,1,185408,187483,0.25,0.5 F,1,185408,187483,0.9,0 C,0,185408,,255,255,255
Sprite,Background,Centre,"sb/ring.png",0,0 M,0,185558,,398,216 S,1,185558,187783,0.25,0.5 F,1,185558,187783,0.9,0 C,0,185558,,255,255,255
Sprite,Background,Centre,"sb/ring.png",0,0 M,0,185858,,305,385 S,1,185858,188158,0.25,0.5 F,1,185858,188158,0.9,0 C,0,185858,,255,255,255
Sprite,Background,Centre,"sb/ring.png",0,0 M,0,186308,,106,295 S,1,186308,188533,0.25,0.5 F,1,186308,188533,0.9,0 C,0,186308,,255,255,255
Sprite,Background,Centre,"sb/ring.png",0,0 M,0,186608,,125,153 S,1,186608,188608,0.25,0.5 F,1,186608,188608,0.9,0 C,0,186608,,255,255,255
Sprite,Background,Centre,"sb/ring.png",0,0 M,0,186758,,312,241 S,1,186758,188758,0.25,0.5 F,1,186758,188758,0.9,0 C,0,186758,,255,255,255
Sprite,Background,Centre,"sb/ring.png",0,0 M,0,186908,,210,108 S,1,186908,189058,0.25,0.5 F,1,186908,189058,0.9,0 C,0,186908,,255,255,255
Sprite,Background,Centre,"sb/ring.png",0,0 M,0,187208,,409,236 S,1,187208,189358,0.25,0.5 F,1,187208,189358,0.9,0 C,0,187208,,255,255,255
Sprite,Background,Centre,"sb/ring.png",0,0 M,0,187508,,317,150 S,1,187508,189733,0.25,0.5 F,1,187508,189733,0.9,0 C,0,187508,,255,255,255
Sprite,Background,Centre,"sb/ring.png",0,0 M,0,187808,,542,161 S,1,187808,189958,0.25,0.5 F,1,187808,189958,0.9,0 C,0,187808,,255,255,255
Sprite,Background,Centre,"sb/ring.png",0,0 M,0,188108,,474,403 S,1,188108,190108,0.25,0.5 F,1,188108,190108,0.9,0 C,0,188108,,255,255,255
Sprite,Background,Centre,"sb/ring.png",0,0 M,0,188258,,528,304 S,1,188258,190408,0.25,0.5 F,1,188258,190408,0.9,0 C,0,188258,,255,255,255
Sprite,Background,Centre,"sb/ring.png",0,0 M,0,188483,,429,294 S,1,188483,190483,0.25,0.5 F,1,188483,190483,0.9,0 C,0,188483,,255,255,255
Sprite,Background,Centre,"sb/ring.png",0,0 M,0,188558,,423,286 S,1,188558,190558,0.25,0.5 F,1,188558,190558,0.9,0 C,0,188558,,255,255,255
Sprite,Background,Centre,"sb/ring.png",0,0 M,0,188708,,483,220 S,1,188708,190708,0.25,0.5 F,1,188708,190708,0.9,0 C,0,188708,,255,255,255
Sprite,Background,Centre,"sb/ring.png",0,0 M,0,188858,,327,283 S,1,188858,190858,0.25,0.5 F,1,188858,190858,0.9,0 C,0,188858,,255,255,255
Sprite,Background,Centre,"sb/ring.png",0,0 M,0,189008,,483,220 S,1,189008,191008,0.25,0.5 F,1,189008,191008,0.9,0 C,0,189008,,255,255,255
Sprite,Background,Centre,"sb/ring.png",0,0 M,0,189158,,327,283 S,1,189158,191158,0.25,0.5 F,1,189158,191158,0.9,0 C,0,189158,,255,255,255
Sprite,Background,Centre,"sb/ring.png",0,0 M,0,189308,,256,216 S,1,189308,191308,0.25,0.5 F,1,189308,191308,0.9,0 C,0,189308,,255,255,255
Sprite,Background,Centre,"sb/ring.png",0,0 M,0,189458,,125,327 S,1,189458,191608,0.25,0.5 F,1,189458,191608,0.9,0 C,0,189458,,255,255,255
Sprite,Background,Centre,"sb/ring.png",0,0 M,0,189758,,275,216 S,1,189758,191908,0.25,0.5 F,1,189758,191908,0.9,0 C,0,189758,,255,255,255
Sprite,Background,Centre,"sb/ring.png",0,0 M,0,190058,,168,221 S,1,190058,192058,0.25,0.5 F,1,190058,192058,0.9,0 C,0,190058,,255,255,255
Sprite,Background,Centre,"sb/ring.png",0,0 M,0,190208,,261,388 S,1,190208,192208,0.25,0.5 F,1,190208,192208,0.9,0 C,0,190208,,255,255,255
Sprite,Background,Centre,"sb/ring.png",0,0 M,0,190358,,177,207 S,1,190358,192433,0.25,0.5 F,1,190358,192433,0.9,0 C,0,190358,,255,255,255
Sprite,Background,Centre,"sb/ring.png",0,0 M,0,190508,,252,400 S,1,190508,192583,0.25,0.5 F,1,190508,192583,0.9,0 C,0,190508,,255,255,255
Sprite,Background,Centre,"sb/ring.png",0,0 M,0,190658,,115,319 S,1,190658,192883,0.25,0.5 F,1,190658,192883,0.9,0 C,0,190658,,255,255,255
Sprite,Background,Centre,"sb/ring.png",0,0 M,0,190958,,254,300 S,1,190958,192958,0.25,0.5 F,1,190958,192958,0.9,0 C,0,190958,,255,255,255
Sprite,Background,Centre,"sb/ring.png",0,0 M,0,191108,,432,274 S,1,191108,193258,0.25,0.5 F,1,191108,193258,0.9,0 C,0,191108,,255,255,255
Sprite,Background,Centre,"sb/ring.png",0,0 M,0,191408,,282,167 S,1,191408,193408,0.25,0.5 F,1,191408,193408,0.9,0 C,0,191408,,255,255,255
Sprite,Background,Centre,"sb/ring.png",0,0 M,0,191558,,344,315 S,1,191558,193558,0.25,0.5 F,1,191558,193558,0.9,0 C,0,191558,,255,255,255
Sprite,Background,Centre,"sb/ring.png",0,0 M,0,191708,,459,175 S,1,191708,193858,0.25,0.5 F,1,191708,193858,0.9,0 C,0,191708,,255,255,255
Sprite,Background,Centre,"sb/ring.png",0,0 M,0,192008,,207,106 S,1,192008,194008,0.25,0.5 F,1,192008,194008,0.9,0 C,0,192008,,255,255,255
Sprite,Background,Centre,"sb/ring.png",0,0 M,0,192158,,128,183 S,1,192158,194383,0.25,0.5 F,1,192158,194383,0.9,0 C,0,192158,,255,255,255
Sprite,Background,Centre,"sb/ring.png",0,0 M,0,192458,,116,342 S,1,192458,194533,0.25,0.5 F,1,192458,194533,0.9,0 C,0,192458,,255,255,255
Sprite,Background,Centre,"sb/ring.png",0,0 M,0,192608,,415,239 S,1,192608,194683,0.25,0.5 F,1,192608,194683,0.9,0 C,0,192608,,255,255,255
Sprite,Background,Centre,"sb/ring.png",0,0 M,0,192758,,207,173 S,1,192758,194833,0.25,0.5 F,1,192758,194833,0.9,0 C,0,192758,,255,255,255
Sprite,Background,Centre,"sb/ring.png",0,0 M,0,192908,,283,346 S,1,192908,194983,0.25,0.5 F,1,192908,194983,0.9,0 C,0,192908,,255,255,255
Sprite,Background,Centre,"sb/ring.png",0,0 M,0,193058,,367,201 S,1,193058,195358,0.25,0.5 F,1,193058,195358,0.9,0 C,0,193058,,255,255,255
Sprite,Background,Centre,"sb/ring.png",0,0 M,0,193508,,519,87 S,1,193508,195658,0.25,0.5 F,1,193508,195658,0.9,0 C,0,193508,,255,255,255
Sprite,Background,Centre,"sb/ring.png",0,0 M,0,193808,,371,377 S,1,193808,195883,0.25,0.5 F,1,193808,195883,0.9,0 C,0,193808,,255,255,255
Sprite,Background,Centre,"sb/ring.png",0,0 M,0,193958,,521,263 S,1,193958,196033,0.25,0.5 F,1,193958,196033,0.9,0 C,0,193958,,255,255,255
Sprite,Background,Centre,"sb/ring.png",0,0 M,0,194108,,339,188 S,1,194108,196183,0.25,0.5 F,1,194108,196183,0.9,0 C,0,194108,,255,255,255
Sprite,Background,Centre,"sb/ring.png",0,0 M,0,194258,,396,66 S,1,194258,196258,0.25,0.5 F,1,194258,196258,0.9,0 C,0,194258,,255,255,255
Sprite,Background,Centre,"sb/ring.png",0,0 M,0,194408,,240,175 S,1,194408,196408,0.25,0.5 F,1,194408,196408,0.9,0 C,0,194408,,255,255,255
Sprite,Background,Centre,"sb/ring.png",0,0 M,0,194558,,433,245 S,1,194558,196558,0.25,0.5 F,1,194558,196558,0.9,0 C,0,194558,,255,255,255
Sprite,Background,Centre,"sb/ring.png",0,0 M,0,194708,,240,175 S,1,194708,197008,0.25,0.5 F,1,194708,197008,0.9,0 C,0,194708,,255,255,255
Sprite,Background,Centre,"sb/ring.png",0,0 M,0,195158,,352,413 S,1,195158,197308,0.25,0.5 F,1,195158,197308,0.9,0 C,0,195158,,255,255,255
Sprite,Background,Centre,"sb/ring.png",0,0 M,0,195458,,235,259 S,1,195458,197458,0.25,0.5 F,1,195458,197458,0.9,0 C,0,195458,,255,255,255
Sprite,Background,Centre,"sb/ring.png",0,0 M,0,195608,,190,323 S,1,195608,197608,0.25,0.5 F,1,195608,197608,0.9,0 C,0,195608,,255,255,255
Sprite,Background,Centre,"sb/ring.png",0,0 M,0,195758,,270,335 S,1,195758,197758,0.25,0.5 F,1,195758,197758,0.9,0 C,0,195758,,255,255,255
Sprite,Background,Centre,"sb/ring.png",0,0 M,0,195908,,311,267 S,1,195908,197908,0.25,0.5 F,1,195908,197908,0.9,0 C,0,195908,,255,255,255
Sprite,Background,Centre,"sb/ring.png",0,0 M,0,196058,,301,253 S,1,196058,198508,0.25,0.5 F,1,196058,198508,0.9,0 C,0,196058,,255,255,255
Sprite,Background,Centre,"sb/ring.png",0,0 M,0,196658,,381,105 S,1,196658,198658,0.25,0.5 F,1,196658,198658,0.9,0 C,0,196658,,255,255,255
Sprite,Background,Centre,"sb/ring.png",0,0 M,0,196808,,452,171 S,1,196808,198808,0.25,0.5 F,1,196808,198808,0.9,0 C,0,196808,,255,255,255
Sprite,Background,Centre,"sb/ring.png",0,0 M,0,196958,,452,171 S,1,196958,198958,0.25,0.5 F,1,196958,198958,0.9,0 C,0,196958,,255,255,255
Sprite,Background,Centre,"sb/ring.png",0,0 M,0,197108,,514,122 S,1,197108,199408,0.25,0.5 F,1,197108,199408,0.9,0 C,0,197108,,255,255,255
Sprite,Background,Centre,"sb/ring.png",0,0 M,0,197558,,161,362 S,1,197558,199558,0.25,0.5 F,1,197558,199558,0.9,0 C,0,197558,,255,255,255
Sprite,Background,Centre,"sb/ring.png",0,0 M,0,197708,,266,225 S,1,197708,199708,0.25,0.5 F,1,197708,199708,0.9,0 C,0,197708,,255,255,255
Sprite,Background,Centre,"sb/ring.png",0,0 M,0,197858,,239,133 S,1,197858,199858,0.25,0.5 F,1,197858,199858,0.9,0 C,0,197858,,255,255,255
Sprite,Background,Centre,"sb/ring.png",0,0 M,0,198158,,222,149 S,1,198158,200158,0.25,0.5 F,1,198158,200158,0.9,0 C,0,198158,,255,255,255
Sprite,Background,Centre,"sb/ring.png",0,0 M,0,198308,,279,329 S,1,198308,200308,0.25,0.5 F,1,198308,200308,0.9,0 C,0,198308,,255,255,255
Sprite,Background,Centre,"sb/ring.png",0,0 M,0,198458,,366,263 S,1,198458,200458,0.25,0.5 F,1,198458,200458,0.9,0 C,0,198458,,255,255,255
Sprite,Background,Centre,"sb/ring.png",0,0 M,0,198608,,174,250 S,1,198608,200608,0.25,0.5 F,1,198608,200608,0.9,0 C,0,198608,,255,255,255
Sprite,Background,Centre,"sb/ring.png",0,0 M,0,198758,,357,158 S,1,198758,200758,0.25,0.5 F,1,198758,200758,0.9,0 C,0,198758,,255,255,255
Sprite,Background,Centre,"sb/ring.png",0,0 M,0,198908,,296,350 S,1,198908,200908,0.25,0.5 F,1,198908,200908,0.9,0 C,0,198908,,255,255,255
Sprite,Background,Centre,"sb/ring.png",0,0 M,0,199058,,260,222 S,1,199058,201058,0.25,0.5 F,1,199058,201058,0.9,0 C,0,199058,,255,255,255
Sprite,Background,Centre,"sb/ring.png",0,0 M,0,199208,,444,357 S,1,199208,201208,0.25,0.5 F,1,199208,201208,0.9,0 C,0,199208,,255,255,255
Sprite,Background,Centre,"sb/ring.png",0,0 M,0,199358,,479,232 S,1,199358,201358,0.25,0.5 F,1,199358,201358,0.9,0 C,0,199358,,255,255,255
Sprite,Background,Centre,"sb/ring.png",0,0 M,0,199508,,111,260 S,1,199508,201808,0.25,0.5 F,1,199508,201808,0.9,0 C,0,199508,,255,255,255
Sprite,Background,Centre,"sb/ring.png",0,0 M,0,200108,,491,87 S,1,200108,202108,0.25,0.5 F,1,200108,202108,0.9,0 C,0,200108,,255,255,255
Sprite,Background,Centre,"sb/ring.png",0,0 M,0,200558,,111,260 S,1,200558,202858,0.25,0.5 F,1,200558,202858,0.9,0 C,0,200558,,255,255,255
Sprite,Background,Centre,"sb/ring.png",0,0 M,0,201008,,231,140 S,1,201008,203008,0.25,0.5 F,1,201008,203008,0.9,0 C,0,201008,,255,255,255
Sprite,Background,Centre,"sb/ring.png",0,0 M,0,201158,,306,193 S,1,201158,203308,0.25,0.5 F,1,201158,203308,0.9,0 C,0,201158,,255,255,255
Sprite,Background,Centre,"sb/ring.png",0,0 M,0,201458,,213,289 S,1,201458,203608,0.25,0.5 F,1,201458,203608,0.9,0 C,0,201458,,255,255,255
Sprite,Background,Centre,"sb/ring.png",0,0 M,0,201758,,416,197 S,1,201758,203908,0.25,0.5 F,1,201758,203908,0.9,0 C,0,201758,,255,255,255
Sprite,Background,Centre,"sb/ring.png",0,0 M,0,202058,,356,350 S,1,202058,204058,0.25,0.5 F,1,202058,204058,0.9,0 C,0,202058,,255,255,255
Sprite,Background,Centre,"sb/ring.png",0,0 M,0,202208,,293,205 S,1,202208,204208,0.25,0.5 F,1,202208,204208,0.9,0 C,0,202208,,255,255,255
Sprite,Background,Centre,"sb/ring.png",0,0 M,0,202358,,372,362 S,1,202358,204433,0.25,0.5 F,1,202358,204433,0.9,0 C,0,202358,,255,255,255
Sprite,Background,Centre,"sb/ring.png",0,0 M,0,202508,,282,217 S,1,202508,204583,0.25,0.5 F,1,202508,204583,0.9,0 C,0,202508,,255,255,255
Sprite,Background,Centre,"sb/ring.png",0,0 M,0,202658,,467,258 S,1,202658,204808,0.25,0.5 F,1,202658,204808,0.9,0 C,0,202658,,255,255,255
Sprite,Background,Centre,"sb/ring.png",0,0 M,0,202958,,366,179 S,1,202958,204958,0.25,0.5 F,1,202958,204958,0.9,0 C,0,202958,,255,255,255
Sprite,Background,Centre,"sb/ring.png",0,0 M,0,203108,,272,228 S,1,203108,205408,0.25,0.5 F,1,203108,205408,0.9,0 C,0,203108,,255,255,255
Sprite,Background,Centre,"sb/ring.png",0,0 M,0,203558,,470,354 S,1,203558,205558,0.25,0.5 F,1,203558,205558,0.9,0 C,0,203558,,255,255,255
Sprite,Background,Centre,"sb/ring.png",0,0 M,0,203708,,285,404 S,1,203708,205858,0.25,0.5 F,1,203708,205858,0.9,0 C,0,203708,,255,255,255
Sprite,Background,Centre,"sb/ring.png",0,0 M,0,204008,,454,169 S,1,204008,206158,0.25,0.5 F,1,204008,206158,0.9,0 C,0,204008,,255,255,255
Sprite,Background,Centre,"sb/ring.png",0,0 M,0,204308,,377,358 S,1,204308,206533,0.25,0.5 F,1,204308,206533,0.9,0 C,0,204308,,255,255,255
Sprite,Background,Centre,"sb/ring.png",0,0 M,0,204608,,359,216 S,1,204608,206608,0.25,0.5 F,1,204608,206608,0.9,0 C,0,204608,,255,255,255
Sprite,Background,Centre,"sb/ring.png",0,0 M,0,204758,,164,99 S,1,204758,206908,0.25,0.5 F,1,204758,206908,0.9,0 C,0,204758,,255,255,255
Sprite,Background,Centre,"sb/ring.png",0,0 M,0,205058,,268,151 S,1,205058,207358,0.25,0.5 F,1,205058,207358,0.9,0 C,0,205058,,255,255,255
Sprite,Background,Centre,"sb/ring.png",0,0 M,0,205508,,227,282 S,1,205508,207733,0.25,0.5 F,1,205508,207733,0.9,0 C,0,205508,,255,255,255
Sprite,Background,Centre,"sb/ring.png",0,0 M,0,205808,,117,339 S,1,205808,207808,0.25,0.5 F,1,205808,207808,0.9,0 C,0,205808,,255,255,255
Sprite,Background,Centre,"sb/ring.png",0,0 M,0,205958,,304,233 S,1,205958,207958,0.25,0.5 F,1,205958,207958,0.9,0 C,0,205958,,255,255,255
Sprite,Background,Centre,"sb/ring.png",0,0 M,0,206108,,268,151 S,1,206108,208258,0.25,0.5 F,1,206108,208258,0.9,0 C,0,206108,,255,255,255
Sprite,Background,Centre,"sb/ring.png",0,0 M,0,206408,,462,266 S,1,206408,208408,0.25,0.5 F,1,206408,208408,0.9,0 C,0,206408,,255,255,255
Sprite,Background,Centre,"sb/ring.png",0,0 M,0,206558,,456,56 S,1,206558,208558,0.25,0.5 F,1,206558,208558,0.9,0 C,0,206558,,255,255,255
Sprite,Background,Centre,"sb/ring.png",0,0 M,0,206708,,392,107 S,1,206708,208708,0.25,0.5 F,1,206708,208708,0.9,0 C,0,206708,,255,255,255
Sprite,Background,Centre,"sb/ring.png",0,0 M,0,206858,,541,176 S,1,206858,208858,0.25,0.5 F,1,206858,208858,0.9,0 C,0,206858,,255,255,255
Sprite,Background,Centre,"sb/ring.png",0,0 M,0,207008,,470,274 S,1,207008,209008,0.25,0.5 F,1,207008,209008,0.9,0 C,0,207008,,255,255,255
Sprite,Background,Centre,"sb/ring.png",0,0 M,0,207158,,541,176 S,1,207158,209233,0.25,0.5 F,1,207158,209233,0.9,0 C,0,207158,,255,255,255
Sprite,Background,Centre,"sb/ring.png",0,0 M,0,207308,,470,274 S,1,207308,209383,0.25,0.5 F,1,207308,209383,0.9,0 C,0,207308,,255,255,255
Sprite,Background,Centre,"sb/ring.png",0,0 M,0,207458,,378,264 S,1,207458,209683,0.25,0.5 F,1,207458,209683,0.9,0 C,0,207458,,255,255,255
Sprite,Background,Centre,"sb/ring.png",0,0 M,0,207758,,293,165 S,1,207758,209833,0.25,0.5 F,1,207758,209833,0.9,0 C,0,207758,,255,255,255
Sprite,Background,Centre,"sb/ring.png",0,0 M,0,207908,,125,355 S,1,207908,210133,0.25,0.5 F,1,207908,210133,0.9,0 C,0,207908,,255,255,255
Sprite,Background,Centre,"sb/ring.png",0,0 M,0,208208,,115,220 S,1,208208,210358,0.25,0.5 F,1,208208,210358,0.9,0 C,0,208208,,255,255,255
Sprite,Background,Centre,"sb/ring.png",0,0 M,0,208508,,390,394 S,1,208508,210658,0.25,0.5 F,1,208508,210658,0.9,0 C,0,208508,,255,255,255
Sprite,Background,Centre,"sb/ring.png",0,0 M,0,208808,,197,290 S,1,208808,210808,0.25,0.5 F,1,208808,210808,0.9,0 C,0,208808,,255,255,255
Sprite,Background,Centre,"sb/ring.png",0,0 M,0,208958,,405,384 S,1,208958,211183,0.25,0.5 F,1,208958,211183,0.9,0 C,0,208958,,255,255,255
Sprite,Background,Centre,"sb/ring.png",0,0 M,0,209258,,421,250 S,1,209258,211258,0.25,0.5 F,1,209258,211258,0.9,0 C,0,209258,,255,255,255
Sprite,Background,Centre,"sb/ring.png",0,0 M,0,209408,,351,202 S,1,209408,211408,0.25,0.5 F,1,209408,211408,0.9,0 C,0,209408,,255,255,255
Sprite,Background,Centre,"sb/ring.png",0,0 M,0,209558,,347,281 S,1,209558,211558,0.25,0.5 F,1,209558,211558,0.9,0 C,0,209558,,255,255,255
Sprite,Background,Centre,"sb/ring.png",0,0 M,0,209708,,428,169 S,1,209708,211708,0.25,0.5 F,1,209708,211708,0.9,0 C,0,209708,,255,255,255
Sprite,Background,Centre,"sb/ring.png",0,0 M,0,209858,,277,150 S,1,209858,212458,0.25,0.5 F,1,209858,212458,0.9,0 C,0,209858,,255,255,255
Sprite,Background,Centre,"sb/ring.png",0,0 M,0,210608,,426,254 S,1,210608,212608,0.25,0.5 F,1,210608,212608,0.9,0 C,0,210608,,255,255,255
Sprite,Background,Centre,"sb/ring.png",0,0 M,0,210758,,220,360 S,1,210758,212758,0.25,0.5 F,1,210758,212758,0.9,0 C,0,210758,,255,255,255
Sprite,Background,Centre,"sb/ring.png",0,0 M,0,210908,,319,417 S,1,210908,213058,0.25,0.5 F,1,210908,213058,0.9,0 C,0,210908,,255,255,255
Sprite,Background,Centre,"sb/ring.png",0,0 M,0,211208,,152,233 S,1,211208,213358,0.25,0.5 F,1,211208,213358,0.9,0 C,0,211208,,255,255,255
Sprite,Background,Centre,"sb/ring.png",0,0 M,0,211508,,389,238 S,1,211508,213733,0.25,0.5 F,1,211508,213733,0.9,0 C,0,211508,,255,255,255
Sprite,Background,Centre,"sb/ring.png",0,0 M,0,211808,,248,263 S,1,211808,213808,0.25,0.5 F,1,211808,213808,0.9,0 C,0,211808,,255,255,255
Sprite,Background,Centre,"sb/ring.png",0,0 M,0,211958,,331,158 S,1,211958,214108,0.25,0.5 F,1,211958,214108,0.9,0 C,0,211958,,255,255,255
Sprite,Background,Centre,"sb/ring.png",0,0 M,0,212258,,461,298 S,1,212258,214258,0.25,0.5 F,1,212258,214258,0.9,0 C,0,212258,,255,255,255
Sprite,Background,Centre,"sb/ring.png",0,0 M,0,212408,,547,241 S,1,212408,214408,0.25,0.5 F,1,212408,214408,0.9,0 C,0,212408,,255,255,255
Sprite,Background,Centre,"sb/ring.png",0,0 M,0,212708,,547,241 S,1,212708,215008,0.25,0.5 F,1,212708,215008,0.9,0 C,0,212708,,255,255,255
Sprite,Background,Centre,"sb/ring.png",0,0 M,0,213308,,245,400 S,1,213308,215308,0.25,0.5 F,1,213308,215308,0.9,0 C,0,213308,,255,255,255
Sprite,Background,Centre,"sb/ring.png",0,0 M,0,213458,,188,330 S,1,213458,215758,0.25,0.5 F,1,213458,215758,0.9,0 C,0,213458,,255,255,255
Sprite,Background,Centre,"sb/ring.png",0,0 M,0,213908,,467,340 S,1,213908,216058,0.25,0.5 F,1,213908,216058,0.9,0 C,0,213908,,255,255,255
Sprite,Background,Centre,"sb/ring.png",0,0 M,0,214133,,386,290 S,1,214133,216133,0.25,0.5 F,1,214133,216133,0.9,0 C,0,214133,,255,255,255
Sprite,Background,Centre,"sb/ring.png",0,0 M,0,214208,,370,298 S,1,214208,216358,0.25,0.5 F,1,214208,216358,0.9,0 C,0,214208,,255,255,255
Sprite,Background,Centre,"sb/ring.png",0,0 M,0,214433,,287,237 S,1,214433,216433,0.25,0.5 F,1,214433,216433,0.9,0 C,0,214433,,255,255,255
Sprite,Background,Centre,"sb/ring.png",0,0 M,0,214508,,270,245 S,1,214508,216583,0.25,0.5 F,1,214508,216583,0.9,0 C,0,214508,,255,255,255
Sprite,Background,Centre,"sb/ring.png",0,0 M,0,214658,,245,114 S,1,214658,216658,0.25,0.5 F,1,214658,216658,0.9,0 C,0,214658,,255,255,255
Sprite,Background,Centre,"sb/ring.png",0,0 M,0,214808,,206,303 S,1,214808,216808,0.25,0.5 F,1,214808,216808,0.9,0 C,0,214808,,255,255,255
Sprite,Background,Centre,"sb/ring.png",0,0 M,0,214958,,79,209 S,1,214958,216958,0.25,0.5 F,1,214958,216958,0.9,0 C,0,214958,,255,255,255
Sprite,Background,Centre,"sb/ring.png",0,0 M,0,215108,,182,213 S,1,215108,217408,0.25,0.5 F,1,215108,217408,0.9,0 C,0,215108,,255,255,255
Sprite,Background,Centre,"sb/ring.png",0,0 M,0,215558,,457,134 S,1,215558,217558,0.25,0.5 F,1,215558,217558,0.9,0 C,0,215558,,255,255,255
Sprite,Background,Centre,"sb/ring.png",0,0 M,0,215708,,342,289 S,1,215708,217708,0.25,0.5 F,1,215708,217708,0.9,0 C,0,215708,,255,255,255
Sprite,Background,Centre,"sb/ring.png",0,0 M,0,215858,,508,280 S,1,215858,217933,0.25,0.5 F,1,215858,217933,0.9,0 C,0,215858,,255,255,255
Sprite,Background,Centre,"sb/ring.png",0,0 M,0,216008,,342,289 S,1,216008,218083,0.25,0.5 F,1,216008,218083,0.9,0 C,0,216008,,255,255,255
Sprite,Background,Centre,"sb/ring.png",0,0 M,0,216158,,425,394 S,1,216158,218158,0.25,0.5 F,1,216158,218158,0.9,0 C,0,216158,,255,255,255
Sprite,Background,Centre,"sb/ring.png",0,0 M,0,216308,,422,304 S,1,216308,218608,0.25,0.5 F,1,216308,218608,0.9,0 C,0,216308,,255,255,255
Sprite,Background,Centre,"sb/ring.png",0,0 M,0,216758,,161,248 S,1,216758,218908,0.25,0.5 F,1,216758,218908,0.9,0 C,0,216758,,255,255,255
Sprite,Background,Centre,"sb/ring.png",0,0 M,0,217058,,347,352 S,1,217058,219058,0.25,0.5 F,1,217058,219058,0.9,0 C,0,217058,,255,255,255
Sprite,Background,Centre,"sb/ring.png",0,0 M,0,217208,,297,417 S,1,217208,219208,0.25,0.5 F,1,217208,219208,0.9,0 C,0,217208,,255,255,255
Sprite,Background,Centre,"sb/ring.png",0,0 M,0,217358,,210,399 S,1,217358,219358,0.25,0.5 F,1,217358,219358,0.9,0 C,0,217358,,255,255,255
Sprite,Background,Centre,"sb/ring.png",0,0 M,0,217508,,271,336 S,1,217508,219508,0.25,0.5 F,1,217508,219508,0.9,0 C,0,217508,,255,255,255
Sprite,Background,Centre,"sb/ring.png",0,0 M,0,217658,,360,360 S,1,217658,219658,0.25,0.5 F,1,217658,219658,0.9,0 C,0,217658,,255,255,255
Sprite,Background,Centre,"sb/ring.png",0,0 M,0,217808,,220,407 S,1,217808,219808,0.25,0.5 F,1,217808,219808,0.9,0 C,0,217808,,255,255,255
Sprite,Background,Centre,"sb/ring.png",0,0 M,0,217958,,374,371 S,1,217958,220108,0.25,0.5 F,1,217958,220108,0.9,0 C,0,217958,,255,255,255
Sprite,Background,Centre,"sb/ring.png",0,0 M,0,218258,,169,117 S,1,218258,220408,0.25,0.5 F,1,218258,220408,0.9,0 C,0,218258,,255,255,255
Sprite,Background,Centre,"sb/ring.png",0,0 M,0,218483,,252,242 S,1,218483,220483,0.25,0.5 F,1,218483,220483,0.9,0 C,0,218483,,255,255,255
Sprite,Background,Centre,"sb/ring.png",0,0 M,0,218558,,252,242 S,1,218558,220633,0.25,0.5 F,1,218558,220633,0.9,0 C,0,218558,,255,255,255
Sprite,Background,Centre,"sb/ring.png",0,0 M,0,218708,,296,152 S,1,218708,220783,0.25,0.5 F,1,218708,220783,0.9,0 C,0,218708,,255,255,255
Sprite,Background,Centre,"sb/ring.png",0,0 M,0,218858,,183,105 S,1,218858,220858,0.25,0.5 F,1,218858,220858,0.9,0 C,0,218858,,255,255,255
Sprite,Background,Centre,"sb/ring.png",0,0 M,0,219008,,236,259 S,1,219008,221008,0.25,0.5 F,1,219008,221008,0.9,0 C,0,219008,,255,255,255
Sprite,Background,Centre,"sb/ring.png",0,0 M,0,219158,,407,228 S,1,219158,221383,0.25,0.5 F,1,219158,221383,0.9,0 C,0,219158,,255,255,255
Sprite,Background,Centre,"sb/ring.png",0,0 M,0,219458,,268,231 S,1,219458,221458,0.25,0.5 F,1,219458,221458,0.9,0 C,0,219458,,255,255,255
Sprite,Background,Centre,"sb/ring.png",0,0 M,0,219608,,296,152 S,1,219608,221608,0.25,0.5 F,1,219608,221608,0.9,0 C,0,219608,,255,255,255
Sprite,Background,Centre,"sb/ring.png",0,0 M,0,219758,,374,311 S,1,219758,221758,0.25,0.5 F,1,219758,221758,0.9,0 C,0,219758,,255,255,255
Sprite,Background,Centre,"sb/ring.png",0,0 M,0,219908,,407,228 S,1,219908,221908,0.25,0.5 F,1,219908,221908,0.9,0 C,0,219908,,255,255,255
Sprite,Background,Centre,"sb/ring.png",0,0 M,0,220058,,296,152 S,1,220058,222058,0.25,0.5 F,1,220058,222058,0.9,0 C,0,220058,,255,255,255
Sprite,Background,Centre,"sb/ring.png",0,0 M,0,220208,,407,228 S,1,220208,222208,0.25,0.5 F,1,220208,222208,0.9,0 C,0,220208,,255,255,255
Sprite,Background,Centre,"sb/ring.png",0,0 M,0,220358,,461,158 S,1,220358,222508,0.25,0.5 F,1,220358,222508,0.9,0 C,0,220358,,255,255,255
Sprite,Background,Centre,"sb/ring.png",0,0 M,0,220658,,268,231 S,1,220658,222958,0.25,0.5 F,1,220658,222958,0.9,0 C,0,220658,,255,255,255
Sprite,Background,Centre,"sb/ring.png",0,0 M,0,221108,,295,421 S,1,221108,223108,0.25,0.5 F,1,221108,223108,0.9,0 C,0,221108,,255,255,255
Sprite,Background,Centre,"sb/ring.png",0,0 M,0,221258,,352,363 S,1,221258,223408,0.25,0.5 F,1,221258,223408,0.9,0 C,0,221258,,255,255,255
Sprite,Background,Centre,"sb/ring.png",0,0 M,0,221558,,164,110 S,1,221558,223708,0.25,0.5 F,1,221558,223708,0.9,0 C,0,221558,,255,255,255
Sprite,Background,Centre,"sb/ring.png",0,0 M,0,221858,,450,217 S,1,221858,223858,0.25,0.5 F,1,221858,223858,0.9,0 C,0,221858,,255,255,255
Sprite,Background,Centre,"sb/ring.png",0,0 M,0,222008,,428,134 S,1,222008,224008,0.25,0.5 F,1,222008,224008,0.9,0 C,0,222008,,255,255,255
Sprite,Background,Centre,"sb/ring.png",0,0 M,0,222158,,348,272 S,1,222158,224158,0.25,0.5 F,1,222158,224158,0.9,0 C,0,222158,,255,255,255
Sprite,Background,Centre,"sb/ring.png",0,0 M,0,222308,,510,160 S,1,222308,224308,0.25,0.5 F,1,222308,224308,0.9,0 C,0,222308,,255,255,255
Sprite,Background,Centre,"sb/ring.png",0,0 M,0,222458,,372,191 S,1,222458,224458,0.25,0.5 F,1,222458,224458,0.9,0 C,0,222458,,255,255,255
Sprite,Background,Centre,"sb/ring.png",0,0 M,0,222608,,430,298 S,1,222608,224608,0.25,0.5 F,1,222608,224608,0.9,0 C,0,222608,,255,255,255
Sprite,Background,Centre,"sb/ring.png",0,0 M,0,222758,,234,283 S,1,222758,224908,0.25,0.5 F,1,222758,224908,0.9,0 C,0,222758,,255,255,255
Sprite,Background,Centre,"sb/ring.png",0,0 M,0,223058,,513,331 S,1,223058,225058,0.25,0.5 F,1,223058,225058,0.9,0 C,0,223058,,255,255,255
Sprite,Background,Centre,"sb/ring.png",0,0 M,0,223208,,446,403 S,1,223208,225208,0.25,0.5 F,1,223208,225208,0.9,0 C,0,223208,,255,255,255
Sprite,Background,Centre,"sb/ring.png",0,0 M,0,223358,,530,346 S,1,223358,225508,0.25,0.5 F,1,223358,225508,0.9,0 C,0,223358,,255,255,255
Sprite,Background,Centre,"sb/ring.png",0,0 M,0,223658,,358,189 S,1,223658,225658,0.25,0.5 F,1,223658,225658,0.9,0 C,0,223658,,255,255,255
Sprite,Background,Centre,"sb/ring.png",0,0 M,0,223808,,411,106 S,1,223808,225808,0.25,0.5 F,1,223808,225808,0.9,0 C,0,223808,,255,255,255
Sprite,Background,Centre,"sb/ring.png",0,0 M,0,223958,,338,177 S,1,223958,226108,0.25,0.5 F,1,223958,226108,0.9,0 C,0,223958,,255,255,255
Sprite,Background,Centre,"sb/ring.png",0,0 M,0,224258,,118,395 S,1,224258,226558,0.25,0.5 F,1,224258,226558,0.9,0 C,0,224258,,255,255,255
Sprite,Background,Centre,"sb/ring.png",0,0 M,0,224708,,311,365 S,1,224708,226708,0.25,0.5 F,1,224708,226708,0.9,0 C,0,224708,,255,255,255
Sprite,Background,Centre,"sb/ring.png",0,0 M,0,224858,,213,312 S,1,224858,226858,0.25,0.5 F,1,224858,226858,0.9,0 C,0,224858,,255,255,255
Sprite,Background,Centre,"sb/ring.png",0,0 M,0,225008,,358,189 S,1,225008,227008,0.25,0.5 F,1,225008,227008,0.9,0 C,0,225008,,255,255,255
Sprite,Background,Centre,"sb/ring.png",0,0 M,0,225158,,280,72 S,1,225158,227308,0.25,0.5 F,1,225158,227308,0.9,0 C,0,225158,,255,255,255
Sprite,Background,Centre,"sb/ring.png",0,0 M,0,225458,,448,140 S,1,225458,227608,0.25,0.5 F,1,225458,227608,0.9,0 C,0,225458,,255,255,255
Sprite,Background,Centre,"sb/ring.png",0,0 M,0,225758,,536,97 S,1,225758,227758,0.25,0.5 F,1,225758,227758,0.9,0 C,0,225758,,255,255,255
Sprite,Background,Centre,"sb/ring.png",0,0 M,0,225908,,358,189 S,1,225908,228208,0.25,0.5 F,1,225908,228208,0.9,0 C,0,225908,,255,255,255
Sprite,Background,Centre,"sb/ring.png",0,0 M,0,226358,,91,180 S,1,226358,228508,0.25,0.5 F,1,226358,228508,0.9,0 C,0,226358,,255,255,255
Sprite,Background,Centre,"sb/ring.png",0,0 M,0,226658,,332,301 S,1,226658,228658,0.25,0.5 F,1,226658,228658,0.9,0 C,0,226658,,255,255,255
Sprite,Background,Centre,"sb/ring.png",0,0 M,0,226808,,356,384 S,1,226808,228808,0.25,0.5 F,1,226808,228808,0.9,0 C,0,226808,,255,255,255
Sprite,Background,Centre,"sb/ring.png",0,0 M,0,226958,,332,301 S,1,226958,229108,0.25,0.5 F,1,226958,229108,0.9,0 C,0,226958,,255,255,255
Sprite,Background,Centre,"sb/ring.png",0,0 M,0,227258,,262,104 S,1,227258,229258,0.25,0.5 F,1,227258,229258,0.9,0 C,0,227258,,255,255,255
Sprite,Background,Centre,"sb/ring.png",0,0 M,0,227408,,420,231 S,1,227408,229408,0.25,0.5 F,1,227408,229408,0.9,0 C,0,227408,,255,255,255
Sprite,Background,Centre,"sb/ring.png",0,0 M,0,227558,,561,142 S,1,227558,229708,0.25,0.5 F,1,227558,229708,0.9,0 C,0,227558,,255,255,255
Sprite,Background,Centre,"sb/ring.png",0,0 M,0,227858,,332,301 S,1,227858,230008,0.25,0.5 F,1,227858,230008,0.9,0 C,0,227858,,255,255,255
Sprite,Background,Centre,"sb/ring.png",0,0 M,0,228158,,86,100 S,1,228158,230308,0.25,0.5 F,1,228158,230308,0.9,0 C,0,228158,,255,255,255
Sprite,Background,Centre,"sb/ring.png",0,0 M,0,228458,,230,307 S,1,228458,230458,0.25,0.5 F,1,228458,230458,0.9,0 C,0,228458,,255,255,255
Sprite,Background,Centre,"sb/ring.png",0,0 M,0,228608,,201,385 S,1,228608,230608,0.25,0.5 F,1,228608,230608,0.9,0 C,0,228608,,255,255,255
Sprite,Background,Centre,"sb/ring.png",0,0 M,0,228758,,151,242 S,1,228758,230758,0.25,0.5 F,1,228758,230758,0.9,0 C,0,228758,,255,255,255
Sprite,Background,Centre,"sb/ring.png",0,0 M,0,228908,,122,170 S,1,228908,230908,0.25,0.5 F,1,228908,230908,0.9,0 C,0,228908,,255,255,255
Sprite,Background,Centre,"sb/ring.png",0,0 M,0,229058,,82,339 S,1,229058,231358,0.25,0.5 F,1,229058,231358,0.9,0 C,0,229058,,255,255,255
Sprite,Background,Centre,"sb/ring.png",0,0 M,0,229508,,279,220 S,1,229508,231508,0.25,0.5 F,1,229508,231508,0.9,0 C,0,229508,,255,255,255
Sprite,Background,Centre,"sb/ring.png",0,0 M,0,229658,,348,278 S,1,229658,231958,0.25,0.5 F,1,229658,231958,0.9,0 C,0,229658,,255,255,255
Sprite,Background,Centre,"sb/ring.png",0,0 M,0,230108,,393,427 S,1,230108,232108,0.25,0.5 F,1,230108,232108,0.9,0 C,0,230108,,255,255,255
Sprite,Background,Centre,"sb/ring.png",0,0 M,0,230258,,525,291 S,1,230258,232408,0.25,0.5 F,1,230258,232408,0.9,0 C,0,230258,,255,255,255
Sprite,Background,Centre,"sb/ring.png",0,0 M,0,230483,,534,213 S,1,230483,232483,0.25,0.5 F,1,230483,232483,0.9,0 C,0,230483,,255,255,255
Sprite,Background,Centre,"sb/ring.png",0,0 M,0,230558,,540,208 S,1,230558,232633,0.25,0.5 F,1,230558,232633,0.9,0 C,0,230558,,255,255,255
Sprite,Background,Centre,"sb/ring.png",0,0 M,0,230708,,289,115 S,1,230708,232783,0.25,0.5 F,1,230708,232783,0.9,0 C,0,230708,,255,255,255
Sprite,Background,Centre,"sb/ring.png",0,0 M,0,230858,,434,56 S,1,230858,232858,0.25,0.5 F,1,230858,232858,0.9,0 C,0,230858,,255,255,255
Sprite,Background,Centre,"sb/ring.png",0,0 M,0,230933,,434,56 S,1,230933,232933,0.25,0.5 F,1,230933,232933,0.9,0 C,0,230933,,255,255,255
Sprite,Background,Centre,"sb/ring.png",0,0 M,0,231008,,434,56 S,1,231008,233083,0.25,0.5 F,1,231008,233083,0.9,0 C,0,231008,,255,255,255
Sprite,Background,Centre,"sb/ring.png",0,0 M,0,231158,,291,281 S,1,231158,233158,0.25,0.5 F,1,231158,233158,0.9,0 C,0,231158,,255,255,255
Sprite,Background,Centre,"sb/ring.png",0,0 M,0,231233,,283,276 S,1,231233,233233,0.25,0.5 F,1,231233,233233,0.9,0 C,0,231233,,255,255,255
Sprite,Background,Centre,"sb/ring.png",0,0 M,0,231308,,275,270 S,1,231308,233383,0.25,0.5 F,1,231308,233383,0.9,0 C,0,231308,,255,255,255
//Storyboard Layer 1 (Fail)
//Storyboard Layer 2 (Pass)
//Storyboard Layer 3 (Foreground)
//Storyboard Layer 4 (Overlay)
//Storyboard Sound Samples

[TimingPoints]
1058,300,4,2,3,40,1,0
11858,-200,4,2,0,40,0,0
29858,-200,4,2,43,50,0,0
47259,-200,4,2,43,5,0,0
49059,-200,4,2,43,50,0,0
51008,-400,4,2,40,40,0,0
51458,-100,4,2,42,75,0,1
53258,-66.6666666666667,4,2,42,75,0,1
53858,-100,4,2,42,75,0,1
55920,-100,4,2,44,75,0,1
56145,-100,4,2,42,75,0,1
58208,-66.6666666666667,4,2,42,75,0,1
58658,-100,4,2,42,75,0,1
60158,-66.6666666666667,4,2,42,75,0,1
60458,-100,4,2,42,75,0,1
60720,-100,4,2,44,75,0,1
60945,-100,4,2,42,75,0,1
62858,-66.6666666666667,4,2,42,75,0,1
63458,-100,4,2,42,75,0,1
65408,-66.6666666666667,4,2,42,75,0,1
65858,-66.6666666666667,4,2,42,75,0,1
67058,-100,4,2,42,75,0,1
67433,-100,4,2,42,75,0,1
67583,-100,4,2,42,75,0,1
68108,-100,4,2,42,75,0,0
68258,-100,4,2,42,50,0,0
78983,-100,4,2,42,50,0,0
79133,-100,4,2,42,50,0,0
80258,-133.333333333333,4,2,40,60,0,0
99458,-200,4,2,43,50,0,0
120008,-133.333333333333,4,2,42,60,0,0
120758,-66.6666666666667,4,2,42,75,0,0
121058,-100,4,2,42,75,0,1
122858,-66.6666666666667,4,2,42,75,0,1
123458,-100,4,2,42,75,0,1
125558,-66.6666666666667,4,2,44,75,0,1
125745,-66.6666666666667,4,2,42,75,0,1
126308,-100,4,2,42,75,0,1
127808,-66.6666666666667,4,2,42,75,0,1
128258,-100,4,2,42,75,0,1
130358,-66.6666666666667,4,2,44,75,0,1
130658,-100,4,2,42,75,0,1
133808,-66.6666666666667,4,2,42,75,0,1
134258,-100,4,2,42,75,0,1
135458,-133.333333333333,4,2,42,75,0,0
137858,-100,4,2,42,75,0,1
137933,-100,4,2,42,75,0,0
140258,-133.333333333333,4,2,42,60,0,0
152258,-66.6666666666667,4,2,42,75,0,0
153908,-100,4,2,42,75,0,0
154583,-100,4,2,42,60,0,0
156983,-100,4,2,40,30,0,0
157958,-400,4,2,40,20,0,0
164258,-400,4,2,40,35,0,0
180158,-66.6666666666667,4,2,42,60,0,0
181508,-100,4,2,42,75,0,1
182858,-66.6666666666667,4,2,42,75,0,1
183458,-100,4,2,42,75,0,1
185258,-66.6666666666667,4,2,42,75,0,1
185520,-100,4,2,44,75,0,1
185633,-100,4,2,42,75,0,1
187808,-66.6666666666667,4,2,42,75,0,1
188258,-100,4,2,42,75,0,1
190358,-66.6666666666667,4,2,44,75,0,1
190658,-100,4,2,42,75,0,1
192458,-66.6666666666667,4,2,42,75,0,1
193508,-100,4,2,42,75,0,1
193808,-66.6666666666667,4,2,42,75,0,1
194708,-100,4,2,42,75,0,1
195458,-133.333333333333,4,2,42,75,0,0
197108,-100,4,2,42,75,0,0
199508,-133.333333333333,4,2,42,75,0,0
200558,-100,4,2,42,75,0,1
202358,-66.6666666666667,4,2,44,75,0,1
202658,-100,4,2,42,75,0,1
207158,-66.6666666666667,4,2,44,75,0,1
207458,-66.6666666666667,4,2,42,75,0,1
207908,-100,4,2,42,75,0,1
212258,-100,4,2,42,75,0,0
212708,-133.333333333333,4,2,42,75,0,0
213908,-100,4,2,42,75,0,0
214658,-100,4,2,42,75,0,0
215858,-66.6666666666667,4,2,42,75,0,0
216308,-100,4,2,42,75,0,0
229058,-133.333333333333,4,2,42,75,0,0
230558,-66.6666666666667,4,2,42,75,0,0
231458,-133.333333333333,4,2,40,40,0,0
242258,-200,4,2,40,30,0,0
248743,526.315789473684,4,2,3,40,1,0
248874,555.555555555556,4,2,3,40,1,0
249012,659.340659340659,4,2,3,40,1,0
249176,615.384615384615,4,2,3,40,1,0
249252,300,4,2,3,40,1,0

[Colours]
Combo1 : 179,32,123
Combo2 : 97,54,148
Combo3 : 137,37,120
Combo4 : 58,69,146
Combo5 : 122,122,122
Combo6 : 193,193,198
Combo7 : 234,85,164

[HitObjects]
256,192,5858,12,2,10658,0:2:0:0:
104,279,11558,53,0,0:0:0:0:
104,279,11858,2,0,P|151:269|208:266,1,95,2|0,0:0|0:0,0:0:0:0:
273,170,12458,1,0,0:0:0:0:
268,329,12758,1,0,0:0:0:0:
355,206,13058,2,0,B|368:161|368:161|348:107,2,95,2|0|0,0:0|0:0|0:0,0:0:0:0:
210,111,13958,1,0,0:0:0:0:
158,165,14108,1,0,0:0:0:0:
142,156,14258,6,0,B|53:145|101:197|1:183,2,142.5,6|0|0,0:0|0:0|0:0,0:0:0:0:
235,210,15458,1,2,0:0:0:0:
256,192,15533,12,2,17858,0:0:0:0:
348,44,18758,85,0,0:0:0:0:
348,44,19058,2,0,P|321:79|341:133,1,95,0|2,0:0|0:0,0:0:0:0:
466,190,19658,2,0,P|478:145|450:108,1,95,0|2,0:0|0:0,0:0:0:0:
349,143,20258,2,0,P|289:147|152:158,1,190,6|0,0:0|3:0,0:0:0:0:
98,92,21158,1,0,0:0:0:0:
205,251,21458,6,0,P|157:245|110:243,1,95,2|4,0:0|0:0,0:0:0:0:
239,93,22058,2,0,B|264:129|264:129|253:185,1,95,0|2,0:0|0:0,0:0:0:0:
387,334,22658,1,2,0:0:0:0:
444,271,22958,2,0,L|435:171,1,95
454,97,23558,1,2,0:0:0:0:
339,247,23858,86,0,P|344:186|343:93,2,142.5,6|0|0,0:0|0:0|0:0,0:0:0:0:
298,322,25058,1,2,0:0:0:0:
256,192,25133,12,0,27458,0:0:0:0:
256,192,27533,12,0,29858,3:2:0:0:
193,134,30008,69,0,3:0:0:0:
193,134,30158,2,0,L|94:125,2,95,8|0|2,0:0|0:0|0:0,0:0:0:0:
313,85,30908,1,8,0:0:0:0:
294,174,31058,2,0,L|302:235,1,47.5,0|8,0:0|0:0,0:0:0:0:
217,307,31358,2,0,L|209:368,1,47.5,4|0,0:0|0:0,0:0:0:0:
279,209,31658,2,0,L|266:103,1,95,2|0,0:0|0:0,0:0:0:0:
28,195,32258,5,2,3:2:0:0:
66,125,32408,1,2,3:2:0:0:
136,160,32558,1,8,0:0:0:0:
100,231,32708,1,2,3:2:0:0:
92,219,32858,70,0,B|158:209|135:234|196:222,1,95,2|0,0:0|0:0,0:0:0:0:
366,170,33308,1,8,0:0:0:0:
291,123,33458,2,0,P|277:87|298:28,1,95,2|4,0:0|0:0,0:0:0:0:
366,170,33908,1,0,0:0:0:0:
441,223,34058,2,0,L|439:319,1,95,2|0,0:0|0:0,0:0:0:0:
485,96,34658,5,2,3:2:0:0:
401,39,34808,1,2,3:2:0:0:
335,92,34958,1,8,0:0:0:0:
319,83,35108,1,2,3:2:0:0:
238,34,35258,6,0,P|192:39|135:42,1,95,2|0,0:0|0:0,0:0:0:0:
110,128,35858,2,0,P|137:130|164:135,1,47.5,2|2,3:2|3:2,0:0:0:0:
143,41,36158,1,8,0:0:0:0:
51,219,36308,2,0,B|124:200|116:239|195:220,1,142.5,2|2,3:2|0:0,0:0:0:0:
323,296,36908,1,0,0:0:0:0:
245,348,37058,70,0,P|234:319|236:288,1,47.5,2|0,0:0|0:0,0:0:0:0:
357,206,37358,1,8,0:0:0:0:
357,206,37508,2,0,L|363:107,1,95,2|0,0:0|0:0,0:0:0:0:
189,104,37958,2,0,L|183:5,1,95,2|0,0:0|0:0,0:0:0:0:
278,150,38408,5,8,0:0:0:0:
378,95,38558,1,4,0:0:0:0:
261,49,38708,1,8,0:0:0:0:
273,60,38858,6,0,B|291:104|291:104|277:152,1,95,2|0,0:0|0:0,0:0:0:0:
75,282,39458,2,0,B|50:211|50:211|72:125,1,142.5,6|0,0:0|0:0,0:0:0:0:
66,145,40358,1,2,0:0:0:0:
161,242,40508,1,8,0:0:0:0:
237,186,40658,2,0,L|337:178,2,95,2|4|0,0:0|0:0|0:0,0:0:0:0:
0,207,41558,1,2,0:0:0:0:
217,176,41858,69,2,3:2:0:0:
175,248,42008,1,2,3:2:0:0:
95,244,42158,1,8,0:0:0:0:
133,171,42308,1,2,3:2:0:0:
217,176,42458,6,0,L|317:168,1,95,2|0,0:0|0:0,0:0:0:0:
469,98,42908,1,0,0:0:0:0:
395,242,43058,5,2,0:0:0:0:
366,90,43208,1,0,3:0:0:0:
481,194,43358,1,8,0:0:0:0:
331,178,43508,1,0,3:0:0:0:
493,205,43658,2,0,B|461:211|461:211|440:227|440:227|398:232,1,95,2|0,0:0|0:0,0:0:0:0:
61,92,44258,70,0,B|93:98|93:98|114:114|114:114|156:119,1,95,2|8,3:2|0:0,0:0:0:0:
262,75,44708,1,2,3:2:0:0:
262,75,44858,2,0,P|239:123|253:215,1,142.5,2|0,0:0|0:0,0:0:0:0:
422,133,45458,2,0,P|417:106|414:82,1,47.5,0|8,0:0|0:0,0:0:0:0:
337,175,45758,2,0,P|345:220|328:281,1,95,4|0,0:0|0:0,0:0:0:0:
178,262,46208,1,0,0:0:0:0:
114,161,46358,5,0,3:2:0:0:
249,209,46508,1,0,3:2:0:0:
114,161,46658,2,0,P|112:196|115:226,1,47.5,2|0,0:0|0:0,0:0:0:0:
259,384,46958,2,0,P|258:339|255:278,1,95,2|0,0:0|0:0,0:0:0:0:
256,192,47408,12,0,49058,0:0:0:0:
465,63,50858,37,2,0:0:0:0:
465,63,51008,2,0,P|463:99|463:120,1,47.5,2|2,0:0|0:0,0:0:0:0:
402,176,51458,5,4,0:3:0:0:
256,80,51608,1,0,0:0:0:0:
256,80,51683,1,0,0:0:0:0:
256,80,51758,1,8,0:0:0:0:
169,130,51908,2,0,B|132:126|132:126|110:138|110:138|69:137,2,95,2|2|0,0:0|0:0|3:0,0:0:0:0:
343,116,52358,5,10,0:0:0:0:
159,224,52508,1,0,0:0:0:0:
378,384,52658,2,0,B|397:338|397:338|378:293,1,95,2|0,0:1|3:0,0:0:0:0:
259,165,52958,2,0,L|266:267,1,95,8|0,0:0|0:0,0:0:0:0:
299,341,53183,1,0,0:0:0:0:
299,341,53258,86,0,P|262:336|223:336,1,71.2500027179719,2|0,0:1|0:0,0:0:0:0:
88,230,53408,2,0,P|123:229|158:224,1,71.2500027179719,2|0,3:1|0:0,0:0:0:0:
343,116,53558,2,0,B|351:80|351:80|334:42,1,71.2500027179719,8|0,0:0|0:0,0:0:0:0:
250,7,53708,1,2,0:1:0:0:
333,135,53858,6,2,B|375:130|375:130|398:139|398:139|437:135,1,95,2|2,3:1|0:0,0:0:0:0:
435,142,54083,1,2,0:0:0:0:
444,148,54158,1,10,0:1:0:0:
512,97,54308,1,2,0:0:0:0:
365,218,54458,1,2,0:0:0:0:
489,285,54608,85,2,3:1:0:0:
316,369,54758,1,10,0:1:0:0:
489,285,54908,2,0,P|459:278|431:277,1,47.5,2|0,0:1|0:0,0:0:0:0:
284,254,55058,2,0,B|269:208|269:208|291:159,1,95,4|0,0:0|3:0,0:0:0:0:
501,47,55358,2,0,B|520:89|520:89|505:135,1,95,10|0,0:1|3:0,0:0:0:0:
437,198,55583,1,0,3:0:0:0:
437,198,55658,6,0,L|373:183,1,47.5,2|0,3:1|0:0,0:0:0:0:
393,97,55808,2,0,L|329:112,1,47.5,2|0,3:1|0:0,0:0:0:0:
304,265,55958,1,10,0:1:0:0:
457,189,56108,1,10,0:1:0:0:
239,90,56258,86,0,B|291:80|291:80|329:94|329:94|385:84,1,142.5,6|0,0:1|0:0,0:0:0:0:
377,85,56558,1,8,0:0:0:0:
221,233,56708,2,0,B|204:280|204:280|220:333,1,95,2|0,0:0|0:0,0:0:0:0:
291,175,57008,1,0,1:0:0:0:
167,43,57158,1,10,0:0:0:0:
239,0,57308,1,2,0:2:0:0:
163,142,57458,6,0,P|109:153|52:153,1,95,2|2,0:1|1:2,0:0:0:0:
119,332,57758,1,10,0:0:0:0:
305,280,57908,2,2,P|359:280|443:364,1,142.5,2|0,1:1|0:0,0:1:0:0:
511,373,58208,2,0,B|523:339|523:339|509:295,2,71.2500027179719,2|2|8,0:1|0:0|0:0,0:0:0:0:
308,159,58508,1,2,0:1:0:0:
512,186,58658,86,0,B|471:188|459:204|415:203,1,95,6|2,3:2|0:0,0:0:0:0:
412,200,58883,1,2,0:0:0:0:
405,196,58958,1,10,0:1:0:0:
384,17,59108,1,0,0:0:0:0:
437,111,59258,1,2,0:1:0:0:
322,65,59408,1,2,3:1:0:0:
503,59,59558,1,8,0:0:0:0:
322,65,59708,6,0,L|308:166,1,95,2|4,0:0|0:1,0:0:0:0:
133,176,60008,1,0,3:0:0:0:
218,199,60158,2,0,B|225:159|225:159|206:126,1,71.2500027179719,10|0,0:1|0:0,0:0:0:0:
49,147,60308,2,0,B|42:187|42:187|61:220,1,71.2500027179719,2|0,3:1|0:0,0:0:0:0:
135,358,60458,86,0,L|121:252,1,95,2|0,0:1|3:0,0:0:0:0:
133,176,60683,1,0,3:0:0:0:
133,176,60758,1,10,0:1:0:0:
14,291,60908,1,10,0:1:0:0:
133,176,61058,5,4,3:3:0:0:
225,207,61208,1,0,0:0:0:0:
225,207,61283,1,0,0:0:0:0:
225,207,61358,1,8,0:0:0:0:
368,132,61508,1,0,0:0:0:0:
435,185,61658,86,0,B|452:229|452:229|441:282,1,95,0|0,0:0|3:0,0:0:0:0:
245,224,61958,1,10,0:0:0:0:
283,141,62108,2,0,B|266:97|266:97|277:44,1,95,2|2,0:0|0:1,0:0:0:0:
354,302,62408,1,0,3:0:0:0:
422,200,62558,6,0,L|317:214,1,95,10|0,0:1|3:0,0:0:0:0:
239,293,62783,1,0,3:0:0:0:
239,293,62858,2,0,B|245:270|245:270|239:252|239:252|245:224,1,71.2500027179719,2|0,3:1|0:0,0:0:0:0:
67,160,63008,2,0,B|95:166|95:166|113:160|113:160|148:168,1,71.2500027179719,2|0,3:1|0:0,0:0:0:0:
275,50,63158,2,0,B|247:56|247:56|229:50|229:50|205:55,1,71.2500027179719,8|0,0:0|0:0,0:0:0:0:
76,169,63308,2,0,B|104:175|104:175|122:169|122:169|157:177,1,71.2500027179719,2|0,0:1|0:0,0:0:0:0:
283,141,63458,86,0,B|226:149|226:149|200:177|200:177|136:187,1,142.5,6|0,3:1|0:0,0:0:0:0:
162,193,63758,1,10,0:1:0:0:
146,350,63908,2,0,B|98:358|98:358|49:330,1,95,0|2,0:0|0:1,0:0:0:0:
44,256,64133,1,0,0:0:0:0:
44,256,64208,6,0,L|94:264,1,47.5,2|0,3:2|0:0,0:0:0:0:
254,165,64358,2,0,L|304:157,1,47.5,10|0,0:2|0:0,0:0:0:0:
397,222,64508,1,2,0:0:0:0:
242,182,64658,86,0,L|229:75,1,95,4|2,0:2|0:1,0:0:0:0:
465,25,64958,1,10,0:0:0:0:
401,76,65108,2,2,B|382:121|380:161|380:161|407:215|430:240,1,142.5,2|0,3:1|0:1,0:1:0:0:
494,241,65408,2,0,B|505:208|505:208|487:164,1,71.2500027179719,2|0,3:2|0:0,0:0:0:0:
317,222,65558,2,0,B|306:255|306:255|324:299,1,71.2500027179719,10|0,0:2|0:0,0:0:0:0:
470,354,65708,5,0,0:0:0:0:
470,354,65783,1,0,0:0:0:0:
470,354,65858,2,0,B|421:343|421:343|370:356,1,95.0000036239625,10|0,0:1|0:0,0:0:0:0:
227,288,66058,2,0,B|276:277|276:277|327:290,1,95.0000036239625,2|0,3:1|0:0,0:0:0:0:
470,354,66258,86,0,L|475:256,1,95.0000036239625,2|0,3:1|0:0,0:0:0:0:
406,208,66458,2,0,L|401:110,1,95.0000036239625,10|0,0:1|0:0,0:0:0:0:
307,15,66658,6,0,P|291:58|312:99,1,95.0000036239625,2|0,3:1|0:0,0:0:0:0:
498,175,66858,2,0,P|519:134|503:90,1,95.0000036239625,2|0,3:1|0:0,0:0:0:0:
307,121,67058,86,0,B|272:132|272:132|260:150|260:150|196:165,2,95,2|0|8,3:1|3:0|0:0,0:0:0:0:
405,29,67508,1,8,0:0:0:0:
336,205,67658,1,0,0:0:0:0:
200,73,67808,2,0,P|149:68|106:63,1,95,0|8,3:0|0:0,0:0:0:0:
401,113,68108,5,4,0:1:0:0:
256,192,68183,12,0,70508,3:0:0:0:
142,129,70658,5,4,3:3:0:0:
269,290,70808,1,0,3:0:0:0:
338,236,70958,2,0,L|437:232,1,95,2|0,3:2|3:0,0:0:0:0:
432,232,71558,5,0,3:0:0:0:
269,290,72008,1,0,3:0:0:0:
211,209,72158,1,0,3:0:0:0:
212,197,72233,1,0,3:0:0:0:
213,185,72308,1,0,3:0:0:0:
214,173,72383,1,0,3:0:0:0:
216,161,72458,1,8,0:3:0:0:
293,94,72608,5,0,3:0:0:0:
112,169,72758,1,8,0:3:0:0:
80,53,72908,1,8,0:3:0:0:
77,61,72983,1,8,0:3:0:0:
75,69,73058,1,4,3:3:0:0:
3,120,73208,69,0,3:0:0:0:
162,81,73358,1,0,3:0:0:0:
31,202,73508,2,0,L|14:308,2,95,2|2|2,3:2|3:2|3:2,0:0:0:0:
31,202,73958,5,0,3:0:0:0:
182,266,74408,1,0,3:0:0:0:
238,193,74558,1,0,3:0:0:0:
236,181,74633,1,0,3:0:0:0:
235,169,74708,1,0,3:0:0:0:
233,157,74783,1,0,3:0:0:0:
231,145,74858,1,0,3:0:0:0:
162,84,75008,5,0,3:0:0:0:
333,165,75158,1,8,0:3:0:0:
182,266,75308,1,0,3:0:0:0:
333,165,75458,70,0,B|371:167|371:167|386:183|386:183|428:186,2,95,4|0|2,0:3|3:0|3:2,0:0:0:0:
133,177,75908,1,0,3:0:0:0:
133,177,76358,5,0,3:0:0:0:
77,232,76808,1,0,0:0:0:0:
0,214,77258,1,0,0:0:0:0:
0,214,77708,1,0,0:0:0:0:
108,316,77858,5,4,3:0:0:0:
54,150,78008,1,0,3:0:0:0:
27,308,78158,1,10,0:3:0:0:
159,248,78308,2,0,L|262:238,1,95,10|0,0:3|3:0,0:0:0:0:
426,94,78608,2,0,B|396:81|376:79|376:79|351:89|331:103,1,95,0|8,3:0|0:3,0:0:0:0:
423,190,78908,1,0,3:0:0:0:
345,309,79058,1,8,0:0:0:0:
345,309,79208,70,0,L|323:114,1,190,2|0,0:0|0:0,0:0:0:0:
152,89,79658,2,0,B|103:103|103:103|49:81,1,95,2|0,0:0|0:0,0:0:0:0:
221,25,79958,1,2,0:0:0:0:
175,180,80108,1,2,0:0:0:0:
323,120,80258,6,0,B|408:121|374:165|463:160,1,142.500005435944,4|10,0:1|0:0,0:0:0:0:
244,234,80708,1,2,0:0:0:0:
175,180,80858,2,0,P|159:218|157:253,1,71.2500027179719,0|0,0:3|1:0,0:0:0:0:
342,336,81158,2,0,P|338:300|323:268,1,71.2500027179719,8|2,0:0|0:0,0:0:0:0:
147,266,81458,6,0,P|102:273|65:286,1,71.2500027179719,2|0,0:0|1:0,0:0:0:0:
309,176,81758,2,0,P|354:183|391:196,1,71.2500027179719,8|0,0:0|1:0,0:0:0:0:
175,180,82058,2,0,P|148:123|163:38,1,142.500005435944,2|8,0:0|0:0,0:0:0:0:
244,234,82508,1,0,0:0:0:0:
431,80,82658,70,0,B|378:61|378:61|311:85,1,106.875004076958,0|0,1:0|0:0,0:0:0:0:
248,118,82958,2,0,L|240:38,1,71.2500027179719,8|2,0:0|0:1,0:0:0:0:
380,161,83258,1,0,1:0:0:0:
306,300,83408,2,0,L|298:370,1,71.2500027179719,2|8,1:1|0:0,0:0:0:0:
474,291,83708,1,2,0:0:0:0:
388,254,83858,6,0,B|344:245|295:272|234:257,1,142.500005435944,4|8,1:2|0:0,0:0:0:0:
10,88,84308,2,0,B|54:79|103:106|164:91,1,142.500005435944,0|0,1:0|1:0,0:0:0:0:
63,302,84758,2,0,P|45:332|52:366,1,71.2500027179719,8|0,0:0|0:0,0:0:0:0:
150,299,85058,6,0,P|138:246|129:194,1,106.875004076958,4|0,0:0|0:0,0:0:0:0:
129,194,85358,1,10,0:2:0:0:
60,128,85508,2,0,P|47:170|34:206,1,71.2500027179719,2|0,0:0|0:0,0:0:0:0:
233,239,85808,1,0,1:0:0:0:
190,88,85958,1,8,0:0:0:0:
304,173,86108,70,0,B|386:145|438:207|438:207,1,142.500005435944,2|0,0:0|1:0,0:0:0:0:
279,335,86558,1,8,0:0:0:0:
279,335,86708,2,0,B|197:363|145:301|145:301,1,142.500005435944,0|0,1:0|1:0,0:0:0:0:
112,222,87158,2,0,P|117:180|120:149,1,71.2500027179719,8|0,0:0|0:0,0:0:0:0:
186,95,87458,5,0,1:0:0:0:
25,176,87608,1,2,0:1:0:0:
49,101,87758,1,8,0:0:0:0:
205,174,87908,2,0,L|281:183,1,71.2500027179719,2|2,0:1|0:1,0:0:0:0:
489,104,88208,1,0,1:0:0:0:
418,48,88358,2,0,L|342:39,1,71.2500027179719,8|2,0:0|0:0,0:0:0:0:
417,169,88658,6,0,P|427:230|447:318,1,142.500005435944,2|8,0:0|0:0,0:0:0:0:
275,182,89108,1,0,1:0:0:0:
335,109,89258,2,0,P|344:65|347:26,1,71.2500027179719,0|0,0:0|1:0,0:0:0:0:
435,181,89558,2,0,P|392:195|357:212,1,71.2500027179719,8|0,0:0|0:0,0:0:0:0:
192,133,89858,70,0,P|168:169|186:271,1,142.500005435944,4|10,1:0|0:2,0:0:0:0:
267,309,90308,2,0,B|278:272|278:272|268:231,1,71.2500027179719,2|0,0:0|0:0,0:0:0:0:
133,190,90608,1,0,1:0:0:0:
192,133,90758,6,0,P|227:129|268:123,1,71.2500027179719,10|0,0:2|0:0,0:0:0:0:
156,282,91058,2,0,P|120:276|85:272,1,71.2500027179719,2|0,0:0|1:0,0:0:0:0:
93,109,91358,2,0,P|128:105|169:99,1,71.2500027179719,8|0,0:0|1:0,0:0:0:0:
232,37,91658,1,2,0:0:0:0:
133,190,91808,1,0,1:0:0:0:
262,123,91958,2,0,B|340:131|315:168|392:189,1,142.500005435944,10|0,0:0|1:0,0:0:0:0:
508,81,92408,5,2,0:0:0:0:
373,52,92558,2,0,P|349:81|355:120,1,71.2500027179719,8|2,0:0|0:1,0:0:0:0:
489,218,92858,2,0,P|490:183|467:157,1,71.2500027179719,2|0,0:1|1:0,0:0:0:0:
316,258,93158,2,0,P|270:266|233:275,1,71.2500027179719,10|0,0:2|0:0,0:0:0:0:
155,156,93458,70,0,P|210:166|281:173,1,106.875004076958,2|0,0:0|0:0,0:0:0:0:
260,171,93758,1,8,0:0:0:0:
395,317,93908,2,0,B|409:285|417:248|417:248|407:212|378:178,1,142.500005435944,2|0,1:2|1:0,0:0:0:0:
246,271,94358,2,0,P|200:279|163:288,1,71.2500027179719,8|0,0:0|0:0,0:0:0:0:
219,81,94658,6,0,P|291:72|346:94,1,106.875004076958,4|0,0:0|0:0,0:0:0:0:
322,81,94958,1,8,0:0:0:0:
435,100,95108,2,0,P|426:55|424:27,1,71.2500027179719,2|0,0:0|0:0,0:0:0:0:
273,168,95408,2,0,P|269:203|262:238,1,71.2500027179719,0|8,1:0|0:0,0:0:0:0:
398,344,95708,6,0,B|389:282|375:260|369:203,1,142.500005435944,2|2,0:0|1:2,0:0:0:0:
209,312,96158,1,8,0:0:0:0:
146,241,96308,2,0,B|155:179|168:157|175:100,1,142.500005435944,2|0,0:2|0:0,0:0:0:0:
355,134,96758,2,0,P|360:166|370:209,1,71.2500027179719,10|0,0:0|3:0,0:0:0:0:
77,49,97058,70,0,P|64:89|69:126,1,71.2500027179719,0|2,1:0|0:1,0:0:0:0:
208,179,97358,2,0,B|170:168|170:168|127:183,2,71.2500027179719,8|2|2,0:0|0:1|0:1,0:0:0:0:
298,182,97808,1,0,1:0:0:0:
198,192,97958,2,0,B|147:200|147:200|123:226|123:226|67:234,1,142.500005435944,8|0,0:0|0:0,0:0:0:0:
159,44,98408,1,0,1:0:0:0:
227,100,98558,2,0,L|303:105,1,71.2500027179719,8|0,0:0|1:0,0:0:0:0:
72,142,98858,5,0,1:0:0:0:
72,142,98933,1,0,1:0:0:0:
72,142,99008,1,0,1:0:0:0:
203,279,99158,1,10,0:0:0:0:
147,354,99308,1,0,1:0:0:0:
203,279,99458,6,0,L|314:268,1,95,6|0,0:0|1:0,0:0:0:0:
297,269,100058,1,8,0:0:0:0:
297,269,100358,69,0,3:0:0:0:
385,278,100508,1,0,3:0:0:0:
441,208,100658,1,0,0:0:0:0:
441,208,100808,1,0,1:0:0:0:
188,131,100958,5,2,0:0:0:0:
100,121,101108,1,0,1:0:0:0:
44,192,101258,1,8,0:0:0:0:
44,192,101408,1,0,1:0:0:0:
188,131,101558,6,0,L|253:136,1,47.5,2|0,0:0|0:0,0:0:0:0:
309,91,101858,2,0,B|323:47|323:47|307:-2,2,95,4|0|8,1:2|1:0|0:0,0:0:0:0:
309,91,102758,1,0,3:0:0:0:
352,167,102908,1,0,3:0:0:0:
235,134,103058,69,2,0:0:0:0:
235,134,103208,1,0,1:0:0:0:
280,212,103358,1,0,0:0:0:0:
280,212,103508,1,0,1:0:0:0:
313,95,103658,1,8,0:0:0:0:
280,212,103808,2,0,P|286:255|293:322,1,95,0|0,1:0|1:0,0:0:0:0:
92,140,104258,6,0,P|97:92|103:45,2,95,6|0|8,0:2|1:0|0:0,0:0:0:0:
92,140,105158,1,2,0:0:0:0:
42,288,105458,5,2,0:0:0:0:
100,225,105658,69,2,0:0:0:0:
183,261,105858,5,2,0:0:0:0:
284,201,106058,5,2,0:0:0:0:
391,266,106258,69,2,0:0:0:0:
411,67,106458,5,2,0:0:0:0:
345,147,106658,6,0,B|307:140|282:158|238:147,1,95,4|0,1:2|1:0,0:0:0:0:
190,94,107108,2,0,L|192:41,1,47.5,2|8,0:0|0:0,0:0:0:0:
39,240,107558,2,0,L|42:295,2,47.5,2|2|0,0:0|0:0|0:0,0:0:0:0:
12,160,108008,1,0,1:0:0:0:
128,254,108158,1,2,0:0:0:0:
187,191,108308,1,0,1:0:0:0:
336,297,108458,70,0,L|437:289,1,95,8|2,0:0|0:0,0:0:0:0:
250,333,109058,6,0,P|236:299|242:254,1,71.25,0|0,1:0|0:0,0:0:0:0:
261,245,109358,2,0,P|275:211|269:166,1,71.25,0|0,1:0|0:0,0:0:0:0:
206,120,109658,2,0,P|158:126|103:129,2,95,8|2|0,0:0|0:0|3:0,0:0:0:0:
330,32,110408,1,0,1:0:0:0:
388,90,110558,2,0,L|382:140,1,47.5,2|0,0:0|1:0,0:0:0:0:
349,325,110858,1,8,0:0:0:0:
284,271,111008,2,0,L|272:173,1,95,0|0,1:0|0:0,0:0:0:0:
165,295,111458,6,0,P|131:281|86:287,1,71.25,4|0,1:2|0:0,0:0:0:0:
77,306,111758,2,0,P|43:320|-2:314,1,71.25,0|0,1:0|0:0,0:0:0:0:
10,318,112058,1,8,0:0:0:0:
77,196,112358,2,0,P|112:191|127:193,1,47.5,2|0,0:0|3:0,0:0:0:0:
226,75,112658,70,0,P|263:72|327:60,1,95,2|2,3:2|0:0,0:0:0:0:
454,197,113108,1,0,1:0:0:0:
384,158,113258,1,8,0:0:0:0:
316,263,113408,1,0,1:0:0:0:
239,226,113558,2,0,L|234:163,1,47.5,2|0,0:0|0:0,0:0:0:0:
395,146,113858,6,0,L|399:51,2,95,4|0|8,1:2|1:0|0:0,0:0:0:0:
235,178,114758,2,0,L|181:170,1,47.5,0|2,3:0|0:0,0:0:0:0:
47,272,115058,2,0,L|-10:284,2,47.5,0|0|2,0:0|1:0|0:0,3:0:0:0:
114,222,115508,1,0,1:0:0:0:
114,222,115658,6,0,B|98:175|98:175|110:125,1,95,8|2,0:0|0:0,0:0:0:0:
195,342,116258,1,0,0:0:0:0:
359,178,120008,6,0,P|356:201|350:226,3,35.625001358986
392,142,120308,2,0,P|395:165|402:190,3,35.625001358986
305,123,120608,5,0,0:0:0:0:
305,123,120683,1,0,0:0:0:0:
305,123,120758,2,0,B|334:115|334:115|347:120|347:120|374:117,1,71.2500027179719,0|0,3:0|3:0,0:0:0:0:
460,88,120908,2,0,B|430:95|430:95|418:91|418:91|390:93,1,71.2500027179719,0|0,3:0|3:0,0:0:0:0:
279,105,121058,5,4,0:3:0:0:
194,247,121208,1,0,0:0:0:0:
106,189,121358,1,8,0:0:0:0:
206,234,121508,6,0,B|261:225|261:225|298:239|298:239|352:231,1,142.5,2|0,0:0|0:0,0:0:0:0:
362,241,121808,1,0,3:0:0:0:
211,147,121958,1,8,0:0:0:0:
391,94,122108,2,0,B|404:45|404:45|388:-3,1,95,2|2,0:0|0:1,0:0:0:0:
224,157,122408,1,0,3:0:0:0:
330,220,122558,2,0,L|340:322,1,95,10|0,0:2|0:0,0:0:0:0:
417,379,122783,1,0,0:0:0:0:
417,379,122858,86,0,B|436:345|436:345|425:303,1,71.2500027179719,2|0,3:1|0:0,0:0:0:0:
245,288,123008,2,0,B|236:319|236:319|255:353,1,71.2500027179719,2|0,3:1|0:3,0:3:0:0:
432,235,123158,2,0,P|440:203|426:169,1,71.2500027179719,8|0,0:0|0:0,0:0:0:0:
265,147,123308,2,0,P|257:115|271:81,1,71.2500027179719,2|0,0:1|0:0,0:0:0:0:
402,81,123458,6,2,B|331:93|346:153|253:157,1,142.5,0|0,0:0|0:0,3:1:0:0:
265,147,123758,1,10,0:1:0:0:
118,118,123908,1,2,0:0:0:0:
265,147,124058,2,0,P|272:191|277:249,1,95,2|2,0:0|3:1,0:0:0:0:
112,299,124358,1,10,0:1:0:0:
49,236,124508,2,0,P|34:166|26:95,1,142.5,2|0,0:0|0:0,0:0:0:0:
26,95,124808,1,0,3:0:0:0:
138,211,124958,86,0,B|184:195|184:195|238:214,1,95,10|0,0:1|3:0,0:0:0:0:
389,307,125258,2,0,B|343:323|343:323|289:304,1,95,2|2,3:1|3:1,0:0:0:0:
214,363,125483,1,0,3:0:0:0:
214,363,125558,2,0,P|208:317|203:286,1,71.2500027179719,10|0,0:1|0:0,0:0:0:0:
346,230,125708,2,0,P|349:194|357:153,1,71.2500027179719,10|0,0:1|0:0,0:0:0:0:
143,108,125858,6,0,B|58:117|98:169|3:178,2,142.500005435944,4|2|10,0:1|0:0|0:0,0:0:0:0:
312,16,126308,2,0,P|364:25|417:27,1,95,2|0,0:0|0:0,0:0:0:0:
269,175,126608,1,0,1:0:0:0:
346,230,126758,1,8,0:0:0:0:
425,110,126908,1,2,0:0:0:0:
192,127,127058,86,0,B|173:174|173:174|196:227,1,95,2|0,0:1|1:0,0:0:0:0:
388,342,127358,1,8,0:0:0:0:
439,251,127508,2,2,P|428:180|424:109,1,142.5,2|0,1:1|0:0,0:1:0:0:
506,92,127808,2,0,B|541:110|541:110|506:118,2,71.2500027179719,2|2|8,3:2|0:2|0:0,0:0:0:0:
346,230,128108,1,2,0:1:0:0:
286,135,128258,6,0,P|229:131|191:126,1,95,6|2,3:2|0:0,0:0:0:0:
191,126,128483,1,2,0:0:0:0:
191,126,128558,1,10,0:1:0:0:
346,65,128708,1,0,0:0:0:0:
240,221,128858,1,2,0:1:0:0:
110,121,129008,1,2,3:1:0:0:
156,52,129158,1,8,0:0:0:0:
231,238,129308,2,0,P|237:285|242:337,1,95,2|4,0:0|0:1,0:0:0:0:
30,292,129608,1,0,3:0:0:0:
65,212,129758,86,0,B|113:221|113:221|163:200,1,95,10|2,0:1|3:1,0:0:0:0:
301,69,130058,1,2,0:1:0:0:
350,232,130208,1,2,3:2:0:0:
291,57,130358,6,0,B|255:65|255:65|209:55,1,71.2500027179719,10|0,0:1|0:0,0:0:0:0:
361,240,130508,2,0,B|397:232|397:232|443:242,1,71.2500027179719,10|0,0:1|0:0,0:0:0:0:
256,315,130658,86,0,L|266:173,1,142.5,4|2,0:3|0:0,0:0:0:0:
280,158,130958,2,0,P|327:151|380:140,1,95,10|2,0:0|0:0,0:0:0:0:
355,338,131258,1,0,0:0:0:0:
176,220,131408,1,2,3:2:0:0:
99,274,131558,1,10,0:2:0:0:
176,220,131708,6,0,B|194:170|194:170|174:118,1,95,2|0,0:1|0:0,0:0:0:0:
105,78,132008,1,0,3:0:0:0:
185,238,132158,2,0,B|121:230|121:230|71:253|71:253|-7:244,1,190,10|2,0:1|0:1,0:0:0:0:
275,187,132608,2,0,P|282:237|292:293,1,95,2|8,3:1|0:0,0:0:0:0:
351,78,132908,1,2,0:1:0:0:
262,174,133058,86,0,B|326:166|326:166|376:189|376:189|454:180,1,190,6|10,0:1|0:1,0:0:0:0:
285,22,133508,2,0,B|243:39|243:39|185:28,1,95,0|2,0:0|0:1,0:0:0:0:
101,22,133733,1,0,0:0:0:0:
101,22,133808,6,0,P|107:57|113:100,1,71.2500027179719,2|0,3:2|0:0,0:0:0:0:
262,174,133958,2,0,P|255:209|250:252,1,71.2500027179719,10|0,0:2|0:0,0:0:0:0:
200,328,134108,1,2,0:0:0:0:
277,157,134258,86,0,P|229:153|183:144,1,95,4|0,0:2|3:0,0:0:0:0:
347,231,134558,1,8,0:0:0:0:
166,239,134708,2,2,P|108:245|17:298,1,142.5,2|0,3:1|0:0,0:1:0:0:
33,282,135008,1,0,3:0:0:0:
29,143,135158,2,0,B|14:97|14:97|36:45,1,95,8|2,0:0|0:0,0:0:0:0:
166,239,135458,6,0,L|178:326,2,71.2500027179719,6|2|0,0:2|0:0|0:0,0:0:0:0:
151,152,135908,1,0,0:0:0:0:
257,257,136058,1,2,0:0:0:0:
318,196,136208,2,0,L|409:203,1,71.2500027179719,2|2,0:0|0:0,0:0:0:0:
199,55,136508,70,0,L|52:77,1,142.500005435944,4|0,0:3|0:0,0:0:0:0:
264,263,136958,1,0,0:0:0:0:
264,263,137033,1,0,0:0:0:0:
264,263,137108,2,0,B|319:272|319:272|339:299|339:299|395:311,1,142.500005435944,8|8,0:0|0:0,0:0:0:0:
165,217,137558,2,0,P|161:253|157:295,1,71.2500027179719,2|8,0:0|0:0,0:0:0:0:
100,142,137858,37,4,0:1:0:0:
264,263,138008,1,0,0:0:0:0:
334,190,138158,1,8,0:0:0:0:
165,217,138308,2,0,B|90:217|107:264|36:270,1,142.5,2|0,0:0|0:0,0:0:0:0:
21,263,138608,1,0,3:0:0:0:
63,38,138758,2,0,P|117:50|163:52,1,95,10|2,0:0|0:0,0:0:0:0:
354,178,139058,6,0,P|351:110|315:88,1,95,0|0,3:0|3:0,0:0:0:0:
261,254,139358,1,8,0:0:0:0:
102,178,139508,2,2,L|275:152,1,142.5,2|0,3:1|0:1,0:1:0:0:
255,143,139808,1,2,3:1:0:0:
437,277,139958,2,0,B|453:323|453:323|438:377,1,95,8|2,0:0|0:1,0:0:0:0:
343,320,140258,6,2,P|350:246|354:172,1,142.500005435944,2|2,3:1|1:3,0:1:0:0:
197,45,140708,1,0,0:0:0:0:
124,111,140858,2,0,P|131:156|140:193,1,71.2500027179719,2|0,0:3|3:0,0:0:0:0:
275,117,141158,2,0,B|239:132|239:132|200:126,1,71.2500027179719,8|2,0:0|0:3,0:0:0:0:
52,43,141458,1,2,0:3:0:0:
9,106,141608,1,0,3:2:0:0:
52,43,141758,2,0,P|46:103|31:189,1,142.500005435944,8|0,0:0|0:0,0:0:0:0:
110,331,142208,1,0,3:0:0:0:
173,260,142358,2,0,B|209:250|209:250|258:268,1,71.2500027179719,8|0,0:0|0:0,0:0:0:0:
288,333,142583,1,0,0:0:0:0:
288,333,142658,69,2,3:1:0:0:
240,261,142808,1,2,0:1:0:0:
291,194,142958,5,10,0:1:0:0:
199,341,143108,2,0,L|118:352,1,71.2500027179719,2|0,0:1|0:0,0:0:0:0:
121,164,143408,1,2,3:1:0:0:
200,187,143558,2,0,L|281:176,1,71.2500027179719,10|0,0:1|0:0,0:0:0:0:
439,53,143858,5,2,0:1:0:0:
357,45,144008,2,0,P|346:83|363:123,1,71.2500027179719,2|8,3:1|0:0,0:0:0:0:
468,181,144308,1,0,3:0:0:0:
386,279,144458,69,2,0:1:0:0:
468,181,144608,1,2,3:1:0:0:
384,200,144758,2,0,P|341:198|308:193,1,71.2500027179719,10|2,0:1|0:2,0:0:0:0:
129,272,145058,6,0,P|78:282|50:301,1,71.2500027179719,4|2,3:3|0:1,0:0:0:0:
204,208,145358,2,0,P|220:158|218:125,1,71.2500027179719,8|2,0:0|0:1,0:0:0:0:
219,298,145658,2,0,P|253:337|283:351,1,71.2500027179719,0|2,0:0|3:1,0:0:0:0:
119,177,145958,2,2,P|79:186|-4:190,1,106.875004076958,10|0,0:1|0:1,0:1:0:0:
103,165,146258,6,0,B|88:128|88:128|102:88,2,71.2500027179719,6|0|8,0:0|3:0|0:0,0:0:0:0:
307,221,146708,1,0,3:0:0:0:
307,221,146783,1,0,3:0:0:0:
307,221,146858,2,0,L|393:208,1,71.2500027179719,2|0,3:2|3:0,0:0:0:0:
469,55,147158,2,0,P|429:50|392:45,1,71.2500027179719,8|8,0:0|0:0,0:0:0:0:
494,151,147458,69,0,3:0:0:0:
337,120,147608,1,0,0:0:0:0:
494,151,147758,1,8,0:0:0:0:
337,120,147908,1,0,0:0:0:0:
460,242,148058,2,0,P|477:281|480:319,1,71.2500027179719,2|0,0:0|3:0,0:0:0:0:
380,370,148283,1,0,3:0:0:0:
380,370,148358,2,0,P|389:325|391:295,1,71.2500027179719,10|0,0:0|0:0,0:0:0:0:
218,205,148658,5,2,0:0:0:0:
154,309,148808,1,0,3:0:0:0:
84,256,148958,1,10,0:0:0:0:
84,256,149108,2,0,L|9:265,1,71.2500027179719,2|0,3:1|0:0,0:0:0:0:
229,190,149408,2,0,L|299:181,1,71.2500027179719,2|8,3:1|0:0,0:0:0:0:
88,114,149708,2,0,L|17:105,1,71.2500027179719,2|0,0:1|3:0,0:0:0:0:
138,186,150008,5,0,0:0:0:0:
257,105,150158,2,0,P|261:64|251:33,1,71.2500027179719,8|2,0:0|0:3,0:0:0:0:
255,279,150458,2,0,P|251:320|261:351,1,71.2500027179719,2|0,0:3|3:0,0:0:0:0:
393,214,150758,1,8,0:0:0:0:
341,299,150908,1,2,0:3:0:0:
232,196,151058,70,0,B|309:173|297:226|382:223,1,142.500005435944,2|8,0:3|0:0,0:0:0:0:
475,57,151508,2,2,B|464:94|464:94|473:122|473:122|464:168,1,106.875004076958,2|0,3:1|0:1,0:1:0:0:
474,175,151808,1,2,3:1:0:0:
342,367,151958,2,0,B|332:331|332:331|343:287,1,71.2500027179719,10|0,0:1|0:0,0:0:0:0:
371,226,152183,1,0,0:0:0:0:
371,225,152258,6,0,P|331:251|285:258,1,95.0000036239625,4|0,1:3|0:0,0:0:0:0:
311,79,152458,2,0,P|353:99|382:136,1,95.0000036239625,0|0,3:0|0:0,0:0:0:0:
218,198,152658,2,0,P|214:150|232:107,1,95.0000036239625,0|0,3:0|0:0,0:0:0:0:
371,239,152858,6,0,B|327:230|327:230|278:262,1,95.0000036239625,12|0,0:0|0:0,0:0:0:0:
323,71,153058,2,0,B|337:112|337:112|389:139,1,95.0000036239625,0|0,3:0|0:0,0:0:0:0:
205,191,153258,2,0,B|234:157|234:157|231:99,1,95.0000036239625,0|0,3:0|0:0,0:0:0:0:
113,218,153458,70,0,B|88:261|92:318|92:318|128:375,2,142.500005435944,0|8|0,3:0|0:0|3:0,0:0:0:0:
136,103,153908,2,0,B|104:122|70:127|70:127|26:115,1,95,4|0,3:2|0:0,0:0:0:0:
336,144,154208,2,0,B|335:106|348:74|348:74|365:57,1,95,4|0,3:2|0:0,0:0:0:0:
200,297,154508,2,0,B|232:315|253:342|253:342|259:365,1,95,2|0,3:2|0:0,0:0:0:0:
256,192,154808,12,2,157058,0:0:0:0:
290,79,157958,37,0,0:0:0:0:
290,79,158258,2,0,P|287:114|287:156,1,71.25,2|2,0:0|0:0,0:0:0:0:
252,243,159158,1,0,0:0:0:0:
252,243,159308,1,0,0:0:0:0:
193,112,159458,2,0,P|192:76|189:40,2,71.25,2|0|0,0:0|0:0|0:0,0:0:0:0:
128,160,160658,6,0,L|81:165,1,47.5,2|0,0:0|0:0,0:0:0:0:
32,266,161108,1,2,0:0:0:0:
47,254,161258,2,0,L|94:259,1,47.5,2|0,0:0|0:0,0:0:0:0:
155,328,161858,86,0,B|216:318|202:342|257:331,1,95,2|0,0:0|0:0,0:0:0:0:
419,268,163058,2,0,P|425:241|395:201,1,71.25,2|2,0:0|0:0,0:0:0:0:
323,199,163808,1,2,0:0:0:0:
411,359,164258,6,0,L|405:284,1,71.25,2|0,0:0|0:0,0:0:0:0:
108,211,165158,2,0,L|114:136,1,71.25,2|0,0:0|0:0,0:0:0:0:
357,93,166058,1,2,0:0:0:0:
421,25,166358,1,2,0:0:0:0:
341,81,166658,86,0,L|352:175,1,95,2|0,0:0|0:0,0:0:0:0:
290,229,167558,1,0,0:0:0:0:
221,178,167858,2,0,P|185:177|146:172,1,71.25,2|2,0:0|0:0,0:0:0:0:
95,108,168758,1,0,0:0:0:0:
35,173,169058,6,0,L|40:224,1,47.5,2|0,0:0|0:0,0:0:0:0:
114,271,169508,2,0,L|109:322,1,47.5
314,195,170108,1,0,0:0:0:0:
329,206,170258,2,0,B|373:201|373:216|406:211,1,71.25,2|2,0:0|0:0,0:0:0:0:
480,173,171008,1,0,0:0:0:0:
337,59,171308,1,0,0:0:0:0:
396,116,171458,86,0,L|390:195,1,71.25,2|0,0:0|0:0,0:0:0:0:
204,272,172208,1,0,0:0:0:0:
194,260,172358,2,0,L|189:229,1,23.75
237,172,172658,6,0,P|271:168|312:160,1,71.25,2|2,0:0|0:0,0:0:0:0:
97,141,173408,2,0,L|64:136,2,23.75,0|0|2,0:0|0:0|0:0,0:0:0:0:
183,99,173858,85,0,0:0:0:0:
256,192,174458,12,0,176258,0:0:0:0:
204,55,180008,101,0,0:0:0:0:
204,55,180083,1,0,0:0:0:0:
204,55,180158,2,0,P|202:90|183:132,1,71.2500027179719
110,277,180308,1,0,0:0:0:0:
110,277,180383,1,0,0:0:0:0:
108,276,180458,2,0,P|95:243|93:207,1,71.2500027179719
250,206,180608,5,0,3:0:0:0:
250,206,180683,1,0,3:0:0:0:
250,206,180758,2,0,B|218:207|218:207|205:216|205:216|175:217,1,71.2500027179719,0|0,3:0|3:0,0:0:0:0:
8,173,180908,2,0,B|39:174|39:174|53:183|53:183|83:184,1,71.2500027179719,0|0,3:0|3:0,0:0:0:0:
274,219,181058,6,0,B|324:207|324:207|367:225|367:225|427:210|427:210|390:251,1,213.750008153916,4|0,0:3|0:0,0:0:0:0:
380,333,181358,2,0,B|364:299|364:299|372:258,1,71.2500027179719,8|0,0:0|0:0,0:0:0:0:
383,137,181508,1,2,0:0:0:0:
280,307,181658,2,0,L|177:326,1,95,2|0,0:0|3:0,0:0:0:0:
66,166,181958,2,0,B|90:152|112:149|112:149|132:156|157:171,1,95,8|0,0:0|0:0,0:0:0:0:
108,354,182258,6,0,B|95:317|95:317|106:294|106:294|92:237,1,95,2|0,0:1|3:0,0:0:0:0:
188,243,182483,1,0,3:0:0:0:
188,243,182558,2,0,B|201:206|201:206|190:183|190:183|204:126,1,95,8|0,0:0|3:0,0:0:0:0:
191,69,182783,1,0,3:0:0:0:
191,69,182858,86,0,P|156:76|116:80,1,71.2500027179719,2|0,0:1|0:0,0:0:0:0:
312,181,183008,2,0,P|347:184|382:191,1,71.2500027179719,2|0,3:1|0:0,0:0:0:0:
285,34,183158,2,0,B|272:69|272:69|286:114,1,71.2500027179719,8|0,0:0|0:0,0:0:0:0:
465,218,183308,2,0,B|475:185|475:185|462:150,1,71.2500027179719,2|0,0:1|0:0,0:0:0:0:
317,278,183458,6,0,B|257:275|262:340|185:341,1,142.5,2|0,3:1|0:0,0:0:0:0:
194,340,183758,1,2,0:1:0:0:
101,270,183908,1,0,0:0:0:0:
194,340,184058,1,2,0:1:0:0:
109,255,184208,86,0,L|11:275,1,95,2|8,3:1|0:0,0:0:0:0:
195,114,184508,1,0,3:0:0:0:
263,174,184658,2,0,L|410:204,1,142.5,2|0,0:1|0:0,0:0:0:0:
417,212,184958,2,0,B|434:164|434:164|412:109,1,95,8|2,0:0|3:1,0:0:0:0:
348,70,185183,1,0,3:0:0:0:
348,70,185258,6,0,B|313:83|313:83|271:81,1,71.2500027179719,2|0,0:1|0:0,0:0:0:0:
429,220,185408,2,0,B|464:207|464:207|506:209,1,71.2500027179719,2|0,3:1|0:0,0:0:0:0:
334,160,185558,2,0,P|330:225|321:308,1,142.5,10|0,0:1|0:0,0:0:0:0:
241,329,185858,86,0,B|284:313|284:313|334:331,2,95,4|0|8,0:1|0:0|0:1,0:0:0:0:
42,239,186308,2,0,P|52:181|63:63,1,142.5,2|0,0:0|0:0,0:0:0:0:
61,97,186608,1,0,1:0:0:0:
248,185,186758,1,10,0:2:0:0:
146,52,186908,6,0,P|153:100|166:148,1,95,2|2,0:2|0:1,0:0:0:0:
345,180,187208,2,0,P|350:234|304:260,1,95,0|8,1:0|0:0,0:0:0:0:
253,94,187508,2,2,P|311:87|407:66,1,142.5,2|0,1:1|0:0,0:1:0:0:
478,105,187808,2,0,B|478:76|478:76|486:61|486:61|487:30,2,71.2500027179719,2|2|8,3:2|0:0|0:0,0:0:0:0:
410,347,188108,1,2,0:1:0:0:
464,248,188258,86,0,B|418:257|418:257|360:243,1,95,6|2,3:2|0:0,0:0:0:0:
365,238,188483,1,2,0:0:0:0:
359,230,188558,1,10,0:1:0:0:
419,164,188708,1,0,0:0:0:0:
263,227,188858,5,2,0:1:0:0:
419,164,189008,1,2,3:1:0:0:
263,227,189158,1,8,0:0:0:0:
192,160,189308,1,2,0:0:0:0:
61,271,189458,86,0,P|58:316|51:368,1,95,6|0,0:1|3:0,0:0:0:0:
211,160,189758,2,0,P|204:112|201:65,1,95,10|2,0:1|3:1,0:0:0:0:
104,165,190058,1,2,0:1:0:0:
197,332,190208,1,0,3:0:0:0:
113,151,190358,6,0,B|76:161|76:161|43:154,1,71.2500027179719,10|0,0:1|0:0,0:0:0:0:
188,344,190508,2,0,B|225:334|225:334|258:341,1,71.2500027179719,10|0,0:1|0:0,0:0:0:0:
51,263,190658,86,0,B|109:237|147:270|207:237,1,142.5,4|0,0:3|0:0,0:0:0:0:
190,244,190958,1,8,0:0:0:0:
368,218,191108,2,0,P|389:264|364:302,1,95,2|2,0:0|0:0,0:0:0:0:
218,111,191408,1,0,3:0:0:0:
280,259,191558,1,8,0:0:0:0:
395,119,191708,6,0,P|346:136|299:146,1,95,2|2,0:0|0:1,0:0:0:0:
143,50,192008,1,0,3:0:0:0:
64,127,192158,2,2,B|43:189|43:189|63:274,1,142.5,10|0,0:1|0:0,0:1:0:0:
52,286,192458,86,0,P|88:278|133:272,1,71.2500027179719,2|0,0:1|0:0,0:0:0:0:
351,183,192608,2,0,P|315:177|280:170,1,71.2500027179719,2|0,3:1|0:0,0:0:0:0:
143,117,192758,2,0,B|132:83|132:83|146:40,1,71.2500027179719,8|0,0:0|0:0,0:0:0:0:
219,290,192908,2,0,L|215:366,1,71.2500027179719,2|0,0:1|0:0,0:0:0:0:
303,145,193058,6,0,B|251:153|251:153|230:184|230:184|167:196,2,142.500005435944,6|0|10,0:1|0:0|0:1,0:0:0:0:
455,31,193508,2,0,B|433:75|433:75|452:123,1,95,0|2,0:0|0:1,0:0:0:0:
307,321,193808,86,0,P|303:286|296:242,1,71.2500027179719,0|0,3:0|0:0,0:0:0:0:
457,207,193958,2,0,P|461:172|468:128,1,71.2500027179719,10|0,0:2|0:0,0:0:0:0:
275,132,194108,2,0,P|271:97|264:53,1,71.2500027179719,8|0,0:3|0:0,0:0:0:0:
332,10,194258,5,6,0:0:0:0:
176,119,194408,1,0,3:0:0:0:
369,189,194558,1,8,0:0:0:0:
176,119,194708,2,2,B|67:122|116:196|3:207,1,190,2|2,3:1|3:1,0:1:0:0:
288,357,195158,2,0,P|317:313|290:266,1,95,10|2,0:2|0:0,0:0:0:0:
171,203,195458,5,4,0:3:0:0:
126,267,195608,1,0,0:0:0:0:
206,279,195758,1,2,0:0:0:0:
247,211,195908,1,2,0:0:0:0:
237,197,196058,6,0,P|240:131|241:72,2,106.875004076958,2|2|4,0:0|0:0|0:0,0:0:0:0:
317,49,196658,1,0,0:3:0:0:
388,115,196808,1,0,0:3:0:0:
388,115,196958,1,0,0:0:0:0:
450,66,197108,6,0,L|252:98,1,190,4|4,0:0|0:0,0:0:0:0:
97,306,197558,1,0,3:0:0:0:
202,169,197708,1,8,0:0:0:0:
175,77,197858,1,0,3:0:0:0:
158,93,198158,37,10,0:1:0:0:
215,273,198308,1,8,0:0:0:0:
302,207,198458,1,8,0:0:0:0:
110,194,198608,1,2,3:1:0:0:
293,102,198758,5,10,0:1:0:0:
232,294,198908,1,8,0:0:0:0:
196,166,199058,1,2,3:1:0:0:
380,301,199208,1,2,3:1:0:0:
415,176,199358,1,10,0:1:0:0:
47,204,199508,6,0,P|106:196|215:182,1,142.500005435944,4|4,0:0|0:0,0:0:0:0:
427,31,200108,1,4,0:0:0:0:
47,204,200558,70,2,B|35:248|35:248|51:300,2,95,6|2|2,0:1|0:0|0:0,0:0:0:0:
167,84,201008,1,0,3:0:0:0:
242,137,201158,2,0,P|295:134|345:130,1,95,8|2,0:0|0:0,0:0:0:0:
149,233,201458,6,0,P|133:280|159:317,1,95,2|0,0:0|3:0,0:0:0:0:
352,141,201758,2,0,P|375:101|359:58,1,95,8|0,0:0|0:0,0:0:0:0:
292,294,202058,1,2,0:0:0:0:
229,149,202208,1,2,3:2:0:0:
308,306,202358,86,0,B|320:267|320:267|310:231,1,71.2500027179719,10|0,0:1|0:0,0:0:0:0:
218,161,202508,2,0,B|206:122|206:122|216:86,1,71.2500027179719,10|0,0:1|0:0,0:0:0:0:
403,202,202658,6,0,L|507:213,1,95,4|0,0:0|0:0,0:0:0:0:
302,123,202958,1,8,0:0:0:0:
208,172,203108,2,0,L|104:183,2,95,2|0|0,0:0|0:0|1:0,0:0:0:0:
406,298,203558,1,8,0:0:0:0:
221,348,203708,86,0,P|200:294|216:247,1,95,2|2,0:0|0:1,0:0:0:0:
390,113,204008,2,0,P|411:167|395:214,1,95,8|8,1:3|0:0,0:0:0:0:
313,302,204308,2,2,L|294:148,1,142.5,2|0,1:1|0:0,0:1:0:0:
295,160,204608,1,0,3:0:0:0:
100,43,204758,2,0,P|95:94|85:145,1,95,10|2,0:0|0:1,0:0:0:0:
204,95,205058,6,0,B|304:72|283:136|401:110,1,190,4|8,0:0|0:0,0:0:0:0:
163,226,205508,2,0,P|80:238|52:292,1,142.5,2|0,0:0|0:0,0:0:0:0:
53,283,205808,1,2,3:0:0:0:
240,177,205958,1,8,0:0:0:0:
204,95,206108,2,0,P|213:38|217:-3,1,95,2|4,0:0|0:1,0:0:0:0:
398,210,206408,85,0,0:0:0:0:
392,0,206558,1,10,0:1:0:0:
328,51,206708,1,2,3:1:0:0:
477,120,206858,5,2,0:1:0:0:
406,218,207008,1,0,3:0:0:0:
477,120,207158,86,0,L|404:112,1,71.2500027179719,10|0,0:1|0:0,0:0:0:0:
406,218,207308,2,0,L|333:226,1,71.2500027179719,10|0,0:1|0:0,0:0:0:0:
314,208,207458,6,0,B|260:227|260:227|229:217|229:217|172:235|172:235|220:188,1,213.750008153916,4|0,0:3|0:0,0:0:0:0:
229,109,207758,2,0,B|244:146|244:146|237:191,1,71.2500027179719,8|0,0:0|0:0,0:0:0:0:
61,299,207908,2,0,B|30:231|30:231|51:145,1,142.5,2|0,0:0|0:0,0:0:0:0:
51,164,208208,2,0,P|100:152|156:134,1,95,2|10,3:2|0:0,0:0:0:0:
326,338,208508,2,0,P|280:324|234:313,1,95,2|2,0:0|0:1,0:0:0:0:
133,234,208808,1,0,3:0:0:0:
341,328,208958,86,2,B|397:264|354:187|354:187,1,142.5,10|0,0:1|0:0,0:1:0:0:
357,194,209258,1,2,0:1:0:0:
287,146,209408,1,2,3:1:0:0:
283,225,209558,1,10,0:1:0:0:
364,113,209708,1,0,0:0:0:0:
213,94,209858,6,0,B|117:83|144:144|21:136,2,190,2|8|2,0:1|0:0|0:1,0:0:0:0:
362,198,210608,1,0,3:0:0:0:
156,304,210758,1,8,0:0:0:0:
255,361,210908,2,0,P|268:317|223:273,1,95,2|2,0:0|0:1,0:0:0:0:
88,177,211208,2,0,P|61:214|74:258,1,95,0|10,3:0|0:1,0:0:0:0:
325,182,211508,2,2,P|271:192|176:209,1,142.5,0|0,3:1|0:0,0:1:0:0:
184,207,211808,1,0,3:0:0:0:
267,102,211958,2,0,P|272:49|275:2,1,95,10|2,0:0|0:1,0:0:0:0:
397,242,212258,53,4,0:3:0:0:
483,185,212408,1,0,0:0:0:0:
483,185,212708,2,0,B|404:168|411:224|327:210,1,142.500005435944,2|2,0:0|0:0,0:0:0:0:
181,344,213308,1,4,0:0:0:0:
124,274,213458,2,0,L|47:288,2,71.2500027179719,2|2|8,0:3|0:3|0:0,0:0:0:0:
403,284,213908,6,0,L|410:177,1,95,4|0,0:0|3:0,0:0:0:0:
322,234,214133,1,0,3:0:0:0:
306,242,214208,2,0,L|313:135,1,95,4|8,3:2|0:0,0:0:0:0:
223,181,214433,1,8,0:0:0:0:
206,189,214508,2,0,L|210:126,1,47.5,8|0,0:0|0:0,0:0:0:0:
181,58,214658,37,4,0:3:0:0:
142,247,214808,1,0,0:0:0:0:
15,153,214958,1,10,0:0:0:0:
118,157,215108,6,0,B|190:132|238:168|318:151,1,190,2|2,0:0|3:2,0:0:0:0:
393,78,215558,1,8,0:0:0:0:
278,233,215708,1,2,0:0:0:0:
444,224,215858,6,0,P|455:190|425:153,1,71.2500027179719,2|0,0:0|0:0,0:0:0:0:
278,233,216008,2,0,P|267:267|297:304,1,71.2500027179719,0|0,3:0|0:0,0:0:0:0:
361,338,216158,1,8,0:0:0:0:
358,248,216308,70,0,P|300:262|174:224,1,190,0|0,3:0|3:0,0:0:0:0:
97,192,216758,2,0,P|116:144|162:140,1,95,10|0,0:1|0:0,0:0:0:0:
283,296,217058,5,2,0:1:0:0:
233,361,217208,1,2,0:0:0:0:
146,343,217358,1,8,0:0:0:0:
207,280,217508,5,2,0:0:0:0:
296,304,217658,1,2,0:0:0:0:
156,351,217808,1,2,3:1:0:0:
310,315,217958,70,0,P|314:253|317:217,1,95,10|2,0:1|0:1,0:0:0:0:
105,61,218258,2,0,B|89:110|89:110|111:155,1,95,2|0,0:1|3:0,0:0:0:0:
188,186,218483,1,0,3:0:0:0:
188,186,218558,2,0,L|251:193,1,47.5,8|0,0:0|0:0,0:0:0:0:
232,96,218708,2,0,L|283:89,1,47.5,0|0,3:0|0:0,0:0:0:0:
119,49,218858,1,2,0:1:0:0:
172,203,219008,1,0,3:0:0:0:
343,172,219158,6,2,B|294:166|294:166|252:182|252:182|200:175,1,142.5,10|0,0:1|0:0,0:1:0:0:
204,175,219458,1,2,0:1:0:0:
232,96,219608,1,2,0:0:0:0:
310,255,219758,1,8,0:0:0:0:
343,172,219908,5,2,0:0:0:0:
232,96,220058,1,2,0:0:0:0:
343,172,220208,1,0,3:0:0:0:
397,102,220358,2,0,P|446:98|497:89,1,95,8|2,0:0|0:1,0:0:0:0:
204,175,220658,2,0,P|151:168|62:259,1,190,2|8,0:1|0:0,0:0:0:0:
231,365,221108,1,0,3:0:0:0:
288,307,221258,70,0,B|300:259|300:259|280:203,1,95,2|0,0:1|3:0,0:0:0:0:
100,54,221558,2,0,B|88:102|88:102|108:158,1,95,8|0,0:0|0:0,0:0:0:0:
386,161,221858,5,4,0:0:0:0:
364,78,222008,1,2,0:0:0:0:
284,216,222158,1,8,0:0:0:0:
446,104,222308,5,2,0:0:0:0:
308,135,222458,1,2,0:0:0:0:
366,242,222608,1,0,3:0:0:0:
170,227,222758,2,0,P|215:221|270:214,1,95,10|0,0:1|0:0,0:0:0:0:
449,275,223058,69,2,0:1:0:0:
382,347,223208,1,0,3:0:0:0:
466,290,223358,2,0,L|474:192,1,95,8|2,0:0|3:1,0:0:0:0:
294,133,223658,1,2,0:1:0:0:
347,50,223808,1,2,0:1:0:0:
274,121,223958,2,0,L|283:218,1,95,10|8,0:1|0:0,0:0:0:0:
54,339,224258,6,0,B|34:301|31:250|31:250|43:208|83:168,1,190,4|8,0:3|0:0,0:0:0:0:
247,309,224708,1,2,0:0:0:0:
149,256,224858,1,2,0:0:0:0:
294,133,225008,1,0,3:0:0:0:
216,16,225158,6,0,P|208:69|199:116,1,95,8|0,0:0|0:0,0:0:0:0:
384,84,225458,2,0,P|392:137|401:184,1,95,2|0,0:1|3:0,0:0:0:0:
472,41,225758,1,8,0:0:0:0:
294,133,225908,2,2,B|198:115|215:166|108:154,1,190,2|2,0:1|1:1,0:1:0:0:
27,124,226358,2,0,P|12:176|42:211,1,95,10|2,0:2|0:2,0:0:0:0:
268,245,226658,69,0,3:0:0:0:
292,328,226808,1,2,0:0:0:0:
268,245,226958,2,0,P|270:193|273:148,1,95,10|2,0:1|0:0,0:0:0:0:
198,48,227258,1,2,0:0:0:0:
356,175,227408,1,2,3:2:0:0:
497,86,227558,6,0,B|452:76|452:76|397:94,1,95,10|0,0:2|0:0,0:0:0:0:
268,245,227858,2,0,B|223:255|223:255|168:237,1,95,2|0,0:0|3:0,0:0:0:0:
22,44,228158,2,0,B|68:28|68:28|113:38,1,95,10|0,0:2|3:0,0:0:0:0:
166,251,228458,1,2,0:1:0:0:
137,329,228608,1,0,3:0:0:0:
87,186,228758,1,10,0:1:0:0:
58,114,228908,1,2,0:1:0:0:
18,283,229058,6,0,L|170:258,1,142.500005435944,6|0,0:1|0:0,0:0:0:0:
215,164,229508,1,0,0:0:0:0:
284,222,229658,2,0,P|334:230|382:316,1,142.500005435944,2|0,0:0|0:0,0:0:0:0:
329,371,230108,1,4,3:2:0:0:
461,235,230258,2,0,P|463:181|469:142,1,71.2500027179719,2|0,0:0|0:0,0:0:0:0:
470,157,230483,1,0,0:0:0:0:
476,152,230558,70,0,B|451:146|451:146|433:152|433:152|399:147,1,71.2500027179719,0|0,3:0|3:0,0:0:0:0:
225,59,230708,2,0,B|251:55|251:55|269:61|269:61|294:55,1,71.2500027179719,8|0,0:0|0:0,0:0:0:0:
370,0,230858,5,0,3:0:0:0:
370,0,230933,1,0,3:0:0:0:
370,0,231008,2,0,P|389:32|380:75,1,71.2500027179719,8|0,0:2|0:0,0:0:0:0:
227,225,231158,1,0,3:0:0:0:
219,220,231233,1,0,3:0:0:0:
211,214,231308,2,0,P|208:179|226:149,1,71.2500027179719,8|0,0:0|0:0,0:0:0:0:
321,176,231458,6,0,P|327:236|340:332,1,142.500005435944,2|0,0:0|0:0,0:0:0:0:
337,317,231908,1,2,0:0:0:0:
89,256,232658,70,0,P|98:185|105:114,1,142.500005435944,2|0,0:0|0:0,0:0:0:0:
105,113,233108,1,2,0:0:0:0:
452,90,233858,6,0,B|328:42|345:214|196:196,1,285.000010871888,2|0,0:0|0:0,0:0:0:0:
42,254,235058,6,0,P|40:168|154:114,1,213.750008153916,2|0,0:0|0:0,0:0:0:0:
350,233,235658,1,2,0:0:0:0:
426,182,235808,2,0,P|433:136|433:106,1,71.2500027179719,2|0,0:0|0:0,0:0:0:0:
429,320,236258,70,0,L|265:333,1,142.500005435944,2|0,0:0|0:0,0:0:0:0:
286,331,236708,1,0,0:0:0:0:
110,32,237458,6,0,B|56:133|155:122|100:244,1,213.750008153916,2|2,0:0|0:0,0:0:0:0:
49,298,238208,1,2,0:0:0:0:
203,99,238658,6,0,P|275:91|365:71,1,142.500005435944,2|0,0:0|0:0,0:0:0:0:
415,121,239408,1,2,0:0:0:0:
222,199,239858,70,0,P|157:190|17:350,1,285.000010871888,6|0,0:0|0:0,0:0:0:0:
17,333,241058,1,2,0:0:0:0:
397,266,242258,38,0,P|389:194|382:119,1,142.5,2|2,0:0|0:0,0:0:0:0:
382,124,243458,2,0,B|291:112|295:165|178:148,1,190,2|0,0:0|0:0,0:0:0:0:
128,89,244658,6,0,P|108:115|114:189,1,95,2|0,0:0|0:0,0:0:0:0:
170,233,245108,1,2,0:0:0:0:
109,291,245858,86,0,P|59:296|2:303,1,95,2|0,0:0|0:0,0:0:0:0:
14,301,246308,1,2,0:0:0:0:
196,150,246908,5,2,0:0:0:0:
330,165,248743,1,2,0:0:0:0:
340,174,248874,1,2,0:0:0:0:
378,221,249012,86,0,L|383:151,1,47.5,2|0,0:0|0:0,0:0:0:0:
396,165,249252,1,0,0:0:0:0:
