osu file format v14

[General]
AudioFilename: Ether.mp3
AudioLeadIn: 0
PreviewTime:50750
Countdown: 0
SampleSet: Soft
StackLeniency: 0.7
Mode: 0
LetterboxInBreaks: 0
EpilepsyWarning: 1
WidescreenStoryboard: 1

[Editor]
Bookmarks: 86408,89558,140333,208358
DistanceSpacing: 0.4
BeatDivisor: 4
GridSize: 16
TimelineZoom: 3.399999

[Metadata]
Title:Ether
TitleUnicode:エーテル
Artist:Feryquitous feat. Aitsuki Nakuru
ArtistUnicode:Feryquitous feat. 藍月なくる
Creator:Acyl
Version:_Epreus' Extreme
Source:
Tags:『JelLaboratory』 c95 female vocal japanese doujin pop artcore -tochi j1_ how2miss otosaka-yu necho reincarnation suzuki_1112 moecho neilperry sing toybot kalibe lit120 lami lmt firika fanzhen0019 skystar yusomi amamiya yuko _epreus bbj0920 len fast kawashiro heilia cococolaco 藍月なくる aitsuki nakuru _todestrieb coco
BeatmapID:1947615
BeatmapSetID:902425

[Difficulty]
HPDrainRate:6
CircleSize:5
OverallDifficulty:9.3
ApproachRate:9.4
SliderMultiplier:1.8
SliderTickRate:1

[Events]
//Background and Video events
0,0,"background.jpg",0,0
//Break Periods
2,157058,163418
2,176458,179468
//Storyboard Layer 0 (Background)
Sprite,Background,Centre,"background.jpg",320,240 F,0,0,,0
Sprite,Background,Centre,"sb\blank.jpg",0,0 F,0,-4025,-3682,0,1 F,0,-3682,-253,1 F,0,-253,3,1,0 M,0,3,,320,240 S,0,3,,0.6493149
Sprite,Background,Centre,"sb\tochi.png",320,240 S,0,-3532,,0.6 F,0,-3532,-3187,0,1 F,0,-3187,-596,1,0.9893727 F,0,-596,-253,0.9893727,0
Sprite,Background,Centre,"sb\bgblurbw.jpg",0,0 F,2,1058,10658,0,0.6487671 M,0,1058,50258,320,-18.8055,320,240 S,0,1058,50258,0.9298632,0.5160549 F,0,10658,49058,0.6487671 F,0,49058,50258,0.6487671,0
Sprite,Background,Centre,"sb\bgblur.jpg",320,240 S,0,51458,,0.5160547 F,0,51458,70658,1 F,0,70658,70958,1,0
Sprite,Background,Centre,"sb\blank.jpg",320,240 S,0,49058,,0.537096 F,0,49058,50258,0,1 F,0,50258,51458,1 F,0,51458,51758,1,0
Sprite,Background,Centre,"sb\blank.jpg",320,240 S,0,70658,,0.5230685 F,0,70658,70958,0,1 F,0,70958,80258,1,0.9966667 F,0,80258,80408,0.9966667,0
Sprite,Background,Centre,"sb\bgblurbw.jpg",320,240 S,0,80258,,0.5300821 F,0,80258,80408,0,1 F,0,80408,118658,1,0.9866667 F,0,118658,119258,0.9866667,0.2384657 F,0,119258,121058,0.2384657,0.2459477 F,0,121058,121358,0.2459477,0
Sprite,Background,Centre,"sb\bgblur.jpg",320,240 F,0,121058,137858,1 S,0,121058,137858,0.5160547,0.5230685 F,0,137858,138158,1,0
Sprite,Background,Centre,"background.jpg",320,240 S,0,137858,,0.5230684 F,0,137858,138158,0,1 F,0,138158,156758,1,0.9866667 F,0,156758,157358,0.9866667,0
Sprite,Background,Centre,"sb\bgblur.jpg",320,240 S,0,181058,,0.5160547 F,0,181058,214658,1 F,0,214658,214958,1,0
Sprite,Background,Centre,"sb\bgblurbw.jpg",0,0 S,0,156758,,0.6493151 P,0,156758,,V F,0,156758,157358,0,1 M,0,156758,179858,200.0658,240,384.526,240 F,0,157358,175058,1 F,0,175058,176258,1,0.2565479 F,0,176258,181058,0.2565479
Sprite,Background,Centre,"background.jpg",320,240 S,0,214658,,0.5160549 F,0,214658,214958,0,1 F,0,214958,231458,1 F,0,231458,232658,1,0
Sprite,Background,Centre,"sb\bgblurbw.jpg",0,0 P,0,231458,,H F,0,231458,232658,0,1 M,2,231458,255458,457.4685,148.8219,-109.9397,549.3041 S,0,231458,255458,0.6984109,1.140274 R,0,231458,255458,-0.01402771,-0.2665204 F,0,232658,249308,1 F,0,249308,255458,1,0
Sprite,Background,Centre,"sb\blank.jpg",0,0 F,0,51308,51458,0,0.5 M,0,51458,,320,240 F,0,51458,51758,0.5,0.1 V,1,51458,51758,0.42,0.51,0.4,0.05 R,0,51458,70658,0.08416412,-0.1402744 P,0,51758,,A F,0,51758,70658,0.1 F,0,70658,70958,0.1,0
Sprite,Background,Centre,"sb\blank.jpg",0,0 F,0,120608,120758,0,0.5 M,0,120758,,320,240 F,0,120758,121058,0.5,0.1 V,1,120758,121058,0.42,0.51,0.4,0.05 R,0,120758,157058,-0.1402744,0.08416412 P,0,121058,,A F,0,121058,157058,0.1 F,0,157058,157358,0.1,0
Sprite,Background,Centre,"sb\blank.jpg",0,0 F,0,180458,180608,0,0.5 M,0,180608,,320,240 F,0,180608,180908,0.5,0.1 V,1,180608,180908,0.42,0.51,0.4,0.05 R,0,180608,231458,0.08416412,-0.1402744 P,0,180908,,A F,0,180908,231458,0.1 F,0,231458,231758,0.1,0
Sprite,Background,Centre,"sb/ring.png",0,0 M,0,51458,,199,125 S,1,51458,53683,0.25,0.5 F,1,51458,53683,0.9,0 C,0,51458,,255,255,255
Sprite,Background,Centre,"sb/ring.png",0,0 M,0,51758,,445,138 S,1,51758,53833,0.25,0.5 F,1,51758,53833,0.9,0 C,0,51758,,255,255,255
Sprite,Background,Centre,"sb/ring.png",0,0 M,0,51908,,209,200 S,1,51908,54133,0.25,0.5 F,1,51908,54133,0.9,0 C,0,51908,,255,255,255
Sprite,Background,Centre,"sb/ring.png",0,0 M,0,52208,,372,105 S,1,52208,54208,0.25,0.5 F,1,52208,54208,0.9,0 C,0,52208,,255,255,255
Sprite,Background,Centre,"sb/ring.png",0,0 M,0,52358,,328,320 S,1,52358,54432,0.25,0.5 F,1,52358,54432,0.9,0 C,0,52358,,255,255,255
Sprite,Background,Centre,"sb/ring.png",0,0 M,0,52508,,424,348 S,1,52508,54658,0.25,0.5 F,1,52508,54658,0.9,0 C,0,52508,,255,255,255
Sprite,Background,Centre,"sb/ring.png",0,0 M,0,52733,,380,402 S,1,52733,54733,0.25,0.5 F,1,52733,54733,0.9,0 C,0,52733,,255,255,255
Sprite,Background,Centre,"sb/ring.png",0,0 M,0,52808,,380,402 S,1,52808,54808,0.25,0.5 F,1,52808,54808,0.9,0 C,0,52808,,255,255,255
Sprite,Background,Centre,"sb/ring.png",0,0 M,0,52958,,189,381 S,1,52958,55032,0.25,0.5 F,1,52958,55032,0.9,0 C,0,52958,,255,255,255
Sprite,Background,Centre,"sb/ring.png",0,0 M,0,53108,,114,312 S,1,53108,55182,0.25,0.5 F,1,53108,55182,0.9,0 C,0,53108,,255,255,255
Sprite,Background,Centre,"sb/ring.png",0,0 M,0,53258,,164,247 S,1,53258,55258,0.25,0.5 F,1,53258,55258,0.9,0 C,0,53258,,255,255,255
Sprite,Background,Centre,"sb/ring.png",0,0 M,0,53408,,326,242 S,1,53408,55483,0.25,0.5 F,1,53408,55483,0.9,0 C,0,53408,,255,255,255
Sprite,Background,Centre,"sb/ring.png",0,0 M,0,53558,,420,160 S,1,53558,55633,0.25,0.5 F,1,53558,55633,0.9,0 C,0,53558,,255,255,255
Sprite,Background,Centre,"sb/ring.png",0,0 M,0,53708,,363,77 S,1,53708,55708,0.25,0.5 F,1,53708,55708,0.9,0 C,0,53708,,255,255,255
Sprite,Background,Centre,"sb/ring.png",0,0 M,0,53858,,519,253 S,1,53858,56083,0.25,0.5 F,1,53858,56083,0.9,0 C,0,53858,,255,255,255
Sprite,Background,Centre,"sb/ring.png",0,0 M,0,54158,,183,422 S,1,54158,56382,0.25,0.5 F,1,54158,56382,0.9,0 C,0,54158,,255,255,255
Sprite,Background,Centre,"sb/ring.png",0,0 M,0,54458,,329,318 S,1,54458,56458,0.25,0.5 F,1,54458,56458,0.9,0 C,0,54458,,255,255,255
Sprite,Background,Centre,"sb/ring.png",0,0 M,0,54608,,162,344 S,1,54608,56683,0.25,0.5 F,1,54608,56683,0.9,0 C,0,54608,,255,255,255
Sprite,Background,Centre,"sb/ring.png",0,0 M,0,54758,,73,244 S,1,54758,56833,0.25,0.5 F,1,54758,56833,0.9,0 C,0,54758,,255,255,255
Sprite,Background,Centre,"sb/ring.png",0,0 M,0,54908,,275,102 S,1,54908,57133,0.25,0.5 F,1,54908,57133,0.9,0 C,0,54908,,255,255,255
Sprite,Background,Centre,"sb/ring.png",0,0 M,0,55208,,138,121 S,1,55208,57208,0.25,0.5 F,1,55208,57208,0.9,0 C,0,55208,,255,255,255
Sprite,Background,Centre,"sb/ring.png",0,0 M,0,55358,,354,210 S,1,55358,57508,0.25,0.5 F,1,55358,57508,0.9,0 C,0,55358,,255,255,255
Sprite,Background,Centre,"sb/ring.png",0,0 M,0,55658,,227,299 S,1,55658,57733,0.25,0.5 F,1,55658,57733,0.9,0 C,0,55658,,255,255,255
Sprite,Background,Centre,"sb/ring.png",0,0 M,0,55808,,437,223 S,1,55808,57883,0.25,0.5 F,1,55808,57883,0.9,0 C,0,55808,,255,255,255
Sprite,Background,Centre,"sb/ring.png",0,0 M,0,55958,,224,279 S,1,55958,58182,0.25,0.5 F,1,55958,58182,0.9,0 C,0,55958,,255,255,255
Sprite,Background,Centre,"sb/ring.png",0,0 M,0,56258,,479,305 S,1,56258,58483,0.25,0.5 F,1,56258,58483,0.9,0 C,0,56258,,255,255,255
Sprite,Background,Centre,"sb/ring.png",0,0 M,0,56558,,557,216 S,1,56558,58558,0.25,0.5 F,1,56558,58558,0.9,0 C,0,56558,,255,255,255
Sprite,Background,Centre,"sb/ring.png",0,0 M,0,56708,,561,389 S,1,56708,58933,0.25,0.5 F,1,56708,58933,0.9,0 C,0,56708,,255,255,255
Sprite,Background,Centre,"sb/ring.png",0,0 M,0,57008,,374,336 S,1,57008,59008,0.25,0.5 F,1,57008,59008,0.9,0 C,0,57008,,255,255,255
Sprite,Background,Centre,"sb/ring.png",0,0 M,0,57158,,150,301 S,1,57158,59233,0.25,0.5 F,1,57158,59233,0.9,0 C,0,57158,,255,255,255
Sprite,Background,Centre,"sb/ring.png",0,0 M,0,57308,,255,365 S,1,57308,59383,0.25,0.5 F,1,57308,59383,0.9,0 C,0,57308,,255,255,255
Sprite,Background,Centre,"sb/ring.png",0,0 M,0,57458,,267,199 S,1,57458,59458,0.25,0.5 F,1,57458,59458,0.9,0 C,0,57458,,255,255,255
Sprite,Background,Centre,"sb/ring.png",0,0 M,0,57608,,519,261 S,1,57608,59682,0.25,0.5 F,1,57608,59682,0.9,0 C,0,57608,,255,255,255
Sprite,Background,Centre,"sb/ring.png",0,0 M,0,57758,,400,258 S,1,57758,59832,0.25,0.5 F,1,57758,59832,0.9,0 C,0,57758,,255,255,255
Sprite,Background,Centre,"sb/ring.png",0,0 M,0,57908,,494,143 S,1,57908,60133,0.25,0.5 F,1,57908,60133,0.9,0 C,0,57908,,255,255,255
Sprite,Background,Centre,"sb/ring.png",0,0 M,0,58208,,311,98 S,1,58208,60208,0.25,0.5 F,1,58208,60208,0.9,0 C,0,58208,,255,255,255
Sprite,Background,Centre,"sb/ring.png",0,0 M,0,58358,,176,231 S,1,58358,60433,0.25,0.5 F,1,58358,60433,0.9,0 C,0,58358,,255,255,255
Sprite,Background,Centre,"sb/ring.png",0,0 M,0,58508,,102,167 S,1,58508,60583,0.25,0.5 F,1,58508,60583,0.9,0 C,0,58508,,255,255,255
Sprite,Background,Centre,"sb/ring.png",0,0 M,0,58658,,139,409 S,1,58658,60658,0.25,0.5 F,1,58658,60658,0.9,0 C,0,58658,,255,255,255
Sprite,Background,Centre,"sb/ring.png",0,0 M,0,58808,,121,320 S,1,58808,60808,0.25,0.5 F,1,58808,60808,0.9,0 C,0,58808,,255,255,255
Sprite,Background,Centre,"sb/ring.png",0,0 M,0,58958,,246,124 S,1,58958,60958,0.25,0.5 F,1,58958,60958,0.9,0 C,0,58958,,255,255,255
Sprite,Background,Centre,"sb/ring.png",0,0 M,0,59108,,210,302 S,1,59108,61108,0.25,0.5 F,1,59108,61108,0.9,0 C,0,59108,,255,255,255
Sprite,Background,Centre,"sb/ring.png",0,0 M,0,59258,,121,320 S,1,59258,61258,0.25,0.5 F,1,59258,61258,0.9,0 C,0,59258,,255,255,255
Sprite,Background,Centre,"sb/ring.png",0,0 M,0,59408,,241,95 S,1,59408,61408,0.25,0.5 F,1,59408,61408,0.9,0 C,0,59408,,255,255,255
Sprite,Background,Centre,"sb/ring.png",0,0 M,0,59558,,288,329 S,1,59558,61558,0.25,0.5 F,1,59558,61558,0.9,0 C,0,59558,,255,255,255
Sprite,Background,Centre,"sb/ring.png",0,0 M,0,59708,,98,324 S,1,59708,61708,0.25,0.5 F,1,59708,61708,0.9,0 C,0,59708,,255,255,255
Sprite,Background,Centre,"sb/ring.png",0,0 M,0,59858,,361,309 S,1,59858,61858,0.25,0.5 F,1,59858,61858,0.9,0 C,0,59858,,255,255,255
Sprite,Background,Centre,"sb/ring.png",0,0 M,0,60008,,339,381 S,1,60008,62083,0.25,0.5 F,1,60008,62083,0.9,0 C,0,60008,,255,255,255
Sprite,Background,Centre,"sb/ring.png",0,0 M,0,60158,,309,253 S,1,60158,62233,0.25,0.5 F,1,60158,62233,0.9,0 C,0,60158,,255,255,255
Sprite,Background,Centre,"sb/ring.png",0,0 M,0,60308,,434,292 S,1,60308,62532,0.25,0.5 F,1,60308,62532,0.9,0 C,0,60308,,255,255,255
Sprite,Background,Centre,"sb/ring.png",0,0 M,0,60608,,414,362 S,1,60608,62683,0.25,0.5 F,1,60608,62683,0.9,0 C,0,60608,,255,255,255
Sprite,Background,Centre,"sb/ring.png",0,0 M,0,60758,,494,180 S,1,60758,62758,0.25,0.5 F,1,60758,62758,0.9,0 C,0,60758,,255,255,255
Sprite,Background,Centre,"sb/ring.png",0,0 M,0,60908,,224,90 S,1,60908,62908,0.25,0.5 F,1,60908,62908,0.9,0 C,0,60908,,255,255,255
Sprite,Background,Centre,"sb/ring.png",0,0 M,0,61058,,165,158 S,1,61058,63058,0.25,0.5 F,1,61058,63058,0.9,0 C,0,61058,,255,255,255
Sprite,Background,Centre,"sb/ring.png",0,0 M,0,61208,,435,68 S,1,61208,63208,0.25,0.5 F,1,61208,63208,0.9,0 C,0,61208,,255,255,255
Sprite,Background,Centre,"sb/ring.png",0,0 M,0,61358,,494,180 S,1,61358,63432,0.25,0.5 F,1,61358,63432,0.9,0 C,0,61358,,255,255,255
Sprite,Background,Centre,"sb/ring.png",0,0 M,0,61508,,332,205 S,1,61508,63733,0.25,0.5 F,1,61508,63733,0.9,0 C,0,61508,,255,255,255
Sprite,Background,Centre,"sb/ring.png",0,0 M,0,61808,,525,261 S,1,61808,63808,0.25,0.5 F,1,61808,63808,0.9,0 C,0,61808,,255,255,255
Sprite,Background,Centre,"sb/ring.png",0,0 M,0,61958,,371,348 S,1,61958,64032,0.25,0.5 F,1,61958,64032,0.9,0 C,0,61958,,255,255,255
Sprite,Background,Centre,"sb/ring.png",0,0 M,0,62108,,436,418 S,1,62108,64333,0.25,0.5 F,1,62108,64333,0.9,0 C,0,62108,,255,255,255
Sprite,Background,Centre,"sb/ring.png",0,0 M,0,62408,,209,402 S,1,62408,64408,0.25,0.5 F,1,62408,64408,0.9,0 C,0,62408,,255,255,255
Sprite,Background,Centre,"sb/ring.png",0,0 M,0,62558,,101,297 S,1,62558,64633,0.25,0.5 F,1,62558,64633,0.9,0 C,0,62558,,255,255,255
Sprite,Background,Centre,"sb/ring.png",0,0 M,0,62708,,222,218 S,1,62708,64783,0.25,0.5 F,1,62708,64783,0.9,0 C,0,62708,,255,255,255
Sprite,Background,Centre,"sb/ring.png",0,0 M,0,62858,,161,257 S,1,62858,64858,0.25,0.5 F,1,62858,64858,0.9,0 C,0,62858,,255,255,255
Sprite,Background,Centre,"sb/ring.png",0,0 M,0,63008,,351,173 S,1,63008,65082,0.25,0.5 F,1,63008,65082,0.9,0 C,0,63008,,255,255,255
Sprite,Background,Centre,"sb/ring.png",0,0 M,0,63158,,209,71 S,1,63158,65232,0.25,0.5 F,1,63158,65232,0.9,0 C,0,63158,,255,255,255
Sprite,Background,Centre,"sb/ring.png",0,0 M,0,63308,,280,122 S,1,63308,65308,0.25,0.5 F,1,63308,65308,0.9,0 C,0,63308,,255,255,255
Sprite,Background,Centre,"sb/ring.png",0,0 M,0,63458,,323,251 S,1,63458,65683,0.25,0.5 F,1,63458,65683,0.9,0 C,0,63458,,255,255,255
Sprite,Background,Centre,"sb/ring.png",0,0 M,0,63758,,472,291 S,1,63758,65832,0.25,0.5 F,1,63758,65832,0.9,0 C,0,63758,,255,255,255
Sprite,Background,Centre,"sb/ring.png",0,0 M,0,63908,,357,348 S,1,63908,65983,0.25,0.5 F,1,63908,65983,0.9,0 C,0,63908,,255,255,255
Sprite,Background,Centre,"sb/ring.png",0,0 M,0,64058,,260,291 S,1,64058,66058,0.25,0.5 F,1,64058,66058,0.9,0 C,0,64058,,255,255,255
Sprite,Background,Centre,"sb/ring.png",0,0 M,0,64208,,136,439 S,1,64208,66208,0.25,0.5 F,1,64208,66208,0.9,0 C,0,64208,,255,255,255
Sprite,Background,Centre,"sb/ring.png",0,0 M,0,64358,,112,263 S,1,64358,66358,0.25,0.5 F,1,64358,66358,0.9,0 C,0,64358,,255,255,255
Sprite,Background,Centre,"sb/ring.png",0,0 M,0,64508,,192,104 S,1,64508,66508,0.25,0.5 F,1,64508,66508,0.9,0 C,0,64508,,255,255,255
Sprite,Background,Centre,"sb/ring.png",0,0 M,0,64658,,140,156 S,1,64658,66883,0.25,0.5 F,1,64658,66883,0.9,0 C,0,64658,,255,255,255
Sprite,Background,Centre,"sb/ring.png",0,0 M,0,64958,,284,58 S,1,64958,66958,0.25,0.5 F,1,64958,66958,0.9,0 C,0,64958,,255,255,255
Sprite,Background,Centre,"sb/ring.png",0,0 M,0,65108,,479,226 S,1,65108,67332,0.25,0.5 F,1,65108,67332,0.9,0 C,0,65108,,255,255,255
Sprite,Background,Centre,"sb/ring.png",0,0 M,0,65408,,419,172 S,1,65408,67408,0.25,0.5 F,1,65408,67408,0.9,0 C,0,65408,,255,255,255
Sprite,Background,Centre,"sb/ring.png",0,0 M,0,65558,,402,250 S,1,65558,67558,0.25,0.5 F,1,65558,67558,0.9,0 C,0,65558,,255,255,255
Sprite,Background,Centre,"sb/ring.png",0,0 M,0,65708,,479,226 S,1,65708,67708,0.25,0.5 F,1,65708,67708,0.9,0 C,0,65708,,255,255,255
Sprite,Background,Centre,"sb/ring.png",0,0 M,0,65858,,499,391 S,1,65858,68008,0.25,0.5 F,1,65858,68008,0.9,0 C,0,65858,,255,255,255
Sprite,Background,Centre,"sb/ring.png",0,0 M,0,66058,,349,339 S,1,66058,68208,0.25,0.5 F,1,66058,68208,0.9,0 C,0,66058,,255,255,255
Sprite,Background,Centre,"sb/ring.png",0,0 M,0,66258,,307,312 S,1,66258,68408,0.25,0.5 F,1,66258,68408,0.9,0 C,0,66258,,255,255,255
Sprite,Background,Centre,"sb/ring.png",0,0 M,0,66458,,212,374 S,1,66458,68608,0.25,0.5 F,1,66458,68608,0.9,0 C,0,66458,,255,255,255
Sprite,Background,Centre,"sb/ring.png",0,0 M,0,66658,,153,224 S,1,66658,68808,0.25,0.5 F,1,66658,68808,0.9,0 C,0,66658,,255,255,255
Sprite,Background,Centre,"sb/ring.png",0,0 M,0,66858,,163,136 S,1,66858,68858,0.25,0.5 F,1,66858,68858,0.9,0 C,0,66858,,255,255,255
Sprite,Background,Centre,"sb/ring.png",0,0 M,0,67058,,93,418 S,1,67058,69058,0.25,0.5 F,1,67058,69058,0.9,0 C,0,67058,,255,255,255
Sprite,Background,Centre,"sb/ring.png",0,0 M,0,67208,,462,217 S,1,67208,69208,0.25,0.5 F,1,67208,69208,0.9,0 C,0,67208,,255,255,255
Sprite,Background,Centre,"sb/ring.png",0,0 M,0,67358,,265,253 S,1,67358,69358,0.25,0.5 F,1,67358,69358,0.9,0 C,0,67358,,255,255,255
Sprite,Background,Centre,"sb/ring.png",0,0 M,0,67508,,392,188 S,1,67508,69508,0.25,0.5 F,1,67508,69508,0.9,0 C,0,67508,,255,255,255
Sprite,Background,Centre,"sb/ring.png",0,0 M,0,67658,,246,325 S,1,67658,69658,0.25,0.5 F,1,67658,69658,0.9,0 C,0,67658,,255,255,255
Sprite,Background,Centre,"sb/ring.png",0,0 M,0,67808,,319,202 S,1,67808,69808,0.25,0.5 F,1,67808,69808,0.9,0 C,0,67808,,255,255,255
Sprite,Background,Centre,"sb/ring.png",0,0 M,0,67958,,270,396 S,1,67958,70108,0.25,0.5 F,1,67958,70108,0.9,0 C,0,67958,,255,255,255
Sprite,Background,Centre,"sb/ring.png",0,0 M,0,68183,,320,248 S,1,68183,71458,0.25,0.5 F,1,68183,71458,0.9,0 C,0,68183,,255,255,255
Sprite,Background,Centre,"sb/ring.png",0,0 M,0,121058,,381,363 S,1,121058,123283,0.25,0.5 F,1,121058,123283,0.9,0 C,0,121058,,255,255,255
Sprite,Background,Centre,"sb/ring.png",0,0 M,0,121358,,390,92 S,1,121358,123358,0.25,0.5 F,1,121358,123358,0.9,0 C,0,121358,,255,255,255
Sprite,Background,Centre,"sb/ring.png",0,0 M,0,121508,,458,406 S,1,121508,123733,0.25,0.5 F,1,121508,123733,0.9,0 C,0,121508,,255,255,255
Sprite,Background,Centre,"sb/ring.png",0,0 M,0,121808,,390,92 S,1,121808,123808,0.25,0.5 F,1,121808,123808,0.9,0 C,0,121808,,255,255,255
Sprite,Background,Centre,"sb/ring.png",0,0 M,0,121958,,147,125 S,1,121958,124033,0.25,0.5 F,1,121958,124033,0.9,0 C,0,121958,,255,255,255
Sprite,Background,Centre,"sb/ring.png",0,0 M,0,122108,,279,111 S,1,122108,124183,0.25,0.5 F,1,122108,124183,0.9,0 C,0,122108,,255,255,255
Sprite,Background,Centre,"sb/ring.png",0,0 M,0,122258,,356,218 S,1,122258,124483,0.25,0.5 F,1,122258,124483,0.9,0 C,0,122258,,255,255,255
Sprite,Background,Centre,"sb/ring.png",0,0 M,0,122558,,64,251 S,1,122558,124633,0.25,0.5 F,1,122558,124633,0.9,0 C,0,122558,,255,255,255
Sprite,Background,Centre,"sb/ring.png",0,0 M,0,122708,,177,214 S,1,122708,124783,0.25,0.5 F,1,122708,124783,0.9,0 C,0,122708,,255,255,255
Sprite,Background,Centre,"sb/ring.png",0,0 M,0,122858,,85,326 S,1,122858,125082,0.25,0.5 F,1,122858,125082,0.9,0 C,0,122858,,255,255,255
Sprite,Background,Centre,"sb/ring.png",0,0 M,0,123158,,149,418 S,1,123158,125158,0.25,0.5 F,1,123158,125158,0.9,0 C,0,123158,,255,255,255
Sprite,Background,Centre,"sb/ring.png",0,0 M,0,123308,,335,378 S,1,123308,125308,0.25,0.5 F,1,123308,125308,0.9,0 C,0,123308,,255,255,255
Sprite,Background,Centre,"sb/ring.png",0,0 M,0,123458,,404,426 S,1,123458,125607,0.25,0.5 F,1,123458,125607,0.9,0 C,0,123458,,255,255,255
Sprite,Background,Centre,"sb/ring.png",0,0 M,0,123758,,269,108 S,1,123758,125832,0.25,0.5 F,1,123758,125832,0.9,0 C,0,123758,,255,255,255
Sprite,Background,Centre,"sb/ring.png",0,0 M,0,123908,,486,130 S,1,123908,126207,0.25,0.5 F,1,123908,126207,0.9,0 C,0,123908,,255,255,255
Sprite,Background,Centre,"sb/ring.png",0,0 M,0,124358,,423,302 S,1,124358,126358,0.25,0.5 F,1,124358,126358,0.9,0 C,0,124358,,255,255,255
Sprite,Background,Centre,"sb/ring.png",0,0 M,0,124508,,507,204 S,1,124508,126508,0.25,0.5 F,1,124508,126508,0.9,0 C,0,124508,,255,255,255
Sprite,Background,Centre,"sb/ring.png",0,0 M,0,124583,,507,164 S,1,124583,126583,0.25,0.5 F,1,124583,126583,0.9,0 C,0,124583,,255,255,255
Sprite,Background,Centre,"sb/ring.png",0,0 M,0,124658,,486,130 S,1,124658,126658,0.25,0.5 F,1,124658,126658,0.9,0 C,0,124658,,255,255,255
Sprite,Background,Centre,"sb/ring.png",0,0 M,0,124808,,276,184 S,1,124808,126808,0.25,0.5 F,1,124808,126808,0.9,0 C,0,124808,,255,255,255
Sprite,Background,Centre,"sb/ring.png",0,0 M,0,124958,,423,389 S,1,124958,127032,0.25,0.5 F,1,124958,127032,0.9,0 C,0,124958,,255,255,255
Sprite,Background,Centre,"sb/ring.png",0,0 M,0,125108,,228,307 S,1,125108,127182,0.25,0.5 F,1,125108,127182,0.9,0 C,0,125108,,255,255,255
Sprite,Background,Centre,"sb/ring.png",0,0 M,0,125258,,424,372 S,1,125258,127483,0.25,0.5 F,1,125258,127483,0.9,0 C,0,125258,,255,255,255
Sprite,Background,Centre,"sb/ring.png",0,0 M,0,125558,,240,384 S,1,125558,127783,0.25,0.5 F,1,125558,127783,0.9,0 C,0,125558,,255,255,255
Sprite,Background,Centre,"sb/ring.png",0,0 M,0,125858,,497,405 S,1,125858,128082,0.25,0.5 F,1,125858,128082,0.9,0 C,0,125858,,255,255,255
Sprite,Background,Centre,"sb/ring.png",0,0 M,0,126158,,512,338 S,1,126158,128158,0.25,0.5 F,1,126158,128158,0.9,0 C,0,126158,,255,255,255
Sprite,Background,Centre,"sb/ring.png",0,0 M,0,126308,,329,431 S,1,126308,128383,0.25,0.5 F,1,126308,128383,0.9,0 C,0,126308,,255,255,255
Sprite,Background,Centre,"sb/ring.png",0,0 M,0,126458,,422,301 S,1,126458,128458,0.25,0.5 F,1,126458,128458,0.9,0 C,0,126458,,255,255,255
Sprite,Background,Centre,"sb/ring.png",0,0 M,0,126608,,533,440 S,1,126608,128608,0.25,0.5 F,1,126608,128608,0.9,0 C,0,126608,,255,255,255
Sprite,Background,Centre,"sb/ring.png",0,0 M,0,126758,,576,216 S,1,126758,128758,0.25,0.5 F,1,126758,128758,0.9,0 C,0,126758,,255,255,255
Sprite,Background,Centre,"sb/ring.png",0,0 M,0,126908,,415,236 S,1,126908,128983,0.25,0.5 F,1,126908,128983,0.9,0 C,0,126908,,255,255,255
Sprite,Background,Centre,"sb/ring.png",0,0 M,0,127058,,490,162 S,1,127058,129358,0.25,0.5 F,1,127058,129358,0.9,0 C,0,127058,,255,255,255
Sprite,Background,Centre,"sb/ring.png",0,0 M,0,127508,,294,218 S,1,127508,129732,0.25,0.5 F,1,127508,129732,0.9,0 C,0,127508,,255,255,255
Sprite,Background,Centre,"sb/ring.png",0,0 M,0,127808,,115,59 S,1,127808,129808,0.25,0.5 F,1,127808,129808,0.9,0 C,0,127808,,255,255,255
Sprite,Background,Centre,"sb/ring.png",0,0 M,0,127883,,115,59 S,1,127883,129883,0.25,0.5 F,1,127883,129883,0.9,0 C,0,127883,,255,255,255
Sprite,Background,Centre,"sb/ring.png",0,0 M,0,127958,,115,59 S,1,127958,130033,0.25,0.5 F,1,127958,130033,0.9,0 C,0,127958,,255,255,255
Sprite,Background,Centre,"sb/ring.png",0,0 M,0,128108,,157,164 S,1,128108,130183,0.25,0.5 F,1,128108,130183,0.9,0 C,0,128108,,255,255,255
Sprite,Background,Centre,"sb/ring.png",0,0 M,0,128258,,134,292 S,1,128258,130258,0.25,0.5 F,1,128258,130258,0.9,0 C,0,128258,,255,255,255
Sprite,Background,Centre,"sb/ring.png",0,0 M,0,128408,,271,270 S,1,128408,130408,0.25,0.5 F,1,128408,130408,0.9,0 C,0,128408,,255,255,255
Sprite,Background,Centre,"sb/ring.png",0,0 M,0,128558,,499,440 S,1,128558,130558,0.25,0.5 F,1,128558,130558,0.9,0 C,0,128558,,255,255,255
Sprite,Background,Centre,"sb/ring.png",0,0 M,0,128708,,293,407 S,1,128708,130708,0.25,0.5 F,1,128708,130708,0.9,0 C,0,128708,,255,255,255
Sprite,Background,Centre,"sb/ring.png",0,0 M,0,128858,,266,236 S,1,128858,130858,0.25,0.5 F,1,128858,130858,0.9,0 C,0,128858,,255,255,255
Sprite,Background,Centre,"sb/ring.png",0,0 M,0,129008,,499,440 S,1,129008,131008,0.25,0.5 F,1,129008,131008,0.9,0 C,0,129008,,255,255,255
Sprite,Background,Centre,"sb/ring.png",0,0 M,0,129158,,251,400 S,1,129158,131158,0.25,0.5 F,1,129158,131158,0.9,0 C,0,129158,,255,255,255
Sprite,Background,Centre,"sb/ring.png",0,0 M,0,129308,,261,202 S,1,129308,131308,0.25,0.5 F,1,129308,131308,0.9,0 C,0,129308,,255,255,255
Sprite,Background,Centre,"sb/ring.png",0,0 M,0,129458,,462,297 S,1,129458,131458,0.25,0.5 F,1,129458,131458,0.9,0 C,0,129458,,255,255,255
Sprite,Background,Centre,"sb/ring.png",0,0 M,0,129608,,402,235 S,1,129608,131682,0.25,0.5 F,1,129608,131682,0.9,0 C,0,129608,,255,255,255
Sprite,Background,Centre,"sb/ring.png",0,0 M,0,129758,,546,276 S,1,129758,131832,0.25,0.5 F,1,129758,131832,0.9,0 C,0,129758,,255,255,255
Sprite,Background,Centre,"sb/ring.png",0,0 M,0,129908,,438,381 S,1,129908,132132,0.25,0.5 F,1,129908,132132,0.9,0 C,0,129908,,255,255,255
Sprite,Background,Centre,"sb/ring.png",0,0 M,0,130208,,382,326 S,1,130208,132282,0.25,0.5 F,1,130208,132282,0.9,0 C,0,130208,,255,255,255
Sprite,Background,Centre,"sb/ring.png",0,0 M,0,130358,,305,431 S,1,130358,132358,0.25,0.5 F,1,130358,132358,0.9,0 C,0,130358,,255,255,255
Sprite,Background,Centre,"sb/ring.png",0,0 M,0,130508,,339,157 S,1,130508,132508,0.25,0.5 F,1,130508,132508,0.9,0 C,0,130508,,255,255,255
Sprite,Background,Centre,"sb/ring.png",0,0 M,0,130658,,300,62 S,1,130658,132658,0.25,0.5 F,1,130658,132658,0.9,0 C,0,130658,,255,255,255
Sprite,Background,Centre,"sb/ring.png",0,0 M,0,130808,,382,326 S,1,130808,132808,0.25,0.5 F,1,130808,132808,0.9,0 C,0,130808,,255,255,255
Sprite,Background,Centre,"sb/ring.png",0,0 M,0,130958,,253,369 S,1,130958,133032,0.25,0.5 F,1,130958,133032,0.9,0 C,0,130958,,255,255,255
Sprite,Background,Centre,"sb/ring.png",0,0 M,0,131108,,477,156 S,1,131108,133333,0.25,0.5 F,1,131108,133333,0.9,0 C,0,131108,,255,255,255
Sprite,Background,Centre,"sb/ring.png",0,0 M,0,131408,,285,139 S,1,131408,133483,0.25,0.5 F,1,131408,133483,0.9,0 C,0,131408,,255,255,255
Sprite,Background,Centre,"sb/ring.png",0,0 M,0,131558,,195,221 S,1,131558,133633,0.25,0.5 F,1,131558,133633,0.9,0 C,0,131558,,255,255,255
Sprite,Background,Centre,"sb/ring.png",0,0 M,0,131708,,164,100 S,1,131708,133783,0.25,0.5 F,1,131708,133783,0.9,0 C,0,131708,,255,255,255
Sprite,Background,Centre,"sb/ring.png",0,0 M,0,131858,,214,152 S,1,131858,133858,0.25,0.5 F,1,131858,133858,0.9,0 C,0,131858,,255,255,255
Sprite,Background,Centre,"sb/ring.png",0,0 M,0,132008,,137,379 S,1,132008,134008,0.25,0.5 F,1,132008,134008,0.9,0 C,0,132008,,255,255,255
Sprite,Background,Centre,"sb/ring.png",0,0 M,0,132158,,94,303 S,1,132158,134308,0.25,0.5 F,1,132158,134308,0.9,0 C,0,132158,,255,255,255
Sprite,Background,Centre,"sb/ring.png",0,0 M,0,132458,,397,409 S,1,132458,134458,0.25,0.5 F,1,132458,134458,0.9,0 C,0,132458,,255,255,255
Sprite,Background,Centre,"sb/ring.png",0,0 M,0,132608,,365,329 S,1,132608,134608,0.25,0.5 F,1,132608,134608,0.9,0 C,0,132608,,255,255,255
Sprite,Background,Centre,"sb/ring.png",0,0 M,0,132758,,478,78 S,1,132758,134758,0.25,0.5 F,1,132758,134758,0.9,0 C,0,132758,,255,255,255
Sprite,Background,Centre,"sb/ring.png",0,0 M,0,132908,,427,278 S,1,132908,134908,0.25,0.5 F,1,132908,134908,0.9,0 C,0,132908,,255,255,255
Sprite,Background,Centre,"sb/ring.png",0,0 M,0,133058,,266,249 S,1,133058,135283,0.25,0.5 F,1,133058,135283,0.9,0 C,0,133058,,255,255,255
Sprite,Background,Centre,"sb/ring.png",0,0 M,0,133358,,414,121 S,1,133358,135433,0.25,0.5 F,1,133358,135433,0.9,0 C,0,133358,,255,255,255
Sprite,Background,Centre,"sb/ring.png",0,0 M,0,133508,,552,187 S,1,133508,135583,0.25,0.5 F,1,133508,135583,0.9,0 C,0,133508,,255,255,255
Sprite,Background,Centre,"sb/ring.png",0,0 M,0,133658,,484,154 S,1,133658,135658,0.25,0.5 F,1,133658,135658,0.9,0 C,0,133658,,255,255,255
Sprite,Background,Centre,"sb/ring.png",0,0 M,0,133808,,317,96 S,1,133808,135957,0.25,0.5 F,1,133808,135957,0.9,0 C,0,133808,,255,255,255
Sprite,Background,Centre,"sb/ring.png",0,0 M,0,134108,,278,314 S,1,134108,136332,0.25,0.5 F,1,134108,136332,0.9,0 C,0,134108,,255,255,255
Sprite,Background,Centre,"sb/ring.png",0,0 M,0,134408,,378,254 S,1,134408,136408,0.25,0.5 F,1,134408,136408,0.9,0 C,0,134408,,255,255,255
Sprite,Background,Centre,"sb/ring.png",0,0 M,0,134558,,501,391 S,1,134558,136707,0.25,0.5 F,1,134558,136707,0.9,0 C,0,134558,,255,255,255
Sprite,Background,Centre,"sb/ring.png",0,0 M,0,134858,,307,246 S,1,134858,136858,0.25,0.5 F,1,134858,136858,0.9,0 C,0,134858,,255,255,255
Sprite,Background,Centre,"sb/ring.png",0,0 M,0,135008,,541,241 S,1,135008,137157,0.25,0.5 F,1,135008,137157,0.9,0 C,0,135008,,255,255,255
Sprite,Background,Centre,"sb/ring.png",0,0 M,0,135308,,378,254 S,1,135308,137308,0.25,0.5 F,1,135308,137308,0.9,0 C,0,135308,,255,255,255
Sprite,Background,Centre,"sb/ring.png",0,0 M,0,135458,,565,164 S,1,135458,138433,0.25,0.5 F,1,135458,138433,0.9,0 C,0,135458,,255,255,255
Sprite,Background,Centre,"sb/ring.png",0,0 M,0,136508,,506,157 S,1,136508,138545,0.25,0.5 F,1,136508,138545,0.9,0 C,0,136508,,255,255,255
Sprite,Background,Centre,"sb/ring.png",0,0 M,0,136958,,162,377 S,1,136958,138958,0.25,0.5 F,1,136958,138958,0.9,0 C,0,136958,,255,255,255
Sprite,Background,Centre,"sb/ring.png",0,0 M,0,137033,,162,377 S,1,137033,139033,0.25,0.5 F,1,137033,139033,0.9,0 C,0,137033,,255,255,255
Sprite,Background,Centre,"sb/ring.png",0,0 M,0,137108,,162,377 S,1,137108,139708,0.25,0.5 F,1,137108,139708,0.9,0 C,0,137108,,255,255,255
Sprite,Background,Centre,"sb/ring.png",0,0 M,0,137858,,278,170 S,1,137858,140007,0.25,0.5 F,1,137858,140007,0.9,0 C,0,137858,,255,255,255
Sprite,Background,Centre,"sb/ring.png",0,0 M,0,138158,,350,124 S,1,138158,140158,0.25,0.5 F,1,138158,140158,0.9,0 C,0,138158,,255,255,255
Sprite,Background,Centre,"sb/ring.png",0,0 M,0,138308,,429,167 S,1,138308,140607,0.25,0.5 F,1,138308,140607,0.9,0 C,0,138308,,255,255,255
Sprite,Background,Centre,"sb/ring.png",0,0 M,0,138758,,265,295 S,1,138758,140982,0.25,0.5 F,1,138758,140982,0.9,0 C,0,138758,,255,255,255
Sprite,Background,Centre,"sb/ring.png",0,0 M,0,139058,,353,400 S,1,139058,141058,0.25,0.5 F,1,139058,141058,0.9,0 C,0,139058,,255,255,255
Sprite,Background,Centre,"sb/ring.png",0,0 M,0,139208,,122,414 S,1,139208,141282,0.25,0.5 F,1,139208,141282,0.9,0 C,0,139208,,255,255,255
Sprite,Background,Centre,"sb/ring.png",0,0 M,0,139358,,191,311 S,1,139358,141432,0.25,0.5 F,1,139358,141432,0.9,0 C,0,139358,,255,255,255
Sprite,Background,Centre,"sb/ring.png",0,0 M,0,139508,,128,159 S,1,139508,141733,0.25,0.5 F,1,139508,141733,0.9,0 C,0,139508,,255,255,255
Sprite,Background,Centre,"sb/ring.png",0,0 M,0,139808,,297,190 S,1,139808,142033,0.25,0.5 F,1,139808,142033,0.9,0 C,0,139808,,255,255,255
Sprite,Background,Centre,"sb/ring.png",0,0 M,0,140108,,143,171 S,1,140108,142257,0.25,0.5 F,1,140108,142257,0.9,0 C,0,140108,,255,255,255
Sprite,Background,Centre,"sb/ring.png",0,0 M,0,140408,,209,222 S,1,140408,142408,0.25,0.5 F,1,140408,142408,0.9,0 C,0,140408,,255,255,255
Sprite,Background,Centre,"sb/ring.png",0,0 M,0,140558,,490,331 S,1,140558,142558,0.25,0.5 F,1,140558,142558,0.9,0 C,0,140558,,255,255,255
Sprite,Background,Centre,"sb/ring.png",0,0 M,0,140708,,397,207 S,1,140708,142708,0.25,0.5 F,1,140708,142708,0.9,0 C,0,140708,,255,255,255
Sprite,Background,Centre,"sb/ring.png",0,0 M,0,140858,,338,350 S,1,140858,142858,0.25,0.5 F,1,140858,142858,0.9,0 C,0,140858,,255,255,255
Sprite,Background,Centre,"sb/ring.png",0,0 M,0,141008,,408,295 S,1,141008,143008,0.25,0.5 F,1,141008,143008,0.9,0 C,0,141008,,255,255,255
Sprite,Background,Centre,"sb/ring.png",0,0 M,0,141158,,126,342 S,1,141158,143158,0.25,0.5 F,1,141158,143158,0.9,0 C,0,141158,,255,255,255
Sprite,Background,Centre,"sb/ring.png",0,0 M,0,141308,,196,397 S,1,141308,143458,0.25,0.5 F,1,141308,143458,0.9,0 C,0,141308,,255,255,255
Sprite,Background,Centre,"sb/ring.png",0,0 M,0,141608,,113,430 S,1,141608,143608,0.25,0.5 F,1,141608,143608,0.9,0 C,0,141608,,255,255,255
Sprite,Background,Centre,"sb/ring.png",0,0 M,0,141758,,214,143 S,1,141758,143833,0.25,0.5 F,1,141758,143833,0.9,0 C,0,141758,,255,255,255
Sprite,Background,Centre,"sb/ring.png",0,0 M,0,141908,,127,213 S,1,141908,143983,0.25,0.5 F,1,141908,143983,0.9,0 C,0,141908,,255,255,255
Sprite,Background,Centre,"sb/ring.png",0,0 M,0,142058,,280,100 S,1,142058,144058,0.25,0.5 F,1,142058,144058,0.9,0 C,0,142058,,255,255,255
Sprite,Background,Centre,"sb/ring.png",0,0 M,0,142133,,332,75 S,1,142133,144133,0.25,0.5 F,1,142133,144133,0.9,0 C,0,142133,,255,255,255
Sprite,Background,Centre,"sb/ring.png",0,0 M,0,142208,,380,90 S,1,142208,144208,0.25,0.5 F,1,142208,144208,0.9,0 C,0,142208,,255,255,255
Sprite,Background,Centre,"sb/ring.png",0,0 M,0,142283,,404,122 S,1,142283,144283,0.25,0.5 F,1,142283,144283,0.9,0 C,0,142283,,255,255,255
Sprite,Background,Centre,"sb/ring.png",0,0 M,0,142358,,405,154 S,1,142358,144358,0.25,0.5 F,1,142358,144358,0.9,0 C,0,142358,,255,255,255
Sprite,Background,Centre,"sb/ring.png",0,0 M,0,142433,,412,182 S,1,142433,144433,0.25,0.5 F,1,142433,144433,0.9,0 C,0,142433,,255,255,255
Sprite,Background,Centre,"sb/ring.png",0,0 M,0,142508,,435,214 S,1,142508,144508,0.25,0.5 F,1,142508,144508,0.9,0 C,0,142508,,255,255,255
Sprite,Background,Centre,"sb/ring.png",0,0 M,0,142583,,485,230 S,1,142583,144583,0.25,0.5 F,1,142583,144583,0.9,0 C,0,142583,,255,255,255
Sprite,Background,Centre,"sb/ring.png",0,0 M,0,142658,,537,206 S,1,142658,144658,0.25,0.5 F,1,142658,144658,0.9,0 C,0,142658,,255,255,255
Sprite,Background,Centre,"sb/ring.png",0,0 M,0,142808,,427,316 S,1,142808,144958,0.25,0.5 F,1,142808,144958,0.9,0 C,0,142808,,255,255,255
Sprite,Background,Centre,"sb/ring.png",0,0 M,0,143108,,261,334 S,1,143108,145332,0.25,0.5 F,1,143108,145332,0.9,0 C,0,143108,,255,255,255
Sprite,Background,Centre,"sb/ring.png",0,0 M,0,143408,,87,235 S,1,143408,145482,0.25,0.5 F,1,143408,145482,0.9,0 C,0,143408,,255,255,255
Sprite,Background,Centre,"sb/ring.png",0,0 M,0,143558,,98,324 S,1,143558,145782,0.25,0.5 F,1,143558,145782,0.9,0 C,0,143558,,255,255,255
Sprite,Background,Centre,"sb/ring.png",0,0 M,0,143858,,143,180 S,1,143858,145932,0.25,0.5 F,1,143858,145932,0.9,0 C,0,143858,,255,255,255
Sprite,Background,Centre,"sb/ring.png",0,0 M,0,144008,,241,207 S,1,144008,146232,0.25,0.5 F,1,144008,146232,0.9,0 C,0,144008,,255,255,255
Sprite,Background,Centre,"sb/ring.png",0,0 M,0,144308,,143,180 S,1,144308,146382,0.25,0.5 F,1,144308,146382,0.9,0 C,0,144308,,255,255,255
Sprite,Background,Centre,"sb/ring.png",0,0 M,0,144458,,324,295 S,1,144458,146458,0.25,0.5 F,1,144458,146458,0.9,0 C,0,144458,,255,255,255
Sprite,Background,Centre,"sb/ring.png",0,0 M,0,144533,,340,263 S,1,144533,146533,0.25,0.5 F,1,144533,146533,0.9,0 C,0,144533,,255,255,255
Sprite,Background,Centre,"sb/ring.png",0,0 M,0,144608,,364,287 S,1,144608,146608,0.25,0.5 F,1,144608,146608,0.9,0 C,0,144608,,255,255,255
Sprite,Background,Centre,"sb/ring.png",0,0 M,0,144683,,380,263 S,1,144683,146683,0.25,0.5 F,1,144683,146683,0.9,0 C,0,144683,,255,255,255
Sprite,Background,Centre,"sb/ring.png",0,0 M,0,144758,,396,279 S,1,144758,146833,0.25,0.5 F,1,144758,146833,0.9,0 C,0,144758,,255,255,255
Sprite,Background,Centre,"sb/ring.png",0,0 M,0,144908,,338,359 S,1,144908,146983,0.25,0.5 F,1,144908,146983,0.9,0 C,0,144908,,255,255,255
Sprite,Background,Centre,"sb/ring.png",0,0 M,0,145058,,460,166 S,1,145058,147058,0.25,0.5 F,1,145058,147058,0.9,0 C,0,145058,,255,255,255
Sprite,Background,Centre,"sb/ring.png",0,0 M,0,145208,,300,131 S,1,145208,147208,0.25,0.5 F,1,145208,147208,0.9,0 C,0,145208,,255,255,255
Sprite,Background,Centre,"sb/ring.png",0,0 M,0,145358,,86,165 S,1,145358,147358,0.25,0.5 F,1,145358,147358,0.9,0 C,0,145358,,255,255,255
Sprite,Background,Centre,"sb/ring.png",0,0 M,0,145508,,294,210 S,1,145508,147508,0.25,0.5 F,1,145508,147508,0.9,0 C,0,145508,,255,255,255
Sprite,Background,Centre,"sb/ring.png",0,0 M,0,145658,,387,136 S,1,145658,147658,0.25,0.5 F,1,145658,147658,0.9,0 C,0,145658,,255,255,255
Sprite,Background,Centre,"sb/ring.png",0,0 M,0,145808,,460,166 S,1,145808,147958,0.25,0.5 F,1,145808,147958,0.9,0 C,0,145808,,255,255,255
Sprite,Background,Centre,"sb/ring.png",0,0 M,0,146108,,387,136 S,1,146108,148108,0.25,0.5 F,1,146108,148108,0.9,0 C,0,146108,,255,255,255
Sprite,Background,Centre,"sb/ring.png",0,0 M,0,146258,,143,428 S,1,146258,148407,0.25,0.5 F,1,146258,148407,0.9,0 C,0,146258,,255,255,255
Sprite,Background,Centre,"sb/ring.png",0,0 M,0,146558,,193,222 S,1,146558,148558,0.25,0.5 F,1,146558,148558,0.9,0 C,0,146558,,255,255,255
Sprite,Background,Centre,"sb/ring.png",0,0 M,0,146708,,120,187 S,1,146708,148708,0.25,0.5 F,1,146708,148708,0.9,0 C,0,146708,,255,255,255
Sprite,Background,Centre,"sb/ring.png",0,0 M,0,146858,,394,64 S,1,146858,149008,0.25,0.5 F,1,146858,149008,0.9,0 C,0,146858,,255,255,255
Sprite,Background,Centre,"sb/ring.png",0,0 M,0,147158,,373,270 S,1,147158,149158,0.25,0.5 F,1,147158,149158,0.9,0 C,0,147158,,255,255,255
Sprite,Background,Centre,"sb/ring.png",0,0 M,0,147308,,359,404 S,1,147308,149308,0.25,0.5 F,1,147308,149308,0.9,0 C,0,147308,,255,255,255
Sprite,Background,Centre,"sb/ring.png",0,0 M,0,147458,,120,187 S,1,147458,149458,0.25,0.5 F,1,147458,149458,0.9,0 C,0,147458,,255,255,255
Sprite,Background,Centre,"sb/ring.png",0,0 M,0,147608,,192,250 S,1,147608,149608,0.25,0.5 F,1,147608,149608,0.9,0 C,0,147608,,255,255,255
Sprite,Background,Centre,"sb/ring.png",0,0 M,0,147758,,231,61 S,1,147758,149758,0.25,0.5 F,1,147758,149758,0.9,0 C,0,147758,,255,255,255
Sprite,Background,Centre,"sb/ring.png",0,0 M,0,147908,,137,91 S,1,147908,149908,0.25,0.5 F,1,147908,149908,0.9,0 C,0,147908,,255,255,255
Sprite,Background,Centre,"sb/ring.png",0,0 M,0,148058,,283,218 S,1,148058,150058,0.25,0.5 F,1,148058,150058,0.9,0 C,0,148058,,255,255,255
Sprite,Background,Centre,"sb/ring.png",0,0 M,0,148208,,303,127 S,1,148208,150208,0.25,0.5 F,1,148208,150208,0.9,0 C,0,148208,,255,255,255
Sprite,Background,Centre,"sb/ring.png",0,0 M,0,148358,,210,156 S,1,148358,150358,0.25,0.5 F,1,148358,150358,0.9,0 C,0,148358,,255,255,255
Sprite,Background,Centre,"sb/ring.png",0,0 M,0,148508,,210,156 S,1,148508,150508,0.25,0.5 F,1,148508,150508,0.9,0 C,0,148508,,255,255,255
Sprite,Background,Centre,"sb/ring.png",0,0 M,0,148658,,319,329 S,1,148658,150658,0.25,0.5 F,1,148658,150658,0.9,0 C,0,148658,,255,255,255
Sprite,Background,Centre,"sb/ring.png",0,0 M,0,148808,,539,274 S,1,148808,150808,0.25,0.5 F,1,148808,150808,0.9,0 C,0,148808,,255,255,255
Sprite,Background,Centre,"sb/ring.png",0,0 M,0,148958,,346,250 S,1,148958,150958,0.25,0.5 F,1,148958,150958,0.9,0 C,0,148958,,255,255,255
Sprite,Background,Centre,"sb/ring.png",0,0 M,0,149108,,315,438 S,1,149108,151108,0.25,0.5 F,1,149108,151108,0.9,0 C,0,149108,,255,255,255
Sprite,Background,Centre,"sb/ring.png",0,0 M,0,149258,,539,274 S,1,149258,151258,0.25,0.5 F,1,149258,151258,0.9,0 C,0,149258,,255,255,255
Sprite,Background,Centre,"sb/ring.png",0,0 M,0,149408,,510,84 S,1,149408,151408,0.25,0.5 F,1,149408,151408,0.9,0 C,0,149408,,255,255,255
Sprite,Background,Centre,"sb/ring.png",0,0 M,0,149558,,334,93 S,1,149558,151707,0.25,0.5 F,1,149558,151707,0.9,0 C,0,149558,,255,255,255
Sprite,Background,Centre,"sb/ring.png",0,0 M,0,149858,,182,436 S,1,149858,151858,0.25,0.5 F,1,149858,151858,0.9,0 C,0,149858,,255,255,255
Sprite,Background,Centre,"sb/ring.png",0,0 M,0,150008,,482,352 S,1,150008,152008,0.25,0.5 F,1,150008,152008,0.9,0 C,0,150008,,255,255,255
Sprite,Background,Centre,"sb/ring.png",0,0 M,0,150158,,331,201 S,1,150158,152158,0.25,0.5 F,1,150158,152158,0.9,0 C,0,150158,,255,255,255
Sprite,Background,Centre,"sb/ring.png",0,0 M,0,150308,,276,406 S,1,150308,152308,0.25,0.5 F,1,150308,152308,0.9,0 C,0,150308,,255,255,255
Sprite,Background,Centre,"sb/ring.png",0,0 M,0,150458,,363,320 S,1,150458,152458,0.25,0.5 F,1,150458,152458,0.9,0 C,0,150458,,255,255,255
Sprite,Background,Centre,"sb/ring.png",0,0 M,0,150608,,125,256 S,1,150608,152608,0.25,0.5 F,1,150608,152608,0.9,0 C,0,150608,,255,255,255
Sprite,Background,Centre,"sb/ring.png",0,0 M,0,150758,,363,320 S,1,150758,153057,0.25,0.5 F,1,150758,153057,0.9,0 C,0,150758,,255,255,255
Sprite,Background,Centre,"sb/ring.png",0,0 M,0,151208,,262,244 S,1,151208,153357,0.25,0.5 F,1,151208,153357,0.9,0 C,0,151208,,255,255,255
Sprite,Background,Centre,"sb/ring.png",0,0 M,0,151508,,292,399 S,1,151508,153733,0.25,0.5 F,1,151508,153733,0.9,0 C,0,151508,,255,255,255
Sprite,Background,Centre,"sb/ring.png",0,0 M,0,151808,,323,88 S,1,151808,153808,0.25,0.5 F,1,151808,153808,0.9,0 C,0,151808,,255,255,255
Sprite,Background,Centre,"sb/ring.png",0,0 M,0,151958,,576,185 S,1,151958,153958,0.25,0.5 F,1,151958,153958,0.9,0 C,0,151958,,255,255,255
Sprite,Background,Centre,"sb/ring.png",0,0 M,0,152033,,524,205 S,1,152033,154033,0.25,0.5 F,1,152033,154033,0.9,0 C,0,152033,,255,255,255
Sprite,Background,Centre,"sb/ring.png",0,0 M,0,152108,,470,192 S,1,152108,154108,0.25,0.5 F,1,152108,154108,0.9,0 C,0,152108,,255,255,255
Sprite,Background,Centre,"sb/ring.png",0,0 M,0,152183,,434,150 S,1,152183,154183,0.25,0.5 F,1,152183,154183,0.9,0 C,0,152183,,255,255,255
Sprite,Background,Centre,"sb/ring.png",0,0 M,0,152258,,430,95 S,1,152258,154258,0.25,0.5 F,1,152258,154258,0.9,0 C,0,152258,,255,255,255
Sprite,Background,Centre,"sb/ring.png",0,0 M,0,152458,,504,383 S,1,152458,154458,0.25,0.5 F,1,152458,154458,0.9,0 C,0,152458,,255,255,255
Sprite,Background,Centre,"sb/ring.png",0,0 M,0,152658,,216,302 S,1,152658,154658,0.25,0.5 F,1,152658,154658,0.9,0 C,0,152658,,255,255,255
Sprite,Background,Centre,"sb/ring.png",0,0 M,0,152858,,549,217 S,1,152858,154858,0.25,0.5 F,1,152858,154858,0.9,0 C,0,152858,,255,255,255
Sprite,Background,Centre,"sb/ring.png",0,0 M,0,153058,,337,426 S,1,153058,155058,0.25,0.5 F,1,153058,155058,0.9,0 C,0,153058,,255,255,255
Sprite,Background,Centre,"sb/ring.png",0,0 M,0,153258,,263,136 S,1,153258,155258,0.25,0.5 F,1,153258,155258,0.9,0 C,0,153258,,255,255,255
Sprite,Background,Centre,"sb/ring.png",0,0 M,0,153458,,193,189 S,1,153458,155758,0.25,0.5 F,1,153458,155758,0.9,0 C,0,153458,,255,255,255
Sprite,Background,Centre,"sb/ring.png",0,0 M,0,153908,,263,136 S,1,153908,155908,0.25,0.5 F,1,153908,155908,0.9,0 C,0,153908,,255,255,255
Sprite,Background,Centre,"sb/ring.png",0,0 M,0,154208,,240,283 S,1,154208,156208,0.25,0.5 F,1,154208,156208,0.9,0 C,0,154208,,255,255,255
Sprite,Background,Centre,"sb/ring.png",0,0 M,0,154508,,217,430 S,1,154508,156808,0.25,0.5 F,1,154508,156808,0.9,0 C,0,154508,,255,255,255
Sprite,Background,Centre,"sb/ring.png",0,0 M,0,154958,,217,430 S,1,154958,156958,0.25,0.5 F,1,154958,156958,0.9,0 C,0,154958,,255,255,255
Sprite,Background,Centre,"sb/ring.png",0,0 M,0,155108,,342,411 S,1,155108,157258,0.25,0.5 F,1,155108,157258,0.9,0 C,0,155108,,255,255,255
Sprite,Background,Centre,"sb/ring.png",0,0 M,0,155408,,256,267 S,1,155408,157558,0.25,0.5 F,1,155408,157558,0.9,0 C,0,155408,,255,255,255
Sprite,Background,Centre,"sb/ring.png",0,0 M,0,155708,,204,199 S,1,155708,157708,0.25,0.5 F,1,155708,157708,0.9,0 C,0,155708,,255,255,255
Sprite,Background,Centre,"sb/ring.png",0,0 M,0,155858,,204,199 S,1,155858,158308,0.25,0.5 F,1,155858,158308,0.9,0 C,0,155858,,255,255,255
Sprite,Background,Centre,"sb/ring.png",0,0 M,0,156458,,256,267 S,1,156458,158458,0.25,0.5 F,1,156458,158458,0.9,0 C,0,156458,,255,255,255
Sprite,Background,Centre,"sb/ring.png",0,0 M,0,181058,,326,278 S,1,181058,183283,0.25,0.5 F,1,181058,183283,0.9,0 C,0,181058,,255,255,255
Sprite,Background,Centre,"sb/ring.png",0,0 M,0,181358,,66,315 S,1,181358,183433,0.25,0.5 F,1,181358,183433,0.9,0 C,0,181358,,255,255,255
Sprite,Background,Centre,"sb/ring.png",0,0 M,0,181508,,345,381 S,1,181508,183732,0.25,0.5 F,1,181508,183732,0.9,0 C,0,181508,,255,255,255
Sprite,Background,Centre,"sb/ring.png",0,0 M,0,181808,,132,267 S,1,181808,183808,0.25,0.5 F,1,181808,183808,0.9,0 C,0,181808,,255,255,255
Sprite,Background,Centre,"sb/ring.png",0,0 M,0,181958,,303,209 S,1,181958,184032,0.25,0.5 F,1,181958,184032,0.9,0 C,0,181958,,255,255,255
Sprite,Background,Centre,"sb/ring.png",0,0 M,0,182108,,218,196 S,1,182108,184258,0.25,0.5 F,1,182108,184258,0.9,0 C,0,182108,,255,255,255
Sprite,Background,Centre,"sb/ring.png",0,0 M,0,182333,,242,129 S,1,182333,184333,0.25,0.5 F,1,182333,184333,0.9,0 C,0,182333,,255,255,255
Sprite,Background,Centre,"sb/ring.png",0,0 M,0,182408,,242,129 S,1,182408,184408,0.25,0.5 F,1,182408,184408,0.9,0 C,0,182408,,255,255,255
Sprite,Background,Centre,"sb/ring.png",0,0 M,0,182558,,535,209 S,1,182558,184633,0.25,0.5 F,1,182558,184633,0.9,0 C,0,182558,,255,255,255
Sprite,Background,Centre,"sb/ring.png",0,0 M,0,182708,,419,167 S,1,182708,184783,0.25,0.5 F,1,182708,184783,0.9,0 C,0,182708,,255,255,255
Sprite,Background,Centre,"sb/ring.png",0,0 M,0,182858,,303,209 S,1,182858,184858,0.25,0.5 F,1,182858,184858,0.9,0 C,0,182858,,255,255,255
Sprite,Background,Centre,"sb/ring.png",0,0 M,0,183008,,67,362 S,1,183008,185083,0.25,0.5 F,1,183008,185083,0.9,0 C,0,183008,,255,255,255
Sprite,Background,Centre,"sb/ring.png",0,0 M,0,183158,,206,311 S,1,183158,185233,0.25,0.5 F,1,183158,185233,0.9,0 C,0,183158,,255,255,255
Sprite,Background,Centre,"sb/ring.png",0,0 M,0,183308,,345,362 S,1,183308,185308,0.25,0.5 F,1,183308,185308,0.9,0 C,0,183308,,255,255,255
Sprite,Background,Centre,"sb/ring.png",0,0 M,0,183458,,535,209 S,1,183458,185683,0.25,0.5 F,1,183458,185683,0.9,0 C,0,183458,,255,255,255
Sprite,Background,Centre,"sb/ring.png",0,0 M,0,183758,,371,120 S,1,183758,185832,0.25,0.5 F,1,183758,185832,0.9,0 C,0,183758,,255,255,255
Sprite,Background,Centre,"sb/ring.png",0,0 M,0,183908,,257,210 S,1,183908,185982,0.25,0.5 F,1,183908,185982,0.9,0 C,0,183908,,255,255,255
Sprite,Background,Centre,"sb/ring.png",0,0 M,0,184058,,314,165 S,1,184058,186058,0.25,0.5 F,1,184058,186058,0.9,0 C,0,184058,,255,255,255
Sprite,Background,Centre,"sb/ring.png",0,0 M,0,184208,,90,269 S,1,184208,186208,0.25,0.5 F,1,184208,186208,0.9,0 C,0,184208,,255,255,255
Sprite,Background,Centre,"sb/ring.png",0,0 M,0,184358,,148,329 S,1,184358,186507,0.25,0.5 F,1,184358,186507,0.9,0 C,0,184358,,255,255,255
Sprite,Background,Centre,"sb/ring.png",0,0 M,0,184658,,74,357 S,1,184658,186883,0.25,0.5 F,1,184658,186883,0.9,0 C,0,184658,,255,255,255
Sprite,Background,Centre,"sb/ring.png",0,0 M,0,184958,,324,418 S,1,184958,187032,0.25,0.5 F,1,184958,187032,0.9,0 C,0,184958,,255,255,255
Sprite,Background,Centre,"sb/ring.png",0,0 M,0,185108,,415,317 S,1,185108,187182,0.25,0.5 F,1,185108,187182,0.9,0 C,0,185108,,255,255,255
Sprite,Background,Centre,"sb/ring.png",0,0 M,0,185258,,192,194 S,1,185258,187482,0.25,0.5 F,1,185258,187482,0.9,0 C,0,185258,,255,255,255
Sprite,Background,Centre,"sb/ring.png",0,0 M,0,185558,,552,246 S,1,185558,187782,0.25,0.5 F,1,185558,187782,0.9,0 C,0,185558,,255,255,255
Sprite,Background,Centre,"sb/ring.png",0,0 M,0,185858,,422,115 S,1,185858,187858,0.25,0.5 F,1,185858,187858,0.9,0 C,0,185858,,255,255,255
Sprite,Background,Centre,"sb/ring.png",0,0 M,0,186008,,525,389 S,1,186008,188008,0.25,0.5 F,1,186008,188008,0.9,0 C,0,186008,,255,255,255
Sprite,Background,Centre,"sb/ring.png",0,0 M,0,186083,,525,389 S,1,186083,188083,0.25,0.5 F,1,186083,188083,0.9,0 C,0,186083,,255,255,255
Sprite,Background,Centre,"sb/ring.png",0,0 M,0,186158,,525,389 S,1,186158,188233,0.25,0.5 F,1,186158,188233,0.9,0 C,0,186158,,255,255,255
Sprite,Background,Centre,"sb/ring.png",0,0 M,0,186308,,465,256 S,1,186308,188383,0.25,0.5 F,1,186308,188383,0.9,0 C,0,186308,,255,255,255
Sprite,Background,Centre,"sb/ring.png",0,0 M,0,186458,,303,352 S,1,186458,188758,0.25,0.5 F,1,186458,188758,0.9,0 C,0,186458,,255,255,255
Sprite,Background,Centre,"sb/ring.png",0,0 M,0,186908,,114,366 S,1,186908,189132,0.25,0.5 F,1,186908,189132,0.9,0 C,0,186908,,255,255,255
Sprite,Background,Centre,"sb/ring.png",0,0 M,0,187208,,307,271 S,1,187208,189282,0.25,0.5 F,1,187208,189282,0.9,0 C,0,187208,,255,255,255
Sprite,Background,Centre,"sb/ring.png",0,0 M,0,187358,,391,360 S,1,187358,189432,0.25,0.5 F,1,187358,189432,0.9,0 C,0,187358,,255,255,255
Sprite,Background,Centre,"sb/ring.png",0,0 M,0,187508,,342,194 S,1,187508,189733,0.25,0.5 F,1,187508,189733,0.9,0 C,0,187508,,255,255,255
Sprite,Background,Centre,"sb/ring.png",0,0 M,0,187808,,125,117 S,1,187808,189808,0.25,0.5 F,1,187808,189808,0.9,0 C,0,187808,,255,255,255
Sprite,Background,Centre,"sb/ring.png",0,0 M,0,187883,,125,117 S,1,187883,189883,0.25,0.5 F,1,187883,189883,0.9,0 C,0,187883,,255,255,255
Sprite,Background,Centre,"sb/ring.png",0,0 M,0,187958,,125,117 S,1,187958,190033,0.25,0.5 F,1,187958,190033,0.9,0 C,0,187958,,255,255,255
Sprite,Background,Centre,"sb/ring.png",0,0 M,0,188108,,111,318 S,1,188108,190183,0.25,0.5 F,1,188108,190183,0.9,0 C,0,188108,,255,255,255
Sprite,Background,Centre,"sb/ring.png",0,0 M,0,188258,,342,194 S,1,188258,190258,0.25,0.5 F,1,188258,190258,0.9,0 C,0,188258,,255,255,255
Sprite,Background,Centre,"sb/ring.png",0,0 M,0,188408,,537,237 S,1,188408,190408,0.25,0.5 F,1,188408,190408,0.9,0 C,0,188408,,255,255,255
Sprite,Background,Centre,"sb/ring.png",0,0 M,0,188558,,272,179 S,1,188558,190558,0.25,0.5 F,1,188558,190558,0.9,0 C,0,188558,,255,255,255
Sprite,Background,Centre,"sb/ring.png",0,0 M,0,188708,,525,123 S,1,188708,190708,0.25,0.5 F,1,188708,190708,0.9,0 C,0,188708,,255,255,255
Sprite,Background,Centre,"sb/ring.png",0,0 M,0,188858,,440,216 S,1,188858,190858,0.25,0.5 F,1,188858,190858,0.9,0 C,0,188858,,255,255,255
Sprite,Background,Centre,"sb/ring.png",0,0 M,0,189008,,243,180 S,1,189008,191008,0.25,0.5 F,1,189008,191008,0.9,0 C,0,189008,,255,255,255
Sprite,Background,Centre,"sb/ring.png",0,0 M,0,189158,,547,113 S,1,189158,191158,0.25,0.5 F,1,189158,191158,0.9,0 C,0,189158,,255,255,255
Sprite,Background,Centre,"sb/ring.png",0,0 M,0,189308,,443,222 S,1,189308,191308,0.25,0.5 F,1,189308,191308,0.9,0 C,0,189308,,255,255,255
Sprite,Background,Centre,"sb/ring.png",0,0 M,0,189458,,471,303 S,1,189458,191458,0.25,0.5 F,1,189458,191458,0.9,0 C,0,189458,,255,255,255
Sprite,Background,Centre,"sb/ring.png",0,0 M,0,189608,,536,247 S,1,189608,191683,0.25,0.5 F,1,189608,191683,0.9,0 C,0,189608,,255,255,255
Sprite,Background,Centre,"sb/ring.png",0,0 M,0,189758,,488,386 S,1,189758,191833,0.25,0.5 F,1,189758,191833,0.9,0 C,0,189758,,255,255,255
Sprite,Background,Centre,"sb/ring.png",0,0 M,0,189908,,391,275 S,1,189908,192132,0.25,0.5 F,1,189908,192132,0.9,0 C,0,189908,,255,255,255
Sprite,Background,Centre,"sb/ring.png",0,0 M,0,190208,,443,222 S,1,190208,192283,0.25,0.5 F,1,190208,192283,0.9,0 C,0,190208,,255,255,255
Sprite,Background,Centre,"sb/ring.png",0,0 M,0,190358,,317,320 S,1,190358,192358,0.25,0.5 F,1,190358,192358,0.9,0 C,0,190358,,255,255,255
Sprite,Background,Centre,"sb/ring.png",0,0 M,0,190508,,87,194 S,1,190508,192508,0.25,0.5 F,1,190508,192508,0.9,0 C,0,190508,,255,255,255
Sprite,Background,Centre,"sb/ring.png",0,0 M,0,190658,,67,295 S,1,190658,192658,0.25,0.5 F,1,190658,192658,0.9,0 C,0,190658,,255,255,255
Sprite,Background,Centre,"sb/ring.png",0,0 M,0,190808,,364,192 S,1,190808,192808,0.25,0.5 F,1,190808,192808,0.9,0 C,0,190808,,255,255,255
Sprite,Background,Centre,"sb/ring.png",0,0 M,0,190958,,256,361 S,1,190958,193033,0.25,0.5 F,1,190958,193033,0.9,0 C,0,190958,,255,255,255
Sprite,Background,Centre,"sb/ring.png",0,0 M,0,191108,,397,115 S,1,191108,193333,0.25,0.5 F,1,191108,193333,0.9,0 C,0,191108,,255,255,255
Sprite,Background,Centre,"sb/ring.png",0,0 M,0,191408,,190,168 S,1,191408,193408,0.25,0.5 F,1,191408,193408,0.9,0 C,0,191408,,255,255,255
Sprite,Background,Centre,"sb/ring.png",0,0 M,0,191558,,370,264 S,1,191558,193633,0.25,0.5 F,1,191558,193633,0.9,0 C,0,191558,,255,255,255
Sprite,Background,Centre,"sb/ring.png",0,0 M,0,191708,,314,317 S,1,191708,193858,0.25,0.5 F,1,191708,193858,0.9,0 C,0,191708,,255,255,255
Sprite,Background,Centre,"sb/ring.png",0,0 M,0,191933,,358,370 S,1,191933,193933,0.25,0.5 F,1,191933,193933,0.9,0 C,0,191933,,255,255,255
Sprite,Background,Centre,"sb/ring.png",0,0 M,0,192008,,358,370 S,1,192008,194008,0.25,0.5 F,1,192008,194008,0.9,0 C,0,192008,,255,255,255
Sprite,Background,Centre,"sb/ring.png",0,0 M,0,192158,,106,246 S,1,192158,194233,0.25,0.5 F,1,192158,194233,0.9,0 C,0,192158,,255,255,255
Sprite,Background,Centre,"sb/ring.png",0,0 M,0,192308,,190,168 S,1,192308,194383,0.25,0.5 F,1,192308,194383,0.9,0 C,0,192308,,255,255,255
Sprite,Background,Centre,"sb/ring.png",0,0 M,0,192458,,156,320 S,1,192458,194458,0.25,0.5 F,1,192458,194458,0.9,0 C,0,192458,,255,255,255
Sprite,Background,Centre,"sb/ring.png",0,0 M,0,192608,,413,265 S,1,192608,194682,0.25,0.5 F,1,192608,194682,0.9,0 C,0,192608,,255,255,255
Sprite,Background,Centre,"sb/ring.png",0,0 M,0,192758,,315,168 S,1,192758,194832,0.25,0.5 F,1,192758,194832,0.9,0 C,0,192758,,255,255,255
Sprite,Background,Centre,"sb/ring.png",0,0 M,0,192908,,380,99 S,1,192908,194908,0.25,0.5 F,1,192908,194908,0.9,0 C,0,192908,,255,255,255
Sprite,Background,Centre,"sb/ring.png",0,0 M,0,193058,,500,284 S,1,193058,195283,0.25,0.5 F,1,193058,195283,0.9,0 C,0,193058,,255,255,255
Sprite,Background,Centre,"sb/ring.png",0,0 M,0,193358,,159,346 S,1,193358,195433,0.25,0.5 F,1,193358,195433,0.9,0 C,0,193358,,255,255,255
Sprite,Background,Centre,"sb/ring.png",0,0 M,0,193508,,196,239 S,1,193508,195583,0.25,0.5 F,1,193508,195583,0.9,0 C,0,193508,,255,255,255
Sprite,Background,Centre,"sb/ring.png",0,0 M,0,193658,,114,250 S,1,193658,195658,0.25,0.5 F,1,193658,195658,0.9,0 C,0,193658,,255,255,255
Sprite,Background,Centre,"sb/ring.png",0,0 M,0,193808,,157,111 S,1,193808,195808,0.25,0.5 F,1,193808,195808,0.9,0 C,0,193808,,255,255,255
Sprite,Background,Centre,"sb/ring.png",0,0 M,0,193958,,360,81 S,1,193958,195958,0.25,0.5 F,1,193958,195958,0.9,0 C,0,193958,,255,255,255
Sprite,Background,Centre,"sb/ring.png",0,0 M,0,194108,,542,172 S,1,194108,196108,0.25,0.5 F,1,194108,196108,0.9,0 C,0,194108,,255,255,255
Sprite,Background,Centre,"sb/ring.png",0,0 M,0,194258,,482,111 S,1,194258,196483,0.25,0.5 F,1,194258,196483,0.9,0 C,0,194258,,255,255,255
Sprite,Background,Centre,"sb/ring.png",0,0 M,0,194558,,551,274 S,1,194558,196558,0.25,0.5 F,1,194558,196558,0.9,0 C,0,194558,,255,255,255
Sprite,Background,Centre,"sb/ring.png",0,0 M,0,194708,,433,412 S,1,194708,196932,0.25,0.5 F,1,194708,196932,0.9,0 C,0,194708,,255,255,255
Sprite,Background,Centre,"sb/ring.png",0,0 M,0,195008,,369,361 S,1,195008,197008,0.25,0.5 F,1,195008,197008,0.9,0 C,0,195008,,255,255,255
Sprite,Background,Centre,"sb/ring.png",0,0 M,0,195158,,223,413 S,1,195158,197158,0.25,0.5 F,1,195158,197158,0.9,0 C,0,195158,,255,255,255
Sprite,Background,Centre,"sb/ring.png",0,0 M,0,195308,,82,345 S,1,195308,197308,0.25,0.5 F,1,195308,197308,0.9,0 C,0,195308,,255,255,255
Sprite,Background,Centre,"sb/ring.png",0,0 M,0,195458,,116,274 S,1,195458,198433,0.25,0.5 F,1,195458,198433,0.9,0 C,0,195458,,255,255,255
Sprite,Background,Centre,"sb/ring.png",0,0 M,0,196508,,109,215 S,1,196508,198545,0.25,0.5 F,1,196508,198545,0.9,0 C,0,196508,,255,255,255
Sprite,Background,Centre,"sb/ring.png",0,0 M,0,196808,,222,383 S,1,196808,198958,0.25,0.5 F,1,196808,198958,0.9,0 C,0,196808,,255,255,255
Sprite,Background,Centre,"sb/ring.png",0,0 M,0,197108,,252,113 S,1,197108,199108,0.25,0.5 F,1,197108,199108,0.9,0 C,0,197108,,255,255,255
Sprite,Background,Centre,"sb/ring.png",0,0 M,0,197258,,314,327 S,1,197258,199258,0.25,0.5 F,1,197258,199258,0.9,0 C,0,197258,,255,255,255
Sprite,Background,Centre,"sb/ring.png",0,0 M,0,197408,,349,84 S,1,197408,199408,0.25,0.5 F,1,197408,199408,0.9,0 C,0,197408,,255,255,255
Sprite,Background,Centre,"sb/ring.png",0,0 M,0,197558,,353,328 S,1,197558,199558,0.25,0.5 F,1,197558,199558,0.9,0 C,0,197558,,255,255,255
Sprite,Background,Centre,"sb/ring.png",0,0 M,0,197708,,450,81 S,1,197708,199708,0.25,0.5 F,1,197708,199708,0.9,0 C,0,197708,,255,255,255
Sprite,Background,Centre,"sb/ring.png",0,0 M,0,197858,,384,340 S,1,197858,199858,0.25,0.5 F,1,197858,199858,0.9,0 C,0,197858,,255,255,255
Sprite,Background,Centre,"sb/ring.png",0,0 M,0,198158,,389,361 S,1,198158,200158,0.25,0.5 F,1,198158,200158,0.9,0 C,0,198158,,255,255,255
Sprite,Background,Centre,"sb/ring.png",0,0 M,0,198308,,235,95 S,1,198308,200308,0.25,0.5 F,1,198308,200308,0.9,0 C,0,198308,,255,255,255
Sprite,Background,Centre,"sb/ring.png",0,0 M,0,198458,,353,347 S,1,198458,200458,0.25,0.5 F,1,198458,200458,0.9,0 C,0,198458,,255,255,255
Sprite,Background,Centre,"sb/ring.png",0,0 M,0,198608,,348,62 S,1,198608,200608,0.25,0.5 F,1,198608,200608,0.9,0 C,0,198608,,255,255,255
Sprite,Background,Centre,"sb/ring.png",0,0 M,0,198758,,307,346 S,1,198758,200758,0.25,0.5 F,1,198758,200758,0.9,0 C,0,198758,,255,255,255
Sprite,Background,Centre,"sb/ring.png",0,0 M,0,198908,,467,58 S,1,198908,200908,0.25,0.5 F,1,198908,200908,0.9,0 C,0,198908,,255,255,255
Sprite,Background,Centre,"sb/ring.png",0,0 M,0,199058,,524,148 S,1,199058,201208,0.25,0.5 F,1,199058,201208,0.9,0 C,0,199058,,255,255,255
Sprite,Background,Centre,"sb/ring.png",0,0 M,0,199358,,534,239 S,1,199358,201358,0.25,0.5 F,1,199358,201358,0.9,0 C,0,199358,,255,255,255
Sprite,Background,Centre,"sb/ring.png",0,0 M,0,199508,,544,330 S,1,199508,202108,0.25,0.5 F,1,199508,202108,0.9,0 C,0,199508,,255,255,255
Sprite,Background,Centre,"sb/ring.png",0,0 M,0,200558,,545,331 S,1,200558,203758,0.25,0.5 F,1,200558,203758,0.9,0 C,0,200558,,255,255,255
Sprite,Background,Centre,"sb/ring.png",0,0 M,0,201908,,481,162 S,1,201908,203908,0.25,0.5 F,1,201908,203908,0.9,0 C,0,201908,,255,255,255
Sprite,Background,Centre,"sb/ring.png",0,0 M,0,202058,,291,256 S,1,202058,204207,0.25,0.5 F,1,202058,204207,0.9,0 C,0,202058,,255,255,255
Sprite,Background,Centre,"sb/ring.png",0,0 M,0,202358,,177,158 S,1,202358,204507,0.25,0.5 F,1,202358,204507,0.9,0 C,0,202358,,255,255,255
Sprite,Background,Centre,"sb/ring.png",0,0 M,0,202658,,498,204 S,1,202658,204883,0.25,0.5 F,1,202658,204883,0.9,0 C,0,202658,,255,255,255
Sprite,Background,Centre,"sb/ring.png",0,0 M,0,202958,,285,79 S,1,202958,205032,0.25,0.5 F,1,202958,205032,0.9,0 C,0,202958,,255,255,255
Sprite,Background,Centre,"sb/ring.png",0,0 M,0,203108,,84,143 S,1,203108,205408,0.25,0.5 F,1,203108,205408,0.9,0 C,0,203108,,255,255,255
Sprite,Background,Centre,"sb/ring.png",0,0 M,0,203558,,297,339 S,1,203558,205633,0.25,0.5 F,1,203558,205633,0.9,0 C,0,203558,,255,255,255
Sprite,Background,Centre,"sb/ring.png",0,0 M,0,203708,,70,286 S,1,203708,205858,0.25,0.5 F,1,203708,205858,0.9,0 C,0,203708,,255,255,255
Sprite,Background,Centre,"sb/ring.png",0,0 M,0,203933,,221,300 S,1,203933,205933,0.25,0.5 F,1,203933,205933,0.9,0 C,0,203933,,255,255,255
Sprite,Background,Centre,"sb/ring.png",0,0 M,0,204008,,221,300 S,1,204008,206008,0.25,0.5 F,1,204008,206008,0.9,0 C,0,204008,,255,255,255
Sprite,Background,Centre,"sb/ring.png",0,0 M,0,204158,,404,259 S,1,204158,206233,0.25,0.5 F,1,204158,206233,0.9,0 C,0,204158,,255,255,255
Sprite,Background,Centre,"sb/ring.png",0,0 M,0,204308,,569,353 S,1,204308,206533,0.25,0.5 F,1,204308,206533,0.9,0 C,0,204308,,255,255,255
Sprite,Background,Centre,"sb/ring.png",0,0 M,0,204608,,399,323 S,1,204608,206683,0.25,0.5 F,1,204608,206683,0.9,0 C,0,204608,,255,255,255
Sprite,Background,Centre,"sb/ring.png",0,0 M,0,204758,,321,234 S,1,204758,206908,0.25,0.5 F,1,204758,206908,0.9,0 C,0,204758,,255,255,255
Sprite,Background,Centre,"sb/ring.png",0,0 M,0,205058,,253,375 S,1,205058,207058,0.25,0.5 F,1,205058,207058,0.9,0 C,0,205058,,255,255,255
Sprite,Background,Centre,"sb/ring.png",0,0 M,0,205208,,164,246 S,1,205208,207283,0.25,0.5 F,1,205208,207283,0.9,0 C,0,205208,,255,255,255
Sprite,Background,Centre,"sb/ring.png",0,0 M,0,205358,,243,210 S,1,205358,207358,0.25,0.5 F,1,205358,207358,0.9,0 C,0,205358,,255,255,255
Sprite,Background,Centre,"sb/ring.png",0,0 M,0,205508,,125,94 S,1,205508,207732,0.25,0.5 F,1,205508,207732,0.9,0 C,0,205508,,255,255,255
Sprite,Background,Centre,"sb/ring.png",0,0 M,0,205808,,404,186 S,1,205808,207883,0.25,0.5 F,1,205808,207883,0.9,0 C,0,205808,,255,255,255
Sprite,Background,Centre,"sb/ring.png",0,0 M,0,205958,,301,69 S,1,205958,208108,0.25,0.5 F,1,205958,208108,0.9,0 C,0,205958,,255,255,255
Sprite,Background,Centre,"sb/ring.png",0,0 M,0,206258,,440,263 S,1,206258,208258,0.25,0.5 F,1,206258,208258,0.9,0 C,0,206258,,255,255,255
Sprite,Background,Centre,"sb/ring.png",0,0 M,0,206408,,523,271 S,1,206408,208482,0.25,0.5 F,1,206408,208482,0.9,0 C,0,206408,,255,255,255
Sprite,Background,Centre,"sb/ring.png",0,0 M,0,206558,,404,186 S,1,206558,208632,0.25,0.5 F,1,206558,208632,0.9,0 C,0,206558,,255,255,255
Sprite,Background,Centre,"sb/ring.png",0,0 M,0,206708,,391,331 S,1,206708,208932,0.25,0.5 F,1,206708,208932,0.9,0 C,0,206708,,255,255,255
Sprite,Background,Centre,"sb/ring.png",0,0 M,0,207008,,467,342 S,1,207008,209082,0.25,0.5 F,1,207008,209082,0.9,0 C,0,207008,,255,255,255
Sprite,Background,Centre,"sb/ring.png",0,0 M,0,207158,,317,377 S,1,207158,209158,0.25,0.5 F,1,207158,209158,0.9,0 C,0,207158,,255,255,255
Sprite,Background,Centre,"sb/ring.png",0,0 M,0,207308,,252,132 S,1,207308,209308,0.25,0.5 F,1,207308,209308,0.9,0 C,0,207308,,255,255,255
Sprite,Background,Centre,"sb/ring.png",0,0 M,0,207458,,320,73 S,1,207458,209458,0.25,0.5 F,1,207458,209458,0.9,0 C,0,207458,,255,255,255
Sprite,Background,Centre,"sb/ring.png",0,0 M,0,207608,,255,318 S,1,207608,209758,0.25,0.5 F,1,207608,209758,0.9,0 C,0,207608,,255,255,255
Sprite,Background,Centre,"sb/ring.png",0,0 M,0,207908,,285,239 S,1,207908,210058,0.25,0.5 F,1,207908,210058,0.9,0 C,0,207908,,255,255,255
Sprite,Background,Centre,"sb/ring.png",0,0 M,0,208133,,455,279 S,1,208133,210133,0.25,0.5 F,1,208133,210133,0.9,0 C,0,208133,,255,255,255
Sprite,Background,Centre,"sb/ring.png",0,0 M,0,208208,,455,280 S,1,208208,210283,0.25,0.5 F,1,208208,210283,0.9,0 C,0,208208,,255,255,255
Sprite,Background,Centre,"sb/ring.png",0,0 M,0,208358,,301,372 S,1,208358,210583,0.25,0.5 F,1,208358,210583,0.9,0 C,0,208358,,255,255,255
Sprite,Background,Centre,"sb/ring.png",0,0 M,0,208658,,522,425 S,1,208658,210733,0.25,0.5 F,1,208658,210733,0.9,0 C,0,208658,,255,255,255
Sprite,Background,Centre,"sb/ring.png",0,0 M,0,208808,,455,280 S,1,208808,210883,0.25,0.5 F,1,208808,210883,0.9,0 C,0,208808,,255,255,255
Sprite,Background,Centre,"sb/ring.png",0,0 M,0,208958,,536,102 S,1,208958,211108,0.25,0.5 F,1,208958,211108,0.9,0 C,0,208958,,255,255,255
Sprite,Background,Centre,"sb/ring.png",0,0 M,0,209258,,172,361 S,1,209258,211258,0.25,0.5 F,1,209258,211258,0.9,0 C,0,209258,,255,255,255
Sprite,Background,Centre,"sb/ring.png",0,0 M,0,209408,,131,133 S,1,209408,211408,0.25,0.5 F,1,209408,211408,0.9,0 C,0,209408,,255,255,255
Sprite,Background,Centre,"sb/ring.png",0,0 M,0,209558,,278,212 S,1,209558,211558,0.25,0.5 F,1,209558,211558,0.9,0 C,0,209558,,255,255,255
Sprite,Background,Centre,"sb/ring.png",0,0 M,0,209708,,237,439 S,1,209708,211708,0.25,0.5 F,1,209708,211708,0.9,0 C,0,209708,,255,255,255
Sprite,Background,Centre,"sb/ring.png",0,0 M,0,209858,,191,286 S,1,209858,212082,0.25,0.5 F,1,209858,212082,0.9,0 C,0,209858,,255,255,255
Sprite,Background,Centre,"sb/ring.png",0,0 M,0,210158,,383,182 S,1,210158,212232,0.25,0.5 F,1,210158,212232,0.9,0 C,0,210158,,255,255,255
Sprite,Background,Centre,"sb/ring.png",0,0 M,0,210308,,527,286 S,1,210308,212382,0.25,0.5 F,1,210308,212382,0.9,0 C,0,210308,,255,255,255
Sprite,Background,Centre,"sb/ring.png",0,0 M,0,210458,,455,234 S,1,210458,212458,0.25,0.5 F,1,210458,212458,0.9,0 C,0,210458,,255,255,255
Sprite,Background,Centre,"sb/ring.png",0,0 M,0,210608,,205,180 S,1,210608,212608,0.25,0.5 F,1,210608,212608,0.9,0 C,0,210608,,255,255,255
Sprite,Background,Centre,"sb/ring.png",0,0 M,0,210758,,295,130 S,1,210758,212908,0.25,0.5 F,1,210758,212908,0.9,0 C,0,210758,,255,255,255
Sprite,Background,Centre,"sb/ring.png",0,0 M,0,211058,,194,397 S,1,211058,213283,0.25,0.5 F,1,211058,213283,0.9,0 C,0,211058,,255,255,255
Sprite,Background,Centre,"sb/ring.png",0,0 M,0,211358,,344,337 S,1,211358,213358,0.25,0.5 F,1,211358,213358,0.9,0 C,0,211358,,255,255,255
Sprite,Background,Centre,"sb/ring.png",0,0 M,0,211508,,503,435 S,1,211508,213808,0.25,0.5 F,1,211508,213808,0.9,0 C,0,211508,,255,255,255
Sprite,Background,Centre,"sb/ring.png",0,0 M,0,211958,,437,364 S,1,211958,213958,0.25,0.5 F,1,211958,213958,0.9,0 C,0,211958,,255,255,255
Sprite,Background,Centre,"sb/ring.png",0,0 M,0,212108,,299,265 S,1,212108,214108,0.25,0.5 F,1,212108,214108,0.9,0 C,0,212108,,255,255,255
Sprite,Background,Centre,"sb/ring.png",0,0 M,0,212258,,454,194 S,1,212258,214258,0.25,0.5 F,1,212258,214258,0.9,0 C,0,212258,,255,255,255
Sprite,Background,Centre,"sb/ring.png",0,0 M,0,213308,,454,194 S,1,213308,215308,0.25,0.5 F,1,213308,215308,0.9,0 C,0,213308,,255,255,255
Sprite,Background,Centre,"sb/ring.png",0,0 M,0,213758,,143,148 S,1,213758,215758,0.25,0.5 F,1,213758,215758,0.9,0 C,0,213758,,255,255,255
Sprite,Background,Centre,"sb/ring.png",0,0 M,0,213833,,143,148 S,1,213833,215833,0.25,0.5 F,1,213833,215833,0.9,0 C,0,213833,,255,255,255
Sprite,Background,Centre,"sb/ring.png",0,0 M,0,213908,,143,148 S,1,213908,216058,0.25,0.5 F,1,213908,216058,0.9,0 C,0,213908,,255,255,255
Sprite,Background,Centre,"sb/ring.png",0,0 M,0,214133,,280,239 S,1,214133,216133,0.25,0.5 F,1,214133,216133,0.9,0 C,0,214133,,255,255,255
Sprite,Background,Centre,"sb/ring.png",0,0 M,0,214208,,215,268 S,1,214208,216283,0.25,0.5 F,1,214208,216283,0.9,0 C,0,214208,,255,255,255
Sprite,Background,Centre,"sb/ring.png",0,0 M,0,214358,,345,206 S,1,214358,216433,0.25,0.5 F,1,214358,216433,0.9,0 C,0,214358,,255,255,255
Sprite,Background,Centre,"sb/ring.png",0,0 M,0,214508,,289,349 S,1,214508,216508,0.25,0.5 F,1,214508,216508,0.9,0 C,0,214508,,255,255,255
Sprite,Background,Centre,"sb/ring.png",0,0 M,0,214583,,292,358 S,1,214583,216583,0.25,0.5 F,1,214583,216583,0.9,0 C,0,214583,,255,255,255
Sprite,Background,Centre,"sb/ring.png",0,0 M,0,214658,,295,367 S,1,214658,216658,0.25,0.5 F,1,214658,216658,0.9,0 C,0,214658,,255,255,255
Sprite,Background,Centre,"sb/ring.png",0,0 M,0,214808,,471,208 S,1,214808,216808,0.25,0.5 F,1,214808,216808,0.9,0 C,0,214808,,255,255,255
Sprite,Background,Centre,"sb/ring.png",0,0 M,0,214958,,499,426 S,1,214958,216958,0.25,0.5 F,1,214958,216958,0.9,0 C,0,214958,,255,255,255
Sprite,Background,Centre,"sb/ring.png",0,0 M,0,215108,,422,325 S,1,215108,217108,0.25,0.5 F,1,215108,217108,0.9,0 C,0,215108,,255,255,255
Sprite,Background,Centre,"sb/ring.png",0,0 M,0,215258,,283,151 S,1,215258,217408,0.25,0.5 F,1,215258,217408,0.9,0 C,0,215258,,255,255,255
Sprite,Background,Centre,"sb/ring.png",0,0 M,0,215558,,208,281 S,1,215558,217633,0.25,0.5 F,1,215558,217633,0.9,0 C,0,215558,,255,255,255
Sprite,Background,Centre,"sb/ring.png",0,0 M,0,215708,,310,224 S,1,215708,217783,0.25,0.5 F,1,215708,217783,0.9,0 C,0,215708,,255,255,255
Sprite,Background,Centre,"sb/ring.png",0,0 M,0,215858,,215,360 S,1,215858,218083,0.25,0.5 F,1,215858,218083,0.9,0 C,0,215858,,255,255,255
Sprite,Background,Centre,"sb/ring.png",0,0 M,0,216158,,435,406 S,1,216158,218158,0.25,0.5 F,1,216158,218158,0.9,0 C,0,216158,,255,255,255
Sprite,Background,Centre,"sb/ring.png",0,0 M,0,216308,,306,289 S,1,216308,218308,0.25,0.5 F,1,216308,218308,0.9,0 C,0,216308,,255,255,255
Sprite,Background,Centre,"sb/ring.png",0,0 M,0,216458,,489,177 S,1,216458,218608,0.25,0.5 F,1,216458,218608,0.9,0 C,0,216458,,255,255,255
Sprite,Background,Centre,"sb/ring.png",0,0 M,0,216758,,403,128 S,1,216758,218758,0.25,0.5 F,1,216758,218758,0.9,0 C,0,216758,,255,255,255
Sprite,Background,Centre,"sb/ring.png",0,0 M,0,216908,,317,177 S,1,216908,218908,0.25,0.5 F,1,216908,218908,0.9,0 C,0,216908,,255,255,255
Sprite,Background,Centre,"sb/ring.png",0,0 M,0,217058,,291,374 S,1,217058,219058,0.25,0.5 F,1,217058,219058,0.9,0 C,0,217058,,255,255,255
Sprite,Background,Centre,"sb/ring.png",0,0 M,0,217208,,120,151 S,1,217208,219208,0.25,0.5 F,1,217208,219208,0.9,0 C,0,217208,,255,255,255
Sprite,Background,Centre,"sb/ring.png",0,0 M,0,217358,,94,348 S,1,217358,219358,0.25,0.5 F,1,217358,219358,0.9,0 C,0,217358,,255,255,255
Sprite,Background,Centre,"sb/ring.png",0,0 M,0,217508,,317,177 S,1,217508,219508,0.25,0.5 F,1,217508,219508,0.9,0 C,0,217508,,255,255,255
Sprite,Background,Centre,"sb/ring.png",0,0 M,0,217658,,385,248 S,1,217658,219808,0.25,0.5 F,1,217658,219808,0.9,0 C,0,217658,,255,255,255
Sprite,Background,Centre,"sb/ring.png",0,0 M,0,217958,,345,83 S,1,217958,219958,0.25,0.5 F,1,217958,219958,0.9,0 C,0,217958,,255,255,255
Sprite,Background,Centre,"sb/ring.png",0,0 M,0,218108,,318,333 S,1,218108,220108,0.25,0.5 F,1,218108,220108,0.9,0 C,0,218108,,255,255,255
Sprite,Background,Centre,"sb/ring.png",0,0 M,0,218258,,157,408 S,1,218258,220558,0.25,0.5 F,1,218258,220558,0.9,0 C,0,218258,,255,255,255
Sprite,Background,Centre,"sb/ring.png",0,0 M,0,218708,,103,141 S,1,218708,220708,0.25,0.5 F,1,218708,220708,0.9,0 C,0,218708,,255,255,255
Sprite,Background,Centre,"sb/ring.png",0,0 M,0,218858,,308,402 S,1,218858,221157,0.25,0.5 F,1,218858,221157,0.9,0 C,0,218858,,255,255,255
Sprite,Background,Centre,"sb/ring.png",0,0 M,0,219458,,542,128 S,1,219458,221758,0.25,0.5 F,1,219458,221758,0.9,0 C,0,219458,,255,255,255
Sprite,Background,Centre,"sb/ring.png",0,0 M,0,219908,,454,404 S,1,219908,221908,0.25,0.5 F,1,219908,221908,0.9,0 C,0,219908,,255,255,255
Sprite,Background,Centre,"sb/ring.png",0,0 M,0,220020,,380,102 S,1,220020,222020,0.25,0.5 F,1,220020,222020,0.9,0 C,0,220020,,255,255,255
Sprite,Background,Centre,"sb/ring.png",0,0 M,0,220058,,374,97 S,1,220058,222358,0.25,0.5 F,1,220058,222358,0.9,0 C,0,220058,,255,255,255
Sprite,Background,Centre,"sb/ring.png",0,0 M,0,220508,,327,351 S,1,220508,222508,0.25,0.5 F,1,220508,222508,0.9,0 C,0,220508,,255,255,255
Sprite,Background,Centre,"sb/ring.png",0,0 M,0,220620,,212,122 S,1,220620,222620,0.25,0.5 F,1,220620,222620,0.9,0 C,0,220620,,255,255,255
Sprite,Background,Centre,"sb/ring.png",0,0 M,0,220658,,205,118 S,1,220658,222957,0.25,0.5 F,1,220658,222957,0.9,0 C,0,220658,,255,255,255
Sprite,Background,Centre,"sb/ring.png",0,0 M,0,221108,,219,342 S,1,221108,223108,0.25,0.5 F,1,221108,223108,0.9,0 C,0,221108,,255,255,255
Sprite,Background,Centre,"sb/ring.png",0,0 M,0,221220,,77,207 S,1,221220,223220,0.25,0.5 F,1,221220,223220,0.9,0 C,0,221220,,255,255,255
Sprite,Background,Centre,"sb/ring.png",0,0 M,0,221258,,71,203 S,1,221258,223558,0.25,0.5 F,1,221258,223558,0.9,0 C,0,221258,,255,255,255
Sprite,Background,Centre,"sb/ring.png",0,0 M,0,221708,,219,342 S,1,221708,223708,0.25,0.5 F,1,221708,223708,0.9,0 C,0,221708,,255,255,255
Sprite,Background,Centre,"sb/ring.png",0,0 M,0,221858,,437,428 S,1,221858,223858,0.25,0.5 F,1,221858,223858,0.9,0 C,0,221858,,255,255,255
Sprite,Background,Centre,"sb/ring.png",0,0 M,0,222008,,387,230 S,1,222008,224008,0.25,0.5 F,1,222008,224008,0.9,0 C,0,222008,,255,255,255
Sprite,Background,Centre,"sb/ring.png",0,0 M,0,222158,,240,371 S,1,222158,224158,0.25,0.5 F,1,222158,224158,0.9,0 C,0,222158,,255,255,255
Sprite,Background,Centre,"sb/ring.png",0,0 M,0,222308,,355,343 S,1,222308,224308,0.25,0.5 F,1,222308,224308,0.9,0 C,0,222308,,255,255,255
Sprite,Background,Centre,"sb/ring.png",0,0 M,0,222458,,306,146 S,1,222458,224458,0.25,0.5 F,1,222458,224458,0.9,0 C,0,222458,,255,255,255
Sprite,Background,Centre,"sb/ring.png",0,0 M,0,222608,,501,202 S,1,222608,224608,0.25,0.5 F,1,222608,224608,0.9,0 C,0,222608,,255,255,255
Sprite,Background,Centre,"sb/ring.png",0,0 M,0,222758,,332,59 S,1,222758,224758,0.25,0.5 F,1,222758,224758,0.9,0 C,0,222758,,255,255,255
Sprite,Background,Centre,"sb/ring.png",0,0 M,0,222908,,111,90 S,1,222908,224908,0.25,0.5 F,1,222908,224908,0.9,0 C,0,222908,,255,255,255
Sprite,Background,Centre,"sb/ring.png",0,0 M,0,223058,,355,343 S,1,223058,225058,0.25,0.5 F,1,223058,225058,0.9,0 C,0,223058,,255,255,255
Sprite,Background,Centre,"sb/ring.png",0,0 M,0,223208,,380,144 S,1,223208,225208,0.25,0.5 F,1,223208,225208,0.9,0 C,0,223208,,255,255,255
Sprite,Background,Centre,"sb/ring.png",0,0 M,0,223358,,181,119 S,1,223358,225358,0.25,0.5 F,1,223358,225358,0.9,0 C,0,223358,,255,255,255
Sprite,Background,Centre,"sb/ring.png",0,0 M,0,223508,,156,318 S,1,223508,225508,0.25,0.5 F,1,223508,225508,0.9,0 C,0,223508,,255,255,255
Sprite,Background,Centre,"sb/ring.png",0,0 M,0,223658,,259,301 S,1,223658,225658,0.25,0.5 F,1,223658,225658,0.9,0 C,0,223658,,255,255,255
Sprite,Background,Centre,"sb/ring.png",0,0 M,0,223808,,338,239 S,1,223808,225808,0.25,0.5 F,1,223808,225808,0.9,0 C,0,223808,,255,255,255
Sprite,Background,Centre,"sb/ring.png",0,0 M,0,223958,,276,160 S,1,223958,225958,0.25,0.5 F,1,223958,225958,0.9,0 C,0,223958,,255,255,255
Sprite,Background,Centre,"sb/ring.png",0,0 M,0,224108,,197,222 S,1,224108,226108,0.25,0.5 F,1,224108,226108,0.9,0 C,0,224108,,255,255,255
Sprite,Background,Centre,"sb/ring.png",0,0 M,0,224258,,355,343 S,1,224258,226407,0.25,0.5 F,1,224258,226407,0.9,0 C,0,224258,,255,255,255
Sprite,Background,Centre,"sb/ring.png",0,0 M,0,224558,,276,160 S,1,224558,226558,0.25,0.5 F,1,224558,226558,0.9,0 C,0,224558,,255,255,255
Sprite,Background,Centre,"sb/ring.png",0,0 M,0,224708,,229,355 S,1,224708,226708,0.25,0.5 F,1,224708,226708,0.9,0 C,0,224708,,255,255,255
Sprite,Background,Centre,"sb/ring.png",0,0 M,0,224858,,299,256 S,1,224858,226858,0.25,0.5 F,1,224858,226858,0.9,0 C,0,224858,,255,255,255
Sprite,Background,Centre,"sb/ring.png",0,0 M,0,225008,,252,61 S,1,225008,227008,0.25,0.5 F,1,225008,227008,0.9,0 C,0,225008,,255,255,255
Sprite,Background,Centre,"sb/ring.png",0,0 M,0,225158,,370,150 S,1,225158,227307,0.25,0.5 F,1,225158,227307,0.9,0 C,0,225158,,255,255,255
Sprite,Background,Centre,"sb/ring.png",0,0 M,0,225458,,299,256 S,1,225458,227458,0.25,0.5 F,1,225458,227458,0.9,0 C,0,225458,,255,255,255
Sprite,Background,Centre,"sb/ring.png",0,0 M,0,225608,,119,176 S,1,225608,227608,0.25,0.5 F,1,225608,227608,0.9,0 C,0,225608,,255,255,255
Sprite,Background,Centre,"sb/ring.png",0,0 M,0,225758,,140,371 S,1,225758,227758,0.25,0.5 F,1,225758,227758,0.9,0 C,0,225758,,255,255,255
Sprite,Background,Centre,"sb/ring.png",0,0 M,0,225908,,186,267 S,1,225908,227908,0.25,0.5 F,1,225908,227908,0.9,0 C,0,225908,,255,255,255
Sprite,Background,Centre,"sb/ring.png",0,0 M,0,226058,,311,369 S,1,226058,228207,0.25,0.5 F,1,226058,228207,0.9,0 C,0,226058,,255,255,255
Sprite,Background,Centre,"sb/ring.png",0,0 M,0,226358,,232,377 S,1,226358,228358,0.25,0.5 F,1,226358,228358,0.9,0 C,0,226358,,255,255,255
Sprite,Background,Centre,"sb/ring.png",0,0 M,0,226508,,212,189 S,1,226508,228508,0.25,0.5 F,1,226508,228508,0.9,0 C,0,226508,,255,255,255
Sprite,Background,Centre,"sb/ring.png",0,0 M,0,226658,,364,76 S,1,226658,228658,0.25,0.5 F,1,226658,228658,0.9,0 C,0,226658,,255,255,255
Sprite,Background,Centre,"sb/ring.png",0,0 M,0,226808,,551,103 S,1,226808,228808,0.25,0.5 F,1,226808,228808,0.9,0 C,0,226808,,255,255,255
Sprite,Background,Centre,"sb/ring.png",0,0 M,0,226958,,337,202 S,1,226958,229107,0.25,0.5 F,1,226958,229107,0.9,0 C,0,226958,,255,255,255
Sprite,Background,Centre,"sb/ring.png",0,0 M,0,227258,,460,163 S,1,227258,229258,0.25,0.5 F,1,227258,229258,0.9,0 C,0,227258,,255,255,255
Sprite,Background,Centre,"sb/ring.png",0,0 M,0,227408,,487,350 S,1,227408,229408,0.25,0.5 F,1,227408,229408,0.9,0 C,0,227408,,255,255,255
Sprite,Background,Centre,"sb/ring.png",0,0 M,0,227558,,264,290 S,1,227558,229558,0.25,0.5 F,1,227558,229558,0.9,0 C,0,227558,,255,255,255
Sprite,Background,Centre,"sb/ring.png",0,0 M,0,227708,,291,103 S,1,227708,229708,0.25,0.5 F,1,227708,229708,0.9,0 C,0,227708,,255,255,255
Sprite,Background,Centre,"sb/ring.png",0,0 M,0,227858,,389,303 S,1,227858,230007,0.25,0.5 F,1,227858,230007,0.9,0 C,0,227858,,255,255,255
Sprite,Background,Centre,"sb/ring.png",0,0 M,0,228158,,110,61 S,1,228158,230158,0.25,0.5 F,1,228158,230158,0.9,0 C,0,228158,,255,255,255
Sprite,Background,Centre,"sb/ring.png",0,0 M,0,228308,,75,309 S,1,228308,230308,0.25,0.5 F,1,228308,230308,0.9,0 C,0,228308,,255,255,255
Sprite,Background,Centre,"sb/ring.png",0,0 M,0,228458,,177,392 S,1,228458,230458,0.25,0.5 F,1,228458,230458,0.9,0 C,0,228458,,255,255,255
Sprite,Background,Centre,"sb/ring.png",0,0 M,0,228608,,149,193 S,1,228608,230608,0.25,0.5 F,1,228608,230608,0.9,0 C,0,228608,,255,255,255
Sprite,Background,Centre,"sb/ring.png",0,0 M,0,228758,,231,127 S,1,228758,230758,0.25,0.5 F,1,228758,230758,0.9,0 C,0,228758,,255,255,255
Sprite,Background,Centre,"sb/ring.png",0,0 M,0,228908,,208,287 S,1,228908,230908,0.25,0.5 F,1,228908,230908,0.9,0 C,0,228908,,255,255,255
Sprite,Background,Centre,"sb/ring.png",0,0 M,0,229058,,359,227 S,1,229058,231058,0.25,0.5 F,1,229058,231058,0.9,0 C,0,229058,,255,255,255
Sprite,Background,Centre,"sb/ring.png",0,0 M,0,230108,,359,227 S,1,230108,232407,0.25,0.5 F,1,230108,232407,0.9,0 C,0,230108,,255,255,255
Sprite,Background,Centre,"sb/ring.png",0,0 M,0,230483,,394,384 S,1,230483,232483,0.25,0.5 F,1,230483,232483,0.9,0 C,0,230483,,255,255,255
Sprite,Background,Centre,"sb/ring.png",0,0 M,0,230558,,394,384 S,1,230558,232632,0.25,0.5 F,1,230558,232632,0.9,0 C,0,230558,,255,255,255
Sprite,Background,Centre,"sb/ring.png",0,0 M,0,230708,,319,289 S,1,230708,232708,0.25,0.5 F,1,230708,232708,0.9,0 C,0,230708,,255,255,255
Sprite,Background,Centre,"sb/ring.png",0,0 M,0,230783,,319,289 S,1,230783,232783,0.25,0.5 F,1,230783,232783,0.9,0 C,0,230783,,255,255,255
Sprite,Background,Centre,"sb/ring.png",0,0 M,0,230858,,319,289 S,1,230858,232932,0.25,0.5 F,1,230858,232932,0.9,0 C,0,230858,,255,255,255
Sprite,Background,Centre,"sb/ring.png",0,0 M,0,231008,,198,274 S,1,231008,233008,0.25,0.5 F,1,231008,233008,0.9,0 C,0,231008,,255,255,255
Sprite,Background,Centre,"sb/ring.png",0,0 M,0,231083,,198,274 S,1,231083,233083,0.25,0.5 F,1,231083,233083,0.9,0 C,0,231083,,255,255,255
Sprite,Background,Centre,"sb/ring.png",0,0 M,0,231158,,198,274 S,1,231158,233232,0.25,0.5 F,1,231158,233232,0.9,0 C,0,231158,,255,255,255
Sprite,Background,Centre,"sb/ring.png",0,0 M,0,231308,,101,348 S,1,231308,233308,0.25,0.5 F,1,231308,233308,0.9,0 C,0,231308,,255,255,255
Sprite,Background,Centre,"sb/ring.png",0,0 M,0,231383,,112,377 S,1,231383,233383,0.25,0.5 F,1,231383,233383,0.9,0 C,0,231383,,255,255,255
//Storyboard Layer 1 (Fail)
//Storyboard Layer 2 (Pass)
//Storyboard Layer 3 (Foreground)
//Storyboard Layer 4 (Overlay)
//Storyboard Sound Samples

[TimingPoints]
1058,300,4,2,51,10,1,0
10658,-1000,4,2,3,40,0,0
11483,-1000,4,2,3,5,0,0
11558,-222.222222222221,4,2,3,40,0,0
13058,-1000,4,2,3,40,0,0
13883,-1000,4,2,3,5,0,0
13958,-238.095238095238,4,2,3,40,0,0
15383,-238.095238095238,4,2,3,5,0,0
15458,-1000,4,2,3,40,0,0
18683,-1000,4,2,3,5,0,0
18758,-238.095238095238,4,2,3,40,0,0
20258,-1000,4,2,3,40,0,0
21083,-1000,4,2,3,5,0,0
21158,-238.095238095238,4,2,3,40,0,0
22658,-1000,4,2,3,40,0,0
23483,-1000,4,2,3,5,0,0
23558,-238.095238095238,4,2,3,40,0,0
23783,-238.095238095238,4,2,3,5,0,0
23858,-158.730158730159,4,2,3,40,0,0
24758,-120.481927710843,4,2,3,40,0,0
24983,-120.481927710843,4,2,3,5,0,0
25058,-1000,4,2,3,40,0,0
28958,-238.095238095238,4,2,3,40,0,0
29858,-200,4,2,3,50,0,0
51008,-153.846153846153,4,2,3,50,0,0
51458,-66.6666666666667,4,2,3,70,0,1
52358,-55.5555555555556,4,2,3,70,0,1
52508,-58.8235294117647,4,2,3,70,0,1
52958,-76.9230769230769,4,2,3,70,0,1
53408,-58.8235294117647,4,2,3,70,0,1
53858,-62.5,4,2,3,70,0,1
54158,-55.5555555555556,4,2,3,70,0,1
54608,-50,4,2,3,70,0,1
54758,-58.8235294117647,4,2,3,70,0,1
54908,-66.6666666666667,4,2,3,70,0,1
55958,-55.5555555555556,4,2,3,70,0,1
56258,-58.8235294117647,4,2,3,70,0,1
56708,-66.6666666666667,4,2,3,70,0,1
57158,-62.5,4,2,3,70,0,1
57608,-71.4285714285714,4,2,3,70,0,1
57908,-66.6666666666667,4,2,3,70,0,1
60008,-58.8235294117647,4,2,3,70,0,1
60083,-58.8235294117647,4,2,3,5,0,1
60158,-58.8235294117647,4,2,3,70,0,1
60233,-58.8235294117647,4,2,3,5,0,1
60308,-175.438596491228,4,2,3,70,0,0
60533,-175.438596491228,4,2,3,5,0,0
60608,-58.8235294117647,4,2,3,70,0,0
60683,-58.8235294117647,4,2,3,5,0,0
60758,-58.8235294117647,4,2,3,70,0,0
61058,-71.4285714285714,4,2,3,70,0,1
61508,-62.5,4,2,3,70,0,1
61958,-52.6315789473684,4,2,3,70,0,1
62108,-58.8235294117647,4,2,3,70,0,1
62558,-66.6666666666667,4,2,3,70,0,1
63008,-55.5555555555556,4,2,3,70,0,1
63458,-62.5,4,2,3,70,0,1
63758,-52.6315789473684,4,2,3,70,0,1
63908,-62.5,4,2,3,70,0,1
65108,-55.5555555555556,4,2,3,70,0,1
65858,-50,4,2,3,70,0,0
66008,-133.333333333333,4,2,3,5,0,0
66058,-133.333333333333,4,2,3,70,0,0
66158,-133.333333333333,4,2,3,5,0,0
66233,-133.333333333333,4,2,3,70,0,0
66383,-133.333333333333,4,2,3,5,0,0
66458,-50,4,2,3,70,0,0
66608,-133.333333333333,4,2,3,5,0,0
66658,-133.333333333333,4,2,3,70,0,0
66758,-133.333333333333,4,2,3,5,0,0
66833,-83.3333333333333,4,2,3,70,0,0
67958,-133.333333333333,4,2,3,70,0,0
71108,-399.999999999997,4,2,3,70,0,0
71558,-399.999999999997,4,2,3,50,0,0
72008,-79.9999999999999,4,2,3,60,0,0
72158,-60.6060606060606,4,2,3,60,0,0
72308,-48.780487804878,4,2,3,60,0,0
72458,-40.8163265306122,4,2,3,60,0,0
72608,-35.0877192982456,4,2,3,60,0,0
73058,-35.0877192982456,4,2,3,70,0,0
73958,-399.999999999997,4,2,3,50,0,0
74558,-55.5555555555556,4,2,3,60,0,0
75158,-55.5555555555556,4,2,3,70,0,0
75908,-399.999999999997,4,2,3,70,0,0
76358,-399.999999999997,4,2,3,50,0,0
76508,-71.4285714285714,4,2,3,50,0,0
76808,-212.765957446809,4,2,3,60,0,0
77858,-212.765957446809,4,2,3,70,0,0
78758,-66.6666666666667,4,2,3,70,0,0
79208,-83.3333333333333,4,2,3,70,0,0
79658,-111.111111111111,4,2,3,70,0,0
80258,-83.3333333333333,4,2,3,60,0,0
98408,-66.6666666666667,4,2,3,60,0,0
98708,-71.4285714285714,4,2,3,60,0,0
99458,-125,4,2,3,55,0,0
121058,-62.5,4,2,3,70,0,1
121358,-50,4,2,3,70,0,1
121808,-66.6666666666667,4,2,3,70,0,1
122183,-62.5,4,2,3,70,0,1
122558,-66.6666666666667,4,2,3,70,0,1
122858,-76.9230769230769,4,2,3,70,0,1
123458,-71.4285714285714,4,2,3,70,0,1
123758,-55.5555555555556,4,2,3,70,0,1
125258,-62.5,4,2,3,70,0,1
125858,-55.5555555555556,4,2,3,70,0,1
126308,-66.6666666666667,4,2,3,70,0,1
127058,-58.8235294117647,4,2,3,70,0,1
127508,-55.5555555555556,4,2,3,70,0,1
127808,-62.5,4,2,3,70,0,1
129458,-55.5555555555556,4,2,3,70,0,1
129683,-55.5555555555556,4,2,3,5,0,1
129758,-55.5555555555556,4,2,3,70,0,1
129833,-55.5555555555556,4,2,3,5,0,1
129908,-166.666666666667,4,2,3,70,0,0
130133,-166.666666666667,4,2,3,5,0,0
130208,-55.5555555555556,4,2,3,70,0,0
130283,-55.5555555555556,4,2,3,5,0,0
130358,-55.5555555555556,4,2,3,70,0,0
130658,-55.5555555555556,4,2,3,70,0,1
130958,-52.6315789473684,4,2,3,70,0,1
131108,-58.8235294117647,4,2,3,70,0,1
131408,-62.5,4,2,3,70,0,1
132158,-62.5,4,2,3,70,0,1
133058,-57.1428571428571,4,2,3,70,0,1
133808,-55.5555555555556,4,2,3,70,0,1
135458,-1000,4,2,3,70,0,0
136433,-1000,4,2,3,5,0,0
136508,-38.4615384615385,4,2,3,55,0,0
136545,-38.4615384615385,4,2,3,5,0,0
136958,-66.6666666666667,4,2,3,55,0,0
137858,-71.4285714285714,4,2,3,55,0,0
139508,-58.8235294117647,4,2,3,55,0,0
139733,-58.8235294117647,4,2,3,55,0,0
139808,-66.6666666666667,4,2,3,55,0,0
140033,-66.6666666666667,4,2,3,55,0,0
140108,-51.2820512820513,4,2,3,55,0,0
142808,-66.6666666666667,4,2,3,55,0,0
143108,-142.857142857143,4,2,3,55,0,0
143408,-47.6190476190476,4,2,3,55,0,0
143558,-142.857142857143,4,2,3,55,0,0
143858,-41.6666666666667,4,2,3,55,0,0
144008,-125,4,2,3,55,0,0
144308,-41.6666666666667,4,2,3,55,0,0
144758,-66.6666666666667,4,2,3,55,0,0
146258,-55.5555555555556,4,2,3,55,0,0
146858,-43.4782608695652,4,2,3,55,0,0
149558,-55.5555555555556,4,2,3,55,0,0
149858,-47.6190476190476,4,2,3,55,0,0
151508,-40,4,2,3,55,0,0
153458,-66.6666666666667,4,2,3,55,0,0
154508,-133.333333333333,4,2,3,55,0,0
156458,-133.333333333333,4,2,3,20,0,0
164183,-133.333333333333,4,2,3,5,0,0
164258,-125,4,2,3,40,0,0
164708,-90.9090909090909,4,2,3,40,0,0
165158,-71.4285714285714,4,2,3,40,0,0
166058,-100,4,2,3,40,0,0
167558,-125,4,2,3,40,0,0
173708,-125,4,2,3,30,0,0
174458,-250,4,2,3,30,0,0
180308,-250,4,2,3,40,0,0
180608,-40,4,2,3,50,0,0
180908,-40,4,2,3,60,0,0
181058,-62.5,4,2,3,70,0,1
181508,-52.6315789473684,4,2,3,70,0,1
181958,-55.5555555555556,4,2,3,70,0,1
182108,-60.6060606060606,4,2,3,70,0,1
182558,-68.9655172413793,4,2,3,70,0,1
183008,-60.6060606060606,4,2,3,70,0,1
183458,-62.5,4,2,3,70,0,1
183758,-55.5555555555556,4,2,3,70,0,1
184358,-52.6315789473684,4,2,3,70,0,1
184658,-58.8235294117647,4,2,3,70,0,1
184958,-55.5555555555556,4,2,3,70,0,1
185558,-52.6315789473684,4,2,3,70,0,1
186008,-58.8235294117647,4,2,3,70,0,1
186908,-52.6315789473684,4,2,3,70,0,1
187508,-58.8235294117647,4,2,3,70,0,1
189683,-58.8235294117647,4,2,3,5,0,1
189758,-58.8235294117647,4,2,3,70,0,1
189833,-58.8235294117647,4,2,3,5,0,1
189908,-175.438596491228,4,2,3,70,0,0
190133,-175.438596491228,4,2,3,5,0,0
190208,-58.8235294117647,4,2,3,70,0,0
190283,-58.8235294117647,4,2,3,5,0,0
190358,-58.8235294117647,4,2,3,70,0,0
190658,-58.8235294117647,4,2,3,70,0,1
190958,-62.5,4,2,3,70,0,1
191108,-58.8235294117647,4,2,3,70,0,1
191708,-66.6666666666667,4,2,3,70,0,1
192158,-60.6060606060606,4,2,3,70,0,1
192608,-54.054054054054,4,2,3,70,0,1
193058,-58.8235294117647,4,2,3,70,0,1
193358,-50,4,2,3,70,0,1
193508,-58.8235294117647,4,2,3,70,0,1
194708,-55.5555555555556,4,2,3,70,0,1
195458,-1000,4,2,3,70,0,0
196433,-1000,4,2,3,5,0,0
196508,-38.4615384615385,4,2,3,70,0,0
196545,-38.4615384615385,4,2,3,5,0,0
196658,-133.333333333333,4,2,3,70,0,0
198158,-133.333333333333,4,2,3,70,0,1
199058,-66.6666666666667,4,2,3,70,0,1
199508,-62.5,4,2,3,70,0,1
200108,-62.5,4,2,3,70,0,0
200558,-58.8235294117647,4,2,3,70,0,1
202058,-71.4285714285714,4,2,3,70,0,1
202658,-58.8235294117647,4,2,3,70,0,1
202958,-47.6190476190476,4,2,3,70,0,1
203108,-62.5,4,2,3,70,0,1
203558,-50,4,2,3,70,0,1
203708,-66.6666666666667,4,2,3,70,0,1
204308,-58.8235294117647,4,2,3,70,0,1
204608,-66.6666666666667,4,2,3,70,0,1
204758,-57.1428571428571,4,2,3,70,0,1
205208,-60.6060606060606,4,2,3,70,0,1
205358,-55.5555555555556,4,2,3,70,0,1
205808,-58.8235294117647,4,2,3,70,0,1
205958,-50,4,2,3,70,0,1
206258,-55.5555555555556,4,2,3,70,0,1
206483,-55.5555555555556,4,2,3,5,0,1
206558,-55.5555555555556,4,2,3,70,0,1
206633,-55.5555555555556,4,2,3,5,0,1
206708,-166.666666666667,4,2,3,70,0,0
206933,-166.666666666667,4,2,3,5,0,0
207008,-55.5555555555556,4,2,3,70,0,0
207083,-55.5555555555556,4,2,3,5,0,0
207158,-55.5555555555556,4,2,3,70,0,0
207458,-55.5555555555556,4,2,3,70,0,1
207608,-58.8235294117647,4,2,3,70,0,1
207908,-57.1428571428571,4,2,3,70,0,1
208208,-66.6666666666667,4,2,3,70,0,1
208358,-62.5,4,2,3,70,0,1
208658,-58.8235294117647,4,2,3,70,0,1
208958,-50,4,2,3,70,0,1
209858,-55.5555555555556,4,2,3,70,0,1
210158,-52.6315789473684,4,2,3,70,0,1
210758,-50,4,2,3,70,0,1
212258,-50,4,2,3,70,0,0
213458,-66.6666666666667,4,2,3,70,0,0
214808,-62.5,4,2,3,70,0,0
215258,-66.6666666666667,4,2,3,70,0,0
215858,-62.5,4,2,3,70,0,0
218858,-55.5555555555556,4,2,3,70,0,0
219458,-58.8235294117647,4,2,3,70,0,0
220058,-66.6666666666667,4,2,3,70,0,0
220658,-76.9230769230769,4,2,3,70,0,0
221258,-90.9090909090909,4,2,3,70,0,0
222674,-71.4285714285714,4,2,3,70,0,0
231458,-40,4,2,3,40,0,0
233858,-181.818181818181,4,2,3,40,0,0
236183,-181.818181818181,4,2,3,5,0,0
236258,-181.818181818181,4,2,3,40,0,0
248743,526.315789473684,4,2,50,10,1,0
248743,-117.647058823529,4,2,50,10,0,0
248874,555.555555555556,4,2,50,10,1,0
249012,659.340659340659,4,2,50,7,1,0
249022,-153.846153846153,4,2,50,7,0,0
249176,615.384615384615,4,2,50,7,1,0
249252,300,4,2,50,5,1,0

[Colours]
Combo1 : 128,128,255
Combo2 : 192,192,192
Combo3 : 128,128,128
Combo4 : 255,128,192
Combo5 : 255,128,128
Combo6 : 255,255,128
Combo7 : 128,255,128
Combo8 : 128,255,255

[HitObjects]
77,78,10658,6,0,L|84:126,1,49.5,2|0,0:0|0:0,0:0:0:0:
146,154,11558,6,0,L|139:195,1,40.4999987640381
85,261,11858,2,0,P|58:241|2:229,2,80.9999975280763
135,334,12758,1,0,0:0:0:0:
199,249,13058,102,0,L|251:242,1,49.5,2|0,0:0|0:0,0:0:0:0:
288,193,13958,6,0,L|325:199,1,37.7999988464356
403,159,14258,2,0,P|413:204|399:245,1,75.5999976928712,2|0,0:0|0:0,0:0:0:0:
330,114,14708,2,0,P|363:82|406:74,1,75.5999976928712
325,199,15158,2,0,P|281:185|264:169,1,56.6999982696534
230,125,15458,102,0,L|141:139,1,90,2|0,0:0|0:0,0:0:0:0:
141,139,17858,6,0,L|191:130,1,49.5,2|0,0:0|0:0,0:0:0:0:
237,83,18758,102,0,L|277:89,1,37.7999988464356
354,45,19058,1,0,0:0:0:0:
369,144,19358,1,0,0:0:0:0:
462,180,19658,1,0,0:0:0:0:
447,81,19958,1,0,0:0:0:0:
384,243,20258,6,0,P|392:267|414:281,1,49.5,2|0,0:0|0:0,0:0:0:0:
453,335,21158,102,0,L|411:348,1,37.7999988464356
324,296,21458,1,0,0:0:0:0:
229,352,21758,1,8,0:0:0:0:
94,264,22058,2,0,P|134:246|180:242,1,75.5999976928712
20,254,22658,6,0,P|27:230|40:208,1,49.5,2|0,0:0|0:0,0:0:0:0:
90,154,23558,102,0,L|157:163,1,56.6999982696534
249,168,23858,6,0,P|237:120|257:48,1,113.399996539307,0|8,0:0|0:0,0:0:0:0:
406,234,24308,2,0,P|435:193|503:162,1,113.399996539307
335,184,24758,6,0,P|344:135|392:78,1,112.05000162426
438,27,25058,86,0,L|364:18,1,72,2|0,0:0|0:0,0:0:0:0:
303,93,26558,1,0,0:0:0:0:
303,93,27158,5,0,0:0:0:0:
438,27,27458,2,0,L|364:14,1,72,2|0,0:0|0:0,0:0:0:0:
226,103,28958,102,0,L|315:89,1,75.5999976928712
438,27,29558,1,0,0:0:0:0:
301,92,29858,6,0,P|296:130|303:155,1,44.999998626709,4|0,0:3|0:0,0:0:0:0:
231,167,30158,2,0,P|254:197|276:210,1,44.999998626709,0|0,3:0|0:0,0:0:0:0:
301,92,30758,102,0,P|296:130|303:155,1,44.999998626709,0|0,0:0|1:0,0:0:0:0:
259,201,31208,6,0,P|242:186|231:167,1,44.999998626709,0|8,3:0|0:0,0:0:0:0:
248,10,31658,2,0,L|256:55,2,44.999998626709,0|0|0,1:0|0:0|0:0,0:0:0:0:
146,115,32258,102,0,P|115:122|87:115,1,44.999998626709,2|0,0:0|0:0,0:0:0:0:
73,190,32558,2,0,P|46:173|31:148,1,44.999998626709,0|0,1:0|0:0,0:0:0:0:
146,115,33158,6,0,P|115:122|87:115,1,44.999998626709,0|0,0:0|3:0,0:0:0:0:
38,162,33608,102,0,P|53:179|73:190,1,44.999998626709,0|8,0:0|0:0,0:0:0:0:
73,190,33908,1,0,0:0:0:0:
146,115,34058,2,0,L|141:65,2,44.999998626709,0|0|2,0:0|0:0|0:0,0:0:0:0:
309,131,34658,6,0,P|315:163|310:193,1,44.999998626709,0|0,3:0|0:0,0:0:0:0:
386,201,34958,2,0,P|367:227|342:245,1,44.999998626709,0|0,1:0|0:0,0:0:0:0:
257,257,35258,101,0,0:0:0:0:
257,257,35558,1,2,0:0:0:0:
314,175,35858,6,0,P|314:152|309:131,1,44.999998626709
358,235,36158,2,0,P|374:220|386:201,1,44.999998626709,8|0,0:0|0:0,0:0:0:0:
358,235,36758,102,0,P|374:220|386:201,1,44.999998626709,0|0,1:0|0:0,0:0:0:0:
325,67,37058,1,0,0:0:0:0:
308,130,37208,1,0,0:0:0:0:
372,114,37358,1,0,1:0:0:0:
372,114,37958,1,0,0:0:0:0:
216,211,38408,6,0,P|204:173|207:156,1,44.999998626709,0|0,1:0|0:0,0:0:0:0:
230,88,38708,1,0,3:0:0:0:
118,139,38858,102,0,P|144:109|161:103,1,44.999998626709,2|0,0:0|0:0,0:0:0:0:
130,18,39158,2,0,P|168:26|182:37,1,44.999998626709
230,88,39458,6,0,L|281:81,2,44.999998626709,8|0|8,0:0|0:0|0:0,0:0:0:0:
118,139,40358,102,0,P|144:109|161:103,1,44.999998626709,0|0,0:0|1:0,0:0:0:0:
172,29,40808,6,0,P|152:19|130:18,1,44.999998626709,8|0,0:0|3:0,0:0:0:0:
129,18,41258,101,2,0:0:0:0:
16,52,41408,1,0,0:0:0:0:
83,74,41558,1,0,3:0:0:0:
23,262,41858,6,0,P|18:216|21:198,1,44.999998626709
111,270,42158,2,0,P|129:227|141:213,1,44.999998626709,0|0,1:0|0:0,0:0:0:0:
23,262,42758,102,0,P|18:216|21:198,1,44.999998626709,0|0,0:0|1:0,0:0:0:0:
128,228,43208,6,0,P|117:248|111:270,1,44.999998626709
110,270,43658,1,0,0:0:0:0:
180,328,43958,1,0,3:0:0:0:
258,241,44258,102,0,P|292:242|318:257,1,44.999998626709,0|0,3:0|0:0,0:0:0:0:
344,184,44558,2,0,P|367:208|375:237,1,44.999998626709,0|0,1:0|0:0,0:0:0:0:
363,296,45158,5,0,0:0:0:0:
258,241,45308,2,0,P|292:242|318:257,1,44.999998626709
344,184,45608,2,0,P|367:208|375:237,1,44.999998626709
371,218,46058,102,0,P|360:198|344:184,1,44.999998626709,2|0,0:0|0:0,0:0:0:0:
226,148,46358,1,0,1:0:0:0:
261,136,46508,1,0,0:0:0:0:
123,80,46658,21,0,0:0:0:0:
256,192,46733,12,8,49058,0:3:0:0:
18,212,50858,85,0,0:0:0:0:
49,271,51008,2,0,P|55:214|78:139,1,116.999994644165
135,69,51458,22,0,B|191:45|236:93|208:109|257:152|336:124,1,202.500007724762,4|0,1:0|0:0,0:0:0:0:
381,82,51758,2,0,P|407:88|381:97,1,67.5000025749208,8|0,0:1|0:0,0:0:0:0:
145,144,51908,6,0,B|205:155|239:100|209:90|249:38|331:51,1,202.500007724762
308,49,52208,1,0,3:0:0:0:
264,264,52358,6,0,B|251:226|251:226|266:175,1,80.9999975280763,8|0,0:1|0:0,0:0:0:0:
360,292,52508,2,0,P|286:284|249:362,1,153.000002918243,0|0,1:0|0:0,0:0:0:0:
316,346,52733,1,0,0:0:0:0:
316,346,52808,1,0,0:0:0:0:
125,325,52958,6,0,P|132:287|124:250,1,58.4999973220826,8|0,0:1|0:0,0:0:0:0:
50,256,53108,2,0,P|42:293|50:330,1,58.4999973220826
100,191,53258,1,0,1:0:0:0:
262,186,53408,6,0,P|252:139|262:92,1,76.5000014591217,2|0,0:0|0:0,0:0:0:0:
356,104,53558,2,0,P|364:141|361:179,1,76.5000014591217,8|0,0:1|0:0,0:0:0:0:
299,21,53708,1,0,1:0:0:0:
455,197,53858,6,0,B|396:176|360:228|360:228|323:278|257:260,1,216,0|0,3:0|0:0,0:0:0:0:
119,366,54158,38,0,B|182:346|180:274|180:274|192:343|274:351,1,242.999992584229,8|0,0:1|0:0,0:0:0:0:
265,262,54458,1,0,1:0:0:0:
98,288,54608,6,0,P|81:238|101:191,1,90,0|0,1:0|0:0,0:0:0:0:
9,188,54758,2,0,P|32:140|79:121,1,76.5000014591217,8|0,0:1|0:0,0:0:0:0:
211,46,54908,6,0,B|218:77|248:92|248:92|86:68,1,202.500007724762,2|0,0:0|0:0,0:0:0:0:
74,65,55208,1,0,0:0:0:0:
290,154,55358,2,0,P|318:118|295:32,1,135.000005149842,8|2,0:1|0:0,0:0:0:0:
163,243,55658,6,0,P|198:250|243:237,1,67.5000025749208,0|0,3:0|0:0,0:0:0:0:
373,167,55808,2,0,P|334:163|292:180,1,67.5000025749208,2|0,0:0|0:0,0:0:0:0:
160,223,55958,2,0,B|228:251|283:200|256:170|303:127|381:151,1,242.999992584229,8|0,0:1|0:0,0:0:0:0:
415,249,56258,6,0,P|380:186|503:191,1,229.500004377365,4|0,1:3|0:0,0:0:0:0:
493,160,56558,1,8,0:1:0:0:
497,333,56708,2,0,P|443:294|279:291,1,202.500007724762,2|0,0:0|0:0,0:0:0:0:
310,280,57008,1,2,0:0:0:0:
86,245,57158,6,0,P|136:244|179:218,1,72,8|0,0:1|0:0,0:0:0:0:
191,309,57308,2,0,P|225:273|238:224,1,72
203,143,57458,1,2,1:2:0:0:
455,205,57608,38,0,P|428:189|407:165,1,62.9999980773926
336,202,57758,2,0,P|328:171|330:140,1,62.9999980773926,8|0,0:1|0:0,0:0:0:0:
430,87,57908,2,0,B|376:115|327:71|353:53|300:10|222:53,1,202.500007724762
247,42,58208,1,0,0:0:0:0:
112,175,58358,6,0,B|119:141|119:141|106:96,1,67.5000025749208,8|0,0:1|0:0,0:0:0:0:
38,111,58508,2,0,B|31:145|31:145|44:190,1,67.5000025749208
75,353,58658,5,0,1:0:0:0:
57,264,58808,1,2,0:0:0:0:
182,68,58958,5,8,0:1:0:0:
146,246,59108,1,2,0:0:0:0:
57,264,59258,5,0,3:0:0:0:
177,39,59408,5,0,3:0:0:0:
224,273,59558,1,8,0:1:0:0:
34,268,59708,37,2,0:0:0:0:
297,253,59858,5,4,1:3:0:0:
275,325,60008,6,0,P|242:306|224:273,1,76.9499990606689
245,197,60158,2,0,P|279:179|317:180,1,76.5000014591217,8|0,0:1|0:0,0:0:0:0:
370,236,60308,54,0,P|365:270|346:302,1,76.9499990606689,2|0,0:0|0:0,0:0:0:0:
350,306,60608,70,0,P|351:268|370:235,1,76.5000014591217,0|0,3:0|0:0,0:0:0:0:
430,124,60758,1,8,0:1:0:0:
160,34,60908,1,2,0:0:0:0:
101,102,61058,5,4,1:0:0:0:
371,12,61208,1,0,0:0:0:0:
430,124,61358,6,0,P|444:95|438:52,1,62.9999980773926,8|0,0:1|0:0,0:0:0:0:
268,149,61508,2,0,B|325:123|379:168|348:186|404:227|470:202,1,216
461,205,61808,1,0,3:0:0:0:
307,292,61958,38,0,B|288:254|288:254|300:213,1,85.4999977169037,8|0,0:1|0:0,0:0:0:0:
372,362,62108,2,0,P|312:323|142:340,1,229.500004377365,0|0,1:0|0:0,0:0:0:0:
145,346,62408,1,0,0:0:0:0:
37,241,62558,6,0,B|23:210|23:210|28:166,1,67.5000025749208,8|0,0:1|0:0,0:0:0:0:
158,162,62708,2,0,B|171:192|171:192|166:236,1,67.5000025749208,0|0,3:0|0:0,0:0:0:0:
97,201,62858,1,0,1:0:0:0:
287,117,63008,6,0,B|304:78|304:78|297:23,1,80.9999975280763,2|0,0:0|0:0,0:0:0:0:
145,15,63158,2,0,B|127:53|127:53|134:108,1,80.9999975280763,8|0,0:1|0:0,0:0:0:0:
216,66,63308,1,0,1:0:0:0:
259,195,63458,6,0,B|316:220|370:175|339:157|395:117|461:141,1,216,0|0,3:0|0:0,0:0:0:0:
408,235,63758,6,0,P|408:215|435:240,1,85.4999977169037,8|0,0:1|0:0,0:0:0:0:
293,292,63908,6,0,P|314:312|319:283,1,72,2|0,0:0|0:0,0:0:0:0:
196,235,64058,1,0,1:0:0:0:
72,383,64208,37,0,1:0:0:0:
48,207,64358,1,8,0:1:0:0:
128,48,64508,1,2,0:0:0:0:
76,100,64658,6,0,P|156:117|213:-32,1,216,4|0,0:0|0:0,0:0:0:0:
220,2,64958,1,8,0:1:0:0:
415,170,65108,2,0,P|432:108|271:93,1,242.999992584229,2|0,0:0|0:0,0:0:0:0:
355,116,65408,5,2,0:0:0:0:
338,194,65558,1,8,0:1:0:0:
415,170,65708,1,0,1:0:0:0:
435,335,65858,6,0,L|252:313,1,180,4|0,1:2|0:0,0:0:0:0:
285,283,66058,6,0,L|202:292,1,67.5000025749208,4|0,3:2|0:0,0:0:0:0:
243,256,66258,2,0,L|175:247,1,67.5000025749208,4|0,1:2|0:0,0:0:0:0:
148,318,66458,6,0,L|126:135,1,180,4|0,1:2|0:0,0:0:0:0:
89,168,66658,38,0,L|98:85,1,67.5000025749208,4|0,3:2|0:0,0:0:0:0:
99,80,66858,5,8,0:1:0:0:
29,362,67058,5,0,1:0:0:0:
398,161,67208,5,2,0:0:0:0:
201,197,67358,1,8,0:1:0:0:
328,132,67508,1,2,0:0:0:0:
182,269,67658,1,0,3:0:0:0:
255,146,67808,1,0,3:0:0:0:
206,340,67958,2,0,P|231:362|263:372,1,67.5000025749208,8|8,0:1|0:3,0:0:0:0:
256,192,68183,12,0,69458,0:0:0:0:
184,322,70508,37,0,1:0:0:0:
122,370,70658,21,4,1:0:0:0:
102,205,70808,1,2,0:0:0:0:
82,40,70958,1,8,0:0:0:0:
152,2,71108,86,0,L|212:8,1,56.25,0|0,3:0|0:0,0:0:0:0:
152,2,71558,5,2,0:0:0:0:
370,92,71858,101,0,0:0:0:0:
370,92,71933,1,0,0:0:0:0:
370,92,72008,22,0,P|376:112|379:92,1,56.25,2|0,0:0|0:0,0:0:0:0:
274,88,72158,6,0,P|268:101|281:86,1,74.2500007081032,0|0,3:0|0:0,0:0:0:0:
179,136,72308,6,0,P|174:146|191:131,1,92.2500014076233,0|0,3:0|3:0,0:0:0:0:
109,225,72458,6,0,P|107:241|116:218,1,110.250001051426,8|0,3:2|3:0,0:0:0:0:
94,348,72608,6,0,P|134:364|98:339,1,128.250001223087,0|0,3:0|3:0,0:0:0:0:
205,333,72758,37,0,3:0:0:0:
220,336,72833,1,0,3:0:0:0:
234,344,72908,1,0,1:0:0:0:
246,354,72983,1,0,0:0:0:0:
255,368,73058,5,0,1:0:0:0:
296,193,73208,1,2,0:0:0:0:
337,18,73358,1,8,0:0:0:0:
251,2,73508,5,0,1:0:0:0:
296,193,73658,1,8,0:1:0:0:
340,383,73808,1,0,1:0:0:0:
397,331,73958,70,0,L|475:342,1,78.75,2|0,0:0|0:0,0:0:0:0:
474,341,74558,6,0,B|429:347|429:347|388:326,1,80.9999975280763,0|0,3:0|0:0,0:0:0:0:
474,341,74708,2,0,B|442:324|442:324|397:330,1,80.9999975280763,0|0,3:0|0:0,0:0:0:0:
291,199,74858,102,0,P|400:219|397:331,1,242.999992584229,8|0,0:0|0:0,0:0:0:0:
334,272,75158,1,2,0:1:0:0:
334,272,75308,5,0,0:0:0:0:
271,348,75458,5,0,1:0:0:0:
227,176,75608,1,2,0:0:0:0:
183,4,75758,1,8,0:0:0:0:
117,44,75908,86,0,L|55:37,1,56.25,0|0,1:0|0:0,0:0:0:0:
28,36,76358,5,2,0:0:0:0:
140,247,76508,2,0,P|161:196|146:119,1,125.999996154785
51,237,76808,2,0,P|39:175|61:117,1,126.89999806366,2|2,3:0|0:0,0:0:0:0:
62,116,77408,1,0,0:0:0:0:
62,116,77708,101,0,1:0:0:0:
21,188,77858,21,0,1:0:0:0:
241,150,78008,1,2,0:0:0:0:
461,112,78158,1,8,0:0:0:0:
482,199,78308,5,0,1:0:0:0:
241,150,78458,1,8,0:1:0:0:
3,98,78608,1,0,1:0:0:0:
72,53,78758,70,0,L|84:214,1,135.000005149842,2|0,0:0|0:0,0:0:0:0:
72,53,79058,1,0,0:0:0:0:
184,79,79208,6,0,L|155:222,1,107.999996704102,2|0,0:0|0:0,0:0:0:0:
184,79,79508,1,0,0:0:0:0:
251,206,79658,101,2,3:0:0:0:
285,133,79808,2,0,L|247:214,2,80.9999975280763,2|8|2,0:0|0:0|0:0,0:0:0:0:
418,254,80258,6,0,P|431:226|357:216,1,107.999996704102,4|2,1:0|0:0,0:0:0:0:
275,364,80558,1,8,0:0:0:0:
250,282,80708,2,0,B|363:262|319:365|448:348,1,215.999993408203,2|0,0:0|3:0,0:0:0:0:
385,140,81158,2,0,P|374:170|376:193,2,53.9999983520508,10|0|0,0:0|0:0|0:0,0:0:0:0:
460,177,81458,101,2,0:0:0:0:
209,150,81608,1,0,0:0:0:0:
269,211,81758,2,0,P|291:172|276:96,1,107.999996704102,8|0,0:0|0:0,0:0:0:0:
88,95,82058,6,0,P|128:104|175:87,1,53.9999983520508,2|0,0:0|0:0,0:0:0:0:
166,181,82208,2,0,P|200:159|221:113,1,53.9999983520508
269,4,82358,2,0,P|280:57|285:111,1,107.999996704102,8|0,0:0|0:0,0:0:0:0:
460,177,82658,102,0,P|464:123|475:70,1,107.999996704102,2|0,0:0|0:0,0:0:0:0:
293,204,82958,1,10,0:0:0:0:
342,185,83033,1,0,0:0:0:0:
390,207,83108,1,0,0:0:0:0:
408,256,83183,1,0,0:0:0:0:
386,304,83258,1,2,0:0:0:0:
180,265,83408,1,0,0:0:0:0:
250,369,83558,2,0,P|254:315|265:262,1,107.999996704102,10|0,0:0|0:0,0:0:0:0:
105,222,83858,5,2,0:0:0:0:
31,267,84008,2,0,P|26:213|15:160,1,107.999996704102,0|8,0:0|0:0,0:0:0:0:
180,265,84308,2,0,P|188:157|210:51,1,215.999993408203,2|0,0:0|0:0,0:0:0:0:
333,166,84758,2,0,P|304:167|279:158,1,53.9999983520508,10|0,0:0|0:0,0:0:0:0:
301,28,84908,2,0,P|329:26|354:35,1,53.9999983520508
317,97,85058,101,2,0:0:0:0:
456,176,85208,2,0,B|481:138|481:138|462:52,1,107.999996704102,2|8,0:0|0:0,0:0:0:0:
359,224,85508,2,0,P|424:207|470:333,1,215.999993408203,2|2,0:0|0:0,0:0:0:0:
196,177,85958,6,0,L|188:240,1,53.9999983520508,8|0,0:0|0:0,0:0:0:0:
253,269,86108,2,0,L|261:332,1,53.9999983520508,2|0,0:0|0:0,0:0:0:0:
198,376,86258,1,0,0:0:0:0:
89,91,86408,102,0,L|98:167,1,53.9999983520508,2|0,0:0|0:0,0:0:0:0:
19,204,86558,2,0,L|9:280,1,53.9999983520508,8|0,0:0|0:0,0:0:0:0:
85,332,86708,1,2,0:0:0:0:
85,332,87008,1,2,0:0:0:0:
142,266,87158,6,0,B|231:245|205:325|298:309,1,161.999995056153,8|0,0:0|0:0,0:0:0:0:
321,335,87458,102,0,P|325:290|348:223,1,107.999996704102,2|0,0:0|0:0,0:0:0:0:
194,125,87758,1,8,0:0:0:0:
245,137,87833,1,0,0:0:0:0:
293,115,87908,1,0,0:0:0:0:
318,67,87983,1,0,0:0:0:0:
308,15,88058,1,0,0:0:0:0:
234,51,88208,1,0,0:0:0:0:
359,165,88358,6,0,P|409:147|463:141,1,107.999996704102,8|0,0:0|0:0,0:0:0:0:
258,273,88658,101,2,0:0:0:0:
235,166,88808,1,2,0:0:0:0:
346,259,88958,5,8,0:0:0:0:
323,366,89108,1,2,0:0:0:0:
168,202,89258,101,2,0:2:0:0:
191,95,89408,1,0,3:0:0:0:
394,193,89558,5,10,0:0:0:0:
416,299,89708,1,0,3:0:0:0:
323,366,89858,102,0,B|268:374|268:374|215:348,1,107.999996704102,4|2,1:2|0:0,0:0:0:0:
229,166,90158,2,0,P|236:198|241:229,1,53.9999983520508,8|0,0:0|0:0,0:0:0:0:
307,261,90308,2,0,P|316:207|328:155,1,107.999996704102,2|0,0:0|0:0,0:0:0:0:
239,285,90608,1,0,0:0:0:0:
329,77,90758,2,0,P|395:117|395:195,1,161.999995056153,10|0,0:0|0:0,0:0:0:0:
385,226,91058,6,0,B|434:206|434:206|504:218,1,107.999996704102,2|0,0:0|0:0,0:0:0:0:
416,371,91358,1,8,0:0:0:0:
444,293,91508,2,0,B|388:267|340:311|357:331|305:384|224:338,1,215.999993408203,2|0,0:0|0:0,0:0:0:0:
177,197,91958,2,0,P|249:193|276:265,1,161.999995056153,10|0,0:0|0:0,0:0:0:0:
280,269,92258,102,0,P|290:203|312:157,1,107.999996704102
444,113,92558,1,8,0:0:0:0:
393,126,92633,1,0,0:0:0:0:
347,100,92708,1,0,0:0:0:0:
332,49,92783,1,0,0:0:0:0:
356,3,92858,1,2,0:0:0:0:
502,46,93008,1,0,0:0:0:0:
306,165,93158,2,0,P|256:144|202:138,1,107.999996704102,8|0,0:0|0:0,0:0:0:0:
312,273,93458,6,0,P|365:266|415:246,1,107.999996704102
246,220,93758,1,8,0:0:0:0:
452,309,93908,2,0,P|487:257|364:196,1,215.999993408203,2|0,0:0|0:0,0:0:0:0:
199,266,94358,2,0,P|212:213|211:159,1,107.999996704102,10|0,0:0|0:0,0:0:0:0:
276,324,94658,101,2,0:0:0:0:
372,284,94808,2,0,P|372:230|388:179,1,107.999996704102,0|8,0:0|0:0,0:0:0:0:
280,94,95108,2,0,P|345:117|434:17,1,215.999993408203,2|2,0:0|0:0,0:0:0:0:
434,21,95558,2,0,P|421:66|427:102,1,53.9999983520508,10|0,0:0|0:0,0:0:0:0:
484,132,95708,2,0,P|496:177|490:213,1,53.9999983520508,2|0,0:0|0:0,0:0:0:0:
448,251,95858,5,0,0:0:0:0:
322,330,96008,2,0,L|451:317,1,107.999996704102,2|8,0:0|0:0,0:0:0:0:
234,230,96308,2,0,L|445:248,1,215.999993408203,2|2,0:0|0:0,0:0:0:0:
234,230,96758,1,10,0:0:0:0:
448,251,96908,1,0,0:0:0:0:
198,305,97058,102,0,L|181:69,2,215.999993408203,2|8|0,0:0|0:0|0:0,0:0:0:0:
127,220,97808,1,2,0:0:0:0:
256,124,97958,2,0,B|268:98|268:98|262:57,1,53.9999983520508,10|0,0:0|0:0,0:0:0:0:
108,54,98108,2,0,B|96:80|96:80|102:121,1,53.9999983520508,2|0,0:0|0:0,0:0:0:0:
182,89,98258,5,0,0:0:0:0:
256,124,98408,2,0,P|316:119|349:39,1,135.000005149842,2|8,0:0|0:0,0:0:0:0:
355,67,98708,2,0,B|325:174|413:135|388:262,1,188.999994232178,2|0,0:0|0:0,0:0:0:0:
382,269,99008,1,0,0:0:0:0:
193,229,99158,2,0,B|253:201|253:201|311:217,1,125.999996154785,8|0,0:0|0:0,0:0:0:0:
129,357,99458,102,0,L|119:277,1,72,12|0,3:3|0:0,0:0:0:0:
193,229,99758,2,0,L|203:149,1,72,0|0,3:0|0:0,0:0:0:0:
105,71,100058,2,0,B|186:52|167:111|253:90,2,144,0|0|0,1:0|3:0|3:0,0:0:0:0:
53,159,100808,1,0,3:0:0:0:
127,222,100958,2,0,P|124:187|132:152,1,72,0|0,0:0|3:0,0:0:0:0:
208,194,101258,1,0,1:0:0:0:
296,219,101408,2,0,P|277:149|279:77,1,144,2|0,0:0|0:0,0:0:0:0:
340,19,101858,6,0,L|241:5,1,72,0|0,3:0|0:0,0:0:0:0:
207,87,102158,2,0,L|279:77,1,72,0|0,3:0|0:0,0:0:0:0:
136,25,102458,2,0,P|128:101|115:167,1,144,0|0,1:0|3:0,0:0:0:0:
115,167,103058,2,0,P|100:130|105:94,1,72,0|0,3:0|3:0,0:0:0:0:
199,186,103358,2,0,P|128:198|108:273,1,144,0|0,0:0|1:0,0:0:0:0:
255,300,103808,1,0,3:0:0:0:
182,321,103958,2,0,P|182:285|176:250,1,72,0|0,0:0|3:0,0:0:0:0:
300,363,104258,102,0,P|295:317|348:335,1,108,0|0,3:0|0:0,0:0:0:0:
343,321,104558,1,0,3:0:0:0:
472,230,104708,1,0,0:0:0:0:
427,328,104858,2,0,P|415:296|363:262,1,72,0|0,1:0|0:0,0:0:0:0:
455,99,105158,2,0,P|417:133|380:137,1,72,0|0,3:0|0:0,0:0:0:0:
303,226,105458,6,0,P|354:208|401:203,2,96,2|0|0,3:2|0:0|3:0,0:0:0:0:
276,145,106058,2,0,P|222:140|174:124,2,96,0|0|0,1:0|0:0|0:0,0:0:0:0:
234,16,106658,102,0,P|226:40|229:52,1,36,0|0,3:0|0:0,0:0:0:0:
242,71,106808,1,0,0:0:0:0:
377,42,106958,2,0,P|344:39|300:29,1,72,0|0,3:0|0:0,0:0:0:0:
348,124,107258,2,0,P|402:111|457:106,1,108,0|0,1:0|0:0,0:0:0:0:
454,106,107558,1,0,3:0:0:0:
448,291,107708,5,0,3:0:0:0:
412,231,107858,2,0,P|365:227|332:256,1,72,0|0,0:0|3:0,0:0:0:0:
280,274,108158,1,0,0:0:0:0:
276,80,108308,1,0,3:0:0:0:
253,146,108458,2,0,P|282:180|271:231,1,72,0|0,1:0|0:0,0:0:0:0:
208,97,108758,2,0,P|200:60|222:27,1,72
183,164,109058,102,0,P|149:142|38:134,1,144,0|0,3:0|3:0,0:0:0:0:
84,198,109508,1,0,0:0:0:0:
23,271,109658,2,0,P|21:231|1:181,1,72,0|0,1:0|0:0,0:0:0:0:
123,282,109958,2,0,P|126:210|162:119,1,144,0|0,3:0|3:0,0:0:0:0:
249,84,110408,1,0,3:0:0:0:
282,149,110558,2,0,P|283:184|210:182,1,108
216,190,110858,1,0,1:0:0:0:
253,74,111008,2,0,B|335:55|317:117|406:96,1,144,0|0,3:0|0:0,0:0:0:0:
472,56,111458,6,0,P|471:91|481:126,1,72,0|0,3:0|0:0,0:0:0:0:
403,169,111758,2,0,P|403:204|393:239,1,72,0|0,3:0|0:0,0:0:0:0:
450,318,112058,2,0,P|414:284|301:268,2,144,0|0|0,1:0|3:0|3:0,0:0:0:0:
277,326,112808,1,0,3:0:0:0:
210,283,112958,2,0,P|217:245|212:202,1,72,0|0,0:0|3:0,0:0:0:0:
102,149,113258,2,0,P|145:164|182:129,1,108,0|0,1:0|0:0,0:0:0:0:
186,133,113558,2,0,P|177:99|131:91,1,72,0|0,3:0|0:0,0:0:0:0:
21,176,113858,102,0,P|37:106|31:35,2,144,0|0|0,3:0|3:0|1:0,0:0:0:0:
53,365,114758,1,0,3:0:0:0:
27,298,114908,2,0,B|108:279|89:345|185:325,1,144,0|0,1:0|3:0,0:0:0:0:
248,251,115358,2,0,P|249:282|268:322,1,72,0|0,1:0|3:0,0:0:0:0:
336,222,115658,2,0,P|348:246|379:272,1,36,0|0,1:0|0:0,0:0:0:0:
378,271,115808,1,2,0:0:0:0:
488,214,115958,2,0,P|452:210|418:200,2,72,8|0|2,0:0|0:0|0:0,0:0:0:0:
256,192,116333,12,8,118658,0:3:0:0:
40,81,120008,5,2,0:0:0:0:
12,56,120083,1,0,0:0:0:0:
14,21,120158,1,0,3:0:0:0:
44,1,120233,1,0,0:0:0:0:
77,12,120308,1,2,3:0:0:0:
90,44,120383,1,2,3:0:0:0:
71,74,120458,101,0,3:0:0:0:
53,160,120533,1,0,3:0:0:0:
85,239,120608,1,0,3:0:0:0:
143,277,120683,1,0,3:0:0:0:
200,287,120758,1,0,3:0:0:0:
250,275,120833,1,0,3:0:0:0:
285,253,120908,1,0,3:0:0:0:
309,224,120983,1,0,0:0:0:0:
317,307,121058,22,0,B|309:224|309:224|338:189|338:189|331:102,1,216,4|0,1:0|0:0,0:0:0:0:
326,36,121358,1,8,0:1:0:0:
394,350,121508,6,0,B|386:253|386:253|340:215|340:215|331:102,1,270
326,36,121808,1,0,3:0:0:0:
83,69,121958,2,0,P|116:73|142:94,1,67.5000025749208,8|0,1:1|0:1,0:0:0:0:
215,55,122108,2,0,P|227:85|223:119,1,67.5000025749208,0|0,0:0|0:1,0:0:0:0:
292,162,122258,6,0,B|228:137|180:179|199:205|141:251|73:211,1,216,0|0,3:0|0:0,0:0:0:0:
0,195,122558,2,0,B|-3:163|-3:163|15:132,1,67.5000025749208,8|0,0:1|0:0,0:0:0:0:
113,158,122708,2,0,B|116:189|116:189|99:220,1,67.5000025749208,0|0,3:0|0:0,0:0:0:0:
21,270,122858,2,0,P|77:252|99:354,1,175.499991966248,0|0,1:0|0:0,0:0:0:0:
85,362,123158,1,8,0:1:0:0:
271,322,123308,1,0,1:0:0:0:
340,370,123458,6,0,P|356:303|357:214,1,125.999996154785,0|0,3:0|0:0,0:0:0:0:
205,52,123758,2,0,P|198:92|226:143,1,80.9999975280763,8|0,0:1|0:0,0:0:0:0:
422,74,123908,2,0,B|343:54|343:54|269:84,2,161.999995056153,2|0|0,0:0|1:0|1:0,0:0:0:0:
359,246,124358,1,8,0:1:0:0:
443,148,124508,1,2,0:0:0:0:
443,108,124583,1,0,0:0:0:0:
422,74,124658,5,0,0:0:0:0:
212,128,124808,5,0,0:0:0:0:
359,333,124958,2,0,P|324:339|272:320,1,80.9999975280763,8|0,0:1|0:0,0:0:0:0:
164,251,125108,2,0,P|198:244|250:260,1,80.9999975280763,2|0,0:0|0:0,0:0:0:0:
360,316,125258,38,0,B|297:343|248:298|268:278|221:232|142:276,1,216,0|0,3:0|0:0,0:0:0:0:
176,328,125558,2,0,B|237:340|275:297|251:282|292:229|358:245,1,216,8|0,0:1|0:0,0:0:0:0:
433,349,125858,6,0,P|382:261|506:246,1,242.999992584229,4|0,1:3|0:0,0:0:0:0:
448,282,126158,1,8,0:1:0:0:
265,375,126308,2,0,B|253:341|253:341|261:297,1,67.5000025749208,2|0,0:0|0:0,0:0:0:0:
358,245,126458,1,0,3:0:0:0:
469,384,126608,1,2,0:0:0:0:
512,160,126758,1,8,0:1:0:0:
351,180,126908,6,0,B|346:211|346:211|358:245,1,67.5000025749208
426,106,127058,2,0,L|257:89,2,153.000002918243,2|0|8,1:2|0:0|0:1,0:0:0:0:
230,162,127508,2,0,B|174:126|194:57|194:57|165:120|84:107,1,242.999992584229
51,3,127808,1,0,0:0:0:0:
51,3,127883,1,0,0:0:0:0:
51,3,127958,6,0,P|86:6|117:25,1,72,8|0,0:1|0:0,0:0:0:0:
93,108,128108,2,0,P|116:135|124:169,1,72
70,236,128258,5,0,1:0:0:0:
207,214,128408,1,2,0:0:0:0:
435,384,128558,5,8,0:1:0:0:
229,351,128708,1,2,0:0:0:0:
202,180,128858,37,0,3:0:0:0:
435,384,129008,5,0,3:0:0:0:
187,344,129158,1,8,0:1:0:0:
197,146,129308,5,2,0:0:0:0:
398,241,129458,5,4,1:3:0:0:
338,179,129608,6,0,P|375:159|426:161,1,80.9999975280763
482,220,129758,2,0,P|480:262|453:305,1,80.9999975280763,8|0,0:1|0:0,0:0:0:0:
374,325,129908,22,0,P|334:298|310:253,1,80.9999975280763,2|0,0:0|0:0,0:0:0:0:
318,270,130208,102,0,P|353:292|377:337,1,80.9999975280763,0|0,3:0|0:0,0:0:0:0:
241,375,130358,1,8,0:1:0:0:
275,101,130508,1,2,0:0:0:0:
236,6,130658,37,4,1:0:0:0:
318,270,130808,1,0,0:0:0:0:
189,313,130958,6,0,B|176:271|176:271|187:227,1,85.4999977169037,8|0,0:1|0:0,0:0:0:0:
413,100,131108,2,0,B|341:76|299:117|315:126|273:188|181:140,1,229.500004377365
221,83,131408,6,0,P|221:118|203:149,1,72,0|0,3:0|0:0,0:0:0:0:
131,165,131558,2,0,P|100:147|81:116,1,72,8|0,0:1|0:0,0:0:0:0:
100,44,131708,2,0,P|130:25|166:25,1,72,0|0,1:0|0:0,0:0:0:0:
150,96,131858,5,0,1:0:0:0:
73,323,132008,5,0,0:0:0:0:
30,247,132158,2,0,L|209:230,1,144,8|0,0:1|3:0,0:0:0:0:
333,353,132458,5,0,1:0:0:0:
301,273,132608,1,2,0:0:0:0:
414,22,132758,37,8,0:1:0:0:
363,222,132908,1,0,1:0:0:0:
202,193,133058,6,0,B|297:184|297:184|332:213|332:213|427:205,1,236.250002253056,0|0,3:0|0:0,0:0:0:0:
350,65,133358,2,0,B|341:105|341:105|355:139,1,78.7500007510185,8|0,0:1|0:0,0:0:0:0:
488,131,133508,2,0,B|497:91|497:91|482:56,1,78.7500007510185,2|0,0:0|0:0,0:0:0:0:
420,98,133658,5,0,1:0:0:0:
253,40,133808,2,0,L|418:21,1,161.999995056153,0|8,1:0|0:1,0:0:0:0:
214,258,134108,2,0,P|173:175|311:162,1,242.999992584229,2|0,0:0|0:0,0:0:0:0:
314,198,134408,1,0,3:0:0:0:
437,335,134558,2,0,P|435:265|494:171,1,161.999995056153,8|2,0:1|0:0,0:0:0:0:
243,190,134858,1,0,0:0:0:0:
477,185,135008,2,0,P|479:255|420:349,1,161.999995056153,2|8,0:0|0:1,0:0:0:0:
314,198,135308,5,0,0:0:0:0:
501,108,135458,38,0,L|440:101,1,58.5,4|0,1:2|0:0,0:0:0:0:
442,101,136508,22,0,L|501:108,1,58.5,4|0,1:2|0:0,0:0:0:0:
98,321,136958,5,2,0:0:0:0:
98,321,137033,1,0,0:0:0:0:
98,321,137108,2,0,P|64:213|56:37,2,270.000010299683,0|0|0,1:0|3:0|0:0,0:0:0:0:
214,114,137858,6,0,L|201:242,1,125.999996154785,4|0,1:0|3:0,0:0:0:0:
286,68,138158,1,8,0:1:0:0:
365,111,138308,2,0,L|391:367,1,251.999992309571,2|0,0:0|1:0,0:0:0:0:
201,239,138758,2,0,P|280:234|276:358,1,188.999994232178,8|0,0:1|0:0,0:0:0:0:
289,344,139058,5,0,1:0:0:0:
58,358,139208,2,0,P|50:324|59:289,1,62.9999980773926,0|0,3:0|0:0,0:0:0:0:
127,255,139358,2,0,P|132:224|124:193,1,62.9999980773926,8|0,0:1|0:0,0:0:0:0:
64,103,139508,6,0,P|140:58|247:163,1,229.500004377365,2|0,0:0|0:0,0:0:0:0:
233,134,139808,6,0,P|161:71|72:107,1,202.500007724762,0|0,1:0|0:0,0:0:0:0:
79,115,140108,38,0,P|159:82|224:140,1,175.499991966248,2|0,0:0|1:0,0:0:0:0:
145,166,140408,1,0,0:0:0:0:
426,275,140558,5,8,0:1:0:0:
333,151,140708,1,0,0:0:0:0:
274,294,140858,1,2,3:2:0:0:
344,239,141008,5,0,0:0:0:0:
62,286,141158,5,0,0:0:0:0:
132,341,141308,2,0,L|144:165,1,175.500000669479,2|0,0:0|1:0,0:0:0:0:
49,374,141608,1,0,3:0:0:0:
150,87,141758,2,0,B|111:67|111:67|63:79,1,87.7500003347397,8|0,0:1|0:0,0:0:0:0:
63,157,141908,2,0,B|101:176|101:176|149:164,1,87.7500003347397,2|0,0:0|0:0,0:0:0:0:
216,44,142058,5,0,1:0:0:0:
268,19,142133,1,0,0:0:0:0:
316,34,142208,1,0,0:0:0:0:
340,66,142283,1,0,0:0:0:0:
341,98,142358,1,10,0:1:0:0:
348,126,142433,1,0,0:0:0:0:
371,158,142508,1,0,0:0:0:0:
421,174,142583,1,0,0:0:0:0:
473,150,142658,5,0,1:0:0:0:
363,260,142808,2,0,L|348:126,1,135.000005149842,2|8,0:0|0:1,0:0:0:0:
197,278,143108,38,0,B|152:287|152:287|103:268,1,94.499997116089,0|0,1:0|0:0,0:0:0:0:
23,179,143408,6,0,B|12:223|12:223|30:264,1,94.499997116089,0|0,3:0|0:0,0:0:0:0:
34,268,143558,2,0,B|40:219|40:219|22:178,1,94.499997116089,8|0,0:1|0:0,0:0:0:0:
79,124,143858,6,0,B|119:147|119:147|179:143,1,107.999996704102,0|0,1:0|0:0,0:0:0:0:
177,151,144008,2,0,B|125:116|125:116|65:120,1,107.999996704102,2|0,0:0|0:0,0:0:0:0:
79,124,144308,2,0,B|126:154|126:154|186:150,1,107.999996704102,0|0,3:0|0:0,0:0:0:0:
260,239,144458,5,0,1:0:0:0:
276,207,144533,1,0,0:0:0:0:
300,231,144608,1,0,3:0:0:0:
316,207,144683,1,0,0:0:0:0:
332,223,144758,6,0,P|346:260|343:303,1,67.5000025749208,8|0,0:1|0:0,0:0:0:0:
274,303,144908,2,0,P|261:271|259:238,1,67.5000025749208,2|0,0:0|0:0,0:0:0:0:
396,110,145058,5,0,1:0:0:0:
236,75,145208,1,0,3:0:0:0:
22,109,145358,37,8,0:1:0:0:
230,154,145508,1,2,0:0:0:0:
323,80,145658,5,0,0:0:0:0:
396,110,145808,6,0,L|388:273,1,135.000005149842,0|8,3:0|0:1,0:0:0:0:
323,80,146108,1,2,0:0:0:0:
79,372,146258,6,0,L|63:211,1,161.999995056153,0|0,1:0|3:0,0:0:0:0:
129,166,146558,1,8,0:1:0:0:
56,131,146708,1,2,0:0:0:0:
330,8,146858,6,0,L|309:214,1,207.000003948212,0|0,3:0|3:0,0:0:0:0:
309,214,147158,1,8,0:1:0:0:
295,348,147308,1,2,0:0:0:0:
56,131,147458,5,4,1:0:0:0:
128,194,147608,1,0,3:0:0:0:
167,5,147758,37,8,0:1:0:0:
73,35,147908,1,2,0:0:0:0:
219,162,148058,5,0,0:0:0:0:
239,71,148208,1,0,1:0:0:0:
146,100,148358,5,8,0:1:0:0:
146,100,148508,5,2,0:0:0:0:
255,273,148658,5,0,1:0:0:0:
475,218,148808,1,0,3:0:0:0:
282,194,148958,5,8,0:1:0:0:
251,382,149108,1,2,0:0:0:0:
475,218,149258,37,0,0:0:0:0:
446,28,149408,1,0,1:0:0:0:
270,37,149558,6,0,L|76:20,1,161.999995056153,8|2,0:1|0:0,0:0:0:0:
118,380,149858,5,0,1:0:0:0:
418,296,150008,5,0,0:0:0:0:
267,145,150158,1,8,0:1:0:0:
212,350,150308,1,0,0:0:0:0:
299,264,150458,5,2,3:2:0:0:
61,200,150608,5,0,0:0:0:0:
299,264,150758,2,0,L|508:238,2,188.999994232178,8|2|0,0:1|0:0|1:0,0:0:0:0:
198,188,151208,2,0,L|10:165,1,188.999994232178,0|8,3:0|0:1,0:0:0:0:
228,343,151508,38,0,B|243:309|237:285|237:285|227:266|224:249|224:249|256:245|260:220|260:220|267:204|280:194|280:194|296:167|272:142|272:142|272:123|249:113|249:113|235:83|256:15,1,337.5,2|0,0:0|0:0,0:0:0:0:
259,32,151808,1,0,0:0:0:0:
512,129,151958,1,8,0:1:0:0:
460,149,152033,1,0,0:0:0:0:
406,136,152108,1,2,0:0:0:0:
370,94,152183,1,0,0:0:0:0:
366,39,152258,5,4,1:2:0:0:
440,327,152458,5,4,1:2:0:0:
152,246,152658,5,4,1:2:0:0:
485,161,152858,5,4,1:2:0:0:
273,370,153058,5,4,1:2:0:0:
199,80,153258,37,4,1:2:0:0:
129,133,153458,6,0,L|-13:121,2,135.000005149842,0|8|0,1:0|0:1|3:0,0:0:0:0:
199,80,153908,5,8,0:0:0:0:
176,227,154208,1,2,0:0:0:0:
153,374,154508,2,0,P|196:344|281:355,1,135.000005149842,2|0,0:0|0:0,0:0:0:0:
153,374,154958,1,0,0:0:0:0:
278,355,155108,2,0,P|277:319|291:276,1,67.5000025749208
192,211,155408,2,0,P|200:243|198:277,1,67.5000025749208
140,143,155708,1,0,0:0:0:0:
140,143,155858,6,0,P|195:126|279:223,1,202.500007724762
192,211,156458,1,0,0:0:0:0:
93,80,163958,38,0,P|130:70|126:118,1,101.250003862381
131,120,164258,6,0,P|96:175|96:264,1,144,2|0,0:0|0:0,0:0:0:0:
215,110,164708,2,0,P|202:193|251:298,1,198.000006042481,2|0,0:0|0:0,0:0:0:0:
306,73,165158,2,0,P|328:179|434:286,1,251.999992309571,2|0,0:0|0:0,0:0:0:0:
511,231,165608,2,0,P|488:124|382:17,1,251.999992309571,2|0,0:0|0:0,0:0:0:0:
216,61,166058,102,0,L|306:73,1,90,2|0,0:0|0:0,0:0:0:0:
365,160,166358,2,0,B|320:153|320:153|275:171,1,90,2|0,0:0|0:0,0:0:0:0:
278,169,166658,5,2,0:0:0:0:
261,374,166958,1,0,0:0:0:0:
278,169,167258,101,0,0:0:0:0:
268,270,167558,2,0,P|224:277|185:258,1,72
136,166,167858,6,0,P|197:200|199:269,1,144,2|0,0:0|0:0,0:0:0:0:
136,238,168308,1,2,0:0:0:0:
136,238,168608,1,0,0:0:0:0:
193,339,168758,2,0,P|193:303|199:268,1,72
70,269,169058,102,0,P|62:190|44:114,1,144,2|0,0:0|0:0,0:0:0:0:
101,61,169508,2,0,B|185:51|150:107|252:96,1,144
216,25,169958,1,0,0:0:0:0:
313,86,170108,2,0,P|297:156|291:227,1,144
235,97,170558,1,0,0:0:0:0:
390,40,170708,2,0,P|347:8|248:23,2,144,2|0|0,0:0|0:0|0:0,0:0:0:0:
313,86,171458,5,2,0:0:0:0:
301,85,172658,101,2,0:0:0:0:
341,232,173108,1,2,0:0:0:0:
341,232,173558,5,0,0:0:0:0:
341,232,173708,102,0,L|439:222,1,72
256,192,174458,12,2,176258,0:0:0:0:
288,74,180008,101,2,0:0:0:0:
287,82,180083,1,0,0:0:0:0:
286,90,180158,1,0,3:0:0:0:
285,98,180233,1,0,0:0:0:0:
284,106,180308,1,2,3:0:0:0:
283,114,180383,1,2,3:0:0:0:
282,122,180458,5,0,3:0:0:0:
355,103,180533,1,0,3:0:0:0:
411,139,180608,1,0,3:0:0:0:
427,193,180683,1,0,3:0:0:0:
410,237,180758,1,0,3:0:0:0:
374,264,180833,1,0,3:0:0:0:
346,272,180908,1,0,3:0:0:0:
322,269,180983,1,0,0:0:0:0:
262,222,181058,6,0,B|197:208|161:261|178:270|141:323|69:308,1,216,4|0,1:0|0:0,0:0:0:0:
2,259,181358,2,0,P|-15:279|10:263,1,72,8|0,0:1|0:0,0:0:0:0:
281,325,181508,6,0,B|202:338|162:272|182:262|140:197|53:213,1,256.499993150711
68,211,181808,1,0,3:0:0:0:
239,153,181958,6,0,B|268:184|268:184|261:221,1,80.9999975280763,8|0,0:1|0:0,0:0:0:0:
154,140,182108,2,0,P|215:134|243:43,1,148.500001416206,0|0,1:0|3:0,0:0:0:0:
178,73,182333,1,0,0:0:0:0:
178,73,182408,1,0,0:0:0:0:
471,153,182558,6,0,L|395:167,1,65.250001991272,8|0,0:1|0:0,0:0:0:0:
355,111,182708,2,0,L|290:99,1,65.250001991272
239,153,182858,1,0,1:0:0:0:
3,306,183008,6,0,L|94:322,1,74.2500007081032,2|0,0:0|0:0,0:0:0:0:
142,255,183158,2,0,L|219:240,1,74.2500007081032,8|0,0:1|0:0,0:0:0:0:
281,306,183308,1,0,1:0:0:0:
471,153,183458,6,0,B|431:134|399:158|399:158|380:211|345:233|280:218,1,216,0|0,3:0|0:0,0:0:0:0:
307,64,183758,2,0,B|326:102|326:102|313:143,1,80.9999975280763,8|0,0:1|0:0,0:0:0:0:
193,154,183908,2,0,B|173:115|173:115|186:74,1,80.9999975280763,2|0,0:0|0:0,0:0:0:0:
250,109,184058,1,0,1:0:0:0:
26,213,184208,37,0,1:0:0:0:
84,273,184358,2,0,B|105:211|105:211|65:90,1,170.999995433807,8|0,0:1|0:0,0:0:0:0:
10,301,184658,2,0,B|76:271|124:323|102:334|148:387|243:338,1,229.500004377365,0|0,1:0|0:0,0:0:0:0:
260,362,184958,6,0,P|273:326|264:281,1,80.9999975280763,8|0,0:1|0:0,0:0:0:0:
351,261,185108,2,0,P|334:226|296:200,1,80.9999975280763,2|0,0:0|0:0,0:0:0:0:
128,138,185258,6,0,B|194:141|210:211|210:211|204:141|281:112,1,242.999992584229,0|0,3:0|0:0,0:0:0:0:
488,190,185558,6,0,B|425:155|441:82|441:82|416:150|331:144,1,256.499993150711,8|0,0:1|0:0,0:0:0:0:
358,59,185858,5,4,1:3:0:0:
461,333,186008,1,0,0:0:0:0:
461,333,186083,1,0,0:0:0:0:
461,333,186158,6,0,P|474:305|467:244,1,76.5000014591217,8|0,0:1|0:0,0:0:0:0:
401,200,186308,2,0,P|370:201|321:238,1,76.5000014591217,2|0,0:0|0:0,0:0:0:0:
239,296,186458,2,0,L|392:284,2,153.000002918243,0|2|8,3:0|0:0|0:1,0:0:0:0:
50,310,186908,38,0,B|121:276|180:333|154:355|202:402|286:372,1,256.499993150711
243,215,187208,2,0,B|228:255|228:255|239:296,1,85.4999977169037
327,304,187358,2,0,B|342:264|342:264|331:223,1,85.4999977169037,8|0,0:1|0:0,0:0:0:0:
278,138,187508,6,0,B|213:108|160:158|183:179|141:221|64:193,1,229.500004377365
61,61,187808,1,0,0:0:0:0:
61,61,187883,1,0,0:0:0:0:
61,61,187958,6,0,P|93:81|106:117,1,76.5000014591217,8|0,0:1|0:0,0:0:0:0:
47,262,188108,2,0,P|48:224|73:196,1,76.5000014591217
278,138,188258,5,0,1:0:0:0:
473,181,188408,1,2,0:0:0:0:
208,123,188558,5,8,0:1:0:0:
461,67,188708,1,2,0:0:0:0:
376,160,188858,5,0,3:0:0:0:
179,124,189008,37,0,3:0:0:0:
483,57,189158,1,8,0:1:0:0:
379,166,189308,5,2,0:0:0:0:
407,247,189458,5,4,1:3:0:0:
472,191,189608,6,0,P|490:230|488:268,1,76.5000014591217
424,330,189758,2,0,P|380:326|348:305,1,76.5000014591217,8|0,0:1|0:0,0:0:0:0:
327,219,189908,38,0,P|347:178|381:161,1,76.9499990606689,2|0,0:0|0:0,0:0:0:0:
379,166,190208,86,0,P|355:203|321:220,1,76.9499990606689,0|0,3:0|0:0,0:0:0:0:
253,264,190358,1,8,0:1:0:0:
23,138,190508,1,2,0:0:0:0:
3,239,190658,5,4,1:0:0:0:
300,136,190808,1,0,0:0:0:0:
192,305,190958,38,0,B|178:271|178:271|188:216,1,72,8|0,0:1|0:0,0:0:0:0:
333,59,191108,2,0,B|268:31|215:79|249:98|190:139|118:109,1,229.500004377365
126,112,191408,1,0,3:0:0:0:
306,208,191558,6,0,B|314:169|314:169|300:136,1,76.5000014591217,8|0,0:1|0:0,0:0:0:0:
250,261,191708,2,0,P|286:246|362:301,1,135.000005149842,0|0,1:0|0:0,0:0:0:0:
294,314,191933,1,0,0:0:0:0:
294,314,192008,1,0,0:0:0:0:
42,190,192158,6,0,P|30:153|40:109,1,74.2500007081032,8|0,0:1|0:0,0:0:0:0:
126,112,192308,2,0,P|138:149|128:193,1,74.2500007081032,0|0,3:0|0:0,0:0:0:0:
92,264,192458,1,0,1:0:0:0:
349,209,192608,6,0,P|362:170|358:128,1,83.2499996824265
251,112,192758,2,0,P|237:150|241:192,1,83.2499996824265,8|0,0:1|0:0,0:0:0:0:
316,43,192908,1,0,1:0:0:0:
436,228,193058,6,0,B|371:200|318:248|352:267|293:308|221:278,1,229.500004377365,0|0,3:0|0:0,0:0:0:0:
95,290,193358,6,0,P|61:281|92:264,1,90,8|0,0:1|0:0,0:0:0:0:
132,183,193508,38,0,P|152:173|120:173,1,76.5000014591217,2|0,0:0|0:0,0:0:0:0:
50,194,193658,1,0,1:0:0:0:
93,55,193808,5,0,1:0:0:0:
296,25,193958,1,8,0:1:0:0:
478,116,194108,1,2,0:0:0:0:
418,55,194258,6,0,P|393:151|498:218,1,229.500004377365,4|0,1:2|0:0,0:0:0:0:
487,218,194558,1,8,0:1:0:0:
369,356,194708,2,0,P|382:282|226:300,1,242.999992584229,2|0,0:0|0:0,0:0:0:0:
305,305,195008,5,2,0:0:0:0:
159,357,195158,1,8,0:1:0:0:
18,289,195308,1,0,1:0:0:0:
52,218,195458,38,0,L|45:159,1,58.5,4|0,1:2|0:0,0:0:0:0:
45,159,196508,22,0,L|52:218,1,58.5,4|0,1:0|0:0,0:0:0:0:
158,327,196808,6,0,L|166:256,1,67.5000025749208,8|0,0:0|0:0,0:0:0:0:
188,57,197108,5,8,0:1:0:0:
250,271,197258,1,0,0:0:0:0:
285,28,197408,5,0,3:0:0:0:
289,272,197558,1,2,0:0:0:0:
386,25,197708,5,0,1:0:0:0:
320,284,197858,1,2,0:0:0:0:
325,305,198158,5,0,1:0:0:0:
171,39,198308,1,8,0:0:0:0:
289,291,198458,37,2,0:0:0:0:
284,6,198608,1,8,0:0:0:0:
243,290,198758,5,0,3:0:0:0:
403,2,198908,1,8,0:0:0:0:
460,92,199058,6,0,L|293:77,1,135.000005149842,0|8,1:0|0:0,0:0:0:0:
470,183,199358,1,0,3:0:0:0:
480,274,199508,6,0,B|395:309|332:245|375:217|302:151|207:209,2,288,4|4|4,1:2|1:2|1:2,0:0:0:0:
481,275,200558,6,0,B|481:237|468:208|419:179|371:198|349:235|349:235|336:266|307:306|271:358|186:356|115:325|77:269|58:209|55:86|150:48|248:32|309:82|338:140|338:140|321:90|332:42|375:15|406:-19|496:0|521:65|519:105|509:153|486:175|423:173,1,1224.00002334595,12|8,0:3|0:1,0:0:0:0:
417,106,201908,1,2,0:0:0:0:
227,200,202058,6,0,B|166:217|166:217|90:180,1,125.999996154785,0|2,3:0|0:0,0:0:0:0:
113,102,202358,2,0,B|174:85|174:85|230:112,1,125.999996154785,8|0,0:1|1:0,0:0:0:0:
434,148,202658,38,0,B|366:117|317:168|339:178|288:228|215:195,1,229.500004377365,4|0,1:3|0:0,0:0:0:0:
221,23,202958,6,0,B|241:66|241:66|230:112,1,94.499997116089,8|0,0:1|0:0,0:0:0:0:
20,87,203108,2,0,L|164:75,2,144,2|0|2,0:0|0:0|0:0,0:0:0:0:
233,283,203558,6,0,B|244:237|244:237|226:199,1,90,8|0,0:1|0:0,0:0:0:0:
6,230,203708,2,0,L|140:242,1,135.000005149842,0|2,0:0|1:2,0:0:0:0:
157,244,203933,1,0,0:0:0:0:
157,244,204008,1,0,0:0:0:0:
340,203,204158,6,0,P|330:247|355:287,1,67.5000025749208,8|0,0:1|0:0,0:0:0:0:
505,297,204308,2,0,B|442:270|399:308|412:332|359:380|278:334,1,229.500004377365
335,267,204608,2,0,P|346:235|340:203,1,67.5000025749208
257,178,204758,2,0,L|414:165,1,157.500001502037,8|0,0:1|0:0,0:0:0:0:
189,319,205058,5,0,1:0:0:0:
100,190,205208,2,0,B|91:154|91:154|101:102,1,74.2500007081032,2|0,0:0|0:0,0:0:0:0:
179,154,205358,1,8,0:1:0:0:
61,38,205508,2,0,B|130:6|174:58|162:74|205:124|291:85,1,242.999992584229,2|0,0:0|0:0,0:0:0:0:
340,130,205808,6,0,P|352:96|340:48,1,76.5000014591217,0|0,3:0|0:0,0:0:0:0:
237,13,205958,2,0,L|442:27,1,180,8|2,0:1|0:0,0:0:0:0:
376,207,206258,37,4,1:3:0:0:
459,215,206408,6,0,P|456:181|420:135,1,80.9999975280763
340,130,206558,2,0,P|311:148|290:203,1,80.9999975280763,8|0,0:1|0:0,0:0:0:0:
327,275,206708,70,0,P|353:286|411:276,1,80.9999975280763,2|0,0:0|0:0,0:0:0:0:
403,286,207008,54,0,P|372:270|314:280,1,80.9999975280763,0|0,3:0|0:0,0:0:0:0:
253,321,207158,1,8,0:1:0:0:
188,76,207308,1,2,0:0:0:0:
256,17,207458,5,4,1:0:0:0:
191,262,207608,2,0,L|37:245,1,153.000002918243,0|8,0:0|0:1,0:0:0:0:
221,183,207908,2,0,B|264:198|273:243|273:243|285:202|346:189,1,157.500001502037,0|2,0:0|0:0,0:0:0:0:
391,223,208133,1,0,0:0:0:0:
391,224,208208,2,0,P|370:250|340:266,1,67.5000025749208,0|0,3:0|0:0,0:0:0:0:
237,316,208358,2,0,B|298:289|348:342|317:360|371:407|458:376,1,216,8|0,0:1|0:0,0:0:0:0:
458,369,208658,6,0,P|461:332|470:279,1,76.5000014591217,0|0,3:0|0:0,0:0:0:0:
391,224,208808,2,0,P|388:187|379:134,1,76.5000014591217
472,46,208958,2,0,L|259:63,1,180,8|0,0:1|0:0,0:0:0:0:
108,305,209258,5,0,1:0:0:0:
67,77,209408,1,0,0:0:0:0:
214,156,209558,37,8,0:1:0:0:
173,383,209708,1,0,1:0:0:0:
127,230,209858,6,0,B|252:193|218:323|366:283,1,242.999992584229,0|0,3:0|0:0,0:0:0:0:
319,126,210158,2,0,B|300:168|300:168|310:207,1,85.4999977169037,8|0,0:1|0:0,0:0:0:0:
463,230,210308,2,0,B|482:187|482:187|472:149,1,85.4999977169037,2|0,0:0|0:0,0:0:0:0:
391,178,210458,1,0,1:0:0:0:
141,124,210608,5,0,1:0:0:0:
231,74,210758,2,0,L|216:281,1,180,8|2,0:1|0:0,0:0:0:0:
130,341,211058,2,0,B|80:294|80:294|324:279,1,270
280,281,211358,1,8,0:1:0:0:
439,379,211508,2,0,P|425:224|280:281,1,360,2|2,0:0|0:0,0:0:0:0:
373,308,211958,1,8,0:1:0:0:
235,209,212108,1,0,1:0:0:0:
390,138,212258,5,4,1:2:0:0:
390,138,213308,5,4,1:2:0:0:
79,92,213758,5,0,3:0:0:0:
79,92,213833,1,0,0:0:0:0:
79,92,213908,2,0,B|140:58|140:58|241:78,1,135.000005149842,8|2,0:1|0:0,0:0:0:0:
216,183,214133,1,2,0:0:0:0:
151,212,214208,2,0,P|144:179|153:147,1,67.5000025749208,0|0,1:0|0:0,0:0:0:0:
281,150,214358,2,0,P|288:182|279:215,1,67.5000025749208,8|8,0:1|0:1,0:0:0:0:
225,293,214508,1,8,0:1:0:0:
228,302,214583,1,8,0:1:0:0:
231,311,214658,37,4,1:0:0:0:
407,152,214808,1,0,3:0:0:0:
435,370,214958,1,8,0:1:0:0:
358,269,215108,5,2,0:0:0:0:
219,95,215258,6,0,L|358:84,1,135.000005149842,0|0,0:0|1:0,0:0:0:0:
144,225,215558,2,0,P|138:193|148:158,1,67.5000025749208,8|0,0:1|0:0,0:0:0:0:
246,168,215708,2,0,P|251:199|241:234,1,67.5000025749208,2|0,0:0|0:0,0:0:0:0:
151,304,215858,2,0,B|213:283|255:325|240:344|290:392|369:353,1,216,0|0,1:0|0:0,0:0:0:0:
371,350,216158,1,8,0:1:0:0:
242,233,216308,1,2,0:0:0:0:
425,121,216458,6,0,L|446:268,1,144,0|0,0:0|1:0,0:0:0:0:
339,72,216758,1,8,0:1:0:0:
253,121,216908,1,2,0:0:0:0:
227,318,217058,5,0,1:0:0:0:
56,95,217208,1,0,0:0:0:0:
30,292,217358,5,8,0:1:0:0:
253,121,217508,1,0,0:0:0:0:
321,192,217658,38,0,L|464:176,1,144,2|0,3:2|0:0,0:0:0:0:
281,27,217958,1,8,0:1:0:0:
254,277,218108,1,2,0:0:0:0:
93,352,218258,6,0,P|45:284|45:74,1,288,2|8,1:2|0:1,0:0:0:0:
39,85,218708,1,2,0:0:0:0:
244,346,218858,6,0,P|212:260|272:36,1,323.999990112305,2|8,1:2|0:1,0:0:0:0:
478,72,219458,6,0,P|392:196|389:347,1,306.000005836487,2|8,1:2|0:1,0:0:0:0:
390,348,219908,1,0,1:0:0:0:
316,46,220020,5,2,0:0:0:0:
310,41,220058,2,0,P|250:189|286:344,1,270.000010299683,2|8,1:2|0:1,0:0:0:0:
263,295,220508,1,0,0:0:0:0:
148,66,220620,5,2,0:0:0:0:
141,62,220658,2,0,P|124:204|191:331,1,233.999989288331,2|8,1:2|0:1,0:0:0:0:
155,286,221108,1,0,3:0:0:0:
13,151,221220,37,2,0:0:0:0:
7,147,221258,2,0,P|23:261|102:346,1,198.000006042481,2|8,1:2|0:1,0:0:0:0:
155,286,221708,1,2,0:0:0:0:
373,372,221858,5,2,1:2:0:0:
323,174,222008,1,0,3:0:0:0:
176,315,222158,1,8,0:1:0:0:
291,287,222308,5,2,0:0:0:0:
242,90,222458,5,0,3:0:0:0:
437,146,222608,1,0,3:0:0:0:
268,3,222758,5,8,0:1:0:0:
47,34,222908,1,2,0:0:0:0:
291,287,223058,5,0,1:0:0:0:
316,88,223208,1,0,3:0:0:0:
117,63,223358,1,8,0:1:0:0:
92,262,223508,1,2,0:0:0:0:
195,245,223658,37,0,3:0:0:0:
274,183,223808,1,0,3:0:0:0:
212,104,223958,1,8,0:1:0:0:
133,166,224108,1,2,0:0:0:0:
291,287,224258,6,0,L|426:274,1,125.999996154785,4|0,1:0|3:0,0:0:0:0:
212,104,224558,5,8,0:1:0:0:
165,299,224708,1,2,0:0:0:0:
235,200,224858,5,0,0:0:0:0:
188,5,225008,1,0,1:0:0:0:
306,94,225158,6,0,L|431:81,1,125.999996154785,8|2,0:1|0:0,0:0:0:0:
235,200,225458,5,0,1:0:0:0:
55,120,225608,1,0,3:0:0:0:
76,315,225758,37,8,0:1:0:0:
122,211,225908,5,2,0:0:0:0:
247,313,226058,2,0,L|372:300,1,125.999996154785,0|0,0:0|1:0,0:0:0:0:
168,321,226358,5,8,0:1:0:0:
148,133,226508,1,2,0:0:0:0:
300,20,226658,5,0,1:0:0:0:
487,47,226808,1,0,0:0:0:0:
273,146,226958,6,0,L|148:133,1,125.999996154785,8|0,0:1|0:0,0:0:0:0:
396,107,227258,5,2,3:2:0:0:
423,294,227408,1,0,0:0:0:0:
200,234,227558,37,8,0:1:0:0:
227,47,227708,1,2,0:0:0:0:
325,247,227858,6,0,L|200:234,1,125.999996154785,0|0,1:0|3:0,0:0:0:0:
46,5,228158,5,8,0:1:0:0:
11,253,228308,1,2,0:0:0:0:
113,336,228458,5,0,1:0:0:0:
85,137,228608,1,0,0:0:0:0:
167,71,228758,5,8,0:1:0:0:
144,231,228908,1,2,0:0:0:0:
295,171,229058,5,0,1:0:0:0:
295,171,230108,38,0,P|385:158|367:284,1,251.999992309571,4|0,1:3|0:0,0:0:0:0:
330,328,230483,5,0,0:0:0:0:
330,328,230558,2,0,P|303:316|246:321,1,62.9999980773926,0|0,3:0|0:0,0:0:0:0:
255,233,230708,5,8,0:0:0:0:
255,233,230783,1,0,3:0:0:0:
255,233,230858,2,0,P|227:243|190:287,1,62.9999980773926,2|2,3:0|3:0,0:0:0:0:
134,218,231008,5,2,3:0:0:0:
134,218,231083,1,2,3:0:0:0:
134,218,231158,2,0,P|122:244|127:302,1,62.9999980773926,0|0,3:0|3:0,0:0:0:0:
37,292,231308,5,0,3:0:0:0:
48,321,231383,1,0,3:0:0:0:
69,344,231458,21,4,1:2:0:0:
142,150,231908,1,0,0:0:0:0:
142,150,232658,5,2,0:0:0:0:
203,369,233108,1,2,0:0:0:0:
203,369,233858,102,0,P|229:340|378:344,2,198.000006042481,2|0|2,0:0|0:0|0:0,0:0:0:0:
203,369,235508,2,0,L|135:360,1,49.5000015106202,2|2,0:0|0:0,0:0:0:0:
69,371,235808,2,0,B|55:304|103:322|85:232,1,123.75000377655,2|0,0:0|0:0,0:0:0:0:
86,227,236258,5,2,0:0:0:0:
98,223,237458,2,0,B|184:202|165:267|261:247,1,148.50000453186,2|2,0:0|0:0,0:0:0:0:
192,90,238208,1,2,0:0:0:0:
192,90,238658,2,0,P|256:64|216:165,1,247.500007553101,2|2,0:0|0:0,0:0:0:0:
53,24,239858,2,0,P|51:104|38:229,1,198.000006042481,2|2,0:0|0:0,0:0:0:0:
39,221,241058,101,2,0:0:0:0:
59,242,242258,2,0,P|111:257|145:174,1,148.50000453186,2|2,0:0|0:0,0:0:0:0:
150,185,243458,2,0,B|121:298|210:256|185:375,2,198.000006042481,2|0|2,0:0|0:0|0:0,0:0:0:0:
241,217,245108,1,2,0:0:0:0:
309,167,245858,6,0,P|384:159|399:272,1,198.000006042481,2|0,0:0|0:0,0:0:0:0:
409,260,246908,1,2,0:0:0:0:
355,212,248743,102,0,P|348:238|347:266,1,38.2500007295609,2|2,0:0|0:0,0:0:0:0:
402,299,249012,2,0,P|409:325|410:353,1,45,2|2,0:0|0:0,0:0:0:0:
410,342,249252,1,2,0:0:0:0:
256,192,249327,12,0,251652,0:0:0:0:
