osu file format v14

[General]
AudioFilename: Ether.mp3
AudioLeadIn: 0
PreviewTime: 50750
Countdown: 0
SampleSet: Normal
StackLeniency: 0.4
Mode: 0
LetterboxInBreaks: 0
EpilepsyWarning: 1
WidescreenStoryboard: 1

[Editor]
DistanceSpacing: 0.7
BeatDivisor: 3
GridSize: 32
TimelineZoom: 2

[Metadata]
Title:Ether
TitleUnicode:エーテル
Artist:Feryquitous feat. Aitsuki Nakuru
ArtistUnicode:Feryquitous feat. 藍月なくる
Creator:Acyl
Version:Skystar's Ethereal
Source:
Tags:『JelLaboratory』 c95 female vocal japanese doujin pop artcore -tochi j1_ how2miss otosaka-yu necho reincarnation suzuki_1112 moecho neilperry sing toybot kalibe lit120 lami lmt firika fanzhen0019 skystar yusomi amamiya yuko _epreus bbj0920 len fast kawashiro heilia cococolaco 藍月なくる aitsuki nakuru _todestrieb coco
BeatmapID:2240404
BeatmapSetID:902425

[Difficulty]
HPDrainRate:6
CircleSize:5
OverallDifficulty:9
ApproachRate:9.5
SliderMultiplier:2
SliderTickRate:1

[Events]
//Background and Video events
0,0,"background.jpg",0,0
//Break Periods
2,49258,50138
2,157258,173738
//Storyboard Layer 0 (Background)
Sprite,Background,Centre,"background.jpg",320,240 F,0,0,,0
Sprite,Background,Centre,"sb\blank.jpg",0,0 F,0,-4025,-3682,0,1 F,0,-3682,-253,1 F,0,-253,3,1,0 M,0,3,,320,240 S,0,3,,0.6493149
Sprite,Background,Centre,"sb\tochi.png",320,240 S,0,-3532,,0.6 F,0,-3532,-3187,0,1 F,0,-3187,-596,1,0.9893727 F,0,-596,-253,0.9893727,0
Sprite,Background,Centre,"sb\bgblurbw.jpg",0,0 F,2,1058,10658,0,0.6487671 M,0,1058,50258,320,-18.8055,320,240 S,0,1058,50258,0.9298632,0.5160549 F,0,10658,49058,0.6487671 F,0,49058,50258,0.6487671,0
Sprite,Background,Centre,"sb\bgblur.jpg",320,240 S,0,51458,,0.5160547 F,0,51458,70658,1 F,0,70658,70958,1,0
Sprite,Background,Centre,"sb\blank.jpg",320,240 S,0,49058,,0.537096 F,0,49058,50258,0,1 F,0,50258,51458,1 F,0,51458,51758,1,0
Sprite,Background,Centre,"sb\blank.jpg",320,240 S,0,70658,,0.5230685 F,0,70658,70958,0,1 F,0,70958,80258,1,0.9966667 F,0,80258,80408,0.9966667,0
Sprite,Background,Centre,"sb\bgblurbw.jpg",320,240 S,0,80258,,0.5300821 F,0,80258,80408,0,1 F,0,80408,118658,1,0.9866667 F,0,118658,119258,0.9866667,0.2384657 F,0,119258,121058,0.2384657,0.2459477 F,0,121058,121358,0.2459477,0
Sprite,Background,Centre,"sb\bgblur.jpg",320,240 F,0,121058,137858,1 S,0,121058,137858,0.5160547,0.5230685 F,0,137858,138158,1,0
Sprite,Background,Centre,"background.jpg",320,240 S,0,137858,,0.5230684 F,0,137858,138158,0,1 F,0,138158,156758,1,0.9866667 F,0,156758,157358,0.9866667,0
Sprite,Background,Centre,"sb\bgblur.jpg",320,240 S,0,181058,,0.5160547 F,0,181058,214658,1 F,0,214658,214958,1,0
Sprite,Background,Centre,"sb\bgblurbw.jpg",0,0 S,0,156758,,0.6493151 P,0,156758,,V F,0,156758,157358,0,1 M,0,156758,179858,200.0658,240,384.526,240 F,0,157358,175058,1 F,0,175058,176258,1,0.2565479 F,0,176258,181058,0.2565479
Sprite,Background,Centre,"background.jpg",320,240 S,0,214658,,0.5160549 F,0,214658,214958,0,1 F,0,214958,231458,1 F,0,231458,232658,1,0
Sprite,Background,Centre,"sb\bgblurbw.jpg",0,0 P,0,231458,,H F,0,231458,232658,0,1 M,2,231458,255458,457.4685,148.8219,-109.9397,549.3041 S,0,231458,255458,0.6984109,1.140274 R,0,231458,255458,-0.01402771,-0.2665204 F,0,232658,249308,1 F,0,249308,255458,1,0
Sprite,Background,Centre,"sb\blank.jpg",0,0 F,0,51308,51458,0,0.5 M,0,51458,,320,240 F,0,51458,51758,0.5,0.1 V,1,51458,51758,0.42,0.51,0.4,0.05 R,0,51458,70658,0.08416412,-0.1402744 P,0,51758,,A F,0,51758,70658,0.1 F,0,70658,70958,0.1,0
Sprite,Background,Centre,"sb\blank.jpg",0,0 F,0,120608,120758,0,0.5 M,0,120758,,320,240 F,0,120758,121058,0.5,0.1 V,1,120758,121058,0.42,0.51,0.4,0.05 R,0,120758,157058,-0.1402744,0.08416412 P,0,121058,,A F,0,121058,157058,0.1 F,0,157058,157358,0.1,0
Sprite,Background,Centre,"sb\blank.jpg",0,0 F,0,180458,180608,0,0.5 M,0,180608,,320,240 F,0,180608,180908,0.5,0.1 V,1,180608,180908,0.42,0.51,0.4,0.05 R,0,180608,231458,0.08416412,-0.1402744 P,0,180908,,A F,0,180908,231458,0.1 F,0,231458,231758,0.1,0
Sprite,Background,Centre,"sb\ring.png",0,0 M,0,51458,,263,350 C,0,51458,,255,255,255 F,1,51458,53758,0.9,0 S,1,51458,53758,0.25,0.5
Sprite,Background,Centre,"sb\ring.png",0,0 M,0,51908,,311,83 C,0,51908,,255,255,255 F,1,51908,54133,0.9,0 S,1,51908,54133,0.25,0.5
Sprite,Background,Centre,"sb\ring.png",0,0 M,0,52208,,293,231 C,0,52208,,255,255,255 F,1,52208,54208,0.9,0 S,1,52208,54208,0.25,0.5
Sprite,Background,Centre,"sb\ring.png",0,0 M,0,52358,,481,263 C,0,52358,,255,255,255 F,1,52358,54508,0.9,0 S,1,52358,54508,0.25,0.5
Sprite,Background,Centre,"sb\ring.png",0,0 M,0,52583,,462,166 C,0,52583,,255,255,255 F,1,52583,54583,0.9,0 S,1,52583,54583,0.25,0.5
Sprite,Background,Centre,"sb\ring.png",0,0 M,0,52658,,452,162 C,0,52658,,255,255,255 F,1,52658,54808,0.9,0 S,1,52658,54808,0.25,0.5
Sprite,Background,Centre,"sb\ring.png",0,0 M,0,52958,,505,376 C,0,52958,,255,255,255 F,1,52958,55183,0.9,0 S,1,52958,55183,0.25,0.5
Sprite,Background,Centre,"sb\ring.png",0,0 M,0,53258,,356,359 C,0,53258,,255,255,255 F,1,53258,55258,0.9,0 S,1,53258,55258,0.25,0.5
Sprite,Background,Centre,"sb\ring.png",0,0 M,0,53408,,283,412 C,0,53408,,255,255,255 F,1,53408,55408,0.9,0 S,1,53408,55408,0.25,0.5
Sprite,Background,Centre,"sb\ring.png",0,0 M,0,53558,,210,358 C,0,53558,,255,255,255 F,1,53558,55558,0.9,0 S,1,53558,55558,0.25,0.5
Sprite,Background,Centre,"sb\ring.png",0,0 M,0,53708,,137,411 C,0,53708,,255,255,255 F,1,53708,55708,0.9,0 S,1,53708,55708,0.25,0.5
Sprite,Background,Centre,"sb\ring.png",0,0 M,0,53858,,210,358 C,0,53858,,255,255,255 F,1,53858,56008,0.9,0 S,1,53858,56008,0.25,0.5
Sprite,Background,Centre,"sb\ring.png",0,0 M,0,54158,,124,266 C,0,54158,,255,255,255 F,1,54158,56383,0.9,0 S,1,54158,56383,0.25,0.5
Sprite,Background,Centre,"sb\ring.png",0,0 M,0,54458,,120,116 C,0,54458,,255,255,255 F,1,54458,56458,0.9,0 S,1,54458,56458,0.25,0.5
Sprite,Background,Centre,"sb\ring.png",0,0 M,0,54608,,307,182 C,0,54608,,255,255,255 F,1,54608,56908,0.9,0 S,1,54608,56908,0.25,0.5
Sprite,Background,Centre,"sb\ring.png",0,0 M,0,55058,,516,238 C,0,55058,,255,255,255 F,1,55058,57058,0.9,0 S,1,55058,57058,0.25,0.5
Sprite,Background,Centre,"sb\ring.png",0,0 M,0,55208,,370,146 C,0,55208,,255,255,255 F,1,55208,57208,0.9,0 S,1,55208,57208,0.25,0.5
Sprite,Background,Centre,"sb\ring.png",0,0 M,0,55358,,482,267 C,0,55358,,255,255,255 F,1,55358,57358,0.9,0 S,1,55358,57358,0.25,0.5
Sprite,Background,Centre,"sb\ring.png",0,0 M,0,55508,,409,121 C,0,55508,,255,255,255 F,1,55508,57508,0.9,0 S,1,55508,57508,0.25,0.5
Sprite,Background,Centre,"sb\ring.png",0,0 M,0,55658,,421,295 C,0,55658,,255,255,255 F,1,55658,57658,0.9,0 S,1,55658,57658,0.25,0.5
Sprite,Background,Centre,"sb\ring.png",0,0 M,0,55808,,477,120 C,0,55808,,255,255,255 F,1,55808,57808,0.9,0 S,1,55808,57808,0.25,0.5
Sprite,Background,Centre,"sb\ring.png",0,0 M,0,55958,,303,349 C,0,55958,,255,255,255 F,1,55958,58258,0.9,0 S,1,55958,58258,0.25,0.5
Sprite,Background,Centre,"sb\ring.png",0,0 M,0,56558,,96,397 C,0,56558,,255,255,255 F,1,56558,58558,0.9,0 S,1,56558,58558,0.25,0.5
Sprite,Background,Centre,"sb\ring.png",0,0 M,0,56708,,159,311 C,0,56708,,255,255,255 F,1,56708,58858,0.9,0 S,1,56708,58858,0.25,0.5
Sprite,Background,Centre,"sb\ring.png",0,0 M,0,57008,,80,276 C,0,57008,,255,255,255 F,1,57008,59008,0.9,0 S,1,57008,59008,0.25,0.5
Sprite,Background,Centre,"sb\ring.png",0,0 M,0,57158,,217,209 C,0,57158,,255,255,255 F,1,57158,59158,0.9,0 S,1,57158,59158,0.25,0.5
Sprite,Background,Centre,"sb\ring.png",0,0 M,0,57308,,159,311 C,0,57308,,255,255,255 F,1,57308,59533,0.9,0 S,1,57308,59533,0.25,0.5
Sprite,Background,Centre,"sb\ring.png",0,0 M,0,57608,,343,260 C,0,57608,,255,255,255 F,1,57608,59758,0.9,0 S,1,57608,59758,0.25,0.5
Sprite,Background,Centre,"sb\ring.png",0,0 M,0,57908,,136,400 C,0,57908,,255,255,255 F,1,57908,60133,0.9,0 S,1,57908,60133,0.25,0.5
Sprite,Background,Centre,"sb\ring.png",0,0 M,0,58208,,285,435 C,0,58208,,255,255,255 F,1,58208,60208,0.9,0 S,1,58208,60208,0.25,0.5
Sprite,Background,Centre,"sb\ring.png",0,0 M,0,58358,,466,420 C,0,58358,,255,255,255 F,1,58358,60358,0.9,0 S,1,58358,60358,0.25,0.5
Sprite,Background,Centre,"sb\ring.png",0,0 M,0,58508,,258,327 C,0,58508,,255,255,255 F,1,58508,60508,0.9,0 S,1,58508,60508,0.25,0.5
Sprite,Background,Centre,"sb\ring.png",0,0 M,0,58658,,493,312 C,0,58658,,255,255,255 F,1,58658,60658,0.9,0 S,1,58658,60658,0.25,0.5
Sprite,Background,Centre,"sb\ring.png",0,0 M,0,58808,,443,262 C,0,58808,,255,255,255 F,1,58808,60808,0.9,0 S,1,58808,60808,0.25,0.5
Sprite,Background,Centre,"sb\ring.png",0,0 M,0,58958,,389,307 C,0,58958,,255,255,255 F,1,58958,60958,0.9,0 S,1,58958,60958,0.25,0.5
Sprite,Background,Centre,"sb\ring.png",0,0 M,0,59108,,303,396 C,0,59108,,255,255,255 F,1,59108,61108,0.9,0 S,1,59108,61108,0.25,0.5
Sprite,Background,Centre,"sb\ring.png",0,0 M,0,59183,,306,392 C,0,59183,,255,255,255 F,1,59183,61183,0.9,0 S,1,59183,61183,0.25,0.5
Sprite,Background,Centre,"sb\ring.png",0,0 M,0,59258,,309,388 C,0,59258,,255,255,255 F,1,59258,61258,0.9,0 S,1,59258,61258,0.25,0.5
Sprite,Background,Centre,"sb\ring.png",0,0 M,0,59408,,267,254 C,0,59408,,255,255,255 F,1,59408,61408,0.9,0 S,1,59408,61408,0.25,0.5
Sprite,Background,Centre,"sb\ring.png",0,0 M,0,59558,,232,314 C,0,59558,,255,255,255 F,1,59558,61558,0.9,0 S,1,59558,61558,0.25,0.5
Sprite,Background,Centre,"sb\ring.png",0,0 M,0,59708,,179,202 C,0,59708,,255,255,255 F,1,59708,61708,0.9,0 S,1,59708,61708,0.25,0.5
Sprite,Background,Centre,"sb\ring.png",0,0 M,0,59858,,336,99 C,0,59858,,255,255,255 F,1,59858,61858,0.9,0 S,1,59858,61858,0.25,0.5
Sprite,Background,Centre,"sb\ring.png",0,0 M,0,60008,,346,286 C,0,60008,,255,255,255 F,1,60008,62008,0.9,0 S,1,60008,62008,0.25,0.5
Sprite,Background,Centre,"sb\ring.png",0,0 M,0,60158,,291,208 C,0,60158,,255,255,255 F,1,60158,62383,0.9,0 S,1,60158,62383,0.25,0.5
Sprite,Background,Centre,"sb\ring.png",0,0 M,0,60458,,279,338 C,0,60458,,255,255,255 F,1,60458,62608,0.9,0 S,1,60458,62608,0.25,0.5
Sprite,Background,Centre,"sb\ring.png",0,0 M,0,60758,,117,327 C,0,60758,,255,255,255 F,1,60758,62758,0.9,0 S,1,60758,62758,0.25,0.5
Sprite,Background,Centre,"sb\ring.png",0,0 M,0,60908,,168,138 C,0,60908,,255,255,255 F,1,60908,62908,0.9,0 S,1,60908,62908,0.25,0.5
Sprite,Background,Centre,"sb\ring.png",0,0 M,0,61058,,101,182 C,0,61058,,255,255,255 F,1,61058,63658,0.9,0 S,1,61058,63658,0.25,0.5
Sprite,Background,Centre,"sb\ring.png",0,0 M,0,61808,,300,169 C,0,61808,,255,255,255 F,1,61808,63808,0.9,0 S,1,61808,63808,0.25,0.5
Sprite,Background,Centre,"sb\ring.png",0,0 M,0,61958,,339,106 C,0,61958,,255,255,255 F,1,61958,63958,0.9,0 S,1,61958,63958,0.25,0.5
Sprite,Background,Centre,"sb\ring.png",0,0 M,0,62108,,534,125 C,0,62108,,255,255,255 F,1,62108,64408,0.9,0 S,1,62108,64408,0.25,0.5
Sprite,Background,Centre,"sb\ring.png",0,0 M,0,62558,,417,423 C,0,62558,,255,255,255 F,1,62558,64558,0.9,0 S,1,62558,64558,0.25,0.5
Sprite,Background,Centre,"sb\ring.png",0,0 M,0,62708,,253,440 C,0,62708,,255,255,255 F,1,62708,64708,0.9,0 S,1,62708,64708,0.25,0.5
Sprite,Background,Centre,"sb\ring.png",0,0 M,0,62858,,256,353 C,0,62858,,255,255,255 F,1,62858,64858,0.9,0 S,1,62858,64858,0.25,0.5
Sprite,Background,Centre,"sb\ring.png",0,0 M,0,63008,,396,338 C,0,63008,,255,255,255 F,1,63008,65008,0.9,0 S,1,63008,65008,0.25,0.5
Sprite,Background,Centre,"sb\ring.png",0,0 M,0,63158,,214,280 C,0,63158,,255,255,255 F,1,63158,65158,0.9,0 S,1,63158,65158,0.25,0.5
Sprite,Background,Centre,"sb\ring.png",0,0 M,0,63308,,421,258 C,0,63308,,255,255,255 F,1,63308,65308,0.9,0 S,1,63308,65308,0.25,0.5
Sprite,Background,Centre,"sb\ring.png",0,0 M,0,63458,,280,141 C,0,63458,,255,255,255 F,1,63458,65758,0.9,0 S,1,63458,65758,0.25,0.5
Sprite,Background,Centre,"sb\ring.png",0,0 M,0,63908,,287,260 C,0,63908,,255,255,255 F,1,63908,65908,0.9,0 S,1,63908,65908,0.25,0.5
Sprite,Background,Centre,"sb\ring.png",0,0 M,0,64058,,115,204 C,0,64058,,255,255,255 F,1,64058,66208,0.9,0 S,1,64058,66208,0.25,0.5
Sprite,Background,Centre,"sb\ring.png",0,0 M,0,64358,,362,341 C,0,64358,,255,255,255 F,1,64358,66358,0.9,0 S,1,64358,66358,0.25,0.5
Sprite,Background,Centre,"sb\ring.png",0,0 M,0,64508,,528,375 C,0,64508,,255,255,255 F,1,64508,66508,0.9,0 S,1,64508,66508,0.25,0.5
Sprite,Background,Centre,"sb\ring.png",0,0 M,0,64583,,530,370 C,0,64583,,255,255,255 F,1,64583,66583,0.9,0 S,1,64583,66583,0.25,0.5
Sprite,Background,Centre,"sb\ring.png",0,0 M,0,64658,,532,365 C,0,64658,,255,255,255 F,1,64658,66808,0.9,0 S,1,64658,66808,0.25,0.5
Sprite,Background,Centre,"sb\ring.png",0,0 M,0,64958,,308,403 C,0,64958,,255,255,255 F,1,64958,66958,0.9,0 S,1,64958,66958,0.25,0.5
Sprite,Background,Centre,"sb\ring.png",0,0 M,0,65108,,336,99 C,0,65108,,255,255,255 F,1,65108,67333,0.9,0 S,1,65108,67333,0.25,0.5
Sprite,Background,Centre,"sb\ring.png",0,0 M,0,65408,,325,249 C,0,65408,,255,255,255 F,1,65408,67408,0.9,0 S,1,65408,67408,0.25,0.5
Sprite,Background,Centre,"sb\ring.png",0,0 M,0,65558,,249,202 C,0,65558,,255,255,255 F,1,65558,67558,0.9,0 S,1,65558,67558,0.25,0.5
Sprite,Background,Centre,"sb\ring.png",0,0 M,0,65708,,400,191 C,0,65708,,255,255,255 F,1,65708,67708,0.9,0 S,1,65708,67708,0.25,0.5
Sprite,Background,Centre,"sb\ring.png",0,0 M,0,65858,,116,359 C,0,65858,,255,255,255 F,1,65858,67858,0.9,0 S,1,65858,67858,0.25,0.5
Sprite,Background,Centre,"sb\ring.png",0,0 M,0,66058,,88,130 C,0,66058,,255,255,255 F,1,66058,68058,0.9,0 S,1,66058,68058,0.25,0.5
Sprite,Background,Centre,"sb\ring.png",0,0 M,0,66258,,320,248 C,0,66258,,255,255,255 F,1,66258,68258,0.9,0 S,1,66258,68258,0.25,0.5
Sprite,Background,Centre,"sb\ring.png",0,0 M,0,66458,,552,130 C,0,66458,,255,255,255 F,1,66458,68458,0.9,0 S,1,66458,68458,0.25,0.5
Sprite,Background,Centre,"sb\ring.png",0,0 M,0,66658,,524,359 C,0,66658,,255,255,255 F,1,66658,68658,0.9,0 S,1,66658,68658,0.25,0.5
Sprite,Background,Centre,"sb\ring.png",0,0 M,0,66858,,209,188 C,0,66858,,255,255,255 F,1,66858,68858,0.9,0 S,1,66858,68858,0.25,0.5
Sprite,Background,Centre,"sb\ring.png",0,0 M,0,67058,,431,188 C,0,67058,,255,255,255 F,1,67058,69058,0.9,0 S,1,67058,69058,0.25,0.5
Sprite,Background,Centre,"sb\ring.png",0,0 M,0,67208,,380,317 C,0,67208,,255,255,255 F,1,67208,69208,0.9,0 S,1,67208,69208,0.25,0.5
Sprite,Background,Centre,"sb\ring.png",0,0 M,0,67358,,260,317 C,0,67358,,255,255,255 F,1,67358,69358,0.9,0 S,1,67358,69358,0.25,0.5
Sprite,Background,Centre,"sb\ring.png",0,0 M,0,67508,,268,244 C,0,67508,,255,255,255 F,1,67508,69508,0.9,0 S,1,67508,69508,0.25,0.5
Sprite,Background,Centre,"sb\ring.png",0,0 M,0,67583,,268,244 C,0,67583,,255,255,255 F,1,67583,69583,0.9,0 S,1,67583,69583,0.25,0.5
Sprite,Background,Centre,"sb\ring.png",0,0 M,0,67658,,268,244 C,0,67658,,255,255,255 F,1,67658,69658,0.9,0 S,1,67658,69658,0.25,0.5
Sprite,Background,Centre,"sb\ring.png",0,0 M,0,67808,,428,379 C,0,67808,,255,255,255 F,1,67808,69808,0.9,0 S,1,67808,69808,0.25,0.5
Sprite,Background,Centre,"sb\ring.png",0,0 M,0,67958,,212,379 C,0,67958,,255,255,255 F,1,67958,69958,0.9,0 S,1,67958,69958,0.25,0.5
Sprite,Background,Centre,"sb\ring.png",0,0 M,0,68108,,372,244 C,0,68108,,255,255,255 F,1,68108,70108,0.9,0 S,1,68108,70108,0.25,0.5
Sprite,Background,Centre,"sb\ring.png",0,0 M,0,68183,,320,248 C,0,68183,,255,255,255 F,1,68183,72508,0.9,0 S,1,68183,72508,0.25,0.5
Sprite,Background,Centre,"sb\ring.png",0,0 M,0,121058,,121,146 C,0,121058,,255,255,255 F,1,121058,123358,0.9,0 S,1,121058,123358,0.25,0.5
Sprite,Background,Centre,"sb\ring.png",0,0 M,0,121508,,434,163 C,0,121508,,255,255,255 F,1,121508,123733,0.9,0 S,1,121508,123733,0.25,0.5
Sprite,Background,Centre,"sb\ring.png",0,0 M,0,121808,,217,129 C,0,121808,,255,255,255 F,1,121808,123958,0.9,0 S,1,121808,123958,0.25,0.5
Sprite,Background,Centre,"sb\ring.png",0,0 M,0,122108,,213,369 C,0,122108,,255,255,255 F,1,122108,124108,0.9,0 S,1,122108,124108,0.25,0.5
Sprite,Background,Centre,"sb\ring.png",0,0 M,0,122183,,217,367 C,0,122183,,255,255,255 F,1,122183,124183,0.9,0 S,1,122183,124183,0.25,0.5
Sprite,Background,Centre,"sb\ring.png",0,0 M,0,122258,,221,365 C,0,122258,,255,255,255 F,1,122258,124408,0.9,0 S,1,122258,124408,0.25,0.5
Sprite,Background,Centre,"sb\ring.png",0,0 M,0,122483,,285,315 C,0,122483,,255,255,255 F,1,122483,124483,0.9,0 S,1,122483,124483,0.25,0.5
Sprite,Background,Centre,"sb\ring.png",0,0 M,0,122558,,293,311 C,0,122558,,255,255,255 F,1,122558,124708,0.9,0 S,1,122558,124708,0.25,0.5
Sprite,Background,Centre,"sb\ring.png",0,0 M,0,122783,,311,407 C,0,122783,,255,255,255 F,1,122783,124783,0.9,0 S,1,122783,124783,0.25,0.5
Sprite,Background,Centre,"sb\ring.png",0,0 M,0,122858,,307,416 C,0,122858,,255,255,255 F,1,122858,124933,0.9,0 S,1,122858,124933,0.25,0.5
Sprite,Background,Centre,"sb\ring.png",0,0 M,0,123008,,427,411 C,0,123008,,255,255,255 F,1,123008,125083,0.9,0 S,1,123008,125083,0.25,0.5
Sprite,Background,Centre,"sb\ring.png",0,0 M,0,123158,,420,199 C,0,123158,,255,255,255 F,1,123158,125233,0.9,0 S,1,123158,125233,0.25,0.5
Sprite,Background,Centre,"sb\ring.png",0,0 M,0,123308,,476,407 C,0,123308,,255,255,255 F,1,123308,125383,0.9,0 S,1,123308,125383,0.25,0.5
Sprite,Background,Centre,"sb\ring.png",0,0 M,0,123458,,343,279 C,0,123458,,255,255,255 F,1,123458,125683,0.9,0 S,1,123458,125683,0.25,0.5
Sprite,Background,Centre,"sb\ring.png",0,0 M,0,123758,,525,356 C,0,123758,,255,255,255 F,1,123758,125908,0.9,0 S,1,123758,125908,0.25,0.5
Sprite,Background,Centre,"sb\ring.png",0,0 M,0,124058,,539,143 C,0,124058,,255,255,255 F,1,124058,126058,0.9,0 S,1,124058,126058,0.25,0.5
Sprite,Background,Centre,"sb\ring.png",0,0 M,0,124208,,237,242 C,0,124208,,255,255,255 F,1,124208,126508,0.9,0 S,1,124208,126508,0.25,0.5
Sprite,Background,Centre,"sb\ring.png",0,0 M,0,124658,,195,328 C,0,124658,,255,255,255 F,1,124658,126658,0.9,0 S,1,124658,126658,0.25,0.5
Sprite,Background,Centre,"sb\ring.png",0,0 M,0,124808,,320,268 C,0,124808,,255,255,255 F,1,124808,126808,0.9,0 S,1,124808,126808,0.25,0.5
Sprite,Background,Centre,"sb\ring.png",0,0 M,0,124958,,495,351 C,0,124958,,255,255,255 F,1,124958,126958,0.9,0 S,1,124958,126958,0.25,0.5
Sprite,Background,Centre,"sb\ring.png",0,0 M,0,125108,,320,236 C,0,125108,,255,255,255 F,1,125108,127108,0.9,0 S,1,125108,127108,0.25,0.5
Sprite,Background,Centre,"sb\ring.png",0,0 M,0,125258,,101,367 C,0,125258,,255,255,255 F,1,125258,127258,0.9,0 S,1,125258,127258,0.25,0.5
Sprite,Background,Centre,"sb\ring.png",0,0 M,0,125408,,320,168 C,0,125408,,255,255,255 F,1,125408,127408,0.9,0 S,1,125408,127408,0.25,0.5
Sprite,Background,Centre,"sb\ring.png",0,0 M,0,125558,,320,431 C,0,125558,,255,255,255 F,1,125558,127858,0.9,0 S,1,125558,127858,0.25,0.5
Sprite,Background,Centre,"sb\ring.png",0,0 M,0,126158,,471,252 C,0,126158,,255,255,255 F,1,126158,128158,0.9,0 S,1,126158,128158,0.25,0.5
Sprite,Background,Centre,"sb\ring.png",0,0 M,0,126308,,471,252 C,0,126308,,255,255,255 F,1,126308,128533,0.9,0 S,1,126308,128533,0.25,0.5
Sprite,Background,Centre,"sb\ring.png",0,0 M,0,126608,,308,269 C,0,126608,,255,255,255 F,1,126608,128608,0.9,0 S,1,126608,128608,0.25,0.5
Sprite,Background,Centre,"sb\ring.png",0,0 M,0,126758,,116,119 C,0,126758,,255,255,255 F,1,126758,128758,0.9,0 S,1,126758,128758,0.25,0.5
Sprite,Background,Centre,"sb\ring.png",0,0 M,0,126908,,116,119 C,0,126908,,255,255,255 F,1,126908,129133,0.9,0 S,1,126908,129133,0.25,0.5
Sprite,Background,Centre,"sb\ring.png",0,0 M,0,127208,,176,312 C,0,127208,,255,255,255 F,1,127208,129358,0.9,0 S,1,127208,129358,0.25,0.5
Sprite,Background,Centre,"sb\ring.png",0,0 M,0,127508,,98,106 C,0,127508,,255,255,255 F,1,127508,129733,0.9,0 S,1,127508,129733,0.25,0.5
Sprite,Background,Centre,"sb\ring.png",0,0 M,0,127808,,236,83 C,0,127808,,255,255,255 F,1,127808,129808,0.9,0 S,1,127808,129808,0.25,0.5
Sprite,Background,Centre,"sb\ring.png",0,0 M,0,127958,,317,95 C,0,127958,,255,255,255 F,1,127958,129958,0.9,0 S,1,127958,129958,0.25,0.5
Sprite,Background,Centre,"sb\ring.png",0,0 M,0,128108,,398,107 C,0,128108,,255,255,255 F,1,128108,130108,0.9,0 S,1,128108,130108,0.25,0.5
Sprite,Background,Centre,"sb\ring.png",0,0 M,0,128258,,370,174 C,0,128258,,255,255,255 F,1,128258,130258,0.9,0 S,1,128258,130258,0.25,0.5
Sprite,Background,Centre,"sb\ring.png",0,0 M,0,128408,,408,334 C,0,128408,,255,255,255 F,1,128408,130408,0.9,0 S,1,128408,130408,0.25,0.5
Sprite,Background,Centre,"sb\ring.png",0,0 M,0,128558,,370,174 C,0,128558,,255,255,255 F,1,128558,130558,0.9,0 S,1,128558,130558,0.25,0.5
Sprite,Background,Centre,"sb\ring.png",0,0 M,0,128708,,408,334 C,0,128708,,255,255,255 F,1,128708,130708,0.9,0 S,1,128708,130708,0.25,0.5
Sprite,Background,Centre,"sb\ring.png",0,0 M,0,128783,,408,334 C,0,128783,,255,255,255 F,1,128783,130783,0.9,0 S,1,128783,130783,0.25,0.5
Sprite,Background,Centre,"sb\ring.png",0,0 M,0,128858,,408,334 C,0,128858,,255,255,255 F,1,128858,130858,0.9,0 S,1,128858,130858,0.25,0.5
Sprite,Background,Centre,"sb\ring.png",0,0 M,0,129008,,260,157 C,0,129008,,255,255,255 F,1,129008,131008,0.9,0 S,1,129008,131008,0.25,0.5
Sprite,Background,Centre,"sb\ring.png",0,0 M,0,129158,,206,366 C,0,129158,,255,255,255 F,1,129158,131158,0.9,0 S,1,129158,131158,0.25,0.5
Sprite,Background,Centre,"sb\ring.png",0,0 M,0,129308,,313,226 C,0,129308,,255,255,255 F,1,129308,131308,0.9,0 S,1,129308,131308,0.25,0.5
Sprite,Background,Centre,"sb\ring.png",0,0 M,0,129458,,320,300 C,0,129458,,255,255,255 F,1,129458,131458,0.9,0 S,1,129458,131458,0.25,0.5
Sprite,Background,Centre,"sb\ring.png",0,0 M,0,129608,,327,374 C,0,129608,,255,255,255 F,1,129608,131608,0.9,0 S,1,129608,131608,0.25,0.5
Sprite,Background,Centre,"sb\ring.png",0,0 M,0,129758,,398,440 C,0,129758,,255,255,255 F,1,129758,131983,0.9,0 S,1,129758,131983,0.25,0.5
Sprite,Background,Centre,"sb\ring.png",0,0 M,0,130058,,261,411 C,0,130058,,255,255,255 F,1,130058,132208,0.9,0 S,1,130058,132208,0.25,0.5
Sprite,Background,Centre,"sb\ring.png",0,0 M,0,130358,,497,109 C,0,130358,,255,255,255 F,1,130358,132358,0.9,0 S,1,130358,132358,0.25,0.5
Sprite,Background,Centre,"sb\ring.png",0,0 M,0,130508,,497,109 C,0,130508,,255,255,255 F,1,130508,132508,0.9,0 S,1,130508,132508,0.25,0.5
Sprite,Background,Centre,"sb\ring.png",0,0 M,0,130658,,497,109 C,0,130658,,255,255,255 F,1,130658,132883,0.9,0 S,1,130658,132883,0.25,0.5
Sprite,Background,Centre,"sb\ring.png",0,0 M,0,130958,,341,382 C,0,130958,,255,255,255 F,1,130958,133108,0.9,0 S,1,130958,133108,0.25,0.5
Sprite,Background,Centre,"sb\ring.png",0,0 M,0,131183,,335,280 C,0,131183,,255,255,255 F,1,131183,133183,0.9,0 S,1,131183,133183,0.25,0.5
Sprite,Background,Centre,"sb\ring.png",0,0 M,0,131258,,343,274 C,0,131258,,255,255,255 F,1,131258,133258,0.9,0 S,1,131258,133258,0.25,0.5
Sprite,Background,Centre,"sb\ring.png",0,0 M,0,131408,,413,235 C,0,131408,,255,255,255 F,1,131408,133408,0.9,0 S,1,131408,133408,0.25,0.5
Sprite,Background,Centre,"sb\ring.png",0,0 M,0,131558,,339,189 C,0,131558,,255,255,255 F,1,131558,133558,0.9,0 S,1,131558,133558,0.25,0.5
Sprite,Background,Centre,"sb\ring.png",0,0 M,0,131708,,413,235 C,0,131708,,255,255,255 F,1,131708,133858,0.9,0 S,1,131708,133858,0.25,0.5
Sprite,Background,Centre,"sb\ring.png",0,0 M,0,132008,,221,380 C,0,132008,,255,255,255 F,1,132008,134008,0.9,0 S,1,132008,134008,0.25,0.5
Sprite,Background,Centre,"sb\ring.png",0,0 M,0,132158,,406,312 C,0,132158,,255,255,255 F,1,132158,134158,0.9,0 S,1,132158,134158,0.25,0.5
Sprite,Background,Centre,"sb\ring.png",0,0 M,0,132308,,257,196 C,0,132308,,255,255,255 F,1,132308,134308,0.9,0 S,1,132308,134308,0.25,0.5
Sprite,Background,Centre,"sb\ring.png",0,0 M,0,132458,,105,383 C,0,132458,,255,255,255 F,1,132458,134608,0.9,0 S,1,132458,134608,0.25,0.5
Sprite,Background,Centre,"sb\ring.png",0,0 M,0,132758,,535,383 C,0,132758,,255,255,255 F,1,132758,134908,0.9,0 S,1,132758,134908,0.25,0.5
Sprite,Background,Centre,"sb\ring.png",0,0 M,0,133058,,225,113 C,0,133058,,255,255,255 F,1,133058,135208,0.9,0 S,1,133058,135208,0.25,0.5
Sprite,Background,Centre,"sb\ring.png",0,0 M,0,133283,,254,201 C,0,133283,,255,255,255 F,1,133283,135283,0.9,0 S,1,133283,135283,0.25,0.5
Sprite,Background,Centre,"sb\ring.png",0,0 M,0,133358,,248,209 C,0,133358,,255,255,255 F,1,133358,135658,0.9,0 S,1,133358,135658,0.25,0.5
Sprite,Background,Centre,"sb\ring.png",0,0 M,0,133808,,451,103 C,0,133808,,255,255,255 F,1,133808,135808,0.9,0 S,1,133808,135808,0.25,0.5
Sprite,Background,Centre,"sb\ring.png",0,0 M,0,133958,,410,332 C,0,133958,,255,255,255 F,1,133958,135958,0.9,0 S,1,133958,135958,0.25,0.5
Sprite,Background,Centre,"sb\ring.png",0,0 M,0,134108,,451,103 C,0,134108,,255,255,255 F,1,134108,136108,0.9,0 S,1,134108,136108,0.25,0.5
Sprite,Background,Centre,"sb\ring.png",0,0 M,0,134258,,545,225 C,0,134258,,255,255,255 F,1,134258,136408,0.9,0 S,1,134258,136408,0.25,0.5
Sprite,Background,Centre,"sb\ring.png",0,0 M,0,134558,,486,286 C,0,134558,,255,255,255 F,1,134558,136558,0.9,0 S,1,134558,136558,0.25,0.5
Sprite,Background,Centre,"sb\ring.png",0,0 M,0,134708,,410,332 C,0,134708,,255,255,255 F,1,134708,136933,0.9,0 S,1,134708,136933,0.25,0.5
Sprite,Background,Centre,"sb\ring.png",0,0 M,0,135008,,544,353 C,0,135008,,255,255,255 F,1,135008,137008,0.9,0 S,1,135008,137008,0.25,0.5
Sprite,Background,Centre,"sb\ring.png",0,0 M,0,135158,,317,436 C,0,135158,,255,255,255 F,1,135158,137158,0.9,0 S,1,135158,137158,0.25,0.5
Sprite,Background,Centre,"sb\ring.png",0,0 M,0,135308,,486,286 C,0,135308,,255,255,255 F,1,135308,137308,0.9,0 S,1,135308,137308,0.25,0.5
Sprite,Background,Centre,"sb\ring.png",0,0 M,0,135458,,259,369 C,0,135458,,255,255,255 F,1,135458,137458,0.9,0 S,1,135458,137458,0.25,0.5
Sprite,Background,Centre,"sb\ring.png",0,0 M,0,135608,,338,358 C,0,135608,,255,255,255 F,1,135608,137608,0.9,0 S,1,135608,137608,0.25,0.5
Sprite,Background,Centre,"sb\ring.png",0,0 M,0,135758,,417,347 C,0,135758,,255,255,255 F,1,135758,137758,0.9,0 S,1,135758,137758,0.25,0.5
Sprite,Background,Centre,"sb\ring.png",0,0 M,0,135908,,471,398 C,0,135908,,255,255,255 F,1,135908,137908,0.9,0 S,1,135908,137908,0.25,0.5
Sprite,Background,Centre,"sb\ring.png",0,0 M,0,136058,,471,398 C,0,136058,,255,255,255 F,1,136058,138258,0.9,0 S,1,136058,138258,0.25,0.5
Sprite,Background,Centre,"sb\ring.png",0,0 M,0,136508,,526,161 C,0,136508,,255,255,255 F,1,136508,138508,0.9,0 S,1,136508,138508,0.25,0.5
Sprite,Background,Centre,"sb\ring.png",0,0 M,0,137108,,114,161 C,0,137108,,255,255,255 F,1,137108,139183,0.9,0 S,1,137108,139183,0.25,0.5
Sprite,Background,Centre,"sb\ring.png",0,0 M,0,137408,,514,416 C,0,137408,,255,255,255 F,1,137408,139483,0.9,0 S,1,137408,139483,0.25,0.5
Sprite,Background,Centre,"sb\ring.png",0,0 M,0,137708,,126,416 C,0,137708,,255,255,255 F,1,137708,139783,0.9,0 S,1,137708,139783,0.25,0.5
Sprite,Background,Centre,"sb\ring.png",0,0 M,0,137858,,231,367 C,0,137858,,255,255,255 F,1,137858,140008,0.9,0 S,1,137858,140008,0.25,0.5
Sprite,Background,Centre,"sb\ring.png",0,0 M,0,138158,,190,179 C,0,138158,,255,255,255 F,1,138158,140158,0.9,0 S,1,138158,140158,0.25,0.5
Sprite,Background,Centre,"sb\ring.png",0,0 M,0,138308,,450,179 C,0,138308,,255,255,255 F,1,138308,140308,0.9,0 S,1,138308,140308,0.25,0.5
Sprite,Background,Centre,"sb\ring.png",0,0 M,0,138383,,450,179 C,0,138383,,255,255,255 F,1,138383,140383,0.9,0 S,1,138383,140383,0.25,0.5
Sprite,Background,Centre,"sb\ring.png",0,0 M,0,138458,,450,179 C,0,138458,,255,255,255 F,1,138458,140458,0.9,0 S,1,138458,140458,0.25,0.5
Sprite,Background,Centre,"sb\ring.png",0,0 M,0,138608,,409,367 C,0,138608,,255,255,255 F,1,138608,140608,0.9,0 S,1,138608,140608,0.25,0.5
Sprite,Background,Centre,"sb\ring.png",0,0 M,0,138758,,365,304 C,0,138758,,255,255,255 F,1,138758,140758,0.9,0 S,1,138758,140758,0.25,0.5
Sprite,Background,Centre,"sb\ring.png",0,0 M,0,138908,,441,297 C,0,138908,,255,255,255 F,1,138908,141058,0.9,0 S,1,138908,141058,0.25,0.5
Sprite,Background,Centre,"sb\ring.png",0,0 M,0,139208,,247,408 C,0,139208,,255,255,255 F,1,139208,141208,0.9,0 S,1,139208,141208,0.25,0.5
Sprite,Background,Centre,"sb\ring.png",0,0 M,0,139358,,435,288 C,0,139358,,255,255,255 F,1,139358,141358,0.9,0 S,1,139358,141358,0.25,0.5
Sprite,Background,Centre,"sb\ring.png",0,0 M,0,139508,,205,146 C,0,139508,,255,255,255 F,1,139508,141733,0.9,0 S,1,139508,141733,0.25,0.5
Sprite,Background,Centre,"sb\ring.png",0,0 M,0,139808,,189,276 C,0,139808,,255,255,255 F,1,139808,141808,0.9,0 S,1,139808,141808,0.25,0.5
Sprite,Background,Centre,"sb\ring.png",0,0 M,0,139958,,247,408 C,0,139958,,255,255,255 F,1,139958,142108,0.9,0 S,1,139958,142108,0.25,0.5
Sprite,Background,Centre,"sb\ring.png",0,0 M,0,140258,,380,257 C,0,140258,,255,255,255 F,1,140258,142258,0.9,0 S,1,140258,142258,0.25,0.5
Sprite,Background,Centre,"sb\ring.png",0,0 M,0,140408,,358,344 C,0,140408,,255,255,255 F,1,140408,142408,0.9,0 S,1,140408,142408,0.25,0.5
Sprite,Background,Centre,"sb\ring.png",0,0 M,0,140558,,458,378 C,0,140558,,255,255,255 F,1,140558,142558,0.9,0 S,1,140558,142558,0.25,0.5
Sprite,Background,Centre,"sb\ring.png",0,0 M,0,140708,,456,287 C,0,140708,,255,255,255 F,1,140708,142708,0.9,0 S,1,140708,142708,0.25,0.5
Sprite,Background,Centre,"sb\ring.png",0,0 M,0,140858,,549,230 C,0,140858,,255,255,255 F,1,140858,142858,0.9,0 S,1,140858,142858,0.25,0.5
Sprite,Background,Centre,"sb\ring.png",0,0 M,0,141008,,500,109 C,0,141008,,255,255,255 F,1,141008,143008,0.9,0 S,1,141008,143008,0.25,0.5
Sprite,Background,Centre,"sb\ring.png",0,0 M,0,141158,,386,170 C,0,141158,,255,255,255 F,1,141158,143158,0.9,0 S,1,141158,143158,0.25,0.5
Sprite,Background,Centre,"sb\ring.png",0,0 M,0,141308,,280,142 C,0,141308,,255,255,255 F,1,141308,143308,0.9,0 S,1,141308,143308,0.25,0.5
Sprite,Background,Centre,"sb\ring.png",0,0 M,0,141458,,174,114 C,0,141458,,255,255,255 F,1,141458,143458,0.9,0 S,1,141458,143458,0.25,0.5
Sprite,Background,Centre,"sb\ring.png",0,0 M,0,141608,,198,221 C,0,141608,,255,255,255 F,1,141608,143608,0.9,0 S,1,141608,143608,0.25,0.5
Sprite,Background,Centre,"sb\ring.png",0,0 M,0,141758,,221,328 C,0,141758,,255,255,255 F,1,141758,143758,0.9,0 S,1,141758,143758,0.25,0.5
Sprite,Background,Centre,"sb\ring.png",0,0 M,0,141908,,153,387 C,0,141908,,255,255,255 F,1,141908,144208,0.9,0 S,1,141908,144208,0.25,0.5
Sprite,Background,Centre,"sb\ring.png",0,0 M,0,142358,,358,401 C,0,142358,,255,255,255 F,1,142358,144583,0.9,0 S,1,142358,144583,0.25,0.5
Sprite,Background,Centre,"sb\ring.png",0,0 M,0,142658,,436,347 C,0,142658,,255,255,255 F,1,142658,144808,0.9,0 S,1,142658,144808,0.25,0.5
Sprite,Background,Centre,"sb\ring.png",0,0 M,0,142958,,576,184 C,0,142958,,255,255,255 F,1,142958,144958,0.9,0 S,1,142958,144958,0.25,0.5
Sprite,Background,Centre,"sb\ring.png",0,0 M,0,143108,,576,184 C,0,143108,,255,255,255 F,1,143108,145333,0.9,0 S,1,143108,145333,0.25,0.5
Sprite,Background,Centre,"sb\ring.png",0,0 M,0,143408,,426,152 C,0,143408,,255,255,255 F,1,143408,145408,0.9,0 S,1,143408,145408,0.25,0.5
Sprite,Background,Centre,"sb\ring.png",0,0 M,0,143558,,255,165 C,0,143558,,255,255,255 F,1,143558,145708,0.9,0 S,1,143558,145708,0.25,0.5
Sprite,Background,Centre,"sb\ring.png",0,0 M,0,143858,,186,331 C,0,143858,,255,255,255 F,1,143858,145858,0.9,0 S,1,143858,145858,0.25,0.5
Sprite,Background,Centre,"sb\ring.png",0,0 M,0,144008,,357,318 C,0,144008,,255,255,255 F,1,144008,146158,0.9,0 S,1,144008,146158,0.25,0.5
Sprite,Background,Centre,"sb\ring.png",0,0 M,0,144308,,367,327 C,0,144308,,255,255,255 F,1,144308,146308,0.9,0 S,1,144308,146308,0.25,0.5
Sprite,Background,Centre,"sb\ring.png",0,0 M,0,144458,,353,392 C,0,144458,,255,255,255 F,1,144458,146458,0.9,0 S,1,144458,146458,0.25,0.5
Sprite,Background,Centre,"sb\ring.png",0,0 M,0,144608,,437,327 C,0,144608,,255,255,255 F,1,144608,146608,0.9,0 S,1,144608,146608,0.25,0.5
Sprite,Background,Centre,"sb\ring.png",0,0 M,0,144758,,449,410 C,0,144758,,255,255,255 F,1,144758,146758,0.9,0 S,1,144758,146758,0.25,0.5
Sprite,Background,Centre,"sb\ring.png",0,0 M,0,144908,,437,327 C,0,144908,,255,255,255 F,1,144908,146908,0.9,0 S,1,144908,146908,0.25,0.5
Sprite,Background,Centre,"sb\ring.png",0,0 M,0,145058,,535,283 C,0,145058,,255,255,255 F,1,145058,147058,0.9,0 S,1,145058,147058,0.25,0.5
Sprite,Background,Centre,"sb\ring.png",0,0 M,0,145208,,466,223 C,0,145208,,255,255,255 F,1,145208,147208,0.9,0 S,1,145208,147208,0.25,0.5
Sprite,Background,Centre,"sb\ring.png",0,0 M,0,145358,,564,179 C,0,145358,,255,255,255 F,1,145358,147358,0.9,0 S,1,145358,147358,0.25,0.5
Sprite,Background,Centre,"sb\ring.png",0,0 M,0,145508,,546,99 C,0,145508,,255,255,255 F,1,145508,147508,0.9,0 S,1,145508,147508,0.25,0.5
Sprite,Background,Centre,"sb\ring.png",0,0 M,0,145658,,404,80 C,0,145658,,255,255,255 F,1,145658,147658,0.9,0 S,1,145658,147658,0.25,0.5
Sprite,Background,Centre,"sb\ring.png",0,0 M,0,145808,,466,223 C,0,145808,,255,255,255 F,1,145808,147808,0.9,0 S,1,145808,147808,0.25,0.5
Sprite,Background,Centre,"sb\ring.png",0,0 M,0,145958,,329,301 C,0,145958,,255,255,255 F,1,145958,147958,0.9,0 S,1,145958,147958,0.25,0.5
Sprite,Background,Centre,"sb\ring.png",0,0 M,0,146108,,218,97 C,0,146108,,255,255,255 F,1,146108,148108,0.9,0 S,1,146108,148108,0.25,0.5
Sprite,Background,Centre,"sb\ring.png",0,0 M,0,146258,,352,186 C,0,146258,,255,255,255 F,1,146258,148258,0.9,0 S,1,146258,148258,0.25,0.5
Sprite,Background,Centre,"sb\ring.png",0,0 M,0,146408,,283,226 C,0,146408,,255,255,255 F,1,146408,148408,0.9,0 S,1,146408,148408,0.25,0.5
Sprite,Background,Centre,"sb\ring.png",0,0 M,0,146558,,208,197 C,0,146558,,255,255,255 F,1,146558,148558,0.9,0 S,1,146558,148558,0.25,0.5
Sprite,Background,Centre,"sb\ring.png",0,0 M,0,146633,,213,188 C,0,146633,,255,255,255 F,1,146633,148633,0.9,0 S,1,146633,148633,0.25,0.5
Sprite,Background,Centre,"sb\ring.png",0,0 M,0,146708,,218,179 C,0,146708,,255,255,255 F,1,146708,148708,0.9,0 S,1,146708,148708,0.25,0.5
Sprite,Background,Centre,"sb\ring.png",0,0 M,0,147008,,96,226 C,0,147008,,255,255,255 F,1,147008,149008,0.9,0 S,1,147008,149008,0.25,0.5
Sprite,Background,Centre,"sb\ring.png",0,0 M,0,147158,,429,170 C,0,147158,,255,255,255 F,1,147158,149158,0.9,0 S,1,147158,149158,0.25,0.5
Sprite,Background,Centre,"sb\ring.png",0,0 M,0,147308,,96,226 C,0,147308,,255,255,255 F,1,147308,149308,0.9,0 S,1,147308,149308,0.25,0.5
Sprite,Background,Centre,"sb\ring.png",0,0 M,0,147458,,485,257 C,0,147458,,255,255,255 F,1,147458,149608,0.9,0 S,1,147458,149608,0.25,0.5
Sprite,Background,Centre,"sb\ring.png",0,0 M,0,147683,,384,235 C,0,147683,,255,255,255 F,1,147683,149683,0.9,0 S,1,147683,149683,0.25,0.5
Sprite,Background,Centre,"sb\ring.png",0,0 M,0,147758,,373,224 C,0,147758,,255,255,255 F,1,147758,150058,0.9,0 S,1,147758,150058,0.25,0.5
Sprite,Background,Centre,"sb\ring.png",0,0 M,0,148208,,74,119 C,0,148208,,255,255,255 F,1,148208,150208,0.9,0 S,1,148208,150208,0.25,0.5
Sprite,Background,Centre,"sb\ring.png",0,0 M,0,148358,,115,56 C,0,148358,,255,255,255 F,1,148358,150508,0.9,0 S,1,148358,150508,0.25,0.5
Sprite,Background,Centre,"sb\ring.png",0,0 M,0,148658,,166,380 C,0,148658,,255,255,255 F,1,148658,150883,0.9,0 S,1,148658,150883,0.25,0.5
Sprite,Background,Centre,"sb\ring.png",0,0 M,0,148958,,173,214 C,0,148958,,255,255,255 F,1,148958,150958,0.9,0 S,1,148958,150958,0.25,0.5
Sprite,Background,Centre,"sb\ring.png",0,0 M,0,149108,,372,261 C,0,149108,,255,255,255 F,1,149108,151108,0.9,0 S,1,149108,151108,0.25,0.5
Sprite,Background,Centre,"sb\ring.png",0,0 M,0,149258,,274,226 C,0,149258,,255,255,255 F,1,149258,151258,0.9,0 S,1,149258,151258,0.25,0.5
Sprite,Background,Centre,"sb\ring.png",0,0 M,0,149408,,387,192 C,0,149408,,255,255,255 F,1,149408,151408,0.9,0 S,1,149408,151408,0.25,0.5
Sprite,Background,Centre,"sb\ring.png",0,0 M,0,149558,,247,291 C,0,149558,,255,255,255 F,1,149558,151558,0.9,0 S,1,149558,151558,0.25,0.5
Sprite,Background,Centre,"sb\ring.png",0,0 M,0,149708,,455,310 C,0,149708,,255,255,255 F,1,149708,151708,0.9,0 S,1,149708,151708,0.25,0.5
Sprite,Background,Centre,"sb\ring.png",0,0 M,0,149783,,455,310 C,0,149783,,255,255,255 F,1,149783,151783,0.9,0 S,1,149783,151783,0.25,0.5
Sprite,Background,Centre,"sb\ring.png",0,0 M,0,149858,,455,310 C,0,149858,,255,255,255 F,1,149858,151858,0.9,0 S,1,149858,151858,0.25,0.5
Sprite,Background,Centre,"sb\ring.png",0,0 M,0,150008,,256,383 C,0,150008,,255,255,255 F,1,150008,152008,0.9,0 S,1,150008,152008,0.25,0.5
Sprite,Background,Centre,"sb\ring.png",0,0 M,0,150158,,183,184 C,0,150158,,255,255,255 F,1,150158,152158,0.9,0 S,1,150158,152158,0.25,0.5
Sprite,Background,Centre,"sb\ring.png",0,0 M,0,150308,,382,111 C,0,150308,,255,255,255 F,1,150308,152308,0.9,0 S,1,150308,152308,0.25,0.5
Sprite,Background,Centre,"sb\ring.png",0,0 M,0,150458,,489,369 C,0,150458,,255,255,255 F,1,150458,152458,0.9,0 S,1,150458,152458,0.25,0.5
Sprite,Background,Centre,"sb\ring.png",0,0 M,0,150608,,197,417 C,0,150608,,255,255,255 F,1,150608,152608,0.9,0 S,1,150608,152608,0.25,0.5
Sprite,Background,Centre,"sb\ring.png",0,0 M,0,150758,,149,125 C,0,150758,,255,255,255 F,1,150758,152758,0.9,0 S,1,150758,152758,0.25,0.5
Sprite,Background,Centre,"sb\ring.png",0,0 M,0,150908,,441,77 C,0,150908,,255,255,255 F,1,150908,152908,0.9,0 S,1,150908,152908,0.25,0.5
Sprite,Background,Centre,"sb\ring.png",0,0 M,0,151058,,436,414 C,0,151058,,255,255,255 F,1,151058,153208,0.9,0 S,1,151058,153208,0.25,0.5
Sprite,Background,Centre,"sb\ring.png",0,0 M,0,151358,,202,260 C,0,151358,,255,255,255 F,1,151358,153358,0.9,0 S,1,151358,153358,0.25,0.5
Sprite,Background,Centre,"sb\ring.png",0,0 M,0,151508,,96,351 C,0,151508,,255,255,255 F,1,151508,153733,0.9,0 S,1,151508,153733,0.25,0.5
Sprite,Background,Centre,"sb\ring.png",0,0 M,0,151808,,320,332 C,0,151808,,255,255,255 F,1,151808,153808,0.9,0 S,1,151808,153808,0.25,0.5
Sprite,Background,Centre,"sb\ring.png",0,0 M,0,151958,,330,256 C,0,151958,,255,255,255 F,1,151958,153958,0.9,0 S,1,151958,153958,0.25,0.5
Sprite,Background,Centre,"sb\ring.png",0,0 M,0,152108,,340,180 C,0,152108,,255,255,255 F,1,152108,154108,0.9,0 S,1,152108,154108,0.25,0.5
Sprite,Background,Centre,"sb\ring.png",0,0 M,0,152258,,289,122 C,0,152258,,255,255,255 F,1,152258,154258,0.9,0 S,1,152258,154258,0.25,0.5
Sprite,Background,Centre,"sb\ring.png",0,0 M,0,152458,,330,256 C,0,152458,,255,255,255 F,1,152458,154458,0.9,0 S,1,152458,154458,0.25,0.5
Sprite,Background,Centre,"sb\ring.png",0,0 M,0,152658,,371,390 C,0,152658,,255,255,255 F,1,152658,154658,0.9,0 S,1,152658,154658,0.25,0.5
Sprite,Background,Centre,"sb\ring.png",0,0 M,0,152858,,526,202 C,0,152858,,255,255,255 F,1,152858,154858,0.9,0 S,1,152858,154858,0.25,0.5
Sprite,Background,Centre,"sb\ring.png",0,0 M,0,153058,,320,263 C,0,153058,,255,255,255 F,1,153058,155058,0.9,0 S,1,153058,155058,0.25,0.5
Sprite,Background,Centre,"sb\ring.png",0,0 M,0,153258,,114,202 C,0,153258,,255,255,255 F,1,153258,155258,0.9,0 S,1,153258,155258,0.25,0.5
Sprite,Background,Centre,"sb\ring.png",0,0 M,0,153458,,325,169 C,0,153458,,255,255,255 F,1,153458,155608,0.9,0 S,1,153458,155608,0.25,0.5
Sprite,Background,Centre,"sb\ring.png",0,0 M,0,153908,,324,419 C,0,153908,,255,255,255 F,1,153908,155908,0.9,0 S,1,153908,155908,0.25,0.5
Sprite,Background,Centre,"sb\ring.png",0,0 M,0,154208,,118,352 C,0,154208,,255,255,255 F,1,154208,156208,0.9,0 S,1,154208,156208,0.25,0.5
Sprite,Background,Centre,"sb\ring.png",0,0 M,0,154508,,279,208 C,0,154508,,255,255,255 F,1,154508,157858,0.9,0 S,1,154508,157858,0.25,0.5
Sprite,Background,Centre,"sb\ring.png",0,0 M,0,156308,,547,345 C,0,156308,,255,255,255 F,1,156308,158308,0.9,0 S,1,156308,158308,0.25,0.5
Sprite,Background,Centre,"sb\ring.png",0,0 M,0,156458,,547,345 C,0,156458,,255,255,255 F,1,156458,159058,0.9,0 S,1,156458,159058,0.25,0.5
Sprite,Background,Centre,"sb\ring.png",0,0 M,0,181058,,373,372 C,0,181058,,255,255,255 F,1,181058,183358,0.9,0 S,1,181058,183358,0.25,0.5
Sprite,Background,Centre,"sb\ring.png",0,0 M,0,181508,,168,155 C,0,181508,,255,255,255 F,1,181508,183808,0.9,0 S,1,181508,183808,0.25,0.5
Sprite,Background,Centre,"sb\ring.png",0,0 M,0,181958,,454,254 C,0,181958,,255,255,255 F,1,181958,184108,0.9,0 S,1,181958,184108,0.25,0.5
Sprite,Background,Centre,"sb\ring.png",0,0 M,0,182183,,365,244 C,0,182183,,255,255,255 F,1,182183,184183,0.9,0 S,1,182183,184183,0.25,0.5
Sprite,Background,Centre,"sb\ring.png",0,0 M,0,182258,,375,241 C,0,182258,,255,255,255 F,1,182258,184408,0.9,0 S,1,182258,184408,0.25,0.5
Sprite,Background,Centre,"sb\ring.png",0,0 M,0,182483,,437,374 C,0,182483,,255,255,255 F,1,182483,184483,0.9,0 S,1,182483,184483,0.25,0.5
Sprite,Background,Centre,"sb\ring.png",0,0 M,0,182558,,445,368 C,0,182558,,255,255,255 F,1,182558,184708,0.9,0 S,1,182558,184708,0.25,0.5
Sprite,Background,Centre,"sb\ring.png",0,0 M,0,182783,,243,373 C,0,182783,,255,255,255 F,1,182783,184783,0.9,0 S,1,182783,184783,0.25,0.5
Sprite,Background,Centre,"sb\ring.png",0,0 M,0,182858,,251,368 C,0,182858,,255,255,255 F,1,182858,184933,0.9,0 S,1,182858,184933,0.25,0.5
Sprite,Background,Centre,"sb\ring.png",0,0 M,0,183008,,381,334 C,0,183008,,255,255,255 F,1,183008,185083,0.9,0 S,1,183008,185083,0.25,0.5
Sprite,Background,Centre,"sb\ring.png",0,0 M,0,183158,,137,348 C,0,183158,,255,255,255 F,1,183158,185233,0.9,0 S,1,183158,185233,0.25,0.5
Sprite,Background,Centre,"sb\ring.png",0,0 M,0,183308,,200,159 C,0,183308,,255,255,255 F,1,183308,185383,0.9,0 S,1,183308,185383,0.25,0.5
Sprite,Background,Centre,"sb\ring.png",0,0 M,0,183458,,201,373 C,0,183458,,255,255,255 F,1,183458,185758,0.9,0 S,1,183458,185758,0.25,0.5
Sprite,Background,Centre,"sb\ring.png",0,0 M,0,183908,,126,177 C,0,183908,,255,255,255 F,1,183908,185908,0.9,0 S,1,183908,185908,0.25,0.5
Sprite,Background,Centre,"sb\ring.png",0,0 M,0,184058,,270,109 C,0,184058,,255,255,255 F,1,184058,186058,0.9,0 S,1,184058,186058,0.25,0.5
Sprite,Background,Centre,"sb\ring.png",0,0 M,0,184208,,221,272 C,0,184208,,255,255,255 F,1,184208,186358,0.9,0 S,1,184208,186358,0.25,0.5
Sprite,Background,Centre,"sb\ring.png",0,0 M,0,184508,,166,334 C,0,184508,,255,255,255 F,1,184508,186508,0.9,0 S,1,184508,186508,0.25,0.5
Sprite,Background,Centre,"sb\ring.png",0,0 M,0,184658,,66,336 C,0,184658,,255,255,255 F,1,184658,186808,0.9,0 S,1,184658,186808,0.25,0.5
Sprite,Background,Centre,"sb\ring.png",0,0 M,0,184958,,234,370 C,0,184958,,255,255,255 F,1,184958,186958,0.9,0 S,1,184958,186958,0.25,0.5
Sprite,Background,Centre,"sb\ring.png",0,0 M,0,185108,,314,366 C,0,185108,,255,255,255 F,1,185108,187108,0.9,0 S,1,185108,187108,0.25,0.5
Sprite,Background,Centre,"sb\ring.png",0,0 M,0,185183,,319,357 C,0,185183,,255,255,255 F,1,185183,187183,0.9,0 S,1,185183,187183,0.25,0.5
Sprite,Background,Centre,"sb\ring.png",0,0 M,0,185258,,324,348 C,0,185258,,255,255,255 F,1,185258,187258,0.9,0 S,1,185258,187258,0.25,0.5
Sprite,Background,Centre,"sb\ring.png",0,0 M,0,185408,,429,337 C,0,185408,,255,255,255 F,1,185408,187408,0.9,0 S,1,185408,187408,0.25,0.5
Sprite,Background,Centre,"sb\ring.png",0,0 M,0,185558,,556,419 C,0,185558,,255,255,255 F,1,185558,187633,0.9,0 S,1,185558,187633,0.25,0.5
Sprite,Background,Centre,"sb\ring.png",0,0 M,0,185708,,546,285 C,0,185708,,255,255,255 F,1,185708,187783,0.9,0 S,1,185708,187783,0.25,0.5
Sprite,Background,Centre,"sb\ring.png",0,0 M,0,185858,,568,134 C,0,185858,,255,255,255 F,1,185858,188158,0.9,0 S,1,185858,188158,0.25,0.5
Sprite,Background,Centre,"sb\ring.png",0,0 M,0,186308,,430,128 C,0,186308,,255,255,255 F,1,186308,188308,0.9,0 S,1,186308,188308,0.25,0.5
Sprite,Background,Centre,"sb\ring.png",0,0 M,0,186458,,494,100 C,0,186458,,255,255,255 F,1,186458,188458,0.9,0 S,1,186458,188458,0.25,0.5
Sprite,Background,Centre,"sb\ring.png",0,0 M,0,186608,,415,310 C,0,186608,,255,255,255 F,1,186608,188608,0.9,0 S,1,186608,188608,0.25,0.5
Sprite,Background,Centre,"sb\ring.png",0,0 M,0,186758,,336,247 C,0,186758,,255,255,255 F,1,186758,188758,0.9,0 S,1,186758,188758,0.25,0.5
Sprite,Background,Centre,"sb\ring.png",0,0 M,0,186908,,264,316 C,0,186908,,255,255,255 F,1,186908,189133,0.9,0 S,1,186908,189133,0.25,0.5
Sprite,Background,Centre,"sb\ring.png",0,0 M,0,187208,,119,266 C,0,187208,,255,255,255 F,1,187208,189358,0.9,0 S,1,187208,189358,0.25,0.5
Sprite,Background,Centre,"sb\ring.png",0,0 M,0,187508,,96,73 C,0,187508,,255,255,255 F,1,187508,189733,0.9,0 S,1,187508,189733,0.25,0.5
Sprite,Background,Centre,"sb\ring.png",0,0 M,0,187808,,119,266 C,0,187808,,255,255,255 F,1,187808,189808,0.9,0 S,1,187808,189808,0.25,0.5
Sprite,Background,Centre,"sb\ring.png",0,0 M,0,187958,,218,256 C,0,187958,,255,255,255 F,1,187958,189958,0.9,0 S,1,187958,189958,0.25,0.5
Sprite,Background,Centre,"sb\ring.png",0,0 M,0,188108,,317,247 C,0,188108,,255,255,255 F,1,188108,190108,0.9,0 S,1,188108,190108,0.25,0.5
Sprite,Background,Centre,"sb\ring.png",0,0 M,0,188183,,317,247 C,0,188183,,255,255,255 F,1,188183,190183,0.9,0 S,1,188183,190183,0.25,0.5
Sprite,Background,Centre,"sb\ring.png",0,0 M,0,188258,,317,247 C,0,188258,,255,255,255 F,1,188258,190258,0.9,0 S,1,188258,190258,0.25,0.5
Sprite,Background,Centre,"sb\ring.png",0,0 M,0,188408,,557,201 C,0,188408,,255,255,255 F,1,188408,190408,0.9,0 S,1,188408,190408,0.25,0.5
Sprite,Background,Centre,"sb\ring.png",0,0 M,0,188558,,432,164 C,0,188558,,255,255,255 F,1,188558,190558,0.9,0 S,1,188558,190558,0.25,0.5
Sprite,Background,Centre,"sb\ring.png",0,0 M,0,188708,,463,290 C,0,188708,,255,255,255 F,1,188708,190708,0.9,0 S,1,188708,190708,0.25,0.5
Sprite,Background,Centre,"sb\ring.png",0,0 M,0,188858,,346,136 C,0,188858,,255,255,255 F,1,188858,190858,0.9,0 S,1,188858,190858,0.25,0.5
Sprite,Background,Centre,"sb\ring.png",0,0 M,0,189008,,354,327 C,0,189008,,255,255,255 F,1,189008,191008,0.9,0 S,1,189008,191008,0.25,0.5
Sprite,Background,Centre,"sb\ring.png",0,0 M,0,189158,,252,85 C,0,189158,,255,255,255 F,1,189158,191158,0.9,0 S,1,189158,191158,0.25,0.5
Sprite,Background,Centre,"sb\ring.png",0,0 M,0,189308,,185,328 C,0,189308,,255,255,255 F,1,189308,191308,0.9,0 S,1,189308,191308,0.25,0.5
Sprite,Background,Centre,"sb\ring.png",0,0 M,0,189458,,252,85 C,0,189458,,255,255,255 F,1,189458,191458,0.9,0 S,1,189458,191458,0.25,0.5
Sprite,Background,Centre,"sb\ring.png",0,0 M,0,189608,,185,328 C,0,189608,,255,255,255 F,1,189608,191608,0.9,0 S,1,189608,191608,0.25,0.5
Sprite,Background,Centre,"sb\ring.png",0,0 M,0,189758,,141,199 C,0,189758,,255,255,255 F,1,189758,191758,0.9,0 S,1,189758,191758,0.25,0.5
Sprite,Background,Centre,"sb\ring.png",0,0 M,0,189908,,218,206 C,0,189908,,255,255,255 F,1,189908,192133,0.9,0 S,1,189908,192133,0.25,0.5
Sprite,Background,Centre,"sb\ring.png",0,0 M,0,190208,,73,232 C,0,190208,,255,255,255 F,1,190208,192283,0.9,0 S,1,190208,192283,0.25,0.5
Sprite,Background,Centre,"sb\ring.png",0,0 M,0,190358,,266,273 C,0,190358,,255,255,255 F,1,190358,192433,0.9,0 S,1,190358,192433,0.25,0.5
Sprite,Background,Centre,"sb\ring.png",0,0 M,0,190508,,359,199 C,0,190508,,255,255,255 F,1,190508,192583,0.9,0 S,1,190508,192583,0.25,0.5
Sprite,Background,Centre,"sb\ring.png",0,0 M,0,190658,,563,256 C,0,190658,,255,255,255 F,1,190658,193258,0.9,0 S,1,190658,193258,0.25,0.5
Sprite,Background,Centre,"sb\ring.png",0,0 M,0,191408,,332,136 C,0,191408,,255,255,255 F,1,191408,193408,0.9,0 S,1,191408,193408,0.25,0.5
Sprite,Background,Centre,"sb\ring.png",0,0 M,0,191558,,320,215 C,0,191558,,255,255,255 F,1,191558,193558,0.9,0 S,1,191558,193558,0.25,0.5
Sprite,Background,Centre,"sb\ring.png",0,0 M,0,191708,,308,294 C,0,191708,,255,255,255 F,1,191708,193708,0.9,0 S,1,191708,193708,0.25,0.5
Sprite,Background,Centre,"sb\ring.png",0,0 M,0,191783,,305,289 C,0,191783,,255,255,255 F,1,191783,193783,0.9,0 S,1,191783,193783,0.25,0.5
Sprite,Background,Centre,"sb\ring.png",0,0 M,0,191858,,302,284 C,0,191858,,255,255,255 F,1,191858,193858,0.9,0 S,1,191858,193858,0.25,0.5
Sprite,Background,Centre,"sb\ring.png",0,0 M,0,192008,,255,98 C,0,192008,,255,255,255 F,1,192008,194008,0.9,0 S,1,192008,194008,0.25,0.5
Sprite,Background,Centre,"sb\ring.png",0,0 M,0,192158,,218,304 C,0,192158,,255,255,255 F,1,192158,194158,0.9,0 S,1,192158,194158,0.25,0.5
Sprite,Background,Centre,"sb\ring.png",0,0 M,0,192308,,171,78 C,0,192308,,255,255,255 F,1,192308,194308,0.9,0 S,1,192308,194308,0.25,0.5
Sprite,Background,Centre,"sb\ring.png",0,0 M,0,192458,,74,215 C,0,192458,,255,255,255 F,1,192458,194458,0.9,0 S,1,192458,194458,0.25,0.5
Sprite,Background,Centre,"sb\ring.png",0,0 M,0,192608,,173,202 C,0,192608,,255,255,255 F,1,192608,194608,0.9,0 S,1,192608,194608,0.25,0.5
Sprite,Background,Centre,"sb\ring.png",0,0 M,0,192758,,272,189 C,0,192758,,255,255,255 F,1,192758,194758,0.9,0 S,1,192758,194758,0.25,0.5
Sprite,Background,Centre,"sb\ring.png",0,0 M,0,192908,,371,176 C,0,192908,,255,255,255 F,1,192908,194908,0.9,0 S,1,192908,194908,0.25,0.5
Sprite,Background,Centre,"sb\ring.png",0,0 M,0,193058,,317,324 C,0,193058,,255,255,255 F,1,193058,195358,0.9,0 S,1,193058,195358,0.25,0.5
Sprite,Background,Centre,"sb\ring.png",0,0 M,0,193508,,128,330 C,0,193508,,255,255,255 F,1,193508,195508,0.9,0 S,1,193508,195508,0.25,0.5
Sprite,Background,Centre,"sb\ring.png",0,0 M,0,193658,,153,170 C,0,193658,,255,255,255 F,1,193658,195808,0.9,0 S,1,193658,195808,0.25,0.5
Sprite,Background,Centre,"sb\ring.png",0,0 M,0,193958,,103,113 C,0,193958,,255,255,255 F,1,193958,195958,0.9,0 S,1,193958,195958,0.25,0.5
Sprite,Background,Centre,"sb\ring.png",0,0 M,0,194108,,251,138 C,0,194108,,255,255,255 F,1,194108,196108,0.9,0 S,1,194108,196108,0.25,0.5
Sprite,Background,Centre,"sb\ring.png",0,0 M,0,194258,,177,251 C,0,194258,,255,255,255 F,1,194258,196408,0.9,0 S,1,194258,196408,0.25,0.5
Sprite,Background,Centre,"sb\ring.png",0,0 M,0,194558,,379,294 C,0,194558,,255,255,255 F,1,194558,196558,0.9,0 S,1,194558,196558,0.25,0.5
Sprite,Background,Centre,"sb\ring.png",0,0 M,0,194708,,565,329 C,0,194708,,255,255,255 F,1,194708,196933,0.9,0 S,1,194708,196933,0.25,0.5
Sprite,Background,Centre,"sb\ring.png",0,0 M,0,195008,,410,364 C,0,195008,,255,255,255 F,1,195008,197008,0.9,0 S,1,195008,197008,0.25,0.5
Sprite,Background,Centre,"sb\ring.png",0,0 M,0,195158,,485,159 C,0,195158,,255,255,255 F,1,195158,197308,0.9,0 S,1,195158,197308,0.25,0.5
Sprite,Background,Centre,"sb\ring.png",0,0 M,0,195458,,221,384 C,0,195458,,255,255,255 F,1,195458,197458,0.9,0 S,1,195458,197458,0.25,0.5
Sprite,Background,Centre,"sb\ring.png",0,0 M,0,195608,,144,236 C,0,195608,,255,255,255 F,1,195608,197758,0.9,0 S,1,195608,197758,0.25,0.5
Sprite,Background,Centre,"sb\ring.png",0,0 M,0,195908,,89,83 C,0,195908,,255,255,255 F,1,195908,197908,0.9,0 S,1,195908,197908,0.25,0.5
Sprite,Background,Centre,"sb\ring.png",0,0 M,0,196058,,89,83 C,0,196058,,255,255,255 F,1,196058,198258,0.9,0 S,1,196058,198258,0.25,0.5
Sprite,Background,Centre,"sb\ring.png",0,0 M,0,196508,,358,93 C,0,196508,,255,255,255 F,1,196508,198808,0.9,0 S,1,196508,198808,0.25,0.5
Sprite,Background,Centre,"sb\ring.png",0,0 M,0,197108,,540,227 C,0,197108,,255,255,255 F,1,197108,199183,0.9,0 S,1,197108,199183,0.25,0.5
Sprite,Background,Centre,"sb\ring.png",0,0 M,0,197408,,320,248 C,0,197408,,255,255,255 F,1,197408,199558,0.9,0 S,1,197408,199558,0.25,0.5
Sprite,Background,Centre,"sb\ring.png",0,0 M,0,197708,,100,269 C,0,197708,,255,255,255 F,1,197708,199783,0.9,0 S,1,197708,199783,0.25,0.5
Sprite,Background,Centre,"sb\ring.png",0,0 M,0,197858,,98,214 C,0,197858,,255,255,255 F,1,197858,200083,0.9,0 S,1,197858,200083,0.25,0.5
Sprite,Background,Centre,"sb\ring.png",0,0 M,0,198158,,74,383 C,0,198158,,255,255,255 F,1,198158,200158,0.9,0 S,1,198158,200158,0.25,0.5
Sprite,Background,Centre,"sb\ring.png",0,0 M,0,198308,,186,172 C,0,198308,,255,255,255 F,1,198308,200308,0.9,0 S,1,198308,200308,0.25,0.5
Sprite,Background,Centre,"sb\ring.png",0,0 M,0,198458,,423,146 C,0,198458,,255,255,255 F,1,198458,200458,0.9,0 S,1,198458,200458,0.25,0.5
Sprite,Background,Centre,"sb\ring.png",0,0 M,0,198608,,127,425 C,0,198608,,255,255,255 F,1,198608,200608,0.9,0 S,1,198608,200608,0.25,0.5
Sprite,Background,Centre,"sb\ring.png",0,0 M,0,198758,,145,119 C,0,198758,,255,255,255 F,1,198758,200758,0.9,0 S,1,198758,200758,0.25,0.5
Sprite,Background,Centre,"sb\ring.png",0,0 M,0,198908,,450,84 C,0,198908,,255,255,255 F,1,198908,200908,0.9,0 S,1,198908,200908,0.25,0.5
Sprite,Background,Centre,"sb\ring.png",0,0 M,0,199058,,188,395 C,0,199058,,255,255,255 F,1,199058,201058,0.9,0 S,1,199058,201058,0.25,0.5
Sprite,Background,Centre,"sb\ring.png",0,0 M,0,199208,,244,209 C,0,199208,,255,255,255 F,1,199208,201208,0.9,0 S,1,199208,201208,0.25,0.5
Sprite,Background,Centre,"sb\ring.png",0,0 M,0,199358,,440,213 C,0,199358,,255,255,255 F,1,199358,201358,0.9,0 S,1,199358,201358,0.25,0.5
Sprite,Background,Centre,"sb\ring.png",0,0 M,0,199508,,497,354 C,0,199508,,255,255,255 F,1,199508,201583,0.9,0 S,1,199508,201583,0.25,0.5
Sprite,Background,Centre,"sb\ring.png",0,0 M,0,199808,,143,354 C,0,199808,,255,255,255 F,1,199808,201883,0.9,0 S,1,199808,201883,0.25,0.5
Sprite,Background,Centre,"sb\ring.png",0,0 M,0,200108,,320,88 C,0,200108,,255,255,255 F,1,200108,202183,0.9,0 S,1,200108,202183,0.25,0.5
Sprite,Background,Centre,"sb\ring.png",0,0 M,0,200558,,320,216 C,0,200558,,255,255,255 F,1,200558,202783,0.9,0 S,1,200558,202783,0.25,0.5
Sprite,Background,Centre,"sb\ring.png",0,0 M,0,200858,,104,203 C,0,200858,,255,255,255 F,1,200858,202858,0.9,0 S,1,200858,202858,0.25,0.5
Sprite,Background,Centre,"sb\ring.png",0,0 M,0,201008,,94,113 C,0,201008,,255,255,255 F,1,201008,203008,0.9,0 S,1,201008,203008,0.25,0.5
Sprite,Background,Centre,"sb\ring.png",0,0 M,0,201158,,230,233 C,0,201158,,255,255,255 F,1,201158,203158,0.9,0 S,1,201158,203158,0.25,0.5
Sprite,Background,Centre,"sb\ring.png",0,0 M,0,201308,,220,143 C,0,201308,,255,255,255 F,1,201308,203308,0.9,0 S,1,201308,203308,0.25,0.5
Sprite,Background,Centre,"sb\ring.png",0,0 M,0,201458,,323,357 C,0,201458,,255,255,255 F,1,201458,203608,0.9,0 S,1,201458,203608,0.25,0.5
Sprite,Background,Centre,"sb\ring.png",0,0 M,0,201683,,352,181 C,0,201683,,255,255,255 F,1,201683,203683,0.9,0 S,1,201683,203683,0.25,0.5
Sprite,Background,Centre,"sb\ring.png",0,0 M,0,201758,,346,173 C,0,201758,,255,255,255 F,1,201758,203908,0.9,0 S,1,201758,203908,0.25,0.5
Sprite,Background,Centre,"sb\ring.png",0,0 M,0,202058,,428,209 C,0,202058,,255,255,255 F,1,202058,204283,0.9,0 S,1,202058,204283,0.25,0.5
Sprite,Background,Centre,"sb\ring.png",0,0 M,0,202358,,567,269 C,0,202358,,255,255,255 F,1,202358,204658,0.9,0 S,1,202358,204658,0.25,0.5
Sprite,Background,Centre,"sb\ring.png",0,0 M,0,202958,,245,103 C,0,202958,,255,255,255 F,1,202958,204958,0.9,0 S,1,202958,204958,0.25,0.5
Sprite,Background,Centre,"sb\ring.png",0,0 M,0,203108,,192,303 C,0,203108,,255,255,255 F,1,203108,205408,0.9,0 S,1,203108,205408,0.25,0.5
Sprite,Background,Centre,"sb\ring.png",0,0 M,0,203558,,105,338 C,0,203558,,255,255,255 F,1,203558,205558,0.9,0 S,1,203558,205558,0.25,0.5
Sprite,Background,Centre,"sb\ring.png",0,0 M,0,203708,,245,103 C,0,203708,,255,255,255 F,1,203708,206008,0.9,0 S,1,203708,206008,0.25,0.5
Sprite,Background,Centre,"sb\ring.png",0,0 M,0,204158,,444,110 C,0,204158,,255,255,255 F,1,204158,206158,0.9,0 S,1,204158,206158,0.25,0.5
Sprite,Background,Centre,"sb\ring.png",0,0 M,0,204308,,119,231 C,0,204308,,255,255,255 F,1,204308,206458,0.9,0 S,1,204308,206458,0.25,0.5
Sprite,Background,Centre,"sb\ring.png",0,0 M,0,204608,,520,113 C,0,204608,,255,255,255 F,1,204608,206608,0.9,0 S,1,204608,206608,0.25,0.5
Sprite,Background,Centre,"sb\ring.png",0,0 M,0,204758,,511,184 C,0,204758,,255,255,255 F,1,204758,206908,0.9,0 S,1,204758,206908,0.25,0.5
Sprite,Background,Centre,"sb\ring.png",0,0 M,0,204983,,499,294 C,0,204983,,255,255,255 F,1,204983,206983,0.9,0 S,1,204983,206983,0.25,0.5
Sprite,Background,Centre,"sb\ring.png",0,0 M,0,205058,,498,304 C,0,205058,,255,255,255 F,1,205058,207283,0.9,0 S,1,205058,207283,0.25,0.5
Sprite,Background,Centre,"sb\ring.png",0,0 M,0,205358,,457,401 C,0,205358,,255,255,255 F,1,205358,207358,0.9,0 S,1,205358,207358,0.25,0.5
Sprite,Background,Centre,"sb\ring.png",0,0 M,0,205508,,358,411 C,0,205508,,255,255,255 F,1,205508,207658,0.9,0 S,1,205508,207658,0.25,0.5
Sprite,Background,Centre,"sb\ring.png",0,0 M,0,205808,,511,184 C,0,205808,,255,255,255 F,1,205808,207808,0.9,0 S,1,205808,207808,0.25,0.5
Sprite,Background,Centre,"sb\ring.png",0,0 M,0,205958,,443,225 C,0,205958,,255,255,255 F,1,205958,207958,0.9,0 S,1,205958,207958,0.25,0.5
Sprite,Background,Centre,"sb\ring.png",0,0 M,0,206108,,385,169 C,0,206108,,255,255,255 F,1,206108,208258,0.9,0 S,1,206108,208258,0.25,0.5
Sprite,Background,Centre,"sb\ring.png",0,0 M,0,206408,,469,69 C,0,206408,,255,255,255 F,1,206408,208408,0.9,0 S,1,206408,208408,0.25,0.5
Sprite,Background,Centre,"sb\ring.png",0,0 M,0,206558,,362,252 C,0,206558,,255,255,255 F,1,206558,208558,0.9,0 S,1,206558,208558,0.25,0.5
Sprite,Background,Centre,"sb\ring.png",0,0 M,0,206708,,362,252 C,0,206708,,255,255,255 F,1,206708,209008,0.9,0 S,1,206708,209008,0.25,0.5
Sprite,Background,Centre,"sb\ring.png",0,0 M,0,207158,,211,349 C,0,207158,,255,255,255 F,1,207158,209158,0.9,0 S,1,207158,209158,0.25,0.5
Sprite,Background,Centre,"sb\ring.png",0,0 M,0,207308,,211,349 C,0,207308,,255,255,255 F,1,207308,209308,0.9,0 S,1,207308,209308,0.25,0.5
Sprite,Background,Centre,"sb\ring.png",0,0 M,0,207458,,148,118 C,0,207458,,255,255,255 F,1,207458,209683,0.9,0 S,1,207458,209683,0.25,0.5
Sprite,Background,Centre,"sb\ring.png",0,0 M,0,207758,,207,440 C,0,207758,,255,255,255 F,1,207758,209908,0.9,0 S,1,207758,209908,0.25,0.5
Sprite,Background,Centre,"sb\ring.png",0,0 M,0,207983,,202,336 C,0,207983,,255,255,255 F,1,207983,209983,0.9,0 S,1,207983,209983,0.25,0.5
Sprite,Background,Centre,"sb\ring.png",0,0 M,0,208058,,187,331 C,0,208058,,255,255,255 F,1,208058,210058,0.9,0 S,1,208058,210058,0.25,0.5
Sprite,Background,Centre,"sb\ring.png",0,0 M,0,208208,,319,320 C,0,208208,,255,255,255 F,1,208208,210208,0.9,0 S,1,208208,210208,0.25,0.5
Sprite,Background,Centre,"sb\ring.png",0,0 M,0,208358,,292,98 C,0,208358,,255,255,255 F,1,208358,210358,0.9,0 S,1,208358,210358,0.25,0.5
Sprite,Background,Centre,"sb\ring.png",0,0 M,0,208508,,424,109 C,0,208508,,255,255,255 F,1,208508,210658,0.9,0 S,1,208508,210658,0.25,0.5
Sprite,Background,Centre,"sb\ring.png",0,0 M,0,208808,,320,198 C,0,208808,,255,255,255 F,1,208808,210808,0.9,0 S,1,208808,210808,0.25,0.5
Sprite,Background,Centre,"sb\ring.png",0,0 M,0,208958,,438,208 C,0,208958,,255,255,255 F,1,208958,211108,0.9,0 S,1,208958,211108,0.25,0.5
Sprite,Background,Centre,"sb\ring.png",0,0 M,0,209258,,202,208 C,0,209258,,255,255,255 F,1,209258,211408,0.9,0 S,1,209258,211408,0.25,0.5
Sprite,Background,Centre,"sb\ring.png",0,0 M,0,209483,,194,298 C,0,209483,,255,255,255 F,1,209483,211483,0.9,0 S,1,209483,211483,0.25,0.5
Sprite,Background,Centre,"sb\ring.png",0,0 M,0,209558,,184,294 C,0,209558,,255,255,255 F,1,209558,211708,0.9,0 S,1,209558,211708,0.25,0.5
Sprite,Background,Centre,"sb\ring.png",0,0 M,0,209858,,320,417 C,0,209858,,255,255,255 F,1,209858,212308,0.9,0 S,1,209858,212308,0.25,0.5
Sprite,Background,Centre,"sb\ring.png",0,0 M,0,210458,,451,393 C,0,210458,,255,255,255 F,1,210458,212458,0.9,0 S,1,210458,212458,0.25,0.5
Sprite,Background,Centre,"sb\ring.png",0,0 M,0,210608,,456,294 C,0,210608,,255,255,255 F,1,210608,212758,0.9,0 S,1,210608,212758,0.25,0.5
Sprite,Background,Centre,"sb\ring.png",0,0 M,0,210908,,460,218 C,0,210908,,255,255,255 F,1,210908,212908,0.9,0 S,1,210908,212908,0.25,0.5
Sprite,Background,Centre,"sb\ring.png",0,0 M,0,211058,,364,268 C,0,211058,,255,255,255 F,1,211058,213058,0.9,0 S,1,211058,213058,0.25,0.5
Sprite,Background,Centre,"sb\ring.png",0,0 M,0,211208,,279,237 C,0,211208,,255,255,255 F,1,211208,213208,0.9,0 S,1,211208,213208,0.25,0.5
Sprite,Background,Centre,"sb\ring.png",0,0 M,0,211358,,348,178 C,0,211358,,255,255,255 F,1,211358,213358,0.9,0 S,1,211358,213358,0.25,0.5
Sprite,Background,Centre,"sb\ring.png",0,0 M,0,211508,,263,147 C,0,211508,,255,255,255 F,1,211508,213808,0.9,0 S,1,211508,213808,0.25,0.5
Sprite,Background,Centre,"sb\ring.png",0,0 M,0,211958,,515,68 C,0,211958,,255,255,255 F,1,211958,213958,0.9,0 S,1,211958,213958,0.25,0.5
Sprite,Background,Centre,"sb\ring.png",0,0 M,0,212108,,506,137 C,0,212108,,255,255,255 F,1,212108,214108,0.9,0 S,1,212108,214108,0.25,0.5
Sprite,Background,Centre,"sb\ring.png",0,0 M,0,212258,,498,205 C,0,212258,,255,255,255 F,1,212258,214258,0.9,0 S,1,212258,214258,0.25,0.5
Sprite,Background,Centre,"sb\ring.png",0,0 M,0,212458,,538,384 C,0,212458,,255,255,255 F,1,212458,214458,0.9,0 S,1,212458,214458,0.25,0.5
Sprite,Background,Centre,"sb\ring.png",0,0 M,0,212658,,320,321 C,0,212658,,255,255,255 F,1,212658,214658,0.9,0 S,1,212658,214658,0.25,0.5
Sprite,Background,Centre,"sb\ring.png",0,0 M,0,212858,,102,384 C,0,212858,,255,255,255 F,1,212858,214858,0.9,0 S,1,212858,214858,0.25,0.5
Sprite,Background,Centre,"sb\ring.png",0,0 M,0,213058,,142,205 C,0,213058,,255,255,255 F,1,213058,215058,0.9,0 S,1,213058,215058,0.25,0.5
Sprite,Background,Centre,"sb\ring.png",0,0 M,0,213258,,320,248 C,0,213258,,255,255,255 F,1,213258,215258,0.9,0 S,1,213258,215258,0.25,0.5
Sprite,Background,Centre,"sb\ring.png",0,0 M,0,213308,,303,232 C,0,213308,,255,255,255 F,1,213308,215608,0.9,0 S,1,213308,215608,0.25,0.5
Sprite,Background,Centre,"sb\ring.png",0,0 M,0,213758,,329,403 C,0,213758,,255,255,255 F,1,213758,215758,0.9,0 S,1,213758,215758,0.25,0.5
Sprite,Background,Centre,"sb\ring.png",0,0 M,0,213908,,168,418 C,0,213908,,255,255,255 F,1,213908,215908,0.9,0 S,1,213908,215908,0.25,0.5
Sprite,Background,Centre,"sb\ring.png",0,0 M,0,214058,,378,322 C,0,214058,,255,255,255 F,1,214058,216058,0.9,0 S,1,214058,216058,0.25,0.5
Sprite,Background,Centre,"sb\ring.png",0,0 M,0,214133,,412,329 C,0,214133,,255,255,255 F,1,214133,216133,0.9,0 S,1,214133,216133,0.25,0.5
Sprite,Background,Centre,"sb\ring.png",0,0 M,0,214208,,446,335 C,0,214208,,255,255,255 F,1,214208,216283,0.9,0 S,1,214208,216283,0.25,0.5
Sprite,Background,Centre,"sb\ring.png",0,0 M,0,214358,,455,205 C,0,214358,,255,255,255 F,1,214358,216358,0.9,0 S,1,214358,216358,0.25,0.5
Sprite,Background,Centre,"sb\ring.png",0,0 M,0,214433,,489,212 C,0,214433,,255,255,255 F,1,214433,216433,0.9,0 S,1,214433,216433,0.25,0.5
Sprite,Background,Centre,"sb\ring.png",0,0 M,0,214508,,523,218 C,0,214508,,255,255,255 F,1,214508,216583,0.9,0 S,1,214508,216583,0.25,0.5
Sprite,Background,Centre,"sb\ring.png",0,0 M,0,214658,,447,103 C,0,214658,,255,255,255 F,1,214658,216658,0.9,0 S,1,214658,216658,0.25,0.5
Sprite,Background,Centre,"sb\ring.png",0,0 M,0,214808,,470,80 C,0,214808,,255,255,255 F,1,214808,216808,0.9,0 S,1,214808,216808,0.25,0.5
Sprite,Background,Centre,"sb\ring.png",0,0 M,0,214958,,491,79 C,0,214958,,255,255,255 F,1,214958,216958,0.9,0 S,1,214958,216958,0.25,0.5
Sprite,Background,Centre,"sb\ring.png",0,0 M,0,215108,,509,169 C,0,215108,,255,255,255 F,1,215108,217108,0.9,0 S,1,215108,217108,0.25,0.5
Sprite,Background,Centre,"sb\ring.png",0,0 M,0,215258,,541,170 C,0,215258,,255,255,255 F,1,215258,217258,0.9,0 S,1,215258,217258,0.25,0.5
Sprite,Background,Centre,"sb\ring.png",0,0 M,0,215408,,556,185 C,0,215408,,255,255,255 F,1,215408,217408,0.9,0 S,1,215408,217408,0.25,0.5
Sprite,Background,Centre,"sb\ring.png",0,0 M,0,215558,,490,278 C,0,215558,,255,255,255 F,1,215558,217558,0.9,0 S,1,215558,217558,0.25,0.5
Sprite,Background,Centre,"sb\ring.png",0,0 M,0,215708,,511,303 C,0,215708,,255,255,255 F,1,215708,217708,0.9,0 S,1,215708,217708,0.25,0.5
Sprite,Background,Centre,"sb\ring.png",0,0 M,0,215858,,509,324 C,0,215858,,255,255,255 F,1,215858,217858,0.9,0 S,1,215858,217858,0.25,0.5
Sprite,Background,Centre,"sb\ring.png",0,0 M,0,216008,,369,341 C,0,216008,,255,255,255 F,1,216008,218008,0.9,0 S,1,216008,218008,0.25,0.5
Sprite,Background,Centre,"sb\ring.png",0,0 M,0,216158,,364,373 C,0,216158,,255,255,255 F,1,216158,218158,0.9,0 S,1,216158,218158,0.25,0.5
Sprite,Background,Centre,"sb\ring.png",0,0 M,0,216308,,347,385 C,0,216308,,255,255,255 F,1,216308,218308,0.9,0 S,1,216308,218308,0.25,0.5
Sprite,Background,Centre,"sb\ring.png",0,0 M,0,216458,,120,329 C,0,216458,,255,255,255 F,1,216458,218458,0.9,0 S,1,216458,218458,0.25,0.5
Sprite,Background,Centre,"sb\ring.png",0,0 M,0,216608,,152,270 C,0,216608,,255,255,255 F,1,216608,218608,0.9,0 S,1,216608,218608,0.25,0.5
Sprite,Background,Centre,"sb\ring.png",0,0 M,0,216758,,232,303 C,0,216758,,255,255,255 F,1,216758,218758,0.9,0 S,1,216758,218758,0.25,0.5
Sprite,Background,Centre,"sb\ring.png",0,0 M,0,216908,,264,244 C,0,216908,,255,255,255 F,1,216908,218908,0.9,0 S,1,216908,218908,0.25,0.5
Sprite,Background,Centre,"sb\ring.png",0,0 M,0,217058,,468,356 C,0,217058,,255,255,255 F,1,217058,219058,0.9,0 S,1,217058,219058,0.25,0.5
Sprite,Background,Centre,"sb\ring.png",0,0 M,0,217208,,506,279 C,0,217208,,255,255,255 F,1,217208,219208,0.9,0 S,1,217208,219208,0.25,0.5
Sprite,Background,Centre,"sb\ring.png",0,0 M,0,217358,,495,204 C,0,217358,,255,255,255 F,1,217358,219358,0.9,0 S,1,217358,219358,0.25,0.5
Sprite,Background,Centre,"sb\ring.png",0,0 M,0,217508,,393,289 C,0,217508,,255,255,255 F,1,217508,219508,0.9,0 S,1,217508,219508,0.25,0.5
Sprite,Background,Centre,"sb\ring.png",0,0 M,0,217658,,371,204 C,0,217658,,255,255,255 F,1,217658,219658,0.9,0 S,1,217658,219658,0.25,0.5
Sprite,Background,Centre,"sb\ring.png",0,0 M,0,217808,,307,160 C,0,217808,,255,255,255 F,1,217808,219808,0.9,0 S,1,217808,219808,0.25,0.5
Sprite,Background,Centre,"sb\ring.png",0,0 M,0,217958,,144,306 C,0,217958,,255,255,255 F,1,217958,219958,0.9,0 S,1,217958,219958,0.25,0.5
Sprite,Background,Centre,"sb\ring.png",0,0 M,0,218108,,213,271 C,0,218108,,255,255,255 F,1,218108,220108,0.9,0 S,1,218108,220108,0.25,0.5
Sprite,Background,Centre,"sb\ring.png",0,0 M,0,218258,,294,305 C,0,218258,,255,255,255 F,1,218258,220258,0.9,0 S,1,218258,220258,0.25,0.5
Sprite,Background,Centre,"sb\ring.png",0,0 M,0,218408,,248,436 C,0,218408,,255,255,255 F,1,218408,220408,0.9,0 S,1,218408,220408,0.25,0.5
Sprite,Background,Centre,"sb\ring.png",0,0 M,0,218558,,248,436 C,0,218558,,255,255,255 F,1,218558,220558,0.9,0 S,1,218558,220558,0.25,0.5
Sprite,Background,Centre,"sb\ring.png",0,0 M,0,218708,,216,372 C,0,218708,,255,255,255 F,1,218708,220708,0.9,0 S,1,218708,220708,0.25,0.5
Sprite,Background,Centre,"sb\ring.png",0,0 M,0,218858,,230,291 C,0,218858,,255,255,255 F,1,218858,220858,0.9,0 S,1,218858,220858,0.25,0.5
Sprite,Background,Centre,"sb\ring.png",0,0 M,0,219008,,315,226 C,0,219008,,255,255,255 F,1,219008,221008,0.9,0 S,1,219008,221008,0.25,0.5
Sprite,Background,Centre,"sb\ring.png",0,0 M,0,219158,,437,267 C,0,219158,,255,255,255 F,1,219158,221158,0.9,0 S,1,219158,221158,0.25,0.5
Sprite,Background,Centre,"sb\ring.png",0,0 M,0,219308,,557,202 C,0,219308,,255,255,255 F,1,219308,221308,0.9,0 S,1,219308,221308,0.25,0.5
Sprite,Background,Centre,"sb\ring.png",0,0 M,0,219458,,575,56 C,0,219458,,255,255,255 F,1,219458,221458,0.9,0 S,1,219458,221458,0.25,0.5
Sprite,Background,Centre,"sb\ring.png",0,0 M,0,219608,,459,87 C,0,219608,,255,255,255 F,1,219608,221608,0.9,0 S,1,219608,221608,0.25,0.5
Sprite,Background,Centre,"sb\ring.png",0,0 M,0,219758,,412,170 C,0,219758,,255,255,255 F,1,219758,221758,0.9,0 S,1,219758,221758,0.25,0.5
Sprite,Background,Centre,"sb\ring.png",0,0 M,0,219908,,569,272 C,0,219908,,255,255,255 F,1,219908,221908,0.9,0 S,1,219908,221908,0.25,0.5
Sprite,Background,Centre,"sb\ring.png",0,0 M,0,220058,,457,229 C,0,220058,,255,255,255 F,1,220058,222058,0.9,0 S,1,220058,222058,0.25,0.5
Sprite,Background,Centre,"sb\ring.png",0,0 M,0,220208,,372,271 C,0,220208,,255,255,255 F,1,220208,222208,0.9,0 S,1,220208,222208,0.25,0.5
Sprite,Background,Centre,"sb\ring.png",0,0 M,0,220358,,572,439 C,0,220358,,255,255,255 F,1,220358,222358,0.9,0 S,1,220358,222358,0.25,0.5
Sprite,Background,Centre,"sb\ring.png",0,0 M,0,220508,,523,329 C,0,220508,,255,255,255 F,1,220508,222508,0.9,0 S,1,220508,222508,0.25,0.5
Sprite,Background,Centre,"sb\ring.png",0,0 M,0,220658,,432,303 C,0,220658,,255,255,255 F,1,220658,222658,0.9,0 S,1,220658,222658,0.25,0.5
Sprite,Background,Centre,"sb\ring.png",0,0 M,0,220808,,432,303 C,0,220808,,255,255,255 F,1,220808,222808,0.9,0 S,1,220808,222808,0.25,0.5
Sprite,Background,Centre,"sb\ring.png",0,0 M,0,220958,,371,378 C,0,220958,,255,255,255 F,1,220958,222958,0.9,0 S,1,220958,222958,0.25,0.5
Sprite,Background,Centre,"sb\ring.png",0,0 M,0,221108,,294,390 C,0,221108,,255,255,255 F,1,221108,223108,0.9,0 S,1,221108,223108,0.25,0.5
Sprite,Background,Centre,"sb\ring.png",0,0 M,0,221258,,246,337 C,0,221258,,255,255,255 F,1,221258,223258,0.9,0 S,1,221258,223258,0.25,0.5
Sprite,Background,Centre,"sb\ring.png",0,0 M,0,221408,,284,216 C,0,221408,,255,255,255 F,1,221408,223408,0.9,0 S,1,221408,223408,0.25,0.5
Sprite,Background,Centre,"sb\ring.png",0,0 M,0,221558,,225,180 C,0,221558,,255,255,255 F,1,221558,223558,0.9,0 S,1,221558,223558,0.25,0.5
Sprite,Background,Centre,"sb\ring.png",0,0 M,0,221708,,263,58 C,0,221708,,255,255,255 F,1,221708,223708,0.9,0 S,1,221708,223708,0.25,0.5
Sprite,Background,Centre,"sb\ring.png",0,0 M,0,221858,,64,154 C,0,221858,,255,255,255 F,1,221858,223858,0.9,0 S,1,221858,223858,0.25,0.5
Sprite,Background,Centre,"sb\ring.png",0,0 M,0,222008,,217,108 C,0,222008,,255,255,255 F,1,222008,224008,0.9,0 S,1,222008,224008,0.25,0.5
Sprite,Background,Centre,"sb\ring.png",0,0 M,0,222158,,357,143 C,0,222158,,255,255,255 F,1,222158,224158,0.9,0 S,1,222158,224158,0.25,0.5
Sprite,Background,Centre,"sb\ring.png",0,0 M,0,222308,,128,106 C,0,222308,,255,255,255 F,1,222308,224308,0.9,0 S,1,222308,224308,0.25,0.5
Sprite,Background,Centre,"sb\ring.png",0,0 M,0,222458,,287,126 C,0,222458,,255,255,255 F,1,222458,224458,0.9,0 S,1,222458,224458,0.25,0.5
Sprite,Background,Centre,"sb\ring.png",0,0 M,0,222608,,395,222 C,0,222608,,255,255,255 F,1,222608,224608,0.9,0 S,1,222608,224608,0.25,0.5
Sprite,Background,Centre,"sb\ring.png",0,0 M,0,222758,,575,114 C,0,222758,,255,255,255 F,1,222758,224758,0.9,0 S,1,222758,224758,0.25,0.5
Sprite,Background,Centre,"sb\ring.png",0,0 M,0,222908,,416,132 C,0,222908,,255,255,255 F,1,222908,224908,0.9,0 S,1,222908,224908,0.25,0.5
Sprite,Background,Centre,"sb\ring.png",0,0 M,0,223058,,306,228 C,0,223058,,255,255,255 F,1,223058,225058,0.9,0 S,1,223058,225058,0.25,0.5
Sprite,Background,Centre,"sb\ring.png",0,0 M,0,223208,,395,222 C,0,223208,,255,255,255 F,1,223208,225208,0.9,0 S,1,223208,225208,0.25,0.5
Sprite,Background,Centre,"sb\ring.png",0,0 M,0,223358,,468,239 C,0,223358,,255,255,255 F,1,223358,225358,0.9,0 S,1,223358,225358,0.25,0.5
Sprite,Background,Centre,"sb\ring.png",0,0 M,0,223508,,521,278 C,0,223508,,255,255,255 F,1,223508,225508,0.9,0 S,1,223508,225508,0.25,0.5
Sprite,Background,Centre,"sb\ring.png",0,0 M,0,223658,,542,374 C,0,223658,,255,255,255 F,1,223658,225658,0.9,0 S,1,223658,225658,0.25,0.5
Sprite,Background,Centre,"sb\ring.png",0,0 M,0,223808,,383,395 C,0,223808,,255,255,255 F,1,223808,225808,0.9,0 S,1,223808,225808,0.25,0.5
Sprite,Background,Centre,"sb\ring.png",0,0 M,0,223958,,332,339 C,0,223958,,255,255,255 F,1,223958,225958,0.9,0 S,1,223958,225958,0.25,0.5
Sprite,Background,Centre,"sb\ring.png",0,0 M,0,224108,,173,360 C,0,224108,,255,255,255 F,1,224108,226108,0.9,0 S,1,224108,226108,0.25,0.5
Sprite,Background,Centre,"sb\ring.png",0,0 M,0,224258,,103,326 C,0,224258,,255,255,255 F,1,224258,226258,0.9,0 S,1,224258,226258,0.25,0.5
Sprite,Background,Centre,"sb\ring.png",0,0 M,0,224408,,232,315 C,0,224408,,255,255,255 F,1,224408,226408,0.9,0 S,1,224408,226408,0.25,0.5
Sprite,Background,Centre,"sb\ring.png",0,0 M,0,224558,,378,430 C,0,224558,,255,255,255 F,1,224558,226558,0.9,0 S,1,224558,226558,0.25,0.5
Sprite,Background,Centre,"sb\ring.png",0,0 M,0,224708,,404,202 C,0,224708,,255,255,255 F,1,224708,226708,0.9,0 S,1,224708,226708,0.25,0.5
Sprite,Background,Centre,"sb\ring.png",0,0 M,0,224858,,276,185 C,0,224858,,255,255,255 F,1,224858,226858,0.9,0 S,1,224858,226858,0.25,0.5
Sprite,Background,Centre,"sb\ring.png",0,0 M,0,225008,,118,306 C,0,225008,,255,255,255 F,1,225008,227008,0.9,0 S,1,225008,227008,0.25,0.5
Sprite,Background,Centre,"sb\ring.png",0,0 M,0,225158,,226,57 C,0,225158,,255,255,255 F,1,225158,227158,0.9,0 S,1,225158,227158,0.25,0.5
Sprite,Background,Centre,"sb\ring.png",0,0 M,0,225308,,335,142 C,0,225308,,255,255,255 F,1,225308,227308,0.9,0 S,1,225308,227308,0.25,0.5
Sprite,Background,Centre,"sb\ring.png",0,0 M,0,225458,,327,353 C,0,225458,,255,255,255 F,1,225458,227458,0.9,0 S,1,225458,227458,0.25,0.5
Sprite,Background,Centre,"sb\ring.png",0,0 M,0,225608,,408,116 C,0,225608,,255,255,255 F,1,225608,227608,0.9,0 S,1,225608,227608,0.25,0.5
Sprite,Background,Centre,"sb\ring.png",0,0 M,0,225758,,333,258 C,0,225758,,255,255,255 F,1,225758,227758,0.9,0 S,1,225758,227758,0.25,0.5
Sprite,Background,Centre,"sb\ring.png",0,0 M,0,225908,,114,282 C,0,225908,,255,255,255 F,1,225908,227908,0.9,0 S,1,225908,227908,0.25,0.5
Sprite,Background,Centre,"sb\ring.png",0,0 M,0,226058,,105,264 C,0,226058,,255,255,255 F,1,226058,228058,0.9,0 S,1,226058,228058,0.25,0.5
Sprite,Background,Centre,"sb\ring.png",0,0 M,0,226208,,412,240 C,0,226208,,255,255,255 F,1,226208,228208,0.9,0 S,1,226208,228208,0.25,0.5
Sprite,Background,Centre,"sb\ring.png",0,0 M,0,226358,,421,222 C,0,226358,,255,255,255 F,1,226358,228358,0.9,0 S,1,226358,228358,0.25,0.5
Sprite,Background,Centre,"sb\ring.png",0,0 M,0,226508,,73,137 C,0,226508,,255,255,255 F,1,226508,228508,0.9,0 S,1,226508,228508,0.25,0.5
Sprite,Background,Centre,"sb\ring.png",0,0 M,0,226658,,64,119 C,0,226658,,255,255,255 F,1,226658,228658,0.9,0 S,1,226658,228658,0.25,0.5
Sprite,Background,Centre,"sb\ring.png",0,0 M,0,226808,,191,62 C,0,226808,,255,255,255 F,1,226808,228808,0.9,0 S,1,226808,228808,0.25,0.5
Sprite,Background,Centre,"sb\ring.png",0,0 M,0,226958,,450,201 C,0,226958,,255,255,255 F,1,226958,228958,0.9,0 S,1,226958,228958,0.25,0.5
Sprite,Background,Centre,"sb\ring.png",0,0 M,0,227108,,80,293 C,0,227108,,255,255,255 F,1,227108,229108,0.9,0 S,1,227108,229108,0.25,0.5
Sprite,Background,Centre,"sb\ring.png",0,0 M,0,227258,,149,172 C,0,227258,,255,255,255 F,1,227258,229258,0.9,0 S,1,227258,229258,0.25,0.5
Sprite,Background,Centre,"sb\ring.png",0,0 M,0,227408,,463,126 C,0,227408,,255,255,255 F,1,227408,229408,0.9,0 S,1,227408,229408,0.25,0.5
Sprite,Background,Centre,"sb\ring.png",0,0 M,0,227558,,199,439 C,0,227558,,255,255,255 F,1,227558,229558,0.9,0 S,1,227558,229558,0.25,0.5
Sprite,Background,Centre,"sb\ring.png",0,0 M,0,227708,,182,299 C,0,227708,,255,255,255 F,1,227708,229708,0.9,0 S,1,227708,229708,0.25,0.5
Sprite,Background,Centre,"sb\ring.png",0,0 M,0,227858,,350,56 C,0,227858,,255,255,255 F,1,227858,229858,0.9,0 S,1,227858,229858,0.25,0.5
Sprite,Background,Centre,"sb\ring.png",0,0 M,0,228008,,441,408 C,0,228008,,255,255,255 F,1,228008,230008,0.9,0 S,1,228008,230008,0.25,0.5
Sprite,Background,Centre,"sb\ring.png",0,0 M,0,228158,,311,356 C,0,228158,,255,255,255 F,1,228158,230158,0.9,0 S,1,228158,230158,0.25,0.5
Sprite,Background,Centre,"sb\ring.png",0,0 M,0,228308,,178,86 C,0,228308,,255,255,255 F,1,228308,230308,0.9,0 S,1,228308,230308,0.25,0.5
Sprite,Background,Centre,"sb\ring.png",0,0 M,0,228458,,196,77 C,0,228458,,255,255,255 F,1,228458,230458,0.9,0 S,1,228458,230458,0.25,0.5
Sprite,Background,Centre,"sb\ring.png",0,0 M,0,228608,,302,327 C,0,228608,,255,255,255 F,1,228608,230608,0.9,0 S,1,228608,230608,0.25,0.5
Sprite,Background,Centre,"sb\ring.png",0,0 M,0,228758,,284,318 C,0,228758,,255,255,255 F,1,228758,230758,0.9,0 S,1,228758,230758,0.25,0.5
Sprite,Background,Centre,"sb\ring.png",0,0 M,0,228908,,379,70 C,0,228908,,255,255,255 F,1,228908,230908,0.9,0 S,1,228908,230908,0.25,0.5
Sprite,Background,Centre,"sb\ring.png",0,0 M,0,229058,,397,61 C,0,229058,,255,255,255 F,1,229058,231058,0.9,0 S,1,229058,231058,0.25,0.5
Sprite,Background,Centre,"sb\ring.png",0,0 M,0,229208,,388,210 C,0,229208,,255,255,255 F,1,229208,231208,0.9,0 S,1,229208,231208,0.25,0.5
Sprite,Background,Centre,"sb\ring.png",0,0 M,0,229358,,466,331 C,0,229358,,255,255,255 F,1,229358,231358,0.9,0 S,1,229358,231358,0.25,0.5
Sprite,Background,Centre,"sb\ring.png",0,0 M,0,229508,,233,120 C,0,229508,,255,255,255 F,1,229508,231508,0.9,0 S,1,229508,231508,0.25,0.5
Sprite,Background,Centre,"sb\ring.png",0,0 M,0,229658,,314,270 C,0,229658,,255,255,255 F,1,229658,231658,0.9,0 S,1,229658,231658,0.25,0.5
Sprite,Background,Centre,"sb\ring.png",0,0 M,0,229808,,464,341 C,0,229808,,255,255,255 F,1,229808,231808,0.9,0 S,1,229808,231808,0.25,0.5
Sprite,Background,Centre,"sb\ring.png",0,0 M,0,229958,,113,278 C,0,229958,,255,255,255 F,1,229958,231958,0.9,0 S,1,229958,231958,0.25,0.5
Sprite,Background,Centre,"sb\ring.png",0,0 M,0,230108,,281,373 C,0,230108,,255,255,255 F,1,230108,232108,0.9,0 S,1,230108,232108,0.25,0.5
Sprite,Background,Centre,"sb\ring.png",0,0 M,0,230258,,467,351 C,0,230258,,255,255,255 F,1,230258,232258,0.9,0 S,1,230258,232258,0.25,0.5
Sprite,Background,Centre,"sb\ring.png",0,0 M,0,230408,,102,435 C,0,230408,,255,255,255 F,1,230408,232408,0.9,0 S,1,230408,232408,0.25,0.5
Sprite,Background,Centre,"sb\ring.png",0,0 M,0,230558,,299,373 C,0,230558,,255,255,255 F,1,230558,232558,0.9,0 S,1,230558,232558,0.25,0.5
Sprite,Background,Centre,"sb\ring.png",0,0 M,0,230708,,339,141 C,0,230708,,255,255,255 F,1,230708,232708,0.9,0 S,1,230708,232708,0.25,0.5
Sprite,Background,Centre,"sb\ring.png",0,0 M,0,230858,,325,130 C,0,230858,,255,255,255 F,1,230858,232933,0.9,0 S,1,230858,232933,0.25,0.5
Sprite,Background,Centre,"sb\ring.png",0,0 M,0,231008,,334,387 C,0,231008,,255,255,255 F,1,231008,233083,0.9,0 S,1,231008,233083,0.25,0.5
Sprite,Background,Centre,"sb\ring.png",0,0 M,0,231158,,438,110 C,0,231158,,255,255,255 F,1,231158,233233,0.9,0 S,1,231158,233233,0.25,0.5
Sprite,Background,Centre,"sb\ring.png",0,0 M,0,231308,,447,407 C,0,231308,,255,255,255 F,1,231308,233383,0.9,0 S,1,231308,233383,0.25,0.5
//Storyboard Layer 1 (Fail)
//Storyboard Layer 2 (Pass)
//Storyboard Layer 3 (Foreground)
//Storyboard Layer 4 (Overlay)
//Storyboard Sound Samples

[TimingPoints]
1058,300,4,1,0,65,1,0
248743,526.315789473684,4,1,0,65,1,0
248874,555.555555555556,4,1,0,65,1,0
249012,659.340659340659,4,1,0,65,1,0
249176,615.384615384615,4,1,0,65,1,0
249252,300,4,1,0,65,1,0

[Colours]
Combo1 : 191,191,191
Combo2 : 204,165,248
Combo3 : 133,84,152
Combo4 : 142,198,204

[HitObjects]
6,87,11558,5,0,2:0:0:0:
65,123,11858,1,0,2:0:0:0:
110,176,12158,1,0,2:0:0:0:
134,111,12458,1,0,2:0:0:0:
178,57,12758,1,0,2:0:0:0:
353,191,13058,6,0,B|307:156|315:105|315:105|290:155|235:159,1,200,2|0,2:0|2:0,2:0:0:0:
330,33,13958,1,0,2:0:0:0:
450,258,14258,5,2,2:0:0:0:
357,182,14708,1,0,2:0:0:0:
469,138,15158,1,0,2:0:0:0:
425,193,15458,5,2,2:0:0:0:
256,192,15533,12,2,17858,2:0:0:0:
474,62,18758,5,0,2:0:0:0:
450,128,19058,1,0,2:0:0:0:
427,193,19358,1,0,2:0:0:0:
379,140,19658,1,0,2:0:0:0:
332,86,19958,1,0,2:0:0:0:
162,201,20258,6,0,B|226:124|226:124|265:217,1,200,2|0,2:0|2:0,2:0:0:0:
445,304,21158,5,0,2:0:0:0:
418,239,21458,1,0,2:0:0:0:
351,216,21758,1,2,2:3:0:0:
309,273,22058,1,0,2:0:0:0:
323,342,22358,1,0,2:0:0:0:
140,189,22658,6,0,B|116:236|151:280|151:280|214:263|214:209,1,200,2|0,2:0|2:0,2:0:0:0:
228,40,23558,1,0,2:0:0:0:
201,137,23858,5,2,2:0:0:0:
316,264,24308,1,0,2:0:0:0:
369,100,24758,1,0,2:0:0:0:
295,167,25058,5,2,2:0:0:0:
256,192,25133,12,0,27158,2:0:0:0:
256,192,27458,5,2,2:0:0:0:
24,292,29558,5,0,2:0:0:0:
47,358,29858,2,0,P|92:320|40:198,2,200,2|2|0,2:0|2:3|2:0,2:0:0:0:
52,202,30758,2,0,L|63:102,2,100,0|0|0,2:0|2:0|2:0,2:0:0:0:
19,274,31208,5,4,2:3:0:0:
19,274,31358,2,0,B|-6:305|-6:305|172:286,1,200,2|4,2:3|2:3,2:0:0:0:
391,246,31958,6,0,P|309:265|275:372,2,200,0|2|2,2:0|2:0|2:3,2:0:0:0:
447,286,32708,1,4,2:3:0:0:
398,95,33158,5,0,2:0:0:0:
279,105,33458,1,0,2:0:0:0:
296,37,33608,1,4,2:3:0:0:
279,105,33758,2,0,B|261:151|261:151|225:109,1,100,2|0,2:3|2:0,2:0:0:0:
165,81,34058,1,0,2:0:0:0:
65,85,34208,2,0,L|165:81,1,100,0|0,2:0|2:0,2:0:0:0:
346,81,34508,5,0,2:0:0:0:
446,85,34658,2,0,L|347:81,2,100,2|4|2,2:0|2:3|2:3,2:0:0:0:
473,150,35108,1,0,2:0:0:0:
443,213,35258,5,0,2:0:0:0:
486,346,35558,1,0,2:0:0:0:
359,285,35858,2,0,L|349:398,2,100,0|4|2,2:0|2:3|2:3,2:0:0:0:
296,253,36308,1,0,2:0:0:0:
326,190,36458,1,0,2:0:0:0:
274,59,36758,6,0,L|154:34,1,100,2|0,2:3|2:0,2:0:0:0:
106,46,37058,1,0,2:0:0:0:
119,114,37208,1,4,2:3:0:0:
132,182,37358,1,2,2:3:0:0:
198,160,37508,6,0,B|238:187|238:187|384:137,1,200,0|0,2:0|2:0,2:0:0:0:
431,89,37958,2,0,B|469:119|469:119|451:180,1,100,0|0,2:0|2:0,2:0:0:0:
482,270,38258,5,0,2:0:0:0:
418,228,38408,2,0,L|407:349,1,100,4|2,2:3|2:3,2:0:0:0:
352,369,38708,1,4,2:3:0:0:
340,299,38858,5,0,2:0:0:0:
507,74,39158,1,0,2:0:0:0:
242,162,39458,6,0,P|199:188|76:98,1,200,0|0,2:0|2:0,2:0:0:0:
80,124,40358,2,0,P|118:140|137:213,1,100,0|0,2:0|2:0,2:0:0:0:
94,244,40658,2,0,L|78:352,1,100,0|0,2:0|2:0,2:0:0:0:
145,366,40958,2,0,P|176:319|316:326,1,200,0|0,2:0|2:0,2:0:0:0:
428,247,41558,6,0,L|409:36,2,200,0|0|0,2:0|2:0|2:0,2:0:0:0:
360,228,42308,1,0,2:0:0:0:
154,269,42758,1,0,2:0:0:0:
53,171,43058,5,0,2:0:0:0:
85,109,43208,1,0,2:0:0:0:
118,47,43358,1,0,2:0:0:0:
166,97,43508,2,0,L|393:102,1,200,0|0,2:0|2:0,2:0:0:0:
413,49,43958,1,0,2:0:0:0:
471,87,44108,1,0,2:0:0:0:
457,155,44258,5,0,2:0:0:0:
443,223,44408,1,0,2:0:0:0:
485,278,44558,2,0,P|420:259|283:293,1,200,0|0,2:0|2:0,2:0:0:0:
177,365,45158,5,0,2:0:0:0:
149,300,45308,2,0,L|158:187,1,100,0|0,2:0|2:0,2:0:0:0:
152,130,45608,2,0,B|131:117|131:117|23:129,1,100,0|0,2:0|2:0,2:0:0:0:
309,109,46058,6,0,B|323:74|323:74|268:57|212:116|221:168,2,200,0|0|0,2:0|2:0|2:0,2:0:0:0:
256,192,46733,12,0,49058,2:0:0:0:
199,294,51458,6,0,B|157:333|84:314|73:256|73:256|117:237,1,200,4|2,0:0|0:2,0:0:0:0:
247,27,51908,2,0,L|228:187,1,150,0|0,0:2|2:2,0:0:0:0:
229,175,52208,1,0,0:2:0:0:
417,207,52358,2,0,P|428:165|384:95,1,100
398,110,52583,1,0,0:0:0:0:
388,106,52658,6,0,L|510:89,1,100
441,320,52958,2,0,P|394:287|275:308,1,150,2|0,0:2|2:0,0:0:0:0:
292,303,53258,5,2,0:2:0:0:
219,356,53408,1,0,0:2:0:0:
146,302,53558,1,2,1:2:0:0:
73,355,53708,1,2,1:2:0:0:
146,302,53858,6,0,L|157:202,1,100,0|0,0:2|0:2,0:1:0:0:
60,210,54158,2,0,B|32:165|32:165|46:35,1,150,2|0,0:2|0:0,0:0:0:0:
56,60,54458,1,0,0:0:0:0:
243,126,54608,6,0,B|198:130|198:130|185:134|185:134|143:137,2,100,2|2|2,0:2|0:2|0:2,0:1:0:0:
452,182,55058,5,0,0:0:0:0:
306,90,55208,1,2,0:3:0:0:
418,211,55358,5,2,0:2:0:0:
345,65,55508,1,2,0:3:0:0:
357,239,55658,5,0,0:0:0:0:
413,64,55808,1,2,0:2:0:0:
239,293,55958,6,2,B|268:260|250:205|210:204|217:163|292:143|304:195|251:235,1,200,0|6,0:0|0:2,0:1:0:0:
32,341,56558,5,0,0:0:0:0:
95,255,56708,2,0,L|91:305,2,50,2|8|0,0:2|0:2|0:0,0:0:0:0:
16,220,57008,1,4,0:2:0:0:
153,153,57158,5,8,2:2:0:0:
95,255,57308,2,0,L|68:94,1,150,4|0,0:2|2:0,0:1:0:0:
279,204,57608,2,0,P|287:252|245:306,1,100,2|0,0:2|2:0,0:0:0:0:
72,344,57908,2,0,P|142:330|229:389,1,150,2|0,0:2|2:0,0:0:0:0:
221,379,58208,5,2,0:2:0:0:
402,364,58358,1,8,0:3:0:0:
194,271,58508,1,2,0:2:0:0:
429,256,58658,5,4,0:3:0:0:
379,206,58808,1,8,0:3:0:0:
325,251,58958,1,0,0:1:0:0:
239,340,59108,1,2,0:2:0:0:
242,336,59183,1,0,0:0:0:0:
245,332,59258,1,2,0:0:0:0:
203,198,59408,1,2,0:0:0:0:
168,258,59558,1,0,0:1:0:0:
115,146,59708,5,2,0:0:0:0:
272,43,59858,1,2,0:1:0:0:
282,230,60008,1,8,0:3:0:0:
227,152,60158,6,0,P|192:204|245:302,1,150,2|0,0:1|0:0,0:0:0:0:
215,282,60458,2,0,P|173:253|88:270,1,100,2|2,2:0|0:2,0:0:0:0:
53,271,60758,1,0,0:2:0:0:
104,82,60908,5,8,0:2:0:0:
37,126,61058,2,0,L|251:113,2,200,4|2|0,0:1|0:2|0:0,0:0:0:0:
236,113,61808,1,0,0:0:0:0:
275,50,61958,5,2,0:2:0:0:
470,69,62108,2,0,B|460:154|460:154|437:175|437:175|425:269,1,200
353,367,62558,5,2,0:2:0:0:
189,384,62708,1,0,0:0:0:0:
192,297,62858,1,2,0:2:0:0:
332,282,63008,1,0,2:0:0:0:
150,224,63158,1,2,0:2:0:0:
357,202,63308,1,2,0:2:0:0:
216,85,63458,6,0,B|269:89|295:148|277:195|277:195|195:209,1,200,4|2,0:2|0:1,0:0:0:0:
223,204,63908,1,0,0:0:0:0:
51,148,64058,2,0,P|94:124|168:148,1,100,0|2,0:0|0:0,0:0:0:0:
298,285,64358,5,2,0:0:0:0:
464,319,64508,1,4,0:3:0:0:
466,314,64583,1,4,0:3:0:0:
468,309,64658,2,0,L|347:294,1,100,2|4,0:0|0:3,0:0:0:0:
244,347,64958,5,0,0:0:0:0:
272,43,65108,2,0,L|261:192,1,150,2|0,0:1|2:2,0:0:0:0:
261,193,65408,1,2,0:0:0:0:
185,146,65558,5,2,0:0:0:0:
336,135,65708,1,0,0:0:0:0:
52,303,65858,5,2,0:2:0:0:
24,74,66058,1,0,0:0:0:0:
256,192,66258,1,2,0:2:0:0:
488,74,66458,1,2,0:2:0:0:
460,303,66658,1,0,0:0:0:0:
145,132,66858,1,2,0:2:0:0:
367,132,67058,5,0,0:0:0:0:
316,261,67208,1,4,0:3:0:0:
196,261,67358,1,0,0:0:0:0:
204,188,67508,1,4,0:3:0:0:
204,188,67583,1,0,0:0:0:0:
204,188,67658,1,0,0:0:0:0:
364,323,67808,1,4,0:3:0:0:
148,323,67958,1,0,0:0:0:0:
308,188,68108,1,4,0:2:0:0:
256,192,68183,12,0,70508,0:0:0:0:
201,135,70658,5,0,0:0:0:0:
192,202,70808,1,0,0:0:0:0:
183,269,70958,1,2,0:0:0:0:
174,336,71108,1,4,2:3:0:0:
297,116,71558,5,4,2:3:0:0:
297,116,72008,2,0,L|285:49,2,50,2|0|0,2:0|2:0|2:0,2:0:0:0:
362,165,72233,2,0,L|351:233,1,50,2|4,2:3|2:3,2:0:0:0:
333,314,72383,5,4,2:3:0:0:
333,314,72458,2,0,B|321:308|321:308|246:319,1,50,4|0,2:3|1:0,2:0:0:0:
133,327,72608,5,4,2:3:0:0:
128,327,72683,1,0,1:0:0:0:
123,328,72758,1,0,1:0:0:0:
118,329,72833,1,2,2:3:0:0:
113,330,72908,1,4,2:3:0:0:
36,265,73058,5,0,0:0:0:0:
98,225,73208,1,0,0:0:0:0:
63,126,73358,5,0,0:0:0:0:
204,180,73508,1,2,0:0:0:0:
236,373,73658,5,4,2:3:0:0:
166,247,73808,1,4,2:3:0:0:
13,358,73958,5,4,2:3:0:0:
354,0,74408,6,0,L|337:214,1,200,4|0,2:3|0:0,0:0:0:0:
291,256,74858,2,2,B|255:237|255:237|111:263,1,150,2|0,0:0|2:0,0:1:0:0:
33,310,75158,6,0,L|105:318,1,50,0|0,0:0|2:0,0:0:0:0:
94,306,75308,5,0,0:0:0:0:
147,256,75458,1,0,0:0:0:0:
210,290,75608,1,0,0:0:0:0:
196,361,75758,1,2,0:0:0:0:
125,371,75908,1,4,2:3:0:0:
117,365,76358,6,0,B|141:348|141:348|234:357,1,100,0|2,1:0|2:3,2:0:0:0:
274,384,76658,1,2,2:3:0:0:
412,291,76808,6,0,B|443:261|437:174|359:153|359:153|365:192,1,200,2|0,2:0|2:0,2:0:0:0:
351,245,77258,2,0,P|326:256|241:225,1,100,2|0,2:0|2:0,2:0:0:0:
228,52,77558,1,0,2:0:0:0:
228,52,77708,5,2,2:0:0:0:
285,103,77858,1,0,0:0:0:0:
409,24,78008,5,0,0:0:0:0:
366,235,78158,1,2,0:0:0:0:
132,180,78308,5,2,0:0:0:0:
358,87,78458,1,4,2:3:0:0:
325,368,78608,5,4,2:3:0:0:
285,103,78758,2,0,L|274:208,1,100,4|2,2:3|2:3,0:0:0:0:
265,276,79058,1,2,2:3:0:0:
265,276,79208,2,0,B|232:259|232:259|67:284,1,200,2|0,2:0|2:0,2:0:0:0:
20,180,79658,5,0,0:0:0:0:
21,170,79808,1,2,2:2:0:0:
22,160,79958,1,0,2:0:0:0:
89,108,80108,1,0,0:2:0:0:
100,149,80258,1,4,0:2:0:0:
181,186,80408,1,0,0:0:0:0:
237,100,80558,1,8,0:2:0:0:
352,70,80708,1,2,2:2:0:0:
352,70,80858,1,0,2:0:0:0:
411,197,81008,5,0,0:0:0:0:
484,226,81158,2,0,B|467:248|467:248|454:341,1,100,8|0,0:2|2:0,0:0:0:0:
299,327,81458,2,0,L|199:316,1,100,0|2,2:0|0:3,0:0:0:0:
6,251,81758,1,8,0:2:0:0:
69,300,81908,5,2,0:3:0:0:
71,304,81983,1,0,2:0:0:0:
73,308,82058,2,0,B|60:348|14:365|14:365|14:321,1,100,0|2,2:0|0:3,0:0:0:0:
131,151,82358,2,0,B|139:138|139:138|92:125|58:150,1,100,8|0,0:2|2:0,0:0:0:0:
58,150,82658,6,0,P|107:150|130:78,1,100,2|0,0:2|2:0,0:0:0:0:
125,42,82958,1,10,0:2:0:0:
183,338,83108,2,0,P|196:254|309:228,1,200,2|0,0:2|0:0,0:0:0:0:
477,256,83558,6,0,B|448:283|448:283|469:156,1,150,8|0,0:2|2:0,0:0:0:0:
489,106,83858,1,0,2:0:0:0:
475,178,84008,1,0,0:0:0:0:
409,116,84158,1,8,0:2:0:0:
395,188,84308,1,2,0:2:0:0:
329,126,84458,1,0,2:0:0:0:
315,198,84608,1,0,0:0:0:0:
232,127,84758,6,0,B|210:170|210:170|238:222,1,100,10|2,0:2|0:2,0:0:0:0:
259,288,84983,1,0,0:0:0:0:
256,280,85058,2,0,P|233:254|157:252,1,100,4|0,0:2|0:0,0:0:0:0:
118,308,85358,1,2,0:0:0:0:
93,231,85508,1,0,0:0:0:0:
274,358,85658,5,0,0:0:0:0:
329,126,85808,2,0,L|301:249,1,100,2|0,0:0|0:0,0:0:0:0:
435,29,86108,2,2,P|475:105|411:208,1,200,2|2,0:0|0:0,0:1:0:0:
274,358,86708,5,0,0:0:0:0:
325,305,86858,2,0,P|294:284|220:287,1,100,2|0,0:1|0:1,0:0:0:0:
210,303,87083,1,0,0:0:0:0:
224,236,87158,1,0,0:0:0:0:
46,341,87308,2,0,P|73:305|70:239,1,100,2|4,0:0|0:2,0:0:0:0:
42,176,87608,5,2,0:0:0:0:
141,347,87758,1,2,0:0:0:0:
184,117,87908,1,2,0:0:0:0:
184,117,88058,2,0,B|200:95|200:95|293:83,1,100,2|0,0:0|0:0,0:0:0:0:
282,85,88283,1,0,0:0:0:0:
291,84,88358,6,0,B|251:132|267:192|327:211|327:211|339:155,1,200,8|0,0:2|2:0,0:0:0:0:
427,53,88808,1,0,0:0:0:0:
427,53,88958,2,0,P|404:33|327:32,1,100,8|0,0:2|0:0,0:0:0:0:
220,284,89258,2,0,P|250:286|313:242,1,100,0|0,2:0|0:0,0:0:0:0:
342,161,89483,5,0,0:0:0:0:
335,171,89558,2,0,L|348:344,1,150,8|0,0:2|2:0,0:0:0:0:
287,366,89858,2,2,B|289:294|229:282|171:312|166:398,1,200,4|2,0:2|0:0,0:1:0:0:
47,58,90458,5,2,2:0:0:0:
77,119,90608,1,0,0:0:0:0:
143,58,90758,1,8,0:2:0:0:
236,38,90908,1,2,2:0:0:0:
234,43,90983,1,0,2:0:0:0:
232,48,91058,1,0,2:0:0:0:
259,131,91208,1,0,0:0:0:0:
340,169,91358,1,8,0:2:0:0:
411,114,91508,5,0,0:0:0:0:
411,114,91658,2,0,B|430:140|430:140|421:209,1,100,0|0,2:0|0:0,0:0:0:0:
441,314,91958,2,0,P|421:287|301:278,1,150,8|0,0:2|2:0,0:0:0:0:
279,329,92258,6,0,L|165:315,1,100,0|2,0:0|0:2,0:0:0:0:
39,384,92558,2,0,B|4:326|4:326|32:210,1,150,8|0,0:2|0:0,0:1:0:0:
79,211,92858,5,0,2:0:0:0:
26,132,93008,1,0,0:0:0:0:
91,60,93158,2,0,P|126:38|200:44,1,100,8|0,0:2|0:0,0:0:0:0:
362,237,93458,6,0,P|297:164|200:158,1,200,2|8,2:0|0:2,0:0:0:0:
154,208,93908,2,0,L|137:358,1,150,0|0,0:0|2:0,0:0:0:0:
127,347,94208,5,0,0:0:0:0:
217,362,94358,1,8,0:2:0:0:
307,377,94508,1,0,0:0:0:0:
305,372,94583,1,0,0:0:0:0:
304,367,94658,1,0,0:0:0:0:
408,276,94808,5,0,0:0:0:0:
478,326,94958,2,0,L|489:197,1,100,2|0,0:0|0:0,0:0:0:0:
118,240,95258,5,0,0:0:0:0:
34,326,95408,2,0,L|23:197,1,100,2|0,0:0|0:0,0:0:0:0:
256,64,95708,6,2,L|256:264,1,200
264,48,96158,1,0,0:0:0:0:
74,122,96308,6,0,P|54:86|64:11,1,100,0|0,0:0|0:1,0:0:0:0:
135,0,96608,1,0,0:0:0:0:
150,77,96758,6,0,L|324:88,1,150
375,93,97058,2,2,B|353:125|353:125|530:95,2,200,0|0|2,0:0|0:0|0:1,0:1:0:0:
280,91,97808,5,2,2:0:0:0:
269,180,97958,1,2,2:0:0:0:
259,269,98108,1,2,2:0:0:0:
88,163,98258,5,0,0:2:0:0:
178,171,98408,1,0,0:2:0:0:
269,180,98558,1,8,0:2:0:0:
359,188,98708,1,0,0:0:0:0:
461,74,98858,5,2,0:2:0:0:
371,82,99008,1,2,0:2:0:0:
280,91,99158,1,8,0:2:0:0:
190,99,99308,1,0,0:0:0:0:
269,180,99458,5,0,0:0:0:0:
90,335,99758,1,0,0:0:0:0:
90,335,99908,2,0,L|198:345,1,100,2|0,2:2|0:0,0:0:0:0:
380,348,100508,5,2,2:0:0:0:
380,348,100808,2,0,B|413:316|413:316|240:339,1,200
190,345,101258,1,0,0:0:0:0:
120,355,101408,2,0,L|136:247,1,100,0|0,0:0|2:0,0:0:0:0:
146,186,101708,1,0,0:0:0:0:
316,278,101858,6,0,L|285:73,2,200
316,278,102758,2,0,B|336:266|336:266|424:271,1,100,0|2,2:0|2:0,0:0:0:0:
478,300,103058,1,0,0:0:0:0:
433,196,103208,5,0,0:0:0:0:
430,191,103283,1,0,2:0:0:0:
428,186,103358,1,2,2:0:0:0:
428,181,103433,1,0,2:0:0:0:
429,176,103508,1,0,0:0:0:0:
400,11,103658,5,0,0:0:0:0:
465,44,103808,2,0,B|501:63|501:63|466:104|395:109|353:68,1,200
357,71,104258,5,0,0:0:0:0:
127,272,104558,2,0,B|91:253|91:253|126:212|197:207|239:248,1,200
311,300,105008,5,0,2:0:0:0:
380,288,105158,1,2,2:0:0:0:
449,277,105308,1,2,2:0:0:0:
489,373,105458,6,0,L|299:354,2,133.333333333333,2|2|2,2:0|2:0|2:0,2:0:0:0:
489,373,106058,1,2,2:0:0:0:
462,242,106258,1,2,2:0:0:0:
436,111,106458,1,2,2:0:0:0:
306,18,106658,6,0,B|280:7|280:7|102:37,2,200
92,308,107558,6,0,P|110:261|96:207,1,100,2|2,2:0|2:0,2:0:0:0:
32,255,107858,1,0,2:0:0:0:
249,194,108008,6,0,P|211:279|241:397,1,200,0|0,1:0|1:0,2:0:0:0:
294,288,108458,1,0,0:0:0:0:
294,288,108608,1,0,0:0:0:0:
461,92,108908,5,2,2:0:0:0:
357,103,109058,2,0,B|461:92|461:92|386:166,1,200,0|0,1:0|1:0,2:0:0:0:
364,255,109508,2,0,B|381:236|381:236|343:221|309:244,1,100,2|0,2:0|1:0,2:0:0:0:
56,252,110108,5,2,2:0:0:0:
161,323,110408,1,0,1:0:0:0:
169,196,110708,1,0,1:0:0:0:
230,236,110858,6,0,L|329:294,1,100,0|0,1:0|1:0,2:0:0:0:
381,333,111158,2,0,B|400:291|400:291|376:231,1,100,2|0,2:0|2:0,2:0:0:0:
335,61,111458,6,0,B|372:15|431:54|408:139|311:127,1,200,0|0,1:0|1:0,2:0:0:0:
256,235,111908,1,2,2:0:0:0:
177,61,112058,6,0,B|140:15|81:54|104:139|201:127,1,200,0|0,1:0|2:0,2:0:0:0:
263,244,112508,2,0,L|251:364,1,100,2|0,2:0|2:0,2:0:0:0:
52,384,112808,5,0,1:0:0:0:
57,381,112883,1,0,2:0:0:0:
61,378,112958,1,2,2:0:0:0:
64,374,113033,1,0,2:0:0:0:
66,370,113108,1,0,1:0:0:0:
42,205,113258,5,0,1:0:0:0:
81,269,113408,2,0,B|100:305|100:305|141:270|146:199|105:157,1,200,0|0,1:0|2:0,2:0:0:0:
108,161,113858,5,0,1:0:0:0:
431,115,114158,2,0,B|412:79|412:79|371:114|366:185|407:227,1,200,0|0,1:0|1:0,1:0:0:0:
481,346,114608,6,0,P|508:316|492:237,1,100,0|0,2:2|2:0,2:0:0:0:
473,186,114908,1,2,2:0:0:0:
269,180,115058,5,0,2:0:0:0:
227,118,115208,2,0,B|252:78|252:78|295:110,1,100,2|2,1:2|2:3,2:0:0:0:
269,180,115508,1,2,1:2:0:0:
94,250,115658,5,0,1:0:0:0:
53,315,115808,2,0,B|-2:347|-2:347|25:194,1,200,0|0,1:0|2:0,2:0:0:0:
256,192,116258,12,8,118658,2:3:0:0:
359,81,120008,6,0,L|418:87,1,50,2|0,2:0|2:0,2:0:0:0:
296,87,120158,2,0,L|355:93,1,50,2|2,2:0|2:3,2:0:0:0:
236,44,120308,5,2,2:0:0:0:
236,44,120383,2,0,B|219:63|219:63|229:117,1,50,2|0,2:3|2:0,2:0:0:0:
214,204,120533,2,0,L|218:139,2,50,2|2|2,2:3|2:0|2:0,2:0:0:0:
109,23,120758,5,0,0:0:0:0:
99,25,120833,1,0,0:0:0:0:
89,27,120908,1,0,0:0:0:0:
79,29,120983,1,0,0:0:0:0:
57,90,121058,6,0,B|117:168|117:168|155:68,1,200,4|8,0:1|0:0,0:0:0:0:
370,107,121508,2,0,L|205:119,1,150,0|0,0:0|2:0,0:0:0:0:
153,73,121808,2,0,P|186:37|257:53,1,100,0|8,0:0|0:0,0:0:0:0:
149,313,122108,5,2,0:2:0:0:
153,311,122183,1,2,0:2:0:0:
157,309,122258,2,0,B|126:293|126:293|23:304,1,100
221,259,122483,5,0,0:0:0:0:
229,255,122558,2,0,P|259:298|251:343,1,100,8|0,0:0|0:0,0:0:0:0:
247,351,122783,1,0,0:0:0:0:
243,360,122858,2,0,L|325:355,1,50,2|0,0:2|2:0,0:0:0:0:
363,355,123008,2,0,L|445:350,1,50,0|0,0:2|2:0,0:0:0:0:
356,143,123158,6,0,B|343:157|343:157|333:217,1,50,8|0,0:0|2:0,0:0:0:0:
412,351,123308,2,0,B|399:337|399:337|389:277,1,50,2|0,0:2|2:0,0:0:0:0:
279,223,123458,2,0,P|335:207|433:264,1,150
461,300,123758,6,0,L|467:191,1,100,8|0,0:0|0:0,0:0:0:0:
475,87,124058,1,0,0:0:0:0:
173,186,124208,6,0,L|167:77,2,100,2|8|2,0:2|0:0|0:2,0:0:0:0:
131,272,124658,5,0,0:0:0:0:
256,212,124808,1,2,0:3:0:0:
431,295,124958,5,8,0:0:0:0:
256,180,125108,1,2,0:3:0:0:
37,311,125258,5,0,0:0:0:0:
256,112,125408,1,2,0:2:0:0:
256,375,125558,6,2,B|262:299|237:324|233:280|242:263|270:257|284:278|277:325|255:310|260:367,1,200,8|2,0:0|0:0,0:1:0:0:
407,196,126158,5,2,2:2:0:0:
407,196,126308,2,0,L|230:207,1,150,0|0,0:2|2:0,0:0:0:0:
244,213,126608,1,0,0:2:0:0:
52,63,126758,5,2,2:2:0:0:
52,63,126908,2,0,L|63:240,1,150,0|0,0:2|2:0,0:0:0:0:
112,256,127208,2,0,B|150:230|150:230|141:161,1,100,0|2,0:2|2:0,0:0:0:0:
34,50,127508,6,0,B|-2:33|-2:33|156:18,1,150
172,27,127808,1,2,0:2:0:0:
253,39,127958,1,8,0:3:0:0:
334,51,128108,1,2,0:2:0:0:
306,118,128258,5,4,0:3:0:0:
344,278,128408,1,8,0:3:0:0:
306,118,128558,1,0,0:1:0:0:
344,278,128708,1,0,0:0:0:0:
344,278,128783,1,0,0:0:0:0:
344,278,128858,1,2,0:0:0:0:
196,101,129008,1,2,0:0:0:0:
142,310,129158,1,0,0:0:0:0:
249,170,129308,5,2,0:0:0:0:
256,244,129458,1,2,0:0:0:0:
263,318,129608,1,8,0:3:0:0:
334,384,129758,6,0,P|271:347|173:370,1,150,2|0,0:0|2:0,0:0:0:0:
197,355,130058,2,0,B|246:365|246:365|278:326,1,100,2|2,2:0|0:2,0:0:0:0:
433,53,130358,5,0,0:2:0:0:
433,53,130508,1,8,0:2:0:0:
433,53,130658,2,0,L|417:232,1,150,4|0,0:0|0:0,0:0:0:0:
277,326,130958,6,0,P|258:290|278:216,1,100,2|2,0:2|0:2,0:0:0:0:
271,224,131183,1,0,0:0:0:0:
279,218,131258,1,0,0:0:0:0:
349,179,131408,5,6,0:2:0:0:
275,133,131558,1,2,0:2:0:0:
349,179,131708,2,0,L|420:191,2,50,6|0|0,0:2|0:0|0:0,0:0:0:0:
157,324,132008,5,2,0:0:0:0:
342,256,132158,1,2,0:0:0:0:
193,140,132308,1,0,0:0:0:0:
41,327,132458,6,0,L|160:310,1,100,2|2,0:0|0:0,0:0:0:0:
471,327,132758,2,0,L|352:310,1,100,2|2,0:2|0:0,0:0:0:0:
161,57,133058,6,0,P|198:87|195:136,1,100
190,145,133283,1,0,0:0:0:0:
184,153,133358,2,0,L|191:268,2,100,6|0|0,0:2|0:0|0:0,0:0:0:0:
387,47,133808,5,2,0:2:0:0:
346,276,133958,1,2,0:2:0:0:
387,47,134108,1,2,0:2:0:0:
481,169,134258,6,0,P|448:151|363:165,1,100
422,230,134558,1,2,0:2:0:0:
346,276,134708,2,0,P|408:313|484:295,1,150
480,297,135008,5,0,0:0:0:0:
253,380,135158,1,2,0:2:0:0:
422,230,135308,1,2,2:0:0:0:
195,313,135458,5,0,0:0:0:0:
274,302,135608,1,2,2:0:0:0:
353,291,135758,1,2,2:0:0:0:
407,342,135908,5,2,0:0:0:0:
407,342,136058,2,2,B|388:307|388:307|409:167,1,133.333333333333,0|2,0:0|0:1,0:1:0:0:
462,105,136508,5,0,0:0:0:0:
50,105,137108,6,0,L|63:169,1,50,0|0,0:0|2:0,0:0:0:0:
450,360,137408,6,0,L|378:343,1,50,0|0,0:0|2:0,0:0:0:0:
62,360,137708,6,0,L|134:343,1,50,0|0,0:0|2:0,0:0:0:0:
167,311,137858,6,0,B|176:278|176:278|151:197,1,100,4|0,0:0|0:0,0:0:0:0:
126,123,138158,1,8,0:2:0:0:
386,123,138308,1,2,0:2:0:0:
386,123,138383,1,0,0:0:0:0:
386,123,138458,1,0,0:0:0:0:
345,311,138608,5,0,0:0:0:0:
301,248,138758,1,8,0:2:0:0:
377,241,138908,2,0,L|447:238,2,50,0|0|2,0:0|0:0|0:2,0:0:0:0:
183,352,139208,5,0,0:0:0:0:
371,232,139358,1,8,0:2:0:0:
141,90,139508,2,0,P|94:129|126:227,1,150,2|0,0:2|0:0,0:0:0:0:
125,220,139808,5,2,0:2:0:0:
183,352,139958,2,0,L|191:241,1,100,8|0,0:2|0:0,0:0:0:0:
316,201,140258,5,0,0:0:0:0:
294,288,140408,1,0,0:0:0:0:
394,322,140558,1,8,0:2:0:0:
392,231,140708,1,0,0:0:0:0:
485,174,140858,1,0,0:0:0:0:
436,53,141008,1,0,0:0:0:0:
322,114,141158,1,8,0:2:0:0:
216,86,141308,1,0,0:0:0:0:
110,58,141458,1,0,0:0:0:0:
134,165,141608,1,0,0:0:0:0:
157,272,141758,1,8,0:2:0:0:
89,331,141908,6,0,B|26:319|25:233|110:213|144:302|88:335,1,200,0|0,0:0|0:0,0:1:0:0:
294,345,142358,2,0,B|299:417|197:402|227:331,1,150,8|0,0:2|2:0,0:0:0:0:
372,291,142658,6,0,L|472:285,1,100,4|0,0:2|0:0,0:0:0:0:
512,128,142958,1,2,2:0:0:0:
512,128,143108,2,0,B|480:188|480:188|374:170,1,150,2|0,0:1|2:0,0:0:0:0:
362,96,143408,5,0,0:0:0:0:
191,109,143558,2,0,L|304:100,1,100,6|0,2:0|0:0,0:0:0:0:
122,275,143858,5,2,2:1:0:0:
293,262,144008,2,0,L|180:271,1,100,2|0,0:1|2:0,0:0:0:0:
303,271,144308,5,2,0:2:0:0:
289,336,144458,1,2,0:0:0:0:
373,271,144608,1,0,0:0:0:0:
385,354,144758,1,2,0:2:0:0:
373,271,144908,1,2,0:2:0:0:
471,227,145058,1,0,0:0:0:0:
402,167,145208,5,2,0:2:0:0:
500,123,145358,1,0,0:2:0:0:
482,43,145508,1,2,0:0:0:0:
340,24,145658,5,0,0:0:0:0:
402,167,145808,1,2,0:2:0:0:
265,245,145958,1,2,0:2:0:0:
154,41,146108,1,2,0:2:0:0:
288,130,146258,5,0,0:0:0:0:
219,170,146408,1,0,0:0:0:0:
144,141,146558,1,0,0:0:0:0:
149,132,146633,1,0,0:0:0:0:
154,123,146708,1,0,0:0:0:0:
32,170,147008,5,0,0:0:0:0:
365,114,147158,1,0,0:0:0:0:
32,170,147308,1,0,0:0:0:0:
421,201,147458,6,0,P|362:211|316:155,1,100,4|0,0:0|0:0,0:0:0:0:
320,179,147683,1,0,0:0:0:0:
309,168,147758,2,0,L|84:157,1,200
10,63,148208,1,0,0:0:0:0:
51,0,148358,2,0,P|81:38|46:121,1,100
102,324,148658,6,0,L|121:147,1,150
109,158,148958,1,0,0:0:0:0:
308,205,149108,5,2,0:2:0:0:
210,170,149258,1,0,0:0:0:0:
323,136,149408,5,2,0:2:0:0:
183,235,149558,1,0,0:0:0:0:
391,254,149708,5,2,0:2:0:0:
391,254,149783,1,2,0:2:0:0:
391,254,149858,1,0,0:0:0:0:
192,327,150008,1,2,0:2:0:0:
119,128,150158,1,0,0:0:0:0:
318,55,150308,1,2,0:2:0:0:
425,313,150458,5,2,0:2:0:0:
133,361,150608,1,2,0:2:0:0:
85,69,150758,1,2,0:2:0:0:
377,21,150908,1,0,0:2:0:0:
372,358,151058,6,0,P|313:366|275:335,1,100,2|0,0:2|0:0,0:0:0:0:
138,204,151358,1,0,0:0:0:0:
32,295,151508,2,2,L|198:280,1,150,2|0,0:1|0:0,0:1:0:0:
256,276,151808,5,2,0:0:0:0:
266,200,151958,1,2,0:2:0:0:
276,124,152108,1,2,0:2:0:0:
225,66,152258,5,2,0:0:0:0:
266,200,152458,1,0,0:0:0:0:
307,334,152658,1,0,0:0:0:0:
462,146,152858,5,2,0:0:0:0:
256,207,153058,1,0,0:0:0:0:
50,146,153258,1,2,0:0:0:0:
261,113,153458,2,2,B|243:145|243:145|256:208,1,100,2|0,0:0|0:0,0:1:0:0:
260,363,153908,5,4,0:0:0:0:
54,296,154208,1,4,0:0:0:0:
215,152,154508,2,0,B|268:210|353:214|410:167|432:82|349:50|349:50|345:56|345:56|302:73|255:53|236:22|236:22|313:94|257:113|306:177|319:164|319:164|290:226|327:312|347:261|347:261|326:337|384:401|368:352,1,900,4|2,0:0|2:2,0:0:0:0:
483,289,156308,5,0,0:0:0:0:
483,289,156458,2,0,B|491:347|420:359|380:323|390:233|460:203|492:219|492:219|450:203|446:140|472:110|505:100,1,400,0|0,0:0|2:0,0:0:0:0:
256,192,175058,12,0,176258,2:0:0:0:
81,286,179858,5,2,2:0:0:0:
81,286,179933,1,0,2:0:0:0:
81,286,180008,1,4,2:3:0:0:
81,286,180083,1,2,2:3:0:0:
81,286,180158,1,4,2:3:0:0:
81,286,180233,1,2,2:3:0:0:
141,329,180308,5,4,0:3:0:0:
149,327,180383,1,2,2:0:0:0:
158,326,180458,1,6,2:3:0:0:
168,324,180533,1,0,1:3:0:0:
215,267,180608,5,6,2:3:0:0:
223,269,180683,1,4,2:3:0:0:
232,270,180758,1,2,1:3:0:0:
242,272,180833,1,4,2:3:0:0:
292,321,180908,5,0,1:0:0:0:
300,319,180983,1,0,1:0:0:0:
309,316,181058,2,0,B|316:237|316:237|339:212|339:212|348:112,1,200,4|2,0:0|0:2,0:0:0:0:
104,99,181508,2,0,B|77:31|121:-8|179:-3|188:81,1,200
390,198,181958,2,0,L|291:192,1,100
301,188,182183,1,0,0:0:0:0:
311,185,182258,6,0,B|297:223|297:223|317:278,1,100
373,318,182483,1,0,0:0:0:0:
381,312,182558,2,0,P|351:347|272:317,1,100,2|0,0:2|0:0,0:0:0:0:
179,317,182783,5,0,0:0:0:0:
187,312,182858,2,0,L|100:321,1,50,2|0,0:2|2:0,0:0:0:0:
317,278,183008,2,0,L|230:287,1,50,0|0,0:0|2:0,0:0:0:0:
73,292,183158,6,0,L|61:374,1,50,2|0,0:2|2:0,0:0:0:0:
136,103,183308,2,0,L|124:185,1,50,2|0,0:2|2:0,0:0:0:0:
137,317,183458,6,0,B|167:354|167:354|188:251|188:251|157:216,1,200,0|2,0:0|0:2,0:0:0:0:
62,121,183908,1,0,0:0:0:0:
206,53,184058,1,0,0:0:0:0:
157,216,184208,2,0,P|120:192|50:214,1,100,2|2,0:2|0:2,0:2:0:0:
102,278,184508,1,2,0:2:0:0:
2,280,184658,6,0,L|102:278,1,100,0|2,0:0|0:3,0:0:0:0:
170,314,184958,1,2,0:2:0:0:
250,310,185108,1,2,0:3:0:0:
255,301,185183,1,0,0:0:0:0:
260,292,185258,5,0,0:0:0:0:
365,281,185408,1,2,0:2:0:0:
492,363,185558,6,2,B|498:350|498:350|490:291,1,50,0|0,0:0|2:0,0:1:0:0:
482,229,185708,2,2,L|475:179,1,50,0|0,0:0|2:0,0:1:0:0:
504,78,185858,6,0,P|507:119|377:127,1,200,4|0,0:2|0:0,0:0:0:0:
366,72,186308,1,2,0:2:0:0:
430,44,186458,1,0,0:0:0:0:
351,254,186608,5,4,0:2:0:0:
272,191,186758,1,0,0:0:0:0:
200,260,186908,2,0,B|150:253|150:253|130:220|130:220|42:207,1,150,6|0,0:2|2:0,0:0:0:0:
55,210,187208,2,0,L|71:317,1,100,2|0,0:2|2:0,0:0:0:0:
32,17,187508,2,0,B|-6:50|-6:50|8:148,1,150,2|0,0:2|2:0,0:0:0:0:
55,210,187808,5,2,0:2:0:0:
154,200,187958,1,8,0:3:0:0:
253,191,188108,1,0,0:0:0:0:
253,191,188183,1,0,0:0:0:0:
253,191,188258,1,4,0:3:0:0:
493,145,188408,5,8,0:3:0:0:
368,108,188558,1,2,0:2:0:0:
399,234,188708,1,2,0:2:0:0:
282,80,188858,5,2,0:0:0:0:
290,271,189008,1,2,0:0:0:0:
188,29,189158,5,0,0:0:0:0:
121,272,189308,1,2,0:0:0:0:
188,29,189458,5,2,0:0:0:0:
121,272,189608,1,8,0:3:0:0:
77,143,189758,5,2,0:1:0:0:
154,150,189908,2,0,B|100:157|100:157|88:174|88:174|7:187,1,150,6|0,2:2|2:0,2:0:0:0:
9,176,190208,6,0,L|83:179,1,50,4|0,0:2|2:0,0:0:0:0:
202,217,190358,2,0,L|276:214,1,50,0|0,0:0|2:0,0:0:0:0:
295,143,190508,2,0,L|369:146,1,50,4|0,0:2|2:0,0:0:0:0:
499,200,190658,6,0,P|430:196|422:308,2,200,4|2|0,0:0|0:2|0:0,0:0:0:0:
268,80,191408,5,0,0:0:0:0:
256,159,191558,1,2,0:2:0:0:
244,238,191708,1,2,0:2:0:0:
241,233,191783,1,0,0:0:0:0:
238,228,191858,5,0,0:0:0:0:
191,42,192008,1,0,0:0:0:0:
154,248,192158,1,2,0:2:0:0:
107,22,192308,1,0,0:0:0:0:
10,159,192458,5,2,0:2:0:0:
109,146,192608,1,0,0:0:0:0:
208,133,192758,1,2,0:2:0:0:
307,120,192908,1,2,0:2:0:0:
253,268,193058,6,0,B|182:260|182:260|157:285|157:285|38:272,1,200,0|2,0:0|0:2,0:0:0:0:
64,274,193508,1,0,0:0:0:0:
89,114,193658,2,0,B|125:144|125:144|112:201,1,100,0|2,0:0|0:2,0:0:0:0:
39,57,193958,5,0,0:0:0:0:
187,82,194108,1,2,0:2:0:0:
113,195,194258,2,0,P|146:166|211:175,1,100,2|0,0:0|0:0,0:0:0:0:
315,238,194558,1,2,0:2:0:0:
501,273,194708,2,2,B|424:257|445:318|352:298,1,150,0|0,0:0|0:0,0:1:0:0:
346,308,195008,5,0,0:0:0:0:
421,103,195158,2,0,L|415:212,1,100,2|0,0:2|0:0,0:0:0:0:
157,328,195458,5,2,0:2:0:0:
80,180,195608,2,0,L|75:81,1,100
25,27,195908,5,2,0:0:0:0:
25,27,196058,2,2,L|194:31,1,133.333333333333
294,37,196508,2,0,B|254:52|254:52|442:55,1,200,4|0,0:0|2:0,0:0:0:0:
476,171,197108,6,0,L|483:121,1,50,0|0,0:0|2:0,0:0:0:0:
256,192,197408,2,0,L|263:142,2,50,0|0|0,0:0|2:0|0:0,0:0:0:0:
36,213,197708,2,0,L|43:163,1,50,0|0,0:0|2:0,0:0:0:0:
34,158,197858,6,0,P|77:206|52:291,1,150,0|0,0:0|2:0,0:0:0:0:
10,327,198158,5,4,0:2:0:0:
122,116,198308,1,0,0:0:0:0:
359,90,198458,1,0,0:0:0:0:
63,369,198608,5,4,0:2:0:0:
81,63,198758,1,0,0:0:0:0:
386,28,198908,1,0,0:0:0:0:
124,339,199058,5,4,0:2:0:0:
180,153,199208,1,0,0:0:0:0:
376,157,199358,1,0,0:0:0:0:
433,298,199508,6,0,L|369:287,1,50,4|0,0:2|2:0,0:0:0:0:
79,298,199808,6,0,L|143:287,1,50,4|0,0:2|2:0,0:0:0:0:
256,32,200108,6,0,L|256:96,1,50,4|0,0:2|2:0,0:0:0:0:
256,160,200558,6,0,L|67:150,1,150,6|0,0:2|0:0,0:0:0:0:
40,147,200858,1,0,0:0:0:0:
30,57,201008,1,0,0:0:0:0:
166,177,201158,1,2,0:2:0:0:
156,87,201308,1,0,0:0:0:0:
259,301,201458,6,0,L|292:207,1,100,0|2,0:0|0:3,0:0:0:0:
288,125,201683,1,0,0:0:0:0:
282,117,201758,2,0,L|208:31,1,100,2|2,0:2|0:3,0:0:0:0:
364,153,202058,2,0,L|517:130,1,150
503,213,202358,6,2,B|452:223|452:223|426:271|451:330|505:339,1,200,0|2,0:0|0:0,0:1:0:0:
181,47,202958,5,0,0:0:0:0:
128,247,203108,2,0,B|179:237|179:237|205:189|180:130|126:121,1,200,2|4,0:2|0:2,0:0:0:0:
41,282,203558,5,0,0:0:0:0:
181,47,203708,2,0,L|380:54,1,200,6|2,0:2|0:2,0:0:0:0:
380,54,204158,1,0,2:0:0:0:
55,175,204308,6,0,L|42:54,1,100,2|0,0:2|2:0,0:0:0:0:
456,57,204608,1,0,0:0:0:0:
447,128,204758,2,0,L|434:249,1,100,8|2,0:3|2:0,0:0:0:0:
435,238,204983,1,2,2:0:0:0:
434,248,205058,6,2,P|479:290|429:380,1,150,4|0,0:3|0:0,0:1:0:0:
393,345,205358,1,0,0:0:0:0:
294,355,205508,2,0,L|393:345,1,100,0|2,0:0|0:0,0:0:0:0:
447,128,205808,5,2,0:0:0:0:
379,169,205958,1,0,0:0:0:0:
321,113,206108,2,0,P|311:57|341:-3,1,100,2|2,0:0|0:0,0:0:0:0:
405,13,206408,1,8,0:3:0:0:
298,196,206558,5,0,0:0:0:0:
298,196,206708,2,0,P|220:203|145:310,1,200,4|4,0:2|0:2,0:0:0:0:
147,293,207158,1,0,0:0:0:0:
147,293,207308,1,4,0:2:0:0:
84,62,207458,6,0,L|93:234,1,150
143,384,207758,2,0,P|163:339|147:293,1,100
138,280,207983,1,0,0:0:0:0:
123,275,208058,5,0,0:0:0:0:
255,264,208208,1,4,0:2:0:0:
228,42,208358,5,0,0:0:0:0:
360,53,208508,2,0,L|422:60,2,50,4|0|0,0:2|0:0|0:0,0:0:0:0:
256,142,208808,5,2,0:0:0:0:
374,152,208958,2,0,B|359:178|359:178|374:258,1,100,2|0,0:0|0:0,0:0:0:0:
138,152,209258,2,0,B|153:178|153:178|138:258,1,100,2|2,0:0|0:0,0:0:0:0:
130,242,209483,1,0,0:0:0:0:
120,238,209558,2,0,L|125:358,1,100,0|2,0:0|0:0,0:0:0:0:
256,361,209858,6,2,B|222:327|256:294|256:294|289:261|256:227|256:227|222:261|256:294|256:294|289:327|256:361,1,300,0|0,0:0|0:0,0:1:0:0:
387,337,210458,5,0,0:0:0:0:
392,238,210608,2,0,L|387:358,1,100,2|2,0:2|0:2,0:0:0:0:
396,162,210908,1,2,0:2:0:0:
300,212,211058,5,0,0:0:0:0:
215,181,211208,1,8,0:2:0:0:
284,122,211358,1,8,0:2:0:0:
199,91,211508,2,0,B|141:118|141:118|226:-4,1,200,2|0,0:2|0:0,0:0:0:0:
451,12,211958,5,2,2:0:0:0:
442,81,212108,1,2,2:0:0:0:
434,149,212258,1,0,0:0:0:0:
474,328,212458,5,2,2:0:0:0:
256,265,212658,5,2,2:0:0:0:
38,328,212858,5,2,2:0:0:0:
78,149,213058,5,2,2:0:0:0:
256,192,213258,5,2,2:0:0:0:
239,176,213308,6,0,B|226:152|233:113|256:82|256:82|279:113|286:152|273:176,1,200
265,347,213758,5,0,0:0:0:0:
104,362,213908,1,4,0:2:0:0:
314,266,214058,5,0,0:0:0:0:
348,273,214133,1,0,0:0:0:0:
382,279,214208,2,0,L|362:199,1,50,4|0,0:2|0:0,0:0:0:0:
391,149,214358,5,0,0:0:0:0:
425,156,214433,1,0,0:0:0:0:
459,162,214508,2,0,L|439:82,1,50,4|0,0:2|0:0,0:0:0:0:
383,47,214658,5,4,0:1:0:0:
406,24,214808,1,0,2:0:0:0:
427,23,214958,1,8,2:0:0:0:
445,113,215108,5,0,2:0:0:0:
477,114,215258,1,0,2:0:0:0:
492,129,215408,1,0,1:0:0:0:
426,222,215558,5,8,2:0:0:0:
447,247,215708,1,0,2:0:0:0:
445,268,215858,1,0,2:0:0:0:
305,285,216008,5,0,1:0:0:0:
300,317,216158,1,8,2:0:0:0:
283,329,216308,1,0,1:0:0:0:
56,273,216458,5,2,2:0:0:0:
88,214,216608,1,2,1:2:0:0:
168,247,216758,5,10,2:0:0:0:
200,188,216908,1,2,2:0:0:0:
404,300,217058,5,0,1:0:0:0:
442,223,217208,1,0,2:0:0:0:
431,148,217358,1,8,2:0:0:0:
329,233,217508,5,0,2:0:0:0:
307,148,217658,1,0,2:0:0:0:
243,104,217808,1,0,1:0:0:0:
80,250,217958,5,10,2:0:0:0:
149,215,218108,1,2,2:0:0:0:
230,249,218258,1,2,2:0:0:0:
184,380,218408,5,0,1:0:0:0:
184,380,218558,1,8,2:0:0:0:
152,316,218708,1,0,1:0:0:0:
166,235,218858,1,2,2:0:0:0:
251,170,219008,1,0,1:0:0:0:
373,211,219158,1,8,2:0:0:0:
493,146,219308,1,0,2:0:0:0:
511,0,219458,5,2,1:2:0:0:
395,31,219608,1,0,2:0:0:0:
348,114,219758,1,8,2:0:0:0:
505,216,219908,5,0,2:0:0:0:
393,173,220058,1,2,2:2:0:0:
308,215,220208,1,0,1:0:0:0:
508,383,220358,5,8,2:0:0:0:
459,273,220508,1,0,2:0:0:0:
368,247,220658,1,2,2:0:0:0:
368,247,220808,5,0,1:0:0:0:
307,322,220958,1,8,2:0:0:0:
230,334,221108,1,0,1:0:0:0:
182,281,221258,5,2,2:0:0:0:
220,160,221408,1,0,1:0:0:0:
161,124,221558,5,8,2:0:0:0:
199,2,221708,1,0,2:0:0:0:
0,98,221858,5,2,1:2:0:0:
153,52,222008,1,0,2:0:0:0:
293,87,222158,1,8,2:0:0:0:
64,50,222308,5,0,2:0:0:0:
223,70,222458,1,0,2:0:0:0:
331,166,222608,1,0,1:0:0:0:
511,58,222758,5,8,2:0:0:0:
352,76,222908,1,0,2:0:0:0:
242,172,223058,1,0,2:0:0:0:
331,166,223208,5,0,1:0:0:0:
404,183,223358,1,8,2:0:0:0:
457,222,223508,1,0,1:0:0:0:
478,318,223658,5,2,2:0:0:0:
319,339,223808,1,2,1:2:0:0:
268,283,223958,5,10,2:0:0:0:
109,304,224108,1,10,2:0:0:0:
39,270,224258,5,4,1:0:0:0:
168,259,224408,1,0,2:0:0:0:
314,374,224558,1,8,2:0:0:0:
340,146,224708,5,0,2:0:0:0:
212,129,224858,1,0,2:0:0:0:
54,250,225008,1,0,1:0:0:0:
162,1,225158,5,8,2:0:0:0:
271,86,225308,1,0,2:0:0:0:
263,297,225458,1,0,2:0:0:0:
344,60,225608,5,0,1:0:0:0:
269,202,225758,1,8,2:0:0:0:
50,226,225908,1,0,1:0:0:0:
41,208,226058,5,2,2:2:0:0:
348,184,226208,1,2,1:2:0:0:
357,166,226358,5,10,2:2:0:0:
9,81,226508,1,2,2:2:0:0:
0,63,226658,5,0,1:0:0:0:
127,6,226808,1,0,2:0:0:0:
386,145,226958,1,8,2:0:0:0:
16,237,227108,5,0,2:0:0:0:
85,116,227258,1,0,2:0:0:0:
399,70,227408,1,0,1:0:0:0:
135,383,227558,5,8,2:0:0:0:
118,243,227708,1,0,2:0:0:0:
286,0,227858,1,0,2:0:0:0:
377,352,228008,5,0,1:0:0:0:
247,300,228158,1,8,2:0:0:0:
114,30,228308,1,0,1:0:0:0:
132,21,228458,5,2,2:2:0:0:
238,271,228608,1,2,1:2:0:0:
220,262,228758,5,10,2:2:0:0:
315,14,228908,1,2,2:2:0:0:
333,5,229058,5,0,1:0:0:0:
324,154,229208,1,0,2:0:0:0:
402,275,229358,1,2,2:1:0:0:
169,64,229508,5,0,2:0:0:0:
250,214,229658,1,0,2:0:0:0:
400,285,229808,1,2,2:1:0:0:
49,222,229958,5,0,2:0:0:0:
217,317,230108,1,4,0:0:0:0:
403,295,230258,1,2,2:1:0:0:
38,379,230408,5,0,2:0:0:0:
235,317,230558,1,0,2:0:0:0:
275,85,230708,1,8,2:0:0:0:
261,74,230858,6,0,L|254:142,1,50,8|0,2:0|1:0,2:0:0:0:
270,331,231008,6,0,L|263:263,1,50,8|0,2:0|1:0,2:0:0:0:
374,54,231158,6,0,L|367:122,1,50,0|0,1:0|1:0,2:0:0:0:
383,351,231308,6,0,L|376:283,1,50,8|0,2:0|1:0,2:0:0:0:
512,203,231458,5,4,2:1:0:0:
